osu file format v14

[General]
AudioFilename: audio.ogg
AudioLeadIn: 0
PreviewTime: 164069
Countdown: 0
SampleSet: Soft
StackLeniency: 0.7
Mode: 0
LetterboxInBreaks: 0
EpilepsyWarning: 1
WidescreenStoryboard: 1

[Editor]
Bookmarks: 863,13422,23364,36096,48305,59468,70631,81794,92957,104119,115282,126445,137608,154352,177375,187840
DistanceSpacing: 0.5
BeatDivisor: 4
GridSize: 8
TimelineZoom: 2.300002

[Metadata]
Title:Still in my heart feat. Punipuni Denki
TitleUnicode:Still in my heart feat. ぷにぷに電機
Artist:PSYQUI
ArtistUnicode:PSYQUI
Creator:Kyuuchie
Version:Ayachie's going "Insane" chasing after you.
Source:
Tags:japanese electronic hardcore future core bass j-core jcore megarex fugene3 FÜGENE 03 fugene puniden shiwakaze wen koldnoodl cjstmdals pile ayamemymommy jiysea moecho amateurre liyuu rielle onegai lecandy midorijeon lowgraphics
BeatmapID:3913777
BeatmapSetID:1698303

[Difficulty]
HPDrainRate:6
CircleSize:3.8
OverallDifficulty:8
ApproachRate:9
SliderMultiplier:1.72
SliderTickRate:1

[Events]
//Background and Video events
0,0,"aolid_bg.jpg",0,0
//Break Periods
//Storyboard Layer 0 (Background)
//Storyboard Layer 1 (Fail)
//Storyboard Layer 2 (Pass)
//Storyboard Layer 3 (Foreground)
Sprite,Foreground,Centre,"sb\credits\ayachie.png",320,240 F,0,73085,73434,0,1 S,0,74829,,0.4 F,0,75527,75876,1,0
//Storyboard Layer 4 (Overlay)
//Storyboard Sound Samples

[TimingPoints]
864,348.837209302326,4,2,1,60,1,0
1212,-100,4,2,1,60,0,0
2259,-66.6666666666667,4,2,1,60,0,0
2608,-133.333333333333,4,2,1,60,0,0
3654,-200,4,2,1,60,0,0
4701,-100,4,2,1,60,0,0
5747,-133.333333333333,4,2,1,60,0,0
6445,-100,4,2,1,60,0,0
8538,-133.333333333333,4,2,1,60,0,0
9236,-200,4,2,1,60,0,0
10282,-100,4,2,1,60,0,0
10805,-133.333333333333,4,2,1,60,0,0
11329,-133.333333333333,4,2,2,60,0,0
12026,-80,4,2,2,65,0,0
13422,-76.9230769230769,4,2,2,70,0,0
14817,-90.9090909090909,4,2,2,70,0,0
15166,-83.3333333333333,4,2,2,70,0,0
17869,-90.9090909090909,4,2,2,70,0,0
18305,-166.666666666667,4,2,3,70,0,0
18654,-166.666666666667,4,2,3,70,0,0
18829,-166.666666666667,4,2,2,70,0,0
19003,-71.4285714285714,4,2,2,70,0,0
23189,-100,4,2,2,70,0,0
23538,-100,4,2,2,65,0,0
23887,-200,4,2,2,65,0,0
24236,-66.6666666666667,4,2,1,65,0,0
24584,-100,4,2,1,65,0,0
25108,-100,4,2,2,65,0,0
25282,-100,4,2,4,80,0,0
25805,-76.9230769230769,4,2,4,80,0,0
34352,-71.4285714285714,4,2,4,80,0,0
35398,-142.857142857143,4,2,1,80,0,0
36096,-76.9230769230769,4,2,4,80,0,0
40631,-166.666666666667,4,2,4,80,0,0
40805,-166.666666666667,4,2,1,80,0,0
41154,-166.666666666667,4,2,2,80,0,0
41329,-76.9230769230769,4,2,4,80,0,0
44119,-62.5,4,2,4,80,0,0
44468,-76.9230769230769,4,2,4,80,0,0
47084,-76.9230769230769,4,2,3,65,0,0
47259,-250,4,2,3,65,0,0
48305,-90.9090909090909,4,2,3,65,0,0
48393,-90.9090909090909,4,2,2,65,0,0
58073,-80,4,2,2,65,0,0
59468,-90.9090909090909,4,2,2,70,0,0
59730,-90.9090909090909,4,2,2,70,0,0
59817,-90.9090909090909,4,2,1,70,0,0
59991,-90.9090909090909,4,2,2,70,0,0
60515,-90.9090909090909,4,2,1,70,0,0
60689,-90.9090909090909,4,2,2,70,0,0
61212,-90.9090909090909,4,2,1,70,0,0
61387,-90.9090909090909,4,2,2,70,0,0
61910,-90.9090909090909,4,2,1,70,0,0
62084,-90.9090909090909,4,2,2,70,0,0
62608,-90.9090909090909,4,2,1,70,0,0
62782,-90.9090909090909,4,2,2,70,0,0
63305,-90.9090909090909,4,2,1,70,0,0
63480,-90.9090909090909,4,2,2,70,0,0
64003,-90.9090909090909,4,2,1,70,0,0
64177,-90.9090909090909,4,2,2,70,0,0
64701,-90.9090909090909,4,2,1,70,0,0
64875,-90.9090909090909,4,2,2,70,0,0
65398,-90.9090909090909,4,2,1,70,0,0
65573,-90.9090909090909,4,2,2,70,0,0
66096,-90.9090909090909,4,2,1,70,0,0
66270,-90.9090909090909,4,2,2,70,0,0
66794,-90.9090909090909,4,2,1,70,0,0
66968,-90.9090909090909,4,2,2,70,0,0
67491,-90.9090909090909,4,2,1,70,0,0
67666,-90.9090909090909,4,2,2,70,0,0
68189,-90.9090909090909,4,2,1,70,0,0
68364,-90.9090909090909,4,2,2,70,0,0
68887,-90.9090909090909,4,2,1,70,0,0
69061,-90.9090909090909,4,2,2,70,0,0
69584,-90.9090909090909,4,2,1,70,0,0
69759,-90.9090909090909,4,2,2,70,0,0
70282,-90.9090909090909,4,2,1,70,0,0
70631,-333.333333333333,4,2,1,55,0,0
77608,-250,4,2,1,55,0,0
79003,-200,4,2,1,55,0,0
80398,-166.666666666667,4,2,1,55,0,0
81794,-111.111111111111,4,2,5,65,0,0
82055,-111.111111111111,4,2,2,65,0,0
82143,-111.111111111111,4,2,5,65,0,0
82317,-111.111111111111,4,2,2,65,0,0
82491,-111.111111111111,4,2,5,65,0,0
82579,-111.111111111111,4,2,2,65,0,0
82840,-111.111111111111,4,2,5,65,0,0
83015,-111.111111111111,4,2,2,65,0,0
83189,-111.111111111111,4,2,5,65,0,0
83276,-111.111111111111,4,2,2,65,0,0
83538,-111.111111111111,4,2,5,65,0,0
83712,-111.111111111111,4,2,2,65,0,0
83887,-111.111111111111,4,2,5,65,0,0
83974,-111.111111111111,4,2,2,65,0,0
84236,-111.111111111111,4,2,5,65,0,0
84323,-111.111111111111,4,2,2,65,0,0
84584,-111.111111111111,4,2,5,65,0,0
84845,-111.111111111111,4,2,2,65,0,0
84933,-111.111111111111,4,2,5,65,0,0
85107,-111.111111111111,4,2,2,65,0,0
85282,-111.111111111111,4,2,5,65,0,0
85369,-111.111111111111,4,2,2,65,0,0
85631,-111.111111111111,4,2,5,65,0,0
85805,-111.111111111111,4,2,2,65,0,0
85980,-111.111111111111,4,2,5,65,0,0
86066,-111.111111111111,4,2,2,65,0,0
86329,-111.111111111111,4,2,5,65,0,0
86502,-111.111111111111,4,2,2,65,0,0
86677,-111.111111111111,4,2,5,65,0,0
86764,-111.111111111111,4,2,2,65,0,0
87026,-111.111111111111,4,2,5,65,0,0
87113,-111.111111111111,4,2,2,65,0,0
87375,-111.111111111111,4,2,5,65,0,0
87636,-111.111111111111,4,2,2,65,0,0
87724,-111.111111111111,4,2,5,65,0,0
87898,-111.111111111111,4,2,2,65,0,0
88073,-111.111111111111,4,2,5,65,0,0
88160,-111.111111111111,4,2,2,65,0,0
88422,-111.111111111111,4,2,5,65,0,0
88509,-111.111111111111,4,2,2,65,0,0
88770,-111.111111111111,4,2,5,65,0,0
88858,-111.111111111111,4,2,2,65,0,0
89119,-111.111111111111,4,2,5,65,0,0
89207,-111.111111111111,4,2,2,65,0,0
89468,-111.111111111111,4,2,5,65,0,0
89556,-111.111111111111,4,2,2,65,0,0
89817,-111.111111111111,4,2,5,65,0,0
89905,-111.111111111111,4,2,2,65,0,0
90166,-90.909090909091,4,2,5,65,0,0
90254,-90.909090909091,4,2,2,65,0,0
90515,-90.909090909091,4,2,5,65,0,0
90603,-90.909090909091,4,2,2,65,0,0
90864,-90.909090909091,4,2,5,65,0,0
90952,-90.909090909091,4,2,2,65,0,0
91212,-90.909090909091,4,2,5,65,0,0
91300,-90.909090909091,4,2,2,65,0,0
91910,-142.857142857143,4,2,2,65,0,0
92608,-142.857142857143,4,2,2,75,0,0
92957,-83.3333333333334,4,2,4,75,0,0
93044,-83.3333333333334,4,2,4,75,0,0
93305,-83.3333333333334,4,2,4,75,0,0
93393,-83.3333333333334,4,2,4,75,0,0
93654,-83.3333333333334,4,2,4,75,0,0
93741,-83.3333333333334,4,2,4,75,0,0
93916,-83.3333333333334,4,2,4,75,0,0
94003,-83.3333333333334,4,2,4,75,0,0
94177,-83.3333333333334,4,2,4,75,0,0
94265,-83.3333333333334,4,2,4,75,0,0
94352,-83.3333333333334,4,2,4,75,0,0
94439,-83.3333333333334,4,2,4,75,0,0
94526,-83.3333333333334,4,2,4,75,0,0
94614,-83.3333333333334,4,2,4,75,0,0
94701,-83.3333333333334,4,2,4,75,0,0
94788,-83.3333333333334,4,2,4,75,0,0
94875,-83.3333333333334,4,2,1,75,0,0
95050,-83.3333333333334,4,2,4,75,0,0
95137,-83.3333333333334,4,2,4,75,0,0
95311,-83.3333333333334,4,2,4,75,0,0
95398,-83.3333333333334,4,2,4,75,0,0
95573,-83.3333333333334,4,2,1,75,0,0
95660,-83.3333333333334,4,2,1,75,0,0
95747,-83.3333333333334,4,2,4,75,0,0
95834,-83.3333333333334,4,2,4,75,0,0
96096,-83.3333333333334,4,2,4,75,0,0
96183,-83.3333333333334,4,2,4,75,0,0
96445,-83.3333333333334,4,2,4,75,0,0
96531,-83.3333333333334,4,2,4,75,0,0
96707,-83.3333333333334,4,2,4,75,0,0
96793,-83.3333333333334,4,2,4,75,0,0
96968,-83.3333333333334,4,2,4,75,0,0
97055,-83.3333333333334,4,2,4,75,0,0
97143,-83.3333333333334,4,2,4,75,0,0
97229,-83.3333333333334,4,2,4,75,0,0
97317,-83.3333333333334,4,2,4,75,0,0
97404,-83.3333333333334,4,2,4,75,0,0
97491,-83.3333333333334,4,2,4,75,0,0
97578,-83.3333333333334,4,2,4,75,0,0
97840,-83.3333333333334,4,2,4,75,0,0
97927,-83.3333333333334,4,2,4,75,0,0
98102,-83.3333333333334,4,2,1,75,0,0
98188,-83.3333333333334,4,2,4,75,0,0
98364,-83.3333333333334,4,2,1,75,0,0
98450,-83.3333333333334,4,2,1,75,0,0
98538,-83.3333333333334,4,2,4,75,0,0
98625,-83.3333333333334,4,2,4,75,0,0
98887,-83.3333333333334,4,2,4,75,0,0
98974,-83.3333333333334,4,2,4,75,0,0
99236,-83.3333333333334,4,2,4,75,0,0
99322,-83.3333333333334,4,2,4,75,0,0
99497,-83.3333333333334,4,2,4,75,0,0
99584,-83.3333333333334,4,2,4,75,0,0
99759,-83.3333333333334,4,2,4,75,0,0
99846,-83.3333333333334,4,2,4,75,0,0
99933,-83.3333333333334,4,2,4,75,0,0
100020,-83.3333333333334,4,2,4,75,0,0
100195,-83.3333333333334,4,2,4,75,0,0
100282,-83.3333333333334,4,2,4,75,0,0
100369,-83.3333333333334,4,2,4,75,0,0
100457,-83.3333333333334,4,2,1,75,0,0
100631,-83.3333333333334,4,2,4,75,0,0
100718,-83.3333333333334,4,2,4,75,0,0
100893,-83.3333333333334,4,2,4,75,0,0
100979,-83.3333333333334,4,2,4,75,0,0
101154,-83.3333333333334,4,2,4,75,0,0
101241,-83.3333333333334,4,2,4,75,0,0
101329,-83.3333333333334,4,2,4,75,0,0
101416,-83.3333333333334,4,2,4,75,0,0
101677,-83.3333333333334,4,2,4,75,0,0
101765,-83.3333333333334,4,2,4,75,0,0
102026,-83.3333333333334,4,2,4,75,0,0
102113,-83.3333333333334,4,2,4,75,0,0
102288,-83.3333333333334,4,2,4,75,0,0
102375,-83.3333333333334,4,2,4,75,0,0
102550,-83.3333333333334,4,2,4,75,0,0
102637,-83.3333333333334,4,2,4,75,0,0
102724,-76.9230769230769,4,2,2,75,0,0
104119,-71.4285714285714,4,2,6,80,0,0
113887,-100,4,2,2,80,0,0
114236,-100,4,2,1,80,0,0
114584,-71.4285714285714,4,2,7,80,0,0
114933,-71.4285714285714,4,2,8,80,0,0
115282,-83.3333333333333,4,2,9,80,0,0
115631,-83.3333333333333,4,2,10,80,0,0
115980,-83.3333333333333,4,2,9,80,0,0
116154,-83.3333333333333,4,2,10,80,0,0
116241,-83.3333333333333,4,2,1,80,0,0
116329,-71.4285714285714,4,2,11,80,0,0
116503,-71.4285714285714,4,2,7,80,0,0
116677,-62.5,4,2,12,80,0,0
116852,-62.5,4,2,10,80,0,0
117026,-76.9230769230769,4,2,13,80,0,0
117375,-76.9230769230769,4,2,12,80,0,0
117637,-76.9230769230769,4,2,4,80,0,0
117724,-76.9230769230769,4,2,14,80,0,0
117898,-76.9230769230769,4,2,8,80,0,0
118073,-83.3333333333333,4,2,9,80,0,0
118422,-83.3333333333333,4,2,10,80,0,0
118770,-83.3333333333333,4,2,9,80,0,0
118945,-83.3333333333333,4,2,10,80,0,0
119032,-83.3333333333333,4,2,1,80,0,0
119119,-71.4285714285714,4,2,11,80,0,0
119294,-71.4285714285714,4,2,7,80,0,0
119468,-62.5,4,2,12,80,0,0
119643,-62.5,4,2,10,80,0,0
119817,-76.9230769230769,4,2,15,80,0,0
120166,-76.9230769230769,4,2,9,80,0,0
120427,-76.9230769230769,4,2,4,80,0,0
120515,-76.9230769230769,4,2,14,80,0,0
120689,-76.9230769230769,4,2,8,80,0,0
120864,-83.3333333333333,4,2,9,80,0,0
121212,-83.3333333333333,4,2,10,80,0,0
121561,-83.3333333333333,4,2,9,80,0,0
121736,-83.3333333333333,4,2,10,80,0,0
121823,-83.3333333333333,4,2,12,80,0,0
121910,-71.4285714285714,4,2,12,80,0,0
122084,-71.4285714285714,4,2,7,80,0,0
122259,-62.5,4,2,12,80,0,0
122433,-62.5,4,2,10,80,0,0
122608,-76.9230769230769,4,2,13,80,0,0
122957,-76.9230769230769,4,2,12,80,0,0
123218,-76.9230769230769,4,2,4,80,0,0
123305,-76.9230769230769,4,2,14,80,0,0
123480,-76.9230769230769,4,2,8,80,0,0
123654,-83.3333333333333,4,2,9,80,0,0
124003,-83.3333333333333,4,2,10,80,0,0
124352,-83.3333333333333,4,2,9,80,0,0
124526,-83.3333333333333,4,2,10,80,0,0
124614,-83.3333333333333,4,2,1,80,0,0
124701,-71.4285714285714,4,2,11,80,0,0
124875,-71.4285714285714,4,2,7,80,0,0
125050,-76.9230769230769,4,2,12,80,0,0
125224,-76.9230769230769,4,2,10,80,0,0
125398,-76.9230769230769,4,2,15,80,0,0
125747,-76.9230769230769,4,2,9,80,0,0
126096,-76.9230769230769,4,2,7,80,0,0
126270,-76.9230769230769,4,2,8,80,0,0
126445,-83.3333333333333,4,2,16,80,0,0
126794,-83.3333333333333,4,2,17,80,0,0
127143,-83.3333333333333,4,2,16,80,0,0
127317,-83.3333333333333,4,2,17,80,0,0
127491,-71.4285714285714,4,2,18,80,0,0
127666,-71.4285714285714,4,2,19,80,0,0
127840,-62.5,4,2,20,80,0,0
128015,-62.5,4,2,17,80,0,0
128189,-71.4285714285714,4,2,21,80,0,0
128538,-71.4285714285714,4,2,20,80,0,0
128800,-71.4285714285714,4,2,4,80,0,0
128887,-71.4285714285714,4,2,19,80,0,0
129061,-71.4285714285714,4,2,22,80,0,0
129236,-83.3333333333333,4,2,16,80,0,0
129584,-83.3333333333333,4,2,17,80,0,0
129933,-83.3333333333333,4,2,16,80,0,0
130108,-83.3333333333333,4,2,17,80,0,0
130282,-71.4285714285714,4,2,18,80,0,0
130457,-71.4285714285714,4,2,19,80,0,0
130631,-71.4285714285714,4,2,22,80,0,0
130805,-71.4285714285714,4,2,19,80,0,0
130980,-71.4285714285714,4,2,20,80,0,0
131329,-71.4285714285714,4,2,17,80,0,0
131590,-71.4285714285714,4,2,4,80,0,0
131677,-62.5,4,2,23,80,0,0
131852,-62.5,4,2,24,80,0,0
132026,-83.3333333333333,4,2,16,80,0,0
132375,-83.3333333333333,4,2,17,80,0,0
132724,-83.3333333333333,4,2,16,80,0,0
132898,-83.3333333333333,4,2,17,80,0,0
133073,-71.4285714285714,4,2,20,80,0,0
133247,-71.4285714285714,4,2,19,80,0,0
133422,-62.5,4,2,20,80,0,0
133596,-62.5,4,2,17,80,0,0
133770,-71.4285714285714,4,2,21,80,0,0
134119,-71.4285714285714,4,2,20,80,0,0
134381,-71.4285714285714,4,2,4,80,0,0
134468,-71.4285714285714,4,2,19,80,0,0
134643,-71.4285714285714,4,2,22,80,0,0
134817,-83.3333333333333,4,2,16,80,0,0
135166,-83.3333333333333,4,2,17,80,0,0
135515,-83.3333333333333,4,2,16,80,0,0
135689,-83.3333333333333,4,2,17,80,0,0
135864,-71.4285714285714,4,2,18,80,0,0
136038,-71.4285714285714,4,2,19,80,0,0
136212,-66.6666666666667,4,2,22,80,0,0
136387,-66.6666666666667,4,2,19,80,0,0
136561,-66.6666666666667,4,2,20,80,0,0
136736,-66.6666666666667,4,2,17,80,0,0
136910,-66.6666666666667,4,2,1,80,0,0
137608,-66.6666666666667,4,2,1,60,0,0
143189,-66.6666666666667,4,2,1,60,0,0
143538,-133.333333333333,4,2,1,60,0,0
144584,-200,4,2,1,60,0,0
145631,-100,4,2,1,60,0,0
146677,-133.333333333333,4,2,1,60,0,0
147375,-100,4,2,1,60,0,0
149468,-133.333333333333,4,2,1,60,0,0
150166,-200,4,2,1,60,0,0
151212,-100,4,2,1,60,0,0
151735,-133.333333333333,4,2,1,60,0,0
152259,-133.333333333333,4,2,2,70,0,0
152956,-80,4,2,2,70,0,0
154352,-76.9230769230769,4,2,2,75,0,0
155660,-90.9090909090909,4,2,2,75,0,0
157143,-76.9230769230769,4,2,2,75,0,0
158538,-90.9090909090909,4,2,2,75,0,0
159236,-166.666666666667,4,2,3,75,0,0
159584,-166.666666666667,4,2,3,75,0,0
159759,-71.4285714285714,4,2,2,75,0,0
164294,-71.4285714285714,4,2,2,65,0,0
164817,-125,4,2,2,65,0,0
165166,-71.4285714285714,4,2,1,65,0,0
165515,-125,4,2,1,65,0,0
166038,-125,4,2,2,65,0,0
166212,-125,4,2,4,80,0,0
166736,-62.5,4,2,4,80,0,0
167084,-71.4285714285714,4,2,4,80,0,0
168305,-62.5,4,2,4,80,0,0
170050,-71.4285714285714,4,2,4,80,0,0
171445,-76.9230769230769,4,2,4,80,0,0
172317,-71.4285714285714,4,2,4,80,0,0
173887,-62.5,4,2,4,80,0,0
175282,-76.9230769230769,4,2,4,80,0,0
175980,-66.6666666666667,4,2,4,80,0,0
176329,-76.9230769230769,4,2,1,80,0,0
177375,-83.3333333333333,4,2,4,80,0,0
177898,-71.4285714285714,4,2,4,80,0,0
179468,-71.4285714285714,4,2,4,80,0,0
179817,-62.5,4,2,4,80,0,0
180864,-66.6666666666667,4,2,4,80,0,0
181736,-66.6666666666667,4,2,1,80,0,0
181910,-125,4,2,1,80,0,0
182084,-83.3333333333333,4,2,2,80,0,0
182259,-83.3333333333333,4,2,4,80,0,0
182608,-62.5,4,2,4,80,0,0
183305,-71.4285714285714,4,2,4,80,0,0
183480,-66.6666666666667,4,2,4,80,0,0
184526,-71.4285714285714,4,2,4,80,0,0
185050,-66.6666666666667,4,2,4,80,0,0
185398,-76.9230769230769,4,2,4,80,0,0
185573,-66.6666666666667,4,2,4,80,0,0
186794,-250,4,2,1,60,0,0

[Colours]
Combo1 : 240,175,254
Combo2 : 191,167,254

[HitObjects]
126,80,1212,5,2,0:0:0:0:
113,2,1561,1,2,0:0:0:0:
189,24,1910,1,2,0:0:0:0:
28,129,2259,6,0,P|109:103|196:188,1,193.50000738144,4|0,1:2|0:0,0:0:0:0:
258,221,2608,2,0,P|289:213|320:204,1,64.5000024604798,0|2,0:0|0:0,0:0:0:0:
127,384,2957,2,0,P|82:339|95:278,1,129.00000492096,8|0,0:0|0:0,0:0:0:0:
169,243,3480,1,2,0:0:0:0:
291,384,3654,6,0,L|311:300,1,86,2|0,1:2|0:0,0:0:0:0:
457,215,4177,6,0,L|374:238,1,86,2|2,1:2|0:0,0:0:0:0:
232,78,4701,6,0,P|221:147|303:216,2,172,2|2|2,1:2|0:0|0:0,0:0:0:0:
298,12,5573,1,0,0:0:0:0:
178,155,5747,2,0,L|106:137,1,64.5000024604798,10|2,0:0|0:0,0:0:0:0:
307,1,6096,2,0,L|322:63,1,64.5000024604798,2|0,0:0|0:0,0:0:0:0:
382,170,6445,6,0,B|449:237|558:200|548:101|480:78|447:126,1,258,6|0,1:2|0:0,0:0:0:0:
311,230,7143,6,0,B|288:266|221:243|211:144|320:107|387:174,1,258,14|0,1:2|0:0,0:0:0:0:
512,384,7840,6,0,P|453:291|398:273,1,172,2|0,1:2|0:0,0:0:0:0:
398,273,8364,1,2,0:0:0:0:
340,384,8538,2,0,L|403:369,1,64.5000024604798,8|2,0:0|0:0,0:0:0:0:
286,275,8887,2,0,L|223:290,1,64.5000024604798,0|2,0:0|0:0,0:0:0:0:
59,72,9236,6,0,P|85:117|79:155,1,86,2|0,1:2|0:0,0:0:0:0:
137,246,9759,6,0,P|162:200|198:187,1,86,2|0,1:2|0:0,0:0:0:0:
324,36,10282,6,0,P|266:83|162:94,1,172,2|0,1:2|0:0,0:0:0:0:
84,63,10805,6,0,L|68:1,2,64.5000024604798,2|2|2,0:0|0:0|0:0,0:0:0:0:
191,192,11329,2,0,L|174:254,1,64.5000024604798,10|10,0:0|0:0,0:0:0:0:
174,254,11590,1,8,0:0:0:0:
174,254,11677,1,10,0:0:0:0:
90,196,11852,1,8,0:0:0:0:
135,356,12026,6,0,P|184:304|299:324,1,161.25,6|8,1:2|0:0,0:0:0:0:
275,214,12375,6,0,B|366:225|328:276|409:298,1,161.25,6|0,1:2|0:0,0:0:0:0:
430,379,12724,6,0,P|447:295|491:224,1,161.25,6|8,1:2|0:0,0:0:0:0:
498,220,13073,2,0,P|500:167|454:141,1,107.5,6|8,1:2|0:0,0:0:0:0:
395,62,13422,6,0,B|362:78|362:78|302:45|226:36,1,167.699992323304,6|8,1:2|0:0,0:0:0:0:
175,113,13770,2,0,P|159:51|153:-5,1,111.799994882202,2|8,1:2|0:0,0:0:0:0:
72,46,14032,1,0,0:0:0:0:
72,46,14119,2,0,P|81:83|85:116,1,55.8999974411012,10|8,1:2|0:0,0:0:0:0:
129,203,14294,1,10,0:0:0:0:
129,203,14381,1,8,0:0:0:0:
129,203,14468,2,0,P|58:199|23:282,1,167.699992323304,10|0,1:2|0:0,0:0:0:0:
33,304,14817,6,0,P|100:312|130:321,1,94.600002886963,10|2,1:2|0:0,0:0:0:0:
240,264,15166,2,0,B|298:256|328:293|286:295|357:340|390:314,1,154.799995275879,10|0,1:2|0:0,0:0:0:0:
400,329,15515,2,0,B|435:316|438:287|438:287|420:269|417:233,1,103.199996850586,10|8,1:2|0:0,0:0:0:0:
477,141,15776,1,8,0:0:0:0:
487,136,15864,2,0,P|514:182|481:225,1,103.199996850586,10|8,1:2|0:0,0:0:0:0:
370,153,16212,6,0,P|297:164|239:110,1,154.799995275879,10|8,1:2|0:0,0:0:0:0:
240,113,16561,1,2,1:2:0:0:
338,20,16736,1,10,0:0:0:0:
338,20,16910,2,0,P|325:76|318:91,1,51.599998425293,10|8,1:2|0:0,0:0:0:0:
240,113,17084,2,0,P|236:138|229:163,1,51.599998425293,10|8,0:0|0:0,0:0:0:0:
146,229,17259,2,0,P|67:212|54:138,1,154.799995275879,10|0,1:2|0:0,0:0:0:0:
109,45,17608,6,0,P|129:101|132:160,1,103.199996850586,10|0,1:2|0:0,0:0:0:0:
238,243,17869,1,8,0:0:0:0:
228,245,17957,2,0,P|208:301|196:383,1,141.900004330444,10|0,1:2|0:0,0:0:0:0:
281,384,18305,6,0,P|292:352|298:306,1,77.3999976379395,10|0,1:2|0:0,0:0:0:0:
298,309,18654,1,2,0:0:0:0:
404,268,18829,5,10,0:0:0:0:
404,268,18916,1,10,0:0:0:0:
404,268,19003,2,0,P|469:251|482:187,1,120.399996325684,14|0,1:2|0:0,0:0:0:0:
382,122,19265,1,0,1:2:0:0:
382,122,19352,2,0,P|397:163|413:192,1,60.1999981628419,2|0,0:0|0:0,0:0:0:0:
473,121,19526,1,10,1:2:0:0:
404,30,19701,6,0,P|356:74|292:34,1,120.399996325684,10|2,1:2|0:0,0:0:0:0:
232,117,19962,1,0,1:2:0:0:
232,117,20050,2,0,P|224:156|220:191,1,60.1999981628419,2|0,0:0|0:0,0:0:0:0:
168,55,20224,1,10,1:2:0:0:
92,134,20398,6,0,P|118:212|131:272,1,120.399996325684,10|2,1:2|0:0,0:0:0:0:
64,349,20660,1,0,1:2:0:0:
55,357,20747,2,0,P|22:339|31:294,1,60.1999981628419,2|0,0:0|0:0,0:0:0:0:
38,233,20922,1,8,1:2:0:0:
159,327,21096,6,0,P|234:343|302:365,1,120.399996325684,10|0,1:2|0:0,0:0:0:0:
352,312,21358,1,0,1:2:0:0:
352,312,21445,2,0,P|351:276|320:250,1,60.1999981628419,2|0,0:0|0:0,0:0:0:0:
439,361,21619,2,0,P|440:325|471:299,1,60.1999981628419,8|8,1:2|0:0,0:0:0:0:
418,219,21794,5,10,1:2:0:0:
423,189,21881,1,8,0:0:0:0:
428,159,21968,1,8,1:2:0:0:
433,129,22055,1,8,0:0:0:0:
438,99,22143,6,0,P|430:59|422:25,3,60.1999981628419,8|8|8|8,1:2|0:0|1:2|0:0,0:0:0:0:
269,182,22491,6,0,P|261:211|255:240,3,60.1999981628419,8|8|8|8,1:2|0:0|1:2|0:0,0:0:0:0:
172,68,22840,5,8,1:2:0:0:
135,68,22927,1,8,0:0:0:0:
103,86,23015,1,8,1:2:0:0:
82,115,23102,1,8,0:0:0:0:
80,150,23189,5,2,1:2:0:0:
256,241,23538,5,10,0:0:0:0:
433,332,23887,6,0,L|420:386,1,43,10|0,0:0|1:2,0:0:0:0:
512,295,24236,6,0,B|441:320|398:254|398:254|434:240|439:202,1,193.50000738144,10|0,0:0|0:0,0:0:0:0:
332,92,24584,6,0,L|365:191,1,86,2|0,0:0|0:0,0:0:0:0:
475,26,24933,1,2,0:0:0:0:
483,127,25108,5,10,0:0:0:0:
483,127,25195,1,10,0:0:0:0:
483,127,25282,2,0,L|434:114,1,43,2|0,1:2|0:0,0:0:0:0:
239,12,25544,6,0,L|280:1,1,43,2|0,1:2|0:0,0:0:0:0:
142,190,25805,6,0,B|101:189|68:225|68:225|63:177|21:161,1,167.699992323304,6|0,1:2|0:0,0:0:0:0:
13,153,26154,2,0,P|-2:123|18:85,1,55.8999974411012,2|2,1:2|0:0,0:0:0:0:
142,280,26329,6,0,P|170:318|148:383,1,111.799994882202,2|2,1:2|0:0,0:0:0:0:
155,376,26590,1,0,0:0:0:0:
155,376,26677,1,2,1:2:0:0:
37,311,26852,1,2,0:0:0:0:
226,170,27026,2,0,L|237:228,1,55.8999974411012,2|0,1:2|0:0,0:0:0:0:
276,316,27201,1,0,0:0:0:0:
276,316,27288,1,0,0:0:0:0:
276,316,27375,6,0,B|333:330|333:330|361:371|361:371|436:388,1,167.699992323304,2|0,1:2|0:0,0:0:0:0:
483,309,27724,2,0,L|420:293,1,55.8999974411012,2|0,1:2|0:0,0:0:0:0:
349,237,27898,1,2,0:0:0:0:
469,35,28073,6,0,P|512:71|498:145,1,111.799994882202,2|2,1:2|0:0,0:0:0:0:
452,201,28334,1,2,1:2:0:0:
441,195,28422,2,0,L|424:130,1,55.8999974411012,2|0,0:0|0:0,0:0:0:0:
354,0,28596,2,0,L|339:54,1,55.8999974411012,2|0,1:2|0:0,0:0:0:0:
188,130,28770,6,0,B|256:108|256:108|296:161|374:143,1,167.699992323304,0|0,1:2|0:0,0:0:0:0:
512,242,29119,2,0,P|431:233|372:292,1,167.699992323304,2|0,1:2|0:0,0:0:0:0:
311,362,29468,2,0,B|271:320|271:320|286:257,1,111.799994882202,2|2,1:2|0:0,0:0:0:0:
50,60,29817,2,0,L|79:187,1,111.799994882202,2|0,1:2|0:0,0:0:0:0:
34,384,30166,6,0,L|99:361,1,55.8999974411012,6|0,1:2|0:0,0:0:0:0:
176,316,30340,1,2,0:0:0:0:
0,225,30515,2,0,P|38:269|97:267,1,111.799994882202,2|2,1:2|0:0,0:0:0:0:
167,229,30776,5,0,0:0:0:0:
167,229,30864,2,0,P|210:194|213:140,1,111.799994882202,2|2,1:2|0:0,0:0:0:0:
311,66,31125,1,2,1:2:0:0:
322,60,31212,2,0,L|307:125,1,55.8999974411012,2|0,0:0|0:0,0:0:0:0:
376,179,31387,6,0,L|193:136,1,167.699992323304,2|0,1:2|0:0,0:0:0:0:
154,67,31736,2,0,L|167:8,1,55.8999974411012,2|2,1:2|0:0,0:0:0:0:
0,148,31910,6,0,B|29:128|29:128|112:151,1,111.799994882202,2|2,1:2|0:0,0:0:0:0:
512,99,32259,2,0,B|483:119|483:119|409:98,1,111.799994882202,2|2,1:2|0:0,0:0:0:0:
332,41,32520,1,0,0:0:0:0:
332,41,32608,2,0,P|374:5|432:13,1,111.799994882202,2|0,1:2|0:0,0:0:0:0:
238,213,32957,6,0,B|152:195|169:278|64:250,1,167.699992323304,6|0,1:2|0:0,0:0:0:0:
7,204,33305,2,0,P|36:159|89:165,1,111.799994882202,2|2,0:0|0:0,0:0:0:0:
224,303,33654,6,0,P|271:344|337:337,1,111.799994882202,2|2,1:2|0:0,0:0:0:0:
376,257,33916,1,2,1:2:0:0:
368,266,34003,2,0,L|312:252,1,55.8999974411012,2|0,0:0|0:0,0:0:0:0:
225,158,34177,2,0,L|238:214,1,55.8999974411012,2|0,1:2|0:0,0:0:0:0:
447,384,34352,6,0,B|480:244|480:244|519:212,1,180.599994488526,6|0,1:2|0:0,0:0:0:0:
508,220,34701,2,0,P|443:202|432:87,1,180.599994488526,2|0,1:2|0:0,0:0:0:0:
332,54,35050,6,0,B|376:36|379:-17|379:-17|408:19|457:18,1,180.599994488526,6|0,1:2|0:0,0:0:0:0:
502,132,35398,6,0,B|519:118|519:118|416:100,1,120.399996325684,2|0,1:1|0:0,0:0:0:0:
422,101,36096,6,0,P|397:112|362:128,1,55.8999974411012,14|0,1:2|0:0,0:0:0:0:
284,186,36270,1,2,0:0:0:0:
284,186,36358,1,0,0:0:0:0:
284,186,36445,2,0,B|197:169|197:169|171:199|118:203,1,167.699992323304,2|2,1:2|1:2,0:0:0:0:
127,202,36794,1,10,0:0:0:0:
3,84,36968,6,0,B|44:85|77:49|77:49|82:97|123:112,1,167.699992323304,2|0,1:2|0:0,0:0:0:0:
135,117,37317,2,0,P|142:84|155:38,1,55.8999974411012,2|2,1:2|0:0,0:0:0:0:
37,186,37491,2,0,P|52:244|64:304,1,111.799994882202,10|2,1:2|0:0,0:0:0:0:
62,294,37753,1,0,0:0:0:0:
62,294,37840,1,2,1:2:0:0:
198,373,38015,1,2,0:0:0:0:
299,263,38189,2,0,B|343:273|343:273|356:293|356:293|407:306,1,111.799994882202,10|0,1:2|0:0,0:0:0:0:
504,68,38538,6,0,B|439:82|439:82|420:111|420:111|346:130,1,167.699992323304,2|0,1:2|0:0,0:0:0:0:
337,137,38887,2,0,P|329:97|321:74,1,55.8999974411012,10|0,1:2|0:0,0:0:0:0:
498,168,39061,1,2,0:0:0:0:
498,168,39148,1,0,0:0:0:0:
498,168,39236,2,0,P|512:224|477:257,1,111.799994882202,2|2,1:2|0:0,0:0:0:0:
392,238,39497,1,2,1:2:0:0:
385,250,39584,2,0,P|395:290|406:337,1,55.8999974411012,10|0,0:0|0:0,0:0:0:0:
464,368,39759,1,2,1:2:0:0:
287,307,39933,6,0,B|257:360|203:363|203:363|182:332|143:326,1,167.699992323304,0|0,1:2|0:0,0:0:0:0:
49,384,40282,2,0,P|33:301|14:219,1,167.699992323304,10|0,1:2|0:0,0:0:0:0:
130,177,40631,6,0,P|120:225|116:251,2,51.599998425293,0|8|8,1:2|0:1|0:1,0:0:0:0:
303,151,41154,5,8,0:0:0:0:
303,151,41241,1,8,0:0:0:0:
303,151,41329,2,0,P|330:156|357:164,1,55.8999974411012,6|0,1:2|0:0,0:0:0:0:
506,101,41503,1,2,0:0:0:0:
439,9,41677,6,0,P|396:46|429:103,1,111.799994882202,8|2,1:2|0:0,0:0:0:0:
459,179,41939,1,0,0:0:0:0:
468,195,42026,2,0,P|452:260|442:322,1,111.799994882202,0|2,1:2|0:0,0:0:0:0:
444,304,42288,1,2,1:2:0:0:
444,304,42375,1,10,0:0:0:0:
266,291,42550,6,0,B|216:275|169:323|222:312|152:368|104:335,1,167.699992323304,2|0,1:2|0:0,0:0:0:0:
27,379,42898,1,2,1:2:0:0:
27,379,42986,1,2,0:0:0:0:
27,379,43073,2,0,P|7:321|38:279,1,111.799994882202,10|2,1:2|0:0,0:0:0:0:
91,137,43422,2,0,P|108:190|123:243,1,111.799994882202,2|2,1:2|0:0,0:0:0:0:
200,175,43770,6,0,P|226:128|205:78,1,111.799994882202,10|0,1:2|0:0,0:0:0:0:
0,127,44119,6,0,P|100:148|199:175,1,206.4,2|0,1:2|0:0,0:0:0:0:
200,175,44468,1,10,0:0:0:0:
449,46,44643,1,2,0:0:0:0:
449,46,44730,1,0,0:0:0:0:
449,46,44817,2,0,P|396:64|342:77,1,111.799994882202,2|2,1:2|0:0,0:0:0:0:
342,77,45079,1,2,0:0:0:0:
342,77,45166,1,10,0:0:0:0:
291,253,45340,1,2,0:0:0:0:
434,183,45515,5,4,1:2:0:0:
256,192,45602,12,4,47084,0:0:0:0:
135,67,47259,6,0,P|143:33|149:-1,2,68.8,2|2|2,0:0|0:0|0:0,0:0:0:0:
2,186,48305,6,0,B|69:170|69:170|116:193|116:193|192:176,1,189.200005773926,2|0,1:2|1:2,0:0:0:0:
292,103,48829,1,10,0:0:0:0:
257,269,49003,1,2,1:2:0:0:
400,212,49177,2,0,L|353:201,2,47.3000014434815,0|8|0,0:0|0:0|1:2,0:0:0:0:
260,379,49526,5,10,0:0:0:0:
260,379,49701,2,0,L|200:365,1,47.3000014434815,2|8,1:2|0:0,0:0:0:0:
131,280,49875,2,0,P|74:292|19:304,1,94.600002886963,0|0,0:0|1:2,0:0:0:0:
219,129,50224,1,10,0:0:0:0:
261,250,50398,1,2,1:2:0:0:
128,180,50573,1,2,0:0:0:0:
128,180,50660,1,8,0:0:0:0:
128,180,50747,2,0,B|104:139|104:139|126:78,1,94.600002886963,2|8,1:2|0:0,0:0:0:0:
298,24,51096,6,0,B|351:14|351:14|384:55|447:48,1,141.900004330444,2|8,1:2|0:0,0:0:0:0:
496,129,51445,2,0,P|439:143|391:156,1,94.600002886963,2|8,1:2|0:0,0:0:0:0:
289,238,51794,1,2,1:2:0:0:
388,348,51968,1,2,0:0:0:0:
388,348,52055,1,8,0:0:0:0:
388,348,52143,2,0,B|413:304|413:304|396:254,1,94.600002886963,2|8,1:2|0:0,0:0:0:0:
212,147,52491,5,2,1:2:0:0:
327,59,52666,2,0,P|311:136|303:171,1,94.600002886963,0|0,0:0|1:2,0:0:0:0:
184,41,53015,1,8,0:0:0:0:
65,172,53189,5,2,1:2:0:0:
65,172,53364,2,0,L|52:110,1,47.3000014434815,0|8,0:0|0:0,0:0:0:0:
153,266,53538,5,2,1:2:0:0:
153,266,53712,2,0,L|161:219,1,47.3000014434815,8|0,0:0|0:0,0:0:0:0:
0,339,53887,6,0,B|111:308|85:389|195:363,1,189.200005773926,2|0,1:2|1:2,0:0:0:0:
317,309,54410,1,10,0:0:0:0:
161,219,54584,1,2,1:2:0:0:
281,152,54759,2,0,L|271:198,2,47.3000014434815,2|8|0,0:0|0:0|1:2,0:0:0:0:
97,54,55107,5,10,0:0:0:0:
97,54,55282,2,0,L|83:-15,1,47.3000014434815,2|8,1:2|0:0,0:0:0:0:
0,161,55457,2,0,B|41:137|41:137|89:151,1,94.600002886963,0|0,0:0|1:2,0:0:0:0:
285,31,55805,2,0,B|244:55|244:55|196:41,1,94.600002886963,10|0,0:0|1:2,0:0:0:0:
198,41,56067,1,8,0:0:0:0:
198,41,56154,1,0,0:0:0:0:
284,197,56329,6,0,P|366:173|451:256,1,189.200005773926,2|0,1:2|1:2,0:0:0:0:
241,311,56852,1,2,0:0:0:0:
332,375,57026,2,0,P|343:319|352:273,1,94.600002886963,2|10,1:2|0:0,0:0:0:0:
184,135,57375,2,0,B|161:163|161:163|183:232,1,94.600002886963,2|0,1:2|0:0,0:0:0:0:
179,219,57637,1,8,0:0:0:0:
179,219,57724,1,0,1:2:0:0:
311,164,57898,1,10,0:0:0:0:
241,311,58073,6,0,P|200:270|102:288,1,161.25,6|8,1:2|0:0,0:0:0:0:
16,314,58422,6,0,B|-5:224|73:249|53:152,1,161.25,6|8,1:2|0:0,0:0:0:0:
20,79,58770,6,0,P|53:123|161:128,1,161.25,6|8,1:2|0:0,0:0:0:0:
302,82,59119,2,0,P|281:6|234:52,1,161.25,6|8,1:2|0:0,0:0:0:0:
233,142,59468,6,0,B|249:230|249:230|280:250|288:283,1,141.900004330444,6|8,1:2|0:0,0:0:0:0:
233,339,59817,2,0,P|178:350|132:359,1,94.600002886963,10|10,0:0|0:0,0:0:0:0:
140,357,60079,1,0,0:0:0:0:
140,357,60166,1,2,1:2:0:0:
175,261,60340,1,2,0:0:0:0:
363,357,60515,2,0,P|392:314|381:272,1,94.600002886963,10|10,0:0|0:0,0:0:0:0:
302,82,60864,6,0,P|357:93|406:103,1,94.600002886963,2|2,1:2|0:0,0:0:0:0:
468,231,61212,2,0,P|375:249|282:268,1,189.200005773926,10|2,0:0|1:2,0:0:0:0:
152,368,61736,1,0,0:0:0:0:
152,368,61823,1,8,0:0:0:0:
152,368,61910,2,0,P|138:300|130:267,1,94.600002886963,10|8,0:0|0:0,0:0:0:0:
75,120,62259,6,0,P|130:133|172:147,1,94.600002886963,2|0,1:2|0:0,0:0:0:0:
332,86,62608,1,10,0:0:0:0:
239,67,62782,1,10,0:0:0:0:
239,67,62957,2,0,P|259:150|262:190,1,94.600002886963,2|2,1:2|0:0,0:0:0:0:
260,158,63218,1,8,0:0:0:0:
260,158,63305,1,10,0:0:0:0:
344,243,63480,1,10,0:0:0:0:
161,371,63654,6,0,P|200:314|297:322,1,141.900004330444,2|8,1:2|0:0,0:0:0:0:
353,348,64003,2,0,B|446:324|386:289|514:272,1,141.900004330444,10|0,0:0|0:0,0:0:0:0:
473,279,64352,1,2,1:2:0:0:
457,175,64526,6,0,L|394:193,2,47.3000014434815,0|8|10,0:0|0:0|0:0,0:0:0:0:
428,76,64875,5,8,0:0:0:0:
428,76,64962,1,0,0:0:0:0:
428,76,65050,2,0,B|373:59|373:59|344:70|344:70|273:52,1,141.900004330444,2|8,1:2|0:0,0:0:0:0:
273,56,65398,2,0,B|239:97|239:97|259:155,1,94.600002886963,10|8,0:0|0:0,0:0:0:0:
109,283,65747,2,0,P|120:221|129:185,1,94.600002886963,2|2,1:2|0:0,0:0:0:0:
127,190,66009,1,8,0:0:0:0:
127,190,66096,1,10,0:0:0:0:
16,230,66270,1,10,0:0:0:0:
200,275,66445,6,0,B|255:258|255:258|284:269|284:269|355:251,1,141.900004330444,2|8,1:2|0:0,0:0:0:0:
353,254,66794,2,0,P|382:299|362:342,1,94.600002886963,10|8,0:0|0:0,0:0:0:0:
297,381,67143,1,2,1:2:0:0:
452,230,67317,1,0,0:0:0:0:
452,230,67404,1,8,0:0:0:0:
452,230,67491,2,0,P|460:157|467:121,1,94.600002886963,10|8,0:0|0:0,0:0:0:0:
410,43,67840,6,0,P|341:65|362:139,1,141.900004330444,2|8,1:2|0:0,0:0:0:0:
357,141,68189,2,0,P|279:160|252:168,1,94.600002886963,10|8,0:0|0:0,0:0:0:0:
96,275,68538,6,0,P|97:340|161:355,1,141.900004330444,0|8,1:2|0:0,0:0:0:0:
161,355,68887,1,10,0:0:0:0:
239,254,69061,1,8,0:0:0:0:
137,188,69236,2,0,P|90:177|45:165,1,94.600002886963,4|0,1:2|0:0,0:0:0:0:
160,11,69584,6,0,P|173:56|185:101,1,94.600002886963,8|8,0:0|0:0,0:0:0:0:
239,254,69933,2,0,P|251:208|264:163,1,94.600002886963,2|8,0:0|0:0,0:0:0:0:
264,163,70195,1,8,0:0:0:0:
264,163,70282,1,10,0:0:0:0:
365,234,70457,1,0,0:0:0:0:
463,184,70631,6,0,L|453:128,3,51.599998425293,6|0|0|0,1:2|1:2|1:2|1:2,0:0:0:0:
374,78,72026,6,0,L|384:22,3,51.599998425293,0|0|0|0,1:2|1:2|1:2|1:2,0:0:0:0:
260,159,73422,6,0,L|204:149,3,51.599998425293,2|0|0|0,1:2|1:2|1:2|1:2,0:0:0:0:
137,71,74817,6,0,L|81:81,3,51.599998425293,0|0|0|0,1:2|1:2|1:2|1:2,0:0:0:0:
10,204,76212,6,0,L|23:264,1,51.599998425293,2|0,1:2|1:2,0:0:0:0:
113,313,76910,2,0,L|102:363,1,51.599998425293,0|0,1:2|1:2,0:0:0:0:
235,274,77608,6,0,L|274:265,3,34.4,2|0|0|0,1:2|0:0|1:2|0:0,0:0:0:0:
155,197,78305,2,0,L|116:206,3,34.4,0|0|0|0,1:2|0:0|1:2|0:0,0:0:0:0:
277,61,79003,6,0,L|264:120,1,43,2|0,1:2|0:0,0:0:0:0:
353,77,79352,2,0,L|340:136,1,43,0|0,1:2|0:0,0:0:0:0:
430,96,79701,2,0,L|417:155,1,43,0|0,1:2|0:0,0:0:0:0:
507,116,80050,2,0,L|494:175,1,43,0|0,1:2|0:0,0:0:0:0:
455,358,80398,6,0,L|437:293,1,51.599998425293,2|0,1:2|0:0,0:0:0:0:
372,219,80747,2,0,L|358:268,1,51.599998425293,0|0,1:2|0:0,0:0:0:0:
289,364,81096,2,0,L|271:299,1,51.599998425293,0|0,1:2|0:0,0:0:0:0:
215,214,81445,2,0,L|197:279,1,51.599998425293,0|0,1:2|0:0,0:0:0:0:
138,331,81794,6,0,P|67:347|5:366,1,116.099996456909,14|8,1:2|0:0,0:0:0:0:
9,338,82143,2,0,L|29:263,1,77.3999976379395,10|8,1:2|0:0,0:0:0:0:
29,263,82404,1,0,0:0:0:0:
29,263,82491,1,10,1:2:0:0:
116,202,82666,1,8,0:0:0:0:
116,202,82840,2,0,P|64:183|16:171,1,77.3999976379395,10|8,1:2|0:0,0:0:0:0:
4,88,83189,6,0,P|43:31|140:61,1,154.799995275879,10|10,1:2|1:2,0:0:0:0:
194,91,83712,1,8,0:0:0:0:
267,37,83887,2,0,P|278:0|280:-12,3,38.6999988189698,10|8|8|8,1:2|0:0|0:0|0:0,0:0:0:0:
207,102,84236,2,0,P|218:139|220:151,3,38.6999988189698,10|8|8|8,1:2|0:0|0:0|0:0,0:0:0:0:
235,158,84584,6,0,B|337:137|271:112|380:87,1,154.799995275879,10|10,1:2|1:2,0:0:0:0:
449,136,85108,1,8,0:0:0:0:
391,219,85282,1,10,1:2:0:0:
391,219,85369,1,8,0:0:0:0:
391,219,85457,2,0,P|407:281|411:313,1,77.3999976379395,8|10,0:0|1:2,0:0:0:0:
344,365,85805,1,8,0:0:0:0:
257,313,85980,6,0,P|216:351|123:334,2,154.799995275879,10|10|10,1:2|1:2|1:2,0:0:0:0:
190,264,86852,1,8,0:0:0:0:
190,264,86939,1,8,0:0:0:0:
190,264,87026,2,0,P|197:223|200:211,3,38.6999988189698,10|8|8|8,1:2|0:0|0:0|0:0,0:0:0:0:
182,275,87375,6,0,P|164:159|154:109,1,154.799995275879,14|10,1:2|1:2,0:0:0:0:
82,59,87898,1,8,0:0:0:0:
20,128,88073,1,10,1:2:0:0:
20,128,88160,1,8,0:0:0:0:
20,128,88247,2,0,P|27:166|32:206,1,77.3999976379395,8|10,0:0|1:2,0:0:0:0:
95,259,88596,1,8,0:0:0:0:
33,339,88770,6,0,P|25:384|23:389,3,38.6999988189698,10|8|8|8,1:2|0:0|0:0|0:0,0:0:0:0:
51,329,89119,2,0,B|100:340|100:340|118:361|118:361|176:372,1,116.099996456909,10|0,1:2|0:0,0:0:0:0:
171,349,89468,2,0,P|235:334|281:331,1,77.3999976379395,10|8,1:2|0:0,0:0:0:0:
246,332,89730,1,8,0:0:0:0:
246,332,89817,1,10,1:2:0:0:
327,277,89991,1,8,0:0:0:0:
265,198,90166,6,0,P|247:170|236:156,3,47.3000014434815,10|8|10|8,1:2|0:0|1:2|0:0,0:0:0:0:
326,120,90515,2,0,P|344:92|355:78,3,47.3000014434815,10|8|10|8,1:2|0:0|1:2|0:0,0:0:0:0:
206,73,90864,6,0,P|228:64|249:54,1,47.3000014434815,10|8,1:2|0:0,0:0:0:0:
416,172,91038,2,0,P|395:182|373:191,1,47.3000014434815,10|8,1:2|0:0,0:0:0:0:
206,261,91212,5,10,1:2:0:0:
172,256,91300,1,8,0:0:0:0:
139,251,91387,1,10,1:2:0:0:
106,246,91474,1,8,0:0:0:0:
73,241,91561,1,6,1:2:0:0:
73,241,91910,6,0,P|62:286|60:311,1,60.1999981628419,10|0,0:0|0:0,0:0:0:0:
0,164,92259,2,0,P|11:119|13:94,1,60.1999981628419,10|0,0:0|1:2,0:0:0:0:
124,39,92608,6,0,L|121:24,6,15.0499995407105,10|2|2|2|2|2|2,0:0|0:0|0:0|0:0|0:0|0:0|0:0,0:0:0:0:
191,107,92957,6,0,L|249:118,1,51.599998425293,6|0,1:2|0:0,0:0:0:0:
399,254,93305,6,0,L|450:260,1,51.599998425293,2|0,1:2|0:0,0:0:0:0:
170,207,93654,6,0,L|228:209,1,51.599998425293,2|0,1:2|0:0,0:0:0:0:
320,176,93916,6,0,L|371:171,1,51.599998425293,2|0,1:2|0:0,0:0:0:0:
248,293,94177,6,0,L|299:291,1,51.599998425293,2|0,1:2|0:0,0:0:0:0:
139,376,94352,6,0,L|190:368,1,51.599998425293,2|0,1:2|0:0,0:0:0:0:
131,369,94526,6,0,L|182:361,1,51.599998425293,2|0,0:0|0:0,0:0:0:0:
398,266,94701,6,0,L|448:254,1,51.599998425293,2|0,1:2|0:0,0:0:0:0:
182,144,95050,6,0,L|232:129,1,51.599998425293,2|0,1:2|0:0,0:0:0:0:
297,202,95311,6,0,L|344:182,1,51.599998425293,0|2,1:2|0:0,0:0:0:0:
222,311,95573,6,0,L|268:288,1,51.599998425293,2|0,1:2|0:0,0:0:0:0:
45,239,95747,6,0,L|88:211,1,51.599998425293,2|0,1:2|0:0,0:0:0:0:
318,91,96096,6,0,L|359:60,1,51.599998425293,2|0,1:2|0:0,0:0:0:0:
169,242,96445,6,0,L|208:208,1,51.599998425293,2|0,1:2|0:0,0:0:0:0:
198,106,96707,6,0,L|234:69,1,51.599998425293,2|0,1:2|0:0,0:0:0:0:
281,277,96968,6,0,L|315:238,1,51.599998425293,2|0,1:2|0:0,0:0:0:0:
351,384,97143,6,0,L|381:342,1,51.599998425293,2|0,1:2|0:0,0:0:0:0:
343,376,97317,6,0,L|373:334,1,51.599998425293,2|0,0:0|0:0,0:0:0:0:
411,221,97491,6,0,L|439:178,1,51.599998425293,2|0,1:2|0:0,0:0:0:0:
257,322,97840,6,0,L|281:276,1,51.599998425293,2|0,1:2|0:0,0:0:0:0:
183,174,98102,6,0,L|205:127,1,51.599998425293,2|2,1:2|0:0,0:0:0:0:
313,179,98364,6,0,L|330:130,1,51.599998425293,2|0,1:2|0:0,0:0:0:0:
268,49,98538,6,0,L|283:0,1,51.599998425293,2|0,1:2|0:0,0:0:0:0:
75,271,98887,6,0,L|85:220,1,51.599998425293,2|0,1:2|0:0,0:0:0:0:
209,173,99236,6,0,L|216:122,1,51.599998425293,2|0,1:2|0:0,0:0:0:0:
112,98,99497,6,0,L|114:46,1,51.599998425293,2|0,1:2|0:0,0:0:0:0:
299,261,99759,6,0,L|299:210,1,51.599998425293,2|0,1:2|0:0,0:0:0:0:
217,349,99933,6,0,L|212:297,1,51.599998425293,2|0,1:2|0:0,0:0:0:0:
328,119,100282,6,0,L|319:67,1,51.599998425293,2|0,1:2|0:0,0:0:0:0:
123,317,100631,6,0,L|110:266,1,51.599998425293,2|0,1:2|0:0,0:0:0:0:
172,135,100893,6,0,L|157:86,1,51.599998425293,2|0,1:2|0:0,0:0:0:0:
310,248,101154,6,0,L|290:200,1,51.599998425293,2|0,1:2|0:0,0:0:0:0:
254,370,101329,6,0,L|232:324,1,51.599998425293,2|0,1:2|0:0,0:0:0:0:
394,176,101677,6,0,L|368:131,1,51.599998425293,2|0,1:2|0:0,0:0:0:0:
157,257,102026,6,0,L|129:215,1,51.599998425293,2|0,1:2|0:0,0:0:0:0:
341,288,102288,6,0,L|309:247,1,51.599998425293,2|0,1:2|0:0,0:0:0:0:
250,96,102550,6,0,L|216:58,1,51.599998425293,2|0,1:2|0:0,0:0:0:0:
474,1,102724,6,0,L|354:147,1,167.699992323304,6|8,1:2|0:0,0:0:0:0:
410,199,103073,2,0,L|297:244,1,111.799994882202,6|8,1:2|0:0,0:0:0:0:
0,384,103422,6,0,L|120:238,1,167.699992323304,6|8,1:2|0:0,0:0:0:0:
62,189,103771,2,0,L|175:144,1,111.799994882202,6|8,1:2|0:0,0:0:0:0:
263,0,104119,6,0,L|295:141,1,120.399996325684,2|0,1:2|0:0,0:0:0:0:
361,188,104381,5,0,0:0:0:0:
377,181,104468,2,0,L|391:324,1,120.399996325684,10|0,0:0|0:0,0:0:0:0:
127,107,104817,6,0,L|125:179,2,60.1999981628419,2|0|0,1:2|0:0|0:0,0:0:0:0:
195,229,105079,6,0,L|184:300,2,60.1999981628419,2|8|0,1:2|0:0|0:0,0:0:0:0:
293,118,105340,6,0,L|277:176,1,60.1999981628419,2|0,1:2|0:0,0:0:0:0:
444,73,105515,6,0,L|398:184,1,120.399996325684,2|2,1:2|0:0,0:0:0:0:
307,273,105864,6,0,L|247:377,1,120.399996325684,10|0,0:0|0:0,0:0:0:0:
487,227,106212,6,0,L|451:275,1,60.1999981628419,2|0,1:2|0:0,0:0:0:0:
330,139,106387,5,0,0:0:0:0:
318,132,106474,2,0,L|265:186,2,60.1999981628419,2|8|0,1:2|0:0|0:0,0:0:0:0:
470,64,106736,6,0,L|423:102,1,60.1999981628419,2|0,1:2|0:0,0:0:0:0:
358,248,106910,6,0,L|248:317,1,120.399996325684,2|0,1:2|0:0,0:0:0:0:
112,294,107172,5,0,0:0:0:0:
95,286,107259,2,0,L|203:234,1,120.399996325684,10|0,0:0|0:0,0:0:0:0:
338,71,107608,6,0,L|269:93,2,60.1999981628419,2|0|0,1:2|0:0|0:0,0:0:0:0:
454,149,107869,6,0,L|394:160,2,60.1999981628419,2|8|0,1:2|0:0|0:0,0:0:0:0:
364,253,108131,6,0,L|292:258,1,60.1999981628419,2|0,1:2|0:0,0:0:0:0:
465,356,108305,6,0,L|321:349,1,120.399996325684,2|0,1:2|0:0,0:0:0:0:
221,184,108654,6,0,L|79:160,1,120.399996325684,10|0,0:0|0:0,0:0:0:0:
242,318,109003,6,0,L|173:297,1,60.1999981628419,2|0,1:2|0:0,0:0:0:0:
347,255,109177,5,0,0:0:0:0:
364,253,109265,2,0,L|298:224,2,60.1999981628419,2|10|0,1:2|0:0|0:0,0:0:0:0:
362,133,109526,6,0,L|300:96,1,60.1999981628419,2|0,1:2|0:0,0:0:0:0:
149,229,109701,6,0,L|18:128,1,120.399996325684,2|0,1:2|0:0,0:0:0:0:
125,96,109962,5,0,0:0:0:0:
133,84,110050,2,0,L|47:0,1,120.399996325684,10|0,0:0|0:0,0:0:0:0:
310,102,110398,6,0,L|272:54,2,60.1999981628419,2|0|0,1:2|0:0|0:0,0:0:0:0:
267,230,110660,6,0,L|235:178,2,60.1999981628419,2|8|0,1:2|0:0|0:0,0:0:0:0:
383,279,110922,6,0,L|358:224,1,60.1999981628419,2|0,1:2|0:0,0:0:0:0:
195,371,111096,6,0,L|155:245,1,120.399996325684,2|0,1:2|0:0,0:0:0:0:
23,229,111445,6,0,L|1:110,1,120.399996325684,10|0,0:0|0:0,0:0:0:0:
92,81,111707,5,0,0:0:0:0:
106,70,111794,2,0,L|102:9,2,60.1999981628419,2|0|0,1:2|0:0|0:0,0:0:0:0:
217,146,112055,6,0,L|220:85,2,60.1999981628419,2|10|0,1:2|0:0|0:0,0:0:0:0:
113,241,112317,6,0,L|124:181,1,60.1999981628419,2|0,1:2|0:0,0:0:0:0:
228,384,112491,6,0,L|266:263,1,120.399996325684,2|0,1:2|0:0,0:0:0:0:
362,205,112840,6,0,L|412:95,1,120.399996325684,10|0,0:0|0:0,0:0:0:0:
155,267,113189,6,0,L|186:215,1,60.1999981628419,2|0,1:2|0:0,0:0:0:0:
338,349,113451,6,0,L|375:301,1,60.1999981628419,2|8,1:2|0:0,0:0:0:0:
265,162,113712,6,0,L|308:119,1,60.1999981628419,2|0,1:2|0:0,0:0:0:0:
412,95,113887,5,2,1:1:0:0:
256,192,114018,12,0,115108,0:0:0:0:
0,23,115282,6,0,P|75:21|131:72,1,154.799995275879,2|0,1:2|0:0,0:0:0:0:
228,123,115631,2,0,P|177:147|160:211,1,103.199996850586,10|0,0:0|0:0,0:0:0:0:
88,230,115893,1,2,0:0:0:0:
88,230,115980,6,0,P|102:256|131:263,1,51.599998425293,2|0,1:2|0:0,0:0:0:0:
128,342,116154,2,0,P|157:342|178:321,1,51.599998425293,2|0,0:0|1:2,0:0:0:0:
355,230,116329,6,0,P|368:200|359:157,1,60.1999981628419,10|0,0:0|0:0,0:0:0:0:
448,132,116503,2,0,P|429:105|387:92,1,60.1999981628419,2|0,1:2|0:0,0:0:0:0:
272,109,116677,6,0,P|263:138|281:176,1,68.8,2|0,1:2|0:0,0:0:0:0:
208,242,116852,2,0,P|229:263|271:267,1,68.8,2|0,0:0|0:0,0:0:0:0:
294,382,117026,6,0,P|362:335|447:340,1,167.699992323304,10|0,0:0|0:0,0:0:0:0:
512,295,117375,2,0,P|461:301|429:252,1,111.799994882202,2|0,1:2|0:0,0:0:0:0:
351,222,117637,1,2,1:2:0:0:
351,222,117724,5,10,0:0:0:0:
502,195,117898,1,2,1:2:0:0:
488,14,118073,6,0,P|431:73|424:148,1,154.799995275879,2|0,1:2|0:0,0:0:0:0:
351,222,118422,2,0,P|335:173|296:140,1,103.199996850586,10|0,0:0|0:0,0:0:0:0:
345,58,118683,1,2,0:0:0:0:
345,58,118770,6,0,P|309:51|283:21,1,51.599998425293,2|0,1:2|0:0,0:0:0:0:
227,82,118945,2,0,P|214:47|227:10,1,51.599998425293,2|0,0:0|1:2,0:0:0:0:
244,204,119119,6,0,P|214:217|171:208,1,60.1999981628419,10|0,0:0|0:0,0:0:0:0:
149,286,119293,2,0,P|122:267|109:225,1,60.1999981628419,2|0,1:2|0:0,0:0:0:0:
0,58,119468,6,0,P|38:78|53:118,1,68.8,2|0,1:2|0:0,0:0:0:0:
134,83,119643,2,0,P|135:125|108:158,1,68.8,2|0,0:0|0:0,0:0:0:0:
88,358,119817,6,0,P|151:310|243:321,1,167.699992323304,10|0,0:0|0:0,0:0:0:0:
301,271,120166,2,0,P|354:263|377:215,1,111.799994882202,2|0,1:2|0:0,0:0:0:0:
415,145,120427,1,2,1:2:0:0:
415,145,120515,5,10,0:0:0:0:
452,280,120689,1,2,1:2:0:0:
506,104,120864,6,0,P|428:105|340:30,1,154.799995275879,2|0,1:2|0:0,0:0:0:0:
293,5,121212,2,0,P|240:21|234:87,1,103.199996850586,10|0,0:0|0:0,0:0:0:0:
168,123,121474,1,2,0:0:0:0:
168,123,121561,6,0,P|184:141|215:146,1,51.599998425293,2|0,1:2|0:0,0:0:0:0:
240,220,121736,2,0,P|263:215|283:190,1,51.599998425293,2|0,0:0|1:2,0:0:0:0:
459,148,121910,6,0,P|429:135|386:144,1,60.1999981628419,10|0,0:0|0:0,0:0:0:0:
363,66,122084,2,0,P|336:85|323:127,1,60.1999981628419,2|0,1:2|0:0,0:0:0:0:
299,335,122259,6,0,P|325:320|340:281,1,68.8,2|0,1:2|0:0,0:0:0:0:
432,284,122433,2,0,P|432:254|405:221,1,68.8,2|0,0:0|0:0,0:0:0:0:
281,195,122608,6,0,P|199:195|135:263,1,167.699992323304,10|0,0:0|0:0,0:0:0:0:
99,327,122957,2,0,P|50:292|54:237,1,111.799994882202,2|0,1:2|0:0,0:0:0:0:
102,166,123218,1,2,1:2:0:0:
102,166,123305,1,10,0:0:0:0:
203,314,123480,1,2,1:2:0:0:
296,110,123654,6,0,P|353:162|446:172,1,154.799995275879,2|0,1:2|0:0,0:0:0:0:
508,212,124003,2,0,P|481:259|431:255,1,103.199996850586,10|0,0:0|0:0,0:0:0:0:
403,332,124265,1,2,0:0:0:0:
403,332,124352,6,0,P|369:305|368:271,1,51.599998425293,2|0,1:2|0:0,0:0:0:0:
289,302,124526,2,0,P|295:260|324:242,1,51.599998425293,2|0,0:0|1:2,0:0:0:0:
334,78,124701,2,0,P|368:122|365:146,1,60.1999981628419,10|0,0:0|0:0,0:0:0:0:
448,122,124875,2,0,P|427:174|404:183,1,60.1999981628419,2|0,1:2|0:0,0:0:0:0:
299,254,125050,6,0,P|225:202|116:222,1,167.699992323304,2|0,1:2|0:0,0:0:0:0:
18,126,125398,6,0,P|86:123|176:44,1,167.699992323304,2|0,1:2|0:0,0:0:0:0:
299,12,125747,6,0,P|258:81|241:187,1,167.699992323304,2|0,1:2|0:0,0:0:0:0:
150,204,126096,6,0,P|187:273|204:379,1,167.699992323304,2|0,1:2|0:0,0:0:0:0:
337,379,126445,6,0,P|382:314|479:313,1,154.799995275879,2|0,1:2|0:0,0:0:0:0:
512,225,126794,2,0,P|459:215|430:171,1,103.199996850586,10|0,0:0|0:0,0:0:0:0:
360,116,127055,1,2,0:0:0:0:
360,116,127143,6,0,P|385:90|418:90,1,51.599998425293,2|0,1:2|0:0,0:0:0:0:
421,15,127317,2,0,P|456:23|472:52,1,51.599998425293,2|0,0:0|1:2,0:0:0:0:
431,176,127491,6,0,P|399:206|361:198,1,60.1999981628419,10|0,0:0|0:0,0:0:0:0:
352,284,127666,2,0,P|310:271|297:234,1,60.1999981628419,2|0,1:2|0:0,0:0:0:0:
263,164,127840,6,0,P|273:110|286:71,1,68.8,2|0,1:2|0:0,0:0:0:0:
201,4,128015,2,0,P|191:58|178:97,1,68.8,2|0,0:0|0:0,0:0:0:0:
24,194,128189,6,0,P|68:150|147:172,1,120.399996325684,10|0,0:0|0:0,0:0:0:0:
301,259,128538,2,0,P|257:303|178:281,1,120.399996325684,2|0,1:2|0:0,0:0:0:0:
128,264,128800,1,2,1:2:0:0:
128,264,128887,1,10,0:0:0:0:
24,319,129061,1,2,1:2:0:0:
161,361,129236,6,0,P|191:216|201:179,1,154.799995275879,2|0,1:2|0:0,0:0:0:0:
122,153,129584,2,0,P|112:102|100:52,1,103.199996850586,10|0,0:0|0:0,0:0:0:0:
177,6,129846,5,2,0:0:0:0:
177,6,129933,2,0,P|195:34|186:76,1,51.599998425293,2|0,1:2|0:0,0:0:0:0:
276,87,130108,2,0,P|260:116|219:129,1,51.599998425293,2|0,0:0|1:2,0:0:0:0:
9,239,130282,6,0,P|24:209|65:196,1,60.1999981628419,10|0,0:0|0:0,0:0:0:0:
74,122,130457,2,0,P|105:131|125:169,1,60.1999981628419,2|0,1:2|0:0,0:0:0:0:
279,267,130631,6,0,P|318:260|362:252,1,60.1999981628419,2|0,1:2|0:0,0:0:0:0:
167,358,130805,2,0,P|128:351|84:343,1,60.1999981628419,2|0,0:0|0:0,0:0:0:0:
270,252,130980,6,0,B|378:236|378:236|411:274|458:269,1,180.599994488526,10|0,0:0|0:0,0:0:0:0:
461,360,131329,2,0,B|440:299|487:262|496:300|537:234|501:182,1,180.599994488526,2|2,1:2|1:2,0:0:0:0:
460,124,131677,2,0,P|472:73|486:35,1,68.8,10|0,0:0|0:0,0:0:0:0:
375,83,131852,2,0,P|363:134|349:172,1,68.8,2|0,1:2|0:0,0:0:0:0:
270,252,132026,6,0,P|216:210|125:215,1,154.799995275879,2|0,1:2|0:0,0:0:0:0:
68,269,132375,2,0,P|38:225|64:170,1,103.199996850586,10|0,0:0|0:0,0:0:0:0:
108,111,132637,1,2,0:0:0:0:
108,111,132724,6,0,P|96:66|85:32,1,51.599998425293,2|0,1:2|0:0,0:0:0:0:
170,1,132898,2,0,P|182:46|193:80,1,51.599998425293,2|0,0:0|1:2,0:0:0:0:
235,177,133073,6,0,P|240:147|250:119,1,60.1999981628419,10|0,0:0|0:0,0:0:0:0:
270,252,133247,2,0,P|263:281|254:309,1,60.1999981628419,2|0,1:2|0:0,0:0:0:0:
4,370,133422,6,0,P|19:338|54:327,1,68.8,2|0,1:2|0:0,0:0:0:0:
78,226,133596,2,0,P|112:235|129:267,1,68.8,2|0,0:0|0:0,0:0:0:0:
174,351,133770,6,0,B|219:313|277:341|277:341|297:376|344:370,1,180.599994488526,10|0,0:0|0:0,0:0:0:0:
441,308,134119,2,0,P|386:272|403:204,1,120.399996325684,2|0,1:2|0:0,0:0:0:0:
491,133,134381,1,2,1:2:0:0:
492,149,134468,6,0,P|481:188|473:221,1,60.1999981628419,10|0,0:0|0:0,0:0:0:0:
408,112,134643,2,0,P|419:73|427:40,1,60.1999981628419,2|0,1:2|0:0,0:0:0:0:
326,142,134817,6,0,P|241:163|171:183,1,154.799995275879,2|0,1:2|0:0,0:0:0:0:
78,260,135166,2,0,P|137:275|186:289,1,103.199996850586,10|0,0:0|0:0,0:0:0:0:
273,272,135427,1,2,0:0:0:0:
273,272,135515,6,0,P|258:315|254:346,1,51.599998425293,2|0,1:2|0:0,0:0:0:0:
332,376,135689,2,0,P|347:333|351:302,1,51.599998425293,2|0,0:0|1:2,0:0:0:0:
494,181,135864,6,0,P|468:195|428:189,1,60.1999981628419,10|0,0:0|0:0,0:0:0:0:
366,248,136038,2,0,P|346:225|345:185,1,60.1999981628419,2|0,1:2|0:0,0:0:0:0:
389,113,136212,6,0,B|277:85|277:85|256:42|209:34,1,193.50000738144,2|0,1:2|0:0,0:0:0:0:
148,85,136561,6,0,B|134:154|134:154|141:146|141:146|126:224,1,129.00000492096,2|2,1:2|0:0,0:0:0:0:
131,193,136823,1,0,0:0:0:0:
131,193,136910,1,6,1:2:0:0:
124,287,137084,1,8,1:3:0:0:
124,287,137172,1,8,1:3:0:0:
116,380,137345,1,4,1:3:0:0:
116,380,137433,1,4,1:3:0:0:
26,215,137608,5,6,1:2:0:0:
256,192,137695,12,0,141794,0:0:0:0:
386,80,142143,5,2,0:0:0:0:
399,2,142491,1,2,0:0:0:0:
323,24,142840,1,2,0:0:0:0:
484,129,143189,6,0,P|403:103|316:188,1,193.50000738144,4|0,1:2|0:0,0:0:0:0:
254,221,143538,2,0,P|223:213|192:204,1,64.5000024604798,0|2,0:0|0:0,0:0:0:0:
367,371,143887,2,0,L|333:232,1,129.00000492096,8|0,0:0|0:0,0:0:0:0:
266,308,144410,1,2,0:0:0:0:
44,176,144584,6,0,P|95:167|130:136,1,86,2|0,1:2|0:0,0:0:0:0:
196,1,145108,6,0,P|178:49|187:95,1,86,2|2,1:2|0:0,0:0:0:0:
358,222,145631,6,0,B|307:233|279:195|288:190|262:148|198:165,2,172,2|2|2,1:2|0:0|0:0,0:0:0:0:
496,190,146503,1,0,0:0:0:0:
418,364,146677,6,0,L|399:282,1,64.5000024604798,10|2,0:0|0:0,0:0:0:0:
505,202,147026,2,0,L|490:264,1,64.5000024604798,2|0,0:0|0:0,0:0:0:0:
329,347,147375,6,0,B|266:306|210:357|210:357|240:270|175:225,1,258,6|0,1:2|0:0,0:0:0:0:
0,197,148073,6,0,B|63:238|119:187|119:187|89:274|154:319,1,258,14|0,1:2|0:0,0:0:0:0:
275,95,148770,6,0,P|243:188|184:242,1,172,2|0,1:2|0:0,0:0:0:0:
279,188,149294,1,2,0:0:0:0:
146,33,149468,6,0,P|171:61|220:67,1,64.5000024604798,8|2,0:0|0:0,0:0:0:0:
296,91,149817,2,0,P|325:79|345:54,1,64.5000024604798,0|2,0:0|0:0,0:0:0:0:
438,255,150166,6,0,L|414:172,1,86,2|0,1:2|0:0,0:0:0:0:
507,31,150689,6,0,L|440:95,1,86,2|0,1:2|0:0,0:0:0:0:
209,50,151212,6,0,P|307:55|358:112,1,172,2|0,1:2|0:0,0:0:0:0:
279,201,151736,2,0,P|261:174|261:142,2,64.5000024604798,2|2|2,0:0|0:0|0:0,0:0:0:0:
406,340,152259,2,0,P|413:308|425:278,1,64.5000024604798,14|10,0:0|0:0,0:0:0:0:
425,278,152520,1,8,0:0:0:0:
425,278,152608,1,10,0:0:0:0:
378,200,152782,1,8,0:0:0:0:
269,378,152957,6,0,P|219:332|110:344,1,161.25,6|8,1:2|0:0,0:0:0:0:
0,323,153305,2,0,B|80:310|39:251|137:238,1,161.25,6|0,1:2|0:0,0:0:0:0:
222,298,153654,2,0,P|233:232|297:149,1,161.25,6|8,1:2|0:0,0:0:0:0:
193,98,154003,2,0,P|177:147|209:187,1,107.5,6|8,1:2|0:0,0:0:0:0:
323,272,154352,6,0,B|379:270|409:220|370:229|408:176|468:183,1,167.699992323304,6|8,1:2|0:0,0:0:0:0:
511,97,154701,2,0,P|449:92|415:30,1,111.799994882202,2|8,1:2|0:0,0:0:0:0:
357,116,155050,1,10,1:2:0:0:
499,14,155224,1,10,0:0:0:0:
347,123,155398,2,0,P|282:105|228:85,1,111.799994882202,10|10,1:2|0:0,0:0:0:0:
223,82,155660,1,0,0:0:0:0:
223,82,155747,6,0,P|199:134|196:173,1,94.600002886963,10|2,1:2|0:0,0:0:0:0:
7,306,156096,2,0,P|38:252|136:252,1,141.900004330444,10|0,1:2|0:0,0:0:0:0:
181,297,156445,2,0,P|233:277|275:267,1,94.600002886963,10|8,1:2|0:0,0:0:0:0:
462,328,156794,1,10,1:2:0:0:
392,378,156968,5,8,0:0:0:0:
392,378,157055,1,0,0:0:0:0:
392,378,157143,2,0,B|364:360|364:360|337:325|354:247|437:238,1,167.699992323304,10|8,1:2|0:0,0:0:0:0:
483,241,157491,2,0,P|481:189|430:166,1,111.799994882202,2|10,1:2|0:0,0:0:0:0:
196,283,157840,5,10,1:2:0:0:
196,283,157927,1,8,0:0:0:0:
196,283,158015,1,10,0:0:0:0:
196,283,158102,1,8,0:0:0:0:
196,283,158189,2,0,P|178:218|163:172,1,111.799994882202,10|10,1:2|0:0,0:0:0:0:
307,15,158538,6,0,P|322:71|335:111,1,94.600002886963,10|0,1:2|0:0,0:0:0:0:
256,163,158887,2,0,B|165:142|224:113|95:93,1,141.900004330444,10|0,1:2|0:0,0:0:0:0:
59,154,159236,6,0,P|74:210|87:250,1,77.3999976379395,10|0,1:2|0:0,0:0:0:0:
80,228,159584,1,2,0:0:0:0:
22,359,159759,5,10,0:0:0:0:
22,359,159846,1,10,0:0:0:0:
22,359,159933,2,0,P|71:314|141:324,1,120.399996325684,14|0,1:2|0:0,0:0:0:0:
198,365,160195,1,0,1:2:0:0:
198,365,160282,2,0,P|209:322|220:288,1,60.1999981628419,2|0,0:0|0:0,0:0:0:0:
166,232,160457,1,10,1:2:0:0:
299,355,160631,6,0,B|377:334|377:334|392:312|409:304,1,120.399996325684,10|2,1:2|0:0,0:0:0:0:
485,280,160893,1,0,1:2:0:0:
485,280,160980,2,0,P|469:239|436:225,1,60.1999981628419,2|0,0:0|0:0,0:0:0:0:
474,359,161154,1,10,1:2:0:0:
362,229,161329,6,0,P|387:163|440:140,1,120.399996325684,10|2,1:2|0:0,0:0:0:0:
493,89,161590,2,0,B|460:96|460:96|414:72|371:71,1,120.399996325684,0|0,1:2|0:0,0:0:0:0:
377,71,161852,1,8,1:2:0:0:
211,10,162026,6,0,B|189:19|189:19|157:74|214:113,1,120.399996325684,10|0,1:2|0:0,0:0:0:0:
285,128,162288,1,0,1:2:0:0:
290,137,162375,2,0,P|278:186|275:218,1,60.1999981628419,2|0,0:0|0:0,0:0:0:0:
216,254,162550,1,8,1:2:0:0:
29,257,162724,6,0,P|17:222|2:190,3,60.1999981628419,10|8|8|8,1:2|0:0|1:2|0:0,0:0:0:0:
106,305,163073,6,0,P|94:332|84:361,3,60.1999981628419,8|8|8|8,1:2|0:0|1:2|0:0,0:0:0:0:
216,254,163422,5,8,1:2:0:0:
246,225,163509,1,8,0:0:0:0:
287,216,163596,1,8,1:2:0:0:
327,227,163683,1,8,0:0:0:0:
356,257,163770,1,8,1:2:0:0:
384,288,163858,1,8,0:0:0:0:
424,299,163945,1,8,1:2:0:0:
463,285,164032,1,8,0:0:0:0:
489,252,164119,5,2,1:2:0:0:
459,153,164468,1,2,0:0:0:0:
429,54,164817,2,0,P|487:40|521:27,1,68.8,10|0,0:0|1:2,0:0:0:0:
459,153,165166,6,0,B|347:108|440:77|273:38,1,180.599994488526,10|0,0:0|0:0,0:0:0:0:
244,96,165515,6,0,P|231:36|227:12,2,68.8,2|0|2,0:0|0:0|0:0,0:0:0:0:
302,175,166038,5,10,0:0:0:0:
302,175,166125,1,10,0:0:0:0:
302,175,166212,2,0,L|357:159,1,34.4,2|0,1:2|0:0,0:0:0:0:
77,340,166474,6,0,L|22:324,1,34.4,2|0,1:2|0:0,0:0:0:0:
199,383,166736,6,0,P|187:258|136:170,1,206.4,6|0,1:2|0:0,0:0:0:0:
71,140,167084,1,2,1:2:0:0:
71,140,167172,1,2,0:0:0:0:
71,140,167259,2,0,B|103:100|100:56|100:56|127:101|196:101,1,180.599994488526,2|0,1:2|0:0,0:0:0:0:
174,99,167608,1,2,1:2:0:0:
59,248,167782,1,2,0:0:0:0:
243,300,167957,2,0,P|290:288|337:269,1,60.1999981628419,2|0,1:2|0:0,0:0:0:0:
397,62,168131,5,0,0:0:0:0:
397,62,168218,1,0,0:0:0:0:
397,62,168305,2,0,B|326:36|326:36|371:184,1,206.4,2|0,1:2|0:0,0:0:0:0:
371,171,168654,2,0,P|420:154|462:134,1,68.8,2|0,1:2|0:0,0:0:0:0:
512,312,168829,5,2,0:0:0:0:
512,312,168916,1,0,0:0:0:0:
512,312,169003,2,0,B|485:330|485:330|413:339|374:296,1,137.6,2|2,1:2|0:0,0:0:0:0:
385,306,169265,1,2,1:2:0:0:
385,306,169352,2,0,P|374:353|370:386,1,68.8,2|0,0:0|0:0,0:0:0:0:
243,300,169526,2,0,P|237:266|229:232,1,68.8,2|0,1:2|0:0,0:0:0:0:
320,228,169701,5,0,1:2:0:0:
286,382,169875,1,2,0:0:0:0:
152,306,170050,2,0,B|104:320|104:320|89:339|89:339|19:362,1,120.399996325684,2|2,1:2|0:0,0:0:0:0:
122,184,170398,2,0,B|169:198|169:198|184:217|184:217|254:240,1,120.399996325684,2|2,1:2|0:0,0:0:0:0:
50,248,170747,2,0,P|16:185|80:90,1,180.599994488526,2|0,1:2|0:0,0:0:0:0:
73,102,171096,6,0,P|109:92|144:59,1,60.1999981628419,6|0,1:2|0:0,0:0:0:0:
241,145,171270,1,2,0:0:0:0:
135,0,171445,6,0,P|178:54|241:41,1,111.799994882202,2|2,1:2|0:0,0:0:0:0:
216,54,171707,1,0,0:0:0:0:
216,54,171794,1,2,1:2:0:0:
367,124,171968,1,2,0:0:0:0:
367,124,172055,1,2,1:2:0:0:
367,124,172143,2,0,P|405:115|432:86,1,55.8999974411012,2|0,0:0|0:0,0:0:0:0:
333,41,172317,6,0,P|311:137|309:235,1,180.599994488526,2|0,1:2|0:0,0:0:0:0:
381,289,172666,1,2,1:2:0:0:
381,289,172753,1,2,0:0:0:0:
381,289,172840,2,0,P|433:274|471:258,1,60.1999981628419,2|0,1:2|0:0,0:0:0:0:
346,378,173015,2,0,P|317:368|288:360,1,60.1999981628419,2|0,0:0|0:0,0:0:0:0:
240,276,173189,5,2,1:2:0:0:
433,361,173364,1,2,0:0:0:0:
226,272,173538,2,0,B|159:292|196:309|112:330,1,120.399996325684,2|0,1:2|0:0,0:0:0:0:
61,384,173800,5,0,0:0:0:0:
53,382,173887,2,0,P|93:208|103:100,1,275.2,6|2,1:2|0:0,0:0:0:0:
357,30,174410,5,2,0:0:0:0:
357,30,174497,1,0,0:0:0:0:
357,30,174584,2,0,P|336:116|332:170,1,137.6,2|2,1:2|0:0,0:0:0:0:
332,164,174846,1,2,1:2:0:0:
332,164,174933,1,2,0:0:0:0:
445,130,175108,1,2,1:2:0:0:
510,321,175282,6,0,B|475:344|475:344|398:345|352:288,1,167.699992323304,6|0,1:2|0:0,0:0:0:0:
361,298,175631,6,0,B|315:313|315:313|300:333|300:333|255:352,1,111.799994882202,2|2,1:2|0:0,0:0:0:0:
0,207,175980,6,0,B|47:207|82:162|82:162|53:212|85:260,1,193.50000738144,6|0,1:2|0:0,0:0:0:0:
135,331,176329,6,0,P|170:280|160:215,1,111.799994882202,10|0,0:0|0:0,0:0:0:0:
484,30,177375,6,0,P|469:65|462:99,1,51.599998425293,2|0,1:2|0:0,0:0:0:0:
440,159,177550,1,2,0:0:0:0:
440,159,177637,1,2,1:2:0:0:
440,159,177724,1,10,0:0:0:0:
357,88,177898,6,0,P|396:179|414:269,1,180.599994488526,2|0,1:2|0:0,0:0:0:0:
485,314,178247,1,2,1:2:0:0:
485,314,178334,1,2,0:0:0:0:
485,314,178422,2,0,P|440:341|411:337,1,60.1999981628419,10|0,1:2|0:0,0:0:0:0:
302,227,178596,2,0,P|347:200|376:204,1,60.1999981628419,2|0,0:0|0:0,0:0:0:0:
413,258,178770,1,2,1:2:0:0:
344,375,178945,5,2,0:0:0:0:
344,375,179032,1,0,0:0:0:0:
344,375,179119,2,0,P|332:323|320:287,1,60.1999981628419,10|0,1:2|0:0,0:0:0:0:
198,206,179294,2,0,P|205:235|211:264,1,60.1999981628419
88,318,179468,6,0,B|83:299|36:291|36:291|79:266|127:288|144:348,1,180.599994488526,2|0,1:2|0:0,0:0:0:0:
213,384,179817,6,0,B|304:357|247:340|337:315,1,137.6,10|2,1:2|0:0,0:0:0:0:
424,341,180079,1,0,0:0:0:0:
424,341,180166,2,0,P|439:252|456:194,1,137.6,2|2,1:2|0:0,0:0:0:0:
451,206,180427,1,2,1:2:0:0:
451,206,180515,1,10,0:0:0:0:
381,121,180689,1,2,1:2:0:0:
496,47,180864,6,0,B|458:97|392:81|392:81|373:43|316:36,1,193.50000738144,0|0,1:2|0:0,0:0:0:0:
242,47,181212,2,0,B|251:95|251:95|267:110|267:110|278:183,1,129.00000492096,10|2,1:2|0:0,0:0:0:0:
251,329,181561,5,0,1:2:0:0:
377,256,181736,1,8,0:1:0:0:
239,339,181910,2,0,L|181:323,1,34.4,8|0,0:1|0:0,0:0:0:0:
15,323,182084,5,8,0:0:0:0:
15,323,182172,1,8,0:0:0:0:
15,323,182259,2,0,P|53:309|77:281,1,51.599998425293,6|0,1:2|0:0,0:0:0:0:
163,222,182433,1,2,0:0:0:0:
115,384,182608,6,0,P|86:274|32:196,1,206.4,8|0,1:2|0:0,0:0:0:0:
34,198,182957,1,0,1:2:0:0:
149,30,183131,1,2,0:0:0:0:
149,30,183218,1,2,1:2:0:0:
149,30,183305,2,0,P|113:59|75:61,1,60.1999981628419,10|0,0:0|0:0,0:0:0:0:
8,76,183480,6,0,B|84:88|149:127|149:127|173:112|207:111,1,193.50000738144,2|0,1:2|0:0,0:0:0:0:
262,55,183829,1,2,1:2:0:0:
262,55,183916,1,2,0:0:0:0:
262,55,184003,2,0,P|281:91|260:135,1,64.5000024604798,10|0,1:2|0:0,0:0:0:0:
228,194,184177,1,2,0:0:0:0:
378,325,184352,5,2,1:2:0:0:
276,379,184526,1,2,0:0:0:0:
276,379,184614,1,0,0:0:0:0:
276,379,184701,2,0,P|286:302|304:239,1,120.399996325684,10|0,1:2|0:0,0:0:0:0:
508,86,185050,6,0,B|481:69|441:77|417:118|436:113|434:131|419:160|384:173|335:151,1,193.50000738144,2|0,1:2|0:0,0:0:0:0:
336,138,185398,2,0,P|301:153|270:161,1,55.8999974411012,10|0,0:0|0:0,0:0:0:0:
26,296,185573,5,2,0:0:0:0:
26,296,185660,1,0,0:0:0:0:
26,296,185747,2,0,P|89:315|149:343,1,129.00000492096,2|2,1:2|0:0,0:0:0:0:
146,341,186009,1,2,0:0:0:0:
146,341,186096,1,10,0:0:0:0:
296,262,186270,1,2,0:0:0:0:
166,181,186445,5,4,1:2:0:0:
166,181,186794,6,0,P|184:244|186:260,3,68.8,2|2|2|6,0:0|0:0|0:0|1:2,0:0:0:0:
