osu file format v14

[General]
AudioFilename: audio.mp3
AudioLeadIn: 0
PreviewTime: 41365
Countdown: 0
SampleSet: Normal
StackLeniency: 0.7
Mode: 1
LetterboxInBreaks: 0
WidescreenStoryboard: 1

[Editor]
Bookmarks: 56052
DistanceSpacing: 1.14
BeatDivisor: 12
GridSize: 32
TimelineZoom: 1.7

[Metadata]
Title:Still Lonesome
TitleUnicode:Still Lonesome
Artist:PSYQUI
ArtistUnicode:PSYQUI
Creator:h o n e y
Version:Oni
Source:SOUND VOLTEX VIVID WAVE
Tags:jubeat festo future core MUSECA SDVX V 5 MÚSECA 1+1/2 electronic instrumental sv realy0_ Tadahitotsu kdj8381
BeatmapID:2857959
BeatmapSetID:1351704

[Difficulty]
HPDrainRate:5
CircleSize:5
OverallDifficulty:5.5
ApproachRate:0
SliderMultiplier:1.4
SliderTickRate:1

[Events]
//Background and Video events
0,0,"YEN THANK.jpg",0,-140
//Break Periods
//Storyboard Layer 0 (Background)
//Storyboard Layer 1 (Fail)
//Storyboard Layer 2 (Pass)
//Storyboard Layer 3 (Foreground)
//Storyboard Layer 4 (Overlay)
//Storyboard Sound Samples

[TimingPoints]
1410,357.142857142857,4,1,0,70,1,0
1410,-142.857142857143,4,1,0,70,0,0
5338,-142.857142857143,4,1,0,80,0,0
7079,-222.222222222222,4,1,0,80,0,0
8552,357.142857142857,5,1,0,80,1,0
8552,-181.818181818182,4,1,0,80,0,0
9936,-117.647058823529,4,1,0,80,0,0
10292,-100,4,1,0,80,0,0
10337,357.142857142857,4,1,0,80,1,0
14935,-83.3333333333333,4,1,0,80,0,0
15292,-90.9090909090909,4,1,0,80,0,0
15650,-100,4,1,0,80,0,0
17479,357.142857142857,3,1,0,80,1,0
18507,-83.3333333333333,4,1,0,80,0,0
18550,357.142857142857,4,1,0,80,1,0
19978,357.142857142857,5,1,0,80,1,0
21364,-200,4,1,0,80,0,0
21453,-166.666666666667,4,1,0,80,0,0
21763,357.142857142857,4,1,0,80,1,0
21763,-166.666666666667,4,1,0,80,0,0
22031,-125,4,1,0,80,0,0
22790,-142.857142857143,4,1,0,80,0,0
24219,-111.111111111111,4,1,0,80,0,0
25648,-90.9090909090909,4,1,0,80,0,0
27076,-76.9230769230769,4,1,0,80,0,0
28505,-66.6666666666667,4,1,0,80,0,0
29933,-58.8235294117647,4,1,0,80,0,0
31362,-52.6315789473684,4,1,0,80,0,0
31719,-100,4,1,0,80,0,0
32076,-90.9090909090909,4,1,0,80,0,0
32433,-83.3333333333333,4,1,0,80,0,0
32790,-76.9230769230769,4,1,0,80,0,0
33148,-71.4285714285714,4,1,0,80,0,0
33237,-100,4,1,0,80,0,0
37433,-76.9230769230769,4,1,0,80,0,0
37790,-83.3333333333333,4,1,0,80,0,0
38148,-90.9090909090909,4,1,0,80,0,0
38505,-100,4,1,0,80,0,0
38862,-76.9230769230769,4,1,0,80,0,0
40334,357.142857142857,3,1,0,80,1,0
40334,-84.7457627118644,3,1,0,80,0,0
40378,-83.3333333333333,3,1,0,80,0,0
40467,-81.9672131147541,3,1,0,80,0,0
40557,-80.6451612903226,3,1,0,80,0,0
40646,-79.3650793650794,3,1,0,80,0,0
40825,-76.9230769230769,3,1,0,80,0,0
41362,-90.9090909090909,4,1,0,80,0,0
41405,357.142857142857,4,1,0,80,1,0
42076,-83.3333333333333,4,1,0,80,0,0
42833,357.142857142857,5,1,0,80,1,0
42833,-76.9230769230769,4,1,0,80,0,0
43505,-71.4285714285714,4,1,0,80,0,0
44219,-66.6666666666667,4,1,0,80,0,0
44618,357.142857142857,4,1,0,80,1,0
44618,-83.3333333333333,4,1,0,80,0,0
45469,-100,4,1,0,80,0,0
45868,357.142857142857,5,1,0,80,1,0
47475,357.142857142857,4,1,0,80,1,0
52969,-83.3333333333333,4,1,0,80,0,0
54264,-100,4,1,0,80,0,0
55648,-83.3333333333333,4,1,0,80,0,0
55737,-100,4,1,0,80,0,0
56046,-100,4,1,0,80,0,1
65867,-125,4,1,0,80,0,0
66225,-100,4,1,0,80,0,1
67117,-100,4,1,0,80,0,0
67432,-83.3333333333333,4,1,0,80,0,0
68903,-100,4,1,0,80,0,0
69082,-100,4,1,0,80,0,1
69264,-100,4,1,0,80,0,1
77296,-125,4,1,0,80,0,0
77653,-100,4,1,0,80,0,1
78594,-100,4,1,0,80,0,1
78903,-100,4,1,0,80,0,0
78951,-125,4,1,0,80,0,0
86049,-83.3333333333333,4,1,0,80,0,0
98639,-66.6666666666667,4,1,0,80,0,0

[HitObjects]
256,192,1410,5,8,0:0:0:0:
256,192,1588,1,0,0:0:0:0:
256,192,1767,1,0,0:0:0:0:
256,192,2124,5,8,0:0:0:0:
256,192,2302,1,0,0:0:0:0:
256,192,2481,1,8,0:0:0:0:
256,192,2659,1,8,0:0:0:0:
256,192,2838,1,0,0:0:0:0:
256,192,3195,1,0,0:0:0:0:
256,192,3374,1,8,0:0:0:0:
256,192,3552,1,8,0:0:0:0:
256,192,3731,1,0,0:0:0:0:
256,192,3909,1,8,0:0:0:0:
256,192,4088,1,8,0:0:0:0:
256,192,4267,1,0,0:0:0:0:
256,192,5576,1,8,0:0:0:0:
256,192,5695,1,0,0:0:0:0:
256,192,7124,12,0,9981,0:0:0:0:
256,192,10337,5,4,0:0:0:0:
256,192,10694,1,8,0:0:0:0:
256,192,10783,1,8,0:0:0:0:
256,192,10872,1,0,0:0:0:0:
256,192,11051,1,8,0:0:0:0:
256,192,11140,1,8,0:0:0:0:
256,192,11229,1,0,0:0:0:0:
256,192,11408,1,8,0:0:0:0:
256,192,11765,1,4,0:0:0:0:
256,192,12122,1,8,0:0:0:0:
256,192,12479,1,0,0:0:0:0:
256,192,12658,1,8,0:0:0:0:
256,192,12837,1,8,0:0:0:0:
256,192,13015,1,8,0:0:0:0:
256,192,13104,1,8,0:0:0:0:
256,192,13194,1,4,0:0:0:0:
256,192,13551,1,8,0:0:0:0:
256,192,13729,1,4,0:0:0:0:
256,192,13908,1,0,0:0:0:0:
256,192,13997,1,0,0:0:0:0:
256,192,14086,1,8,0:0:0:0:
256,192,14265,1,12,0:0:0:0:
256,192,14979,1,4,0:0:0:0:
256,192,15336,1,4,0:0:0:0:
256,192,15694,1,4,0:0:0:0:
256,192,16051,1,8,0:0:0:0:
256,192,16229,1,4,0:0:0:0:
256,192,16408,1,4,0:0:0:0:
256,192,16586,1,8,0:0:0:0:
256,192,16676,1,8,0:0:0:0:
256,192,16765,1,8,0:0:0:0:
256,192,16944,1,4,0:0:0:0:
256,192,17301,1,4,0:0:0:0:
256,192,17479,1,0,0:0:0:0:
256,192,17568,1,0,0:0:0:0:
256,192,17657,1,0,0:0:0:0:
256,192,17746,1,0,0:0:0:0:
256,192,17836,1,8,0:0:0:0:
256,192,18014,1,0,0:0:0:0:
256,192,18193,1,0,0:0:0:0:
256,192,18282,1,0,0:0:0:0:
256,192,18371,1,8,0:0:0:0:
256,192,18550,1,12,0:0:0:0:
256,192,19978,1,12,0:0:0:0:
256,192,21763,1,12,0:0:0:0:
256,192,22120,12,0,31584,0:0:0:0:
256,192,31762,5,0,0:0:0:0:
256,192,32120,1,0,0:0:0:0:
256,192,32477,1,8,0:0:0:0:
256,192,32834,1,8,0:0:0:0:
256,192,33191,5,4,0:0:0:0:
256,192,33548,1,8,0:0:0:0:
256,192,33637,1,8,0:0:0:0:
256,192,33727,1,0,0:0:0:0:
256,192,33816,1,0,0:0:0:0:
256,192,33905,1,8,0:0:0:0:
256,192,34084,1,12,0:0:0:0:
256,192,34441,1,12,0:0:0:0:
256,192,34798,1,0,0:0:0:0:
256,192,34977,1,0,0:0:0:0:
256,192,35066,1,0,0:0:0:0:
256,192,35155,1,8,0:0:0:0:
256,192,35245,1,8,0:0:0:0:
256,192,35334,1,8,0:0:0:0:
256,192,35512,1,4,0:0:0:0:
256,192,35691,1,4,0:0:0:0:
256,192,35870,1,12,0:0:0:0:
256,192,36048,1,8,0:0:0:0:
256,192,36137,1,8,0:0:0:0:
256,192,36227,1,0,0:0:0:0:
256,192,36405,1,12,0:0:0:0:
256,192,36584,1,12,0:0:0:0:
256,192,36941,1,12,0:0:0:0:
256,192,37120,1,0,0:0:0:0:
256,192,37477,1,12,0:0:0:0:
256,192,37834,1,12,0:0:0:0:
256,192,38191,1,4,0:0:0:0:
256,192,38548,1,4,0:0:0:0:
256,192,38905,1,12,0:0:0:0:
256,192,39441,1,4,0:0:0:0:
256,192,39798,1,4,0:0:0:0:
256,192,40155,1,4,0:0:0:0:
256,192,40334,1,0,0:0:0:0:
256,192,40423,1,0,0:0:0:0:
256,192,40512,1,8,0:0:0:0:
256,192,40601,1,8,0:0:0:0:
256,192,40691,1,8,0:0:0:0:
256,192,40869,1,12,0:0:0:0:
256,192,41405,1,4,0:0:0:0:
256,192,42119,1,4,0:0:0:0:
256,192,42833,1,12,0:0:0:0:
256,192,43547,1,12,0:0:0:0:
256,192,44261,1,12,0:0:0:0:
256,192,44618,1,4,0:0:0:0:
256,192,44885,1,4,0:0:0:0:
256,192,45153,1,4,0:0:0:0:
256,192,45421,1,4,0:0:0:0:
256,192,45868,1,8,0:0:0:0:
256,192,45957,1,8,0:0:0:0:
256,192,46046,1,0,0:0:0:0:
256,192,46225,1,0,0:0:0:0:
256,192,46403,1,8,0:0:0:0:
256,192,46493,1,8,0:0:0:0:
256,192,46582,1,0,0:0:0:0:
256,192,46760,1,0,0:0:0:0:
256,192,46939,1,12,0:0:0:0:
256,192,47118,1,0,0:0:0:0:
256,192,47207,1,0,0:0:0:0:
256,192,47296,1,8,0:0:0:0:
256,192,47475,1,12,0:0:0:0:
256,192,47832,1,12,0:0:0:0:
256,192,48189,1,0,0:0:0:0:
256,192,48367,1,8,0:0:0:0:
256,192,48457,1,0,0:0:0:0:
256,192,48635,1,8,0:0:0:0:
256,192,48725,1,0,0:0:0:0:
256,192,48814,1,8,0:0:0:0:
256,192,48992,1,0,0:0:0:0:
256,192,49082,1,8,0:0:0:0:
256,192,49260,1,0,0:0:0:0:
256,192,49439,1,0,0:0:0:0:
256,192,49528,1,8,0:0:0:0:
256,192,49617,1,8,0:0:0:0:
256,192,49796,1,8,0:0:0:0:
256,192,49885,1,8,0:0:0:0:
256,192,49975,1,0,0:0:0:0:
256,192,50153,1,8,0:0:0:0:
256,192,50332,1,0,0:0:0:0:
256,192,50421,1,0,0:0:0:0:
256,192,50510,1,0,0:0:0:0:
256,192,50689,1,0,0:0:0:0:
256,192,50867,1,8,0:0:0:0:
256,192,51046,1,8,0:0:0:0:
256,192,51314,5,8,0:0:0:0:
256,192,51582,1,0,0:0:0:0:
256,192,51939,1,0,0:0:0:0:
256,192,52028,1,0,0:0:0:0:
256,192,52117,1,8,0:0:0:0:
256,192,52385,1,8,0:0:0:0:
256,192,52475,1,0,0:0:0:0:
256,192,52564,1,8,0:0:0:0:
256,192,52653,1,0,0:0:0:0:
256,192,52742,1,0,0:0:0:0:
256,192,53010,12,8,54260,0:0:0:0:
256,192,54617,5,8,0:0:0:0:
256,192,54975,1,8,0:0:0:0:
256,192,55332,1,0,0:0:0:0:
256,192,55421,1,0,0:0:0:0:
256,192,55510,1,8,0:0:0:0:
256,192,55689,1,12,0:0:0:0:
256,192,56046,1,8,0:0:0:0:
256,192,56135,1,8,0:0:0:0:
256,192,56225,1,0,0:0:0:0:
256,192,56403,1,8,0:0:0:0:
256,192,56671,1,8,0:0:0:0:
256,192,56760,1,0,0:0:0:0:
256,192,56850,1,0,0:0:0:0:
256,192,57028,1,8,0:0:0:0:
256,192,57117,1,8,0:0:0:0:
256,192,57296,1,0,0:0:0:0:
256,192,57475,1,8,0:0:0:0:
256,192,57653,1,8,0:0:0:0:
256,192,57832,1,0,0:0:0:0:
256,192,58010,1,8,0:0:0:0:
256,192,58099,1,0,0:0:0:0:
256,192,58189,1,0,0:0:0:0:
256,192,58367,1,8,0:0:0:0:
256,192,58546,1,0,0:0:0:0:
256,192,58635,1,8,0:0:0:0:
256,192,58724,1,0,0:0:0:0:
256,192,58903,1,8,0:0:0:0:
256,192,59260,1,0,0:0:0:0:
256,192,59439,1,8,0:0:0:0:
256,192,59617,1,0,0:0:0:0:
256,192,59707,1,0,0:0:0:0:
256,192,59796,1,8,0:0:0:0:
256,192,59974,1,8,0:0:0:0:
256,192,60153,1,0,0:0:0:0:
256,192,60332,1,8,0:0:0:0:
256,192,60510,1,0,0:0:0:0:
256,192,60689,1,0,0:0:0:0:
256,192,60867,1,8,0:0:0:0:
256,192,60957,1,0,0:0:0:0:
256,192,61046,1,0,0:0:0:0:
263,195,61224,1,8,0:0:0:0:
263,196,61314,1,8,0:0:0:0:
256,192,61403,1,8,0:0:0:0:
256,192,61492,1,8,0:0:0:0:
256,192,61582,1,0,0:0:0:0:
256,192,61760,1,12,0:0:0:0:
256,192,62117,1,0,0:0:0:0:
256,192,62207,1,0,0:0:0:0:
256,192,62296,1,8,0:0:0:0:
256,192,62474,1,8,0:0:0:0:
256,192,62653,1,0,0:0:0:0:
256,192,62832,1,8,0:0:0:0:
256,192,62921,1,8,0:0:0:0:
256,192,63010,1,0,0:0:0:0:
256,192,63099,1,0,0:0:0:0:
256,192,63189,1,8,0:0:0:0:
256,192,63367,1,0,0:0:0:0:
256,192,63546,1,0,0:0:0:0:
256,192,63724,1,8,0:0:0:0:
256,192,63903,1,0,0:0:0:0:
256,192,64082,1,8,0:0:0:0:
256,192,64260,1,8,0:0:0:0:
256,192,64439,1,8,0:0:0:0:
256,192,64528,1,8,0:0:0:0:
256,192,64617,1,0,0:0:0:0:
256,192,64974,1,0,0:0:0:0:
256,192,65153,1,8,0:0:0:0:
256,192,65332,1,0,0:0:0:0:
256,192,65510,5,8,0:0:0:0:
256,192,66225,1,4,0:0:0:0:
256,192,66403,1,8,0:0:0:0:
256,192,66582,1,0,0:0:0:0:
256,192,66760,1,0,0:0:0:0:
256,192,66939,1,8,0:0:0:0:
256,192,67296,5,8,0:0:0:0:
256,192,67475,5,4,0:0:0:0:
224,192,67832,1,4,0:0:0:0:
256,192,68189,1,4,0:0:0:0:
256,192,68457,1,12,0:0:0:0:
256,192,68724,1,4,0:0:0:0:
256,192,69082,1,12,0:0:0:0:
256,192,69260,1,4,0:0:0:0:
256,192,69439,1,8,0:0:0:0:
256,192,69617,1,8,0:0:0:0:
256,192,69796,1,8,0:0:0:0:
256,192,69974,1,8,0:0:0:0:
256,192,70064,1,0,0:0:0:0:
256,192,70153,1,0,0:0:0:0:
256,192,70332,1,8,0:0:0:0:
256,192,70689,1,0,0:0:0:0:
256,192,70867,1,8,0:0:0:0:
256,192,71046,1,0,0:0:0:0:
256,192,71135,1,0,0:0:0:0:
256,192,71224,1,8,0:0:0:0:
256,192,71403,1,8,0:0:0:0:
256,192,71582,1,0,0:0:0:0:
256,192,71760,1,8,0:0:0:0:
256,192,71939,1,8,0:0:0:0:
256,192,72117,1,8,0:0:0:0:
256,192,72296,1,0,0:0:0:0:
256,192,72385,1,0,0:0:0:0:
256,192,72474,1,8,0:0:0:0:
272,196,72653,1,0,0:0:0:0:
256,192,72832,1,8,0:0:0:0:
256,192,73010,1,0,0:0:0:0:
256,192,73189,1,12,0:0:0:0:
256,192,73367,1,0,0:0:0:0:
256,192,73546,1,8,0:0:0:0:
256,192,73635,1,0,0:0:0:0:
256,192,73724,1,8,0:0:0:0:
256,192,73903,1,0,0:0:0:0:
261,194,74082,1,0,0:0:0:0:
262,190,74171,1,8,0:0:0:0:
256,192,74260,1,8,0:0:0:0:
256,192,74349,1,8,0:0:0:0:
256,192,74439,1,0,0:0:0:0:
256,192,74617,1,8,0:0:0:0:
256,192,74796,1,0,0:0:0:0:
256,192,74974,1,0,0:0:0:0:
256,192,75153,1,8,0:0:0:0:
256,192,75242,1,0,0:0:0:0:
256,192,75332,1,8,0:0:0:0:
256,192,75510,1,8,0:0:0:0:
256,192,75689,1,0,0:0:0:0:
256,192,75867,1,0,0:0:0:0:
256,192,75957,1,0,0:0:0:0:
256,192,76046,1,8,0:0:0:0:
256,192,76403,1,0,0:0:0:0:
256,192,76582,1,8,0:0:0:0:
256,192,76760,1,8,0:0:0:0:
256,192,76849,1,8,0:0:0:0:
256,192,76939,1,8,0:0:0:0:
256,192,77028,1,0,0:0:0:0:
256,192,77653,1,4,0:0:0:0:
256,192,77832,1,12,0:0:0:0:
256,160,78010,1,4,0:0:0:0:
256,192,78189,1,12,0:0:0:0:
256,192,78457,1,12,0:0:0:0:
256,192,78724,5,12,0:0:0:0:
256,160,78903,1,4,0:0:0:0:
256,192,79260,1,8,0:0:0:0:
256,192,79617,1,8,0:0:0:0:
256,192,79974,1,8,0:0:0:0:
239,187,80153,1,0,0:0:0:0:
256,192,80332,5,8,0:0:0:0:
256,192,80689,1,0,0:0:0:0:
256,192,80867,1,8,0:0:0:0:
246,196,81224,1,0,0:0:0:0:
256,192,81403,1,8,0:0:0:0:
256,192,81760,1,8,0:0:0:0:
256,192,82117,1,8,0:0:0:0:
256,192,82474,1,0,0:0:0:0:
256,192,82832,1,8,0:0:0:0:
256,192,83189,1,0,0:0:0:0:
256,192,83367,1,8,0:0:0:0:
256,192,83546,1,0,0:0:0:0:
256,192,83903,1,8,0:0:0:0:
246,192,84260,1,0,0:0:0:0:
256,192,84617,1,8,0:0:0:0:
256,192,84974,1,0,0:0:0:0:
256,192,85153,1,0,0:0:0:0:
256,192,85332,1,8,0:0:0:0:
256,192,85689,1,8,0:0:0:0:
256,192,85867,1,0,0:0:0:0:
256,192,86224,1,4,0:0:0:0:
256,192,86492,1,4,0:0:0:0:
256,192,86760,1,12,0:0:0:0:
256,192,87028,1,12,0:0:0:0:
256,192,87296,1,4,0:0:0:0:
256,192,87474,1,12,0:0:0:0:
256,192,89260,1,12,0:0:0:0:
256,192,90332,1,12,0:0:0:0:
256,192,91403,5,12,0:0:0:0:
256,192,91582,12,0,98546,0:0:0:0:
256,192,98903,5,12,0:0:0:0:
