osu file format v14

[General]
AudioFilename: audio.mp3
AudioLeadIn: 0
PreviewTime: 235976
Countdown: 0
SampleSet: Normal
StackLeniency: 0.7
Mode: 0
LetterboxInBreaks: 0
WidescreenStoryboard: 1

[Editor]
Bookmarks: 10833,16227,24232,27493,32407,43193,70159,73925,91732,113305,124092,134878,145665,156451,161845,167238,178025,188811,210384,219822,258923,269684,279796,280470,286454,289909,289993,290077,290161,290246,290330,290414,290499,290583,290667,290751,290836,290920,291004,291088,291173,291257,302043
DistanceSpacing: 1
BeatDivisor: 4
GridSize: 32
TimelineZoom: 2.4

[Metadata]
Title:Start Up feat. Such
TitleUnicode:Start Up feat. Such
Artist:PSYQUI
ArtistUnicode:フリージア
Creator:bBob_21
Version:Ready!
Source:
Tags:psyqui future core tech edm akimura_ekairu
BeatmapID:2226131
BeatmapSetID:1063138

[Difficulty]
HPDrainRate:5
CircleSize:4.1
OverallDifficulty:9
ApproachRate:9.6
SliderMultiplier:1.5
SliderTickRate:1

[Events]
//Background and Video events
0,0,"startup.jpg",0,0
//Break Periods
2,43367,48051
2,199772,208164
//Storyboard Layer 0 (Background)
//Storyboard Layer 1 (Fail)
//Storyboard Layer 2 (Pass)
//Storyboard Layer 3 (Foreground)
//Storyboard Layer 4 (Overlay)
//Storyboard Sound Samples

[TimingPoints]
10808,337.078651685393,4,1,1,65,1,0
21173,-100,4,1,1,5,0,0
21257,-100,4,1,1,65,0,0
21510,-100,4,1,1,5,0,0
21594,-100,4,1,1,75,0,0
48560,-200,4,1,1,70,0,0
49824,-200,4,1,1,5,0,0
49909,-200,4,1,1,70,0,0
50499,-200,4,1,1,5,0,0
50583,-200,4,1,1,70,0,0
51173,-200,4,1,1,5,0,0
51257,-200,4,1,1,70,0,0
52521,-200,4,1,1,5,0,0
52605,-200,4,1,1,70,0,0
53195,-200,4,1,1,5,0,0
53279,-200,4,1,1,70,0,0
53869,-200,4,1,1,5,0,0
53954,-200,4,1,1,70,0,0
55218,-200,4,1,1,5,0,0
55302,-200,4,1,1,70,0,0
55892,-200,4,1,1,5,0,0
55976,-200,4,1,1,70,0,0
56566,-200,4,1,1,5,0,0
56650,-200,4,1,1,70,0,0
57240,-200,4,1,1,5,0,0
57324,-200,4,1,1,70,0,0
57914,-200,4,1,1,5,0,0
57999,-200,4,1,1,70,0,0
58588,-200,4,1,1,5,0,0
58673,-200,4,1,1,70,0,0
59263,-200,4,1,1,5,0,0
59347,-200,4,1,1,70,0,0
60695,-200,4,1,1,62,0,0
60864,-200,4,1,1,54,0,0
61032,-200,4,1,1,46,0,0
61201,-200,4,1,1,38,0,0
61369,-200,4,1,1,30,0,0
61538,-200,4,1,1,22,0,0
61706,-200,4,1,1,14,0,0
61875,-200,4,1,1,6,0,0
62043,-200,4,1,1,70,0,0
63307,-200,4,1,1,5,0,0
63392,-200,4,1,1,70,0,0
63982,-200,4,1,1,5,0,0
64066,-200,4,1,1,70,0,0
64656,-200,4,1,1,5,0,0
64740,-200,4,1,1,70,0,0
66004,-200,4,1,1,5,0,0
66088,-200,4,1,1,70,0,0
66678,-200,4,1,1,5,0,0
66763,-200,4,1,1,70,0,0
67352,-200,4,1,1,5,0,0
67437,-200,4,1,1,70,0,0
68701,-200,4,1,1,5,0,0
68785,-200,4,1,1,70,0,0
69375,-200,4,1,1,5,0,0
69459,-200,4,1,1,70,0,0
70049,-200,4,1,1,5,0,0
70133,-200,4,1,1,70,0,0
70723,-200,4,1,1,5,0,0
70807,-133.333333333333,4,2,1,75,0,0
91706,-80,4,1,1,85,0,0
113279,-50,4,1,1,95,0,1
133841,-66.6666666666667,4,1,1,95,0,1
134178,-133.333333333333,4,1,1,95,0,1
134515,-400,4,1,1,95,0,1
134852,-50,4,1,1,95,0,1
135864,-66.6666666666667,4,1,1,95,0,1
136369,-50,4,1,1,95,0,1
137212,-66.6666666666667,4,1,1,95,0,1
137718,-50,4,1,1,95,0,1
138560,-66.6666666666667,4,1,1,95,0,1
139066,-50,4,1,1,95,0,1
139909,-66.6666666666667,4,1,1,95,0,1
140414,-50,4,1,1,95,0,1
141257,-66.6666666666667,4,1,1,95,0,1
141763,-50,4,1,1,95,0,1
142605,-66.6666666666667,4,1,1,95,0,1
143111,-50,4,1,1,95,0,1
143954,-66.6666666666667,4,1,1,95,0,1
144459,-50,4,1,1,95,0,1
146313,-44.4444444444445,4,1,1,95,0,1
146650,-57.1428571428571,4,1,1,95,0,1
146987,-50,4,1,1,95,0,1
147661,-44.4444444444445,4,1,1,95,0,1
147999,-57.1428571428571,4,1,1,95,0,1
148504,-50,4,1,1,95,0,1
149010,-44.4444444444445,4,1,1,95,0,1
149347,-57.1428571428571,4,1,1,95,0,1
149852,-50,4,1,1,95,0,1
150695,-57.1428571428571,4,1,1,95,0,1
151201,-50,4,1,1,95,0,1
151706,-44.4444444444445,4,1,1,95,0,1
152043,-57.1428571428571,4,1,1,95,0,1
152549,-50,4,1,1,95,0,1
153055,-44.4444444444445,4,1,1,95,0,1
153392,-57.1428571428571,4,1,1,95,0,1
153729,-50,4,1,1,95,0,1
154403,-50,4,1,1,95,0,1
154740,-66.6666666666667,4,1,1,95,0,1
155751,-44.4444444444445,4,1,1,95,0,1
156425,-80,4,1,1,70,0,0
161566,-44.4444444444445,4,1,1,70,0,0
161987,-80,4,1,1,70,0,0
166538,-57.1428571428571,4,1,1,70,0,0
167212,-40,4,1,1,70,0,0
167465,-40,4,1,1,5,0,0
167549,-66.6666666666667,4,1,1,70,0,0
170246,-40,4,1,1,70,0,0
170499,-40,4,1,1,5,0,0
170583,-66.6666666666667,4,1,1,70,0,0
171257,-100,4,1,1,70,0,0
171510,-100,4,1,1,5,0,0
171594,-80,4,1,1,70,0,0
171847,-80,4,1,1,5,0,0
171931,-66.6666666666667,4,1,1,70,0,0
172184,-66.6666666666667,4,1,1,5,0,0
172268,-57.1428571428571,4,1,1,70,0,0
172521,-57.1428571428571,4,1,1,5,0,0
172605,-40,4,1,1,70,0,0
172858,-40,4,1,1,5,0,0
172942,-66.6666666666667,4,1,1,70,0,0
175639,-40,4,1,1,70,0,0
175892,-40,4,1,1,5,0,0
175976,-66.6666666666667,4,1,1,70,0,0
177999,-40,4,1,1,70,0,0
178251,-40,4,1,1,5,0,0
178336,-66.6666666666667,4,1,1,70,0,0
181032,-40,4,1,1,70,0,0
181285,-40,4,1,1,5,0,0
181369,-66.6666666666667,4,1,1,70,0,0
182043,-100,4,1,1,70,0,0
182296,-100,4,1,1,5,0,0
182381,-80,4,1,1,70,0,0
182633,-80,4,1,1,5,0,0
182718,-66.6666666666667,4,1,1,70,0,0
182970,-66.6666666666667,4,1,1,5,0,0
183055,-57.1428571428571,4,1,1,70,0,0
183307,-57.1428571428571,4,1,1,5,0,0
183392,-40,4,1,1,70,0,0
183645,-40,4,1,1,5,0,0
183729,-66.6666666666667,4,1,1,70,0,0
186425,-40,4,1,1,70,0,0
186678,-40,4,1,1,5,0,0
186763,-66.6666666666667,4,1,1,70,0,0
188785,-40,4,1,1,75,0,0
189038,-40,4,1,1,5,0,0
189122,-66.6666666666667,4,1,1,75,0,0
191819,-40,4,1,1,75,0,0
192072,-40,4,1,1,5,0,0
192156,-66.6666666666667,4,1,1,75,0,0
192830,-100,4,1,1,75,0,0
193083,-100,4,1,1,5,0,0
193167,-80,4,1,1,75,0,0
193420,-80,4,1,1,5,0,0
193504,-66.6666666666667,4,1,1,75,0,0
193757,-66.6666666666667,4,1,1,5,0,0
193841,-57.1428571428571,4,1,1,75,0,0
194094,-57.1428571428571,4,1,1,5,0,0
194178,-40,4,1,1,75,0,0
194431,-40,4,1,1,5,0,0
194515,-66.6666666666667,4,1,1,75,0,0
199234,-400,4,1,1,75,0,0
199487,-400,4,1,1,5,0,0
199572,-400,4,1,1,85,0,0
210274,-400,4,1,1,5,0,0
210358,-66.6666666666667,4,1,1,90,0,0
210611,-66.6666666666667,4,1,1,5,0,0
210695,-66.6666666666667,4,1,1,90,0,0
220049,-66.6666666666667,4,1,1,5,0,0
220133,-66.6666666666667,4,1,1,90,0,0
220386,-66.6666666666667,4,1,1,5,0,0
220470,-66.6666666666667,4,1,1,90,0,0
221060,-66.6666666666667,4,1,1,5,0,0
221145,-66.6666666666667,4,1,1,90,0,0
221397,-66.6666666666667,4,1,1,5,0,0
221482,-66.6666666666667,4,1,1,90,0,0
224431,-66.6666666666667,4,1,1,5,0,0
224515,-66.6666666666667,4,1,1,90,0,0
229234,-50,4,1,1,90,0,0
236145,-80,4,1,1,90,0,0
236987,-1000,4,1,1,90,0,0
237240,-1000,4,1,1,5,0,0
237324,-33.3333333333333,4,1,1,100,0,1
237577,-40,4,1,1,100,0,1
238673,-33.3333333333333,4,1,1,100,0,1
238925,-40,4,1,1,100,0,1
240358,-33.3333333333333,4,1,1,100,0,1
240611,-40,4,1,1,100,0,1
242718,-33.3333333333333,4,1,1,100,0,1
242970,-40,4,1,1,100,0,1
244066,-33.3333333333333,4,1,1,100,0,1
244319,-40,4,1,1,5,0,1
244403,-40,4,1,1,100,0,1
245751,-33.3333333333333,4,1,1,100,0,1
246004,-40,4,1,1,100,0,1
248111,-33.3333333333333,4,1,1,100,0,1
248364,-40,4,1,1,100,0,1
249459,-33.3333333333333,4,1,1,100,0,1
249712,-40,4,1,1,100,0,1
253504,-33.3333333333333,4,1,1,100,0,1
253757,-40,4,1,1,100,0,1
254852,-33.3333333333333,4,1,1,100,0,1
255105,-40,4,1,1,100,0,1
256538,-33.3333333333333,4,1,1,100,0,1
256791,-40,4,1,1,100,0,1
257718,-57.1428571428571,4,1,1,100,0,1
258897,-25,4,1,1,100,0,1
259066,-50,4,1,1,100,0,1
280470,-33.3333333333333,4,1,1,100,0,1
280723,-40,4,1,1,5,0,1
280807,-40,4,1,1,100,0,1
283504,-33.3333333333333,4,1,1,100,0,1
283757,-40,4,1,1,5,0,1
283841,-40,4,1,1,100,0,1
285864,-33.3333333333333,4,1,1,100,0,1
286116,-33.3333333333333,4,1,1,5,0,1
286201,-40,4,1,1,100,0,1
288897,-33.3333333333333,4,1,1,100,0,1
289150,-33.3333333333333,4,1,1,5,0,1
289234,-40,4,1,1,100,0,1
291257,-33.3333333333333,4,1,1,100,0,1
291510,-33.3333333333333,4,1,1,5,0,1
291594,-40,4,1,1,100,0,1
294291,-33.3333333333333,4,1,1,100,0,1
294543,-33.3333333333333,4,1,1,5,0,1
294628,-40,4,1,1,100,0,1
296650,-33.3333333333333,4,1,1,100,0,1
296903,-33.3333333333333,4,1,1,5,0,1
296987,-40,4,1,1,100,0,1
299684,-50,4,1,1,100,0,1
300695,-40,4,1,1,100,0,1
300948,-40,4,1,1,5,0,1
301032,-33.3333333333333,4,1,1,100,0,1
301285,-33.3333333333333,4,1,1,5,0,1
301369,-28.5714285714286,4,1,1,100,0,1
301622,-28.5714285714286,4,1,1,5,0,1
301706,-25,4,1,1,100,0,1
301959,-25,4,1,1,5,0,1
302043,-40,4,1,1,100,0,0
302212,-100,4,2,1,65,0,0
324291,-100,4,2,1,55,0,0
324628,-100,4,2,1,45,0,0
324965,-100,4,2,1,35,0,0
325302,-100,4,2,1,25,0,0
325639,-100,4,2,1,15,0,0
325976,-100,4,2,1,10,0,0
326313,-200,4,2,1,20,0,0
326323,-200,4,2,1,5,0,0

[Colours]
Combo1 : 57,255,171
Combo2 : 0,255,255
Combo3 : 140,26,255
Combo4 : 255,57,255
Combo5 : 255,155,255

[HitObjects]
256,192,8701,12,4,10808,0:2:0:0:
125,113,10976,5,0,0:0:0:0:
84,232,11145,2,0,P|121:240|173:225,1,75,0|0,0:0|0:0,0:0:0:0:
223,144,11482,1,0,0:0:0:0:
252,173,11566,1,0,0:0:0:0:
265,215,11650,1,0,0:0:0:0:
182,64,11819,2,0,L|125:113,1,75,0|0,0:0|0:0,0:0:0:0:
157,233,12156,1,0,0:0:0:0:
41,317,12324,2,0,B|76:313|76:313|87:328|87:328|112:325,1,75,0|0,0:0|0:0,0:0:0:0:
37,159,12661,5,0,0:0:0:0:
30,196,12746,1,0,0:0:0:0:
194,187,12999,2,0,L|158:145,1,37.5,0|0,0:0|0:0,0:0:0:0:
160,51,13167,2,0,L|144:127,1,75,0|0,0:0|0:0,0:0:0:0:
115,238,13504,1,0,0:0:0:0:
216,161,13673,2,0,L|254:192,1,37.5,0|0,0:0|0:0,0:0:0:0:
276,208,13841,2,0,L|212:158,1,75,0|0,0:0|0:0,0:0:0:0:
173,247,14178,5,0,0:0:0:0:
300,308,14347,2,0,L|347:303,1,37.5,0|0,0:0|0:0,0:0:0:0:
350,222,14515,1,0,0:0:0:0:
313,215,14600,1,0,0:0:0:0:
276,208,14684,1,0,0:0:0:0:
321,83,14852,1,0,0:0:0:0:
169,199,15021,2,0,B|185:167|185:167|203:167|203:167|221:134,1,75,0|0,0:0|0:0,0:0:0:0:
100,163,15358,5,0,0:0:0:0:
85,199,15442,1,0,0:0:0:0:
94,238,15527,1,0,0:0:0:0:
192,78,15695,1,2,0:0:0:0:
280,236,15864,2,0,P|284:199|275:164,1,75,2|0,0:0|0:0,0:0:0:0:
209,204,16201,5,0,0:0:0:0:
358,196,16369,1,0,0:0:0:0:
274,162,16538,2,0,P|294:130|341:104,1,75,0|0,0:0|0:0,0:0:0:0:
197,131,16875,1,0,0:0:0:0:
204,90,16959,1,0,0:0:0:0:
231,55,17043,1,0,0:0:0:0:
116,122,17212,2,0,P|117:84|145:37,1,75,0|0,0:0|0:0,0:0:0:0:
46,166,17549,1,0,0:0:0:0:
140,263,17718,2,0,P|138:225|110:178,1,75,0|0,0:0|0:0,0:0:0:0:
64,246,18055,5,0,0:0:0:0:
56,282,18139,1,0,0:0:0:0:
194,187,18392,2,0,L|158:145,1,37.5,0|0,0:0|0:0,0:0:0:0:
160,51,18560,2,0,L|144:127,1,75,0|0,0:0|0:0,0:0:0:0:
259,103,18897,1,0,0:0:0:0:
384,114,19066,2,0,L|352:151,1,37.5,0|0,0:0|0:0,0:0:0:0:
336,173,19234,2,0,L|386:108,1,75,0|0,0:0|0:0,0:0:0:0:
470,208,19572,5,0,0:0:0:0:
322,320,19740,2,0,L|273:304,1,37.5,0|0,0:0|0:0,0:0:0:0:
358,219,19909,1,0,0:0:0:0:
264,186,20077,1,0,0:0:0:0:
470,208,20246,1,0,0:0:0:0:
395,322,20414,2,0,B|411:290|411:290|429:290|429:290|447:257,1,75,0|0,0:0|0:0,0:0:0:0:
215,93,20751,5,0,0:0:0:0:
190,144,20836,1,0,0:0:0:0:
223,190,20920,2,0,B|282:190|282:190|265:128,1,112.5,8|0,0:3|0:3,0:3:0:0:
215,93,21257,2,0,B|267:79|267:79|267:138,1,112.5,8|0,0:3|0:3,0:3:0:0:
385,164,21594,6,0,L|464:170,1,75,8|0,0:3|0:3,0:3:0:0:
351,254,21931,1,0,0:3:0:0:
320,173,22100,1,0,0:3:0:0:
320,173,22184,1,0,0:3:0:0:
320,173,22268,2,0,L|241:179,1,75,8|0,0:3|0:3,0:3:0:0:
350,75,22605,1,0,0:3:0:0:
245,178,22774,1,0,0:3:0:0:
140,92,22942,2,0,P|107:125|104:154,1,75,8|0,0:3|0:3,0:3:0:0:
92,277,23279,5,0,0:3:0:0:
98,310,23364,1,0,0:3:0:0:
121,334,23448,1,0,0:3:0:0:
153,341,23532,1,0,0:3:0:0:
186,341,23616,2,0,P|242:339|276:354,1,75,8|0,0:3|0:3,0:3:0:0:
332,341,23954,2,0,P|276:339|242:354,1,75,8|0,0:3|0:3,0:3:0:0:
410,169,24291,6,0,P|418:205|413:242,1,75,8|0,0:3|0:3,0:3:0:0:
342,91,24628,1,0,0:3:0:0:
272,241,24796,1,0,0:3:0:0:
265,204,24881,1,0,0:3:0:0:
268,167,24965,2,0,P|230:162|194:170,1,75,8|0,0:3|0:3,0:3:0:0:
342,91,25302,1,0,0:3:0:0:
416,242,25470,1,0,0:3:0:0:
265,204,25639,2,0,P|264:250|282:273,1,75,8|0,0:3|0:3,0:3:0:0:
189,91,25976,5,0,0:3:0:0:
161,111,26060,1,0,0:3:0:0:
145,140,26145,1,0,0:3:0:0:
142,173,26229,1,0,0:3:0:0:
147,206,26313,2,0,P|154:237|198:280,2,75,8|8|8,0:3|0:3|0:3,0:3:0:0:
231,76,26819,1,0,0:3:0:0:
181,270,26987,6,0,P|210:222|214:185,1,75,8|0,1:3|0:3,0:3:0:0:
340,210,27324,1,0,1:3:0:0:
278,98,27493,1,0,0:3:0:0:
252,105,27577,1,0,0:3:0:0:
229,117,27661,2,0,B|202:153|202:153|233:170,1,75,8|0,1:3|0:3,0:3:0:0:
119,77,27999,1,0,1:3:0:0:
232,169,28167,1,0,0:3:0:0:
68,138,28336,2,8,L|145:157,1,75,8|0,1:3|0:3,0:3:0:0:
173,2,28673,5,0,1:3:0:0:
179,35,28757,1,0,0:3:0:0:
197,62,28841,1,0,0:3:0:0:
222,83,28925,1,0,0:3:0:0:
251,98,29010,2,0,P|307:100|341:85,1,75,8|0,1:3|0:3,0:3:0:0:
397,90,29347,2,0,P|341:88|307:103,1,75,8|0,1:3|0:3,0:3:0:0:
370,239,29684,6,0,P|375:202|367:166,1,75,8|0,1:3|0:3,0:3:0:0:
323,93,30021,1,0,1:0:0:0:
260,239,30190,1,0,0:0:0:0:
255,202,30274,1,0,0:0:0:0:
263,165,30358,2,8,P|240:194|208:214,1,75,8|0,1:3|0:0,0:3:0:0:
323,93,30695,1,0,1:0:0:0:
370,239,30864,1,0,0:0:0:0:
263,165,31032,2,0,P|258:202|266:238,1,75,8|0,1:3|0:0,0:0:0:0:
206,310,31369,5,0,1:0:0:0:
235,326,31454,1,0,0:0:0:0:
268,328,31538,1,0,0:0:0:0:
304,319,31622,1,0,0:0:0:0:
333,296,31706,2,0,P|353:271|360:210,2,75,8|8|8,1:3|0:3|0:3,0:0:0:0:
273,166,32212,1,8,0:3:0:0:
160,88,32381,6,0,L|239:94,1,75,12|0,1:3|0:0,0:0:0:0:
156,175,32718,1,0,1:0:0:0:
315,164,32886,1,0,0:0:0:0:
315,164,32970,1,0,0:0:0:0:
315,164,33055,2,0,L|236:170,1,75,8|0,1:3|0:0,0:0:0:0:
89,232,33392,1,0,1:0:0:0:
240,169,33560,1,0,0:0:0:0:
118,103,33729,2,0,P|85:136|82:165,1,75,8|0,1:3|0:0,0:0:0:0:
213,273,34066,5,0,1:0:0:0:
250,267,34150,1,0,0:0:0:0:
285,254,34234,1,0,0:0:0:0:
311,227,34319,1,0,0:0:0:0:
330,195,34403,2,0,P|373:159|409:151,1,75,8|0,1:3|0:0,0:0:0:0:
361,287,34740,2,0,P|317:322|281:330,1,75,8|0,1:3|0:0,0:0:0:0:
390,153,35077,6,0,P|426:146|463:154,1,75,8|0,1:3|0:0,0:0:0:0:
342,91,35414,1,0,1:0:0:0:
212,107,35583,1,0,0:0:0:0:
217,143,35667,1,0,0:0:0:0:
228,178,35751,2,0,P|253:204|287:221,1,75,8|0,1:3|0:0,0:0:0:0:
342,91,36088,1,0,1:0:0:0:
217,143,36257,1,0,0:0:0:0:
390,153,36425,2,0,P|369:109|339:90,1,75,8|0,1:3|0:0,0:0:0:0:
150,61,36763,5,0,1:0:0:0:
182,79,36847,1,0,0:0:0:0:
206,107,36931,1,0,0:0:0:0:
217,143,37015,1,0,0:0:0:0:
219,180,37100,2,0,P|226:211|270:253,2,75,8|8|8,1:3|0:3|0:3,0:0:0:0:
182,79,37605,1,0,0:0:0:0:
139,246,37774,6,0,P|168:198|172:161,1,75,8|0,1:3|0:0,0:0:0:0:
32,151,38111,1,0,1:0:0:0:
142,42,38279,1,0,0:0:0:0:
178,33,38364,1,0,0:0:0:0:
213,43,38448,2,0,P|235:72|246:108,1,75,8|0,1:3|0:0,0:0:0:0:
87,146,38785,1,0,1:0:0:0:
249,161,38954,1,0,0:0:0:0:
87,146,39122,2,0,L|166:105,1,75,8|0,1:3|0:0,0:0:0:0:
312,78,39459,5,0,1:0:0:0:
344,97,39543,1,0,0:0:0:0:
367,125,39628,1,0,0:0:0:0:
382,158,39712,1,0,0:0:0:0:
386,195,39796,2,0,P|383:250|365:283,1,75,8|0,1:3|0:0,0:0:0:0:
312,78,40133,2,0,P|262:52|224:51,1,75,8|0,1:3|0:0,0:0:0:0:
386,195,40470,6,0,P|376:139|354:109,1,75,8|0,1:3|0:0,0:0:0:0:
249,161,40807,1,0,1:0:0:0:
335,329,40976,1,0,0:0:0:0:
361,302,41060,1,0,0:0:0:0:
377,268,41145,2,0,P|387:232|385:194,1,75,8|0,1:3|0:0,0:0:0:0:
300,182,41482,1,0,1:0:0:0:
496,249,41650,1,0,0:0:0:0:
388,232,41819,2,0,P|421:249|458:253,1,75,8|0,1:3|0:0,0:0:0:0:
455,133,42156,5,0,1:0:0:0:
417,127,42240,1,0,0:0:0:0:
383,112,42324,1,0,0:0:0:0:
353,89,42409,1,0,0:0:0:0:
331,60,42493,1,8,1:3:0:0:
242,225,42830,1,8,0:3:0:0:
436,325,43167,1,14,0:3:0:0:
431,38,48560,6,0,P|427:178|325:144,1,281.25,0|0,2:2|2:2,2:2:0:0:
391,102,49909,2,0,B|339:59|339:59|276:91|276:91,1,131.25,0|0,2:2|2:2,2:2:0:0:
204,66,50583,2,0,P|223:148|262:168,1,131.25,0|0,2:2|2:2,2:2:0:0:
322,99,51257,2,0,B|419:173|287:268|391:352,1,281.25,0|0,2:2|2:2,2:2:0:0:
437,261,52605,2,0,B|461:216|461:216|460:169|460:169|477:129,1,131.25,0|0,2:2|2:2,2:2:0:0:
461,52,53279,2,0,P|406:33|421:84,1,131.25,0|0,2:2|2:2,2:2:0:0:
315,98,53954,6,0,P|313:231|175:270,1,281.25,0|0,2:2|2:2,2:2:0:0:
229,192,55302,2,0,B|162:192|162:192|106:245,1,131.25,0|0,2:2|2:2,2:2:0:0:
106,114,55976,2,0,B|86:175|86:175|115:236,1,131.25,0|0,2:2|2:2,2:2:0:0:
90,327,56650,2,0,B|156:321|156:321|207:263,1,131.25,0|0,2:2|2:2,2:2:0:0:
288,245,57324,6,0,B|263:299|287:347|287:347|292:316,1,131.25,0|0,2:2|2:2,2:2:0:0:
356,280,57999,2,0,B|321:231|268:228|268:228|292:247,1,131.25,0|0,2:2|2:2,2:2:0:0:
290,321,58673,2,0,B|349:315|378:270|378:270|349:282,1,131.25,0|0,2:2|2:2,2:2:0:0:
432,194,59347,6,0,L|391:162,1,37.5,0|0,2:2|2:2,2:2:0:0:
352,81,59684,2,0,L|320:114,1,37.5,0|0,2:2|2:2,2:2:0:0:
138,151,60190,2,0,L|182:181,10,37.5,0|0|0|0|0|0|0|0|0|0|0,2:2|2:2|2:2|2:2|2:2|2:2|2:2|2:2|2:2|2:2|2:2,2:2:0:0:
241,147,62043,6,0,B|322:205|152:227|177:339|271:364|326:298|289:260,1,281.25,0|0,2:2|2:2,2:2:0:0:
439,254,63392,2,0,B|383:252|383:252|376:212|337:195,1,131.25,0|0,2:2|2:2,2:2:0:0:
273,155,64066,2,0,B|289:117|329:110|329:110|331:54,1,131.25,0|0,2:2|2:2,2:2:0:0:
241,50,64740,2,0,B|198:97|196:175|196:175|197:263|143:311,1,281.25,0|0,2:2|2:2,2:2:0:0:
99,222,66088,2,0,P|119:164|108:94,1,131.25,0|0,2:2|2:2,2:2:0:0:
206,167,66763,2,0,P|186:225|197:295,1,131.25,0|0,2:2|2:2,2:2:0:0:
269,237,67437,2,0,B|305:245|329:213|329:213|389:134|269:134|329:213|329:213|357:245|393:237,1,281.25,0|0,2:2|2:2,2:2:0:0:
444,306,68785,6,0,B|531:255|429:243|463:200,1,131.25,0|0,2:2|2:2,2:2:0:0:
361,236,69459,2,0,B|361:336|423:254|443:305,1,131.25,0|0,2:2|2:2,2:2:0:0:
462,199,70133,2,0,B|374:149|414:243|360:235,1,131.25,2|0,2:2|2:2,2:2:0:0:
255,198,70807,6,0,P|255:256|216:315,1,112.500004291535,0|0,0:0|0:0,1:0:0:0:
59,236,71482,1,0,0:0:0:0:
224,122,71819,1,0,0:0:0:0:
57,49,72156,2,0,P|30:98|31:153,1,112.500004291535,2|0,0:0|0:0,1:0:0:0:
270,302,72830,5,2,0:0:0:0:
342,216,73167,1,0,0:0:0:0:
270,302,73504,1,0,0:0:0:0:
342,216,73841,2,0,L|419:126,1,112.500004291535,0|0,0:0|0:0,1:0:0:0:
342,216,74515,1,2,0:0:0:0:
416,128,74852,1,2,0:0:0:0:
267,300,75190,2,0,L|342:215,1,112.500004291535,2|2,0:0|0:0,1:0:0:0:
343,352,76201,6,0,P|396:335|435:296,1,112.500004291535,0|0,0:0|0:0,1:0:0:0:
484,119,76875,2,0,P|430:135|391:174,1,112.500004291535,0|0,0:0|0:0,1:0:0:0:
355,257,77549,1,2,0:0:0:0:
391,174,77886,2,0,P|404:120|442:79,1,112.500004291535,0|2,0:0|0:0,1:0:0:0:
491,172,78560,5,0,0:0:0:0:
355,257,78897,1,2,0:0:0:0:
442,79,79234,1,0,0:0:0:0:
375,131,79572,1,2,0:0:0:0:
308,73,79909,1,0,0:0:0:0:
252,148,80246,2,0,P|255:192|277:156,1,112.500004291535,2|0,0:0|0:0,1:0:0:0:
127,349,80920,6,0,P|140:295|178:254,1,112.500004291535,0|0,0:0|0:0,1:0:0:0:
127,274,81594,2,0,P|113:220|75:179,1,112.500004291535,0|0,0:0|0:0,1:0:0:0:
173,154,82268,1,2,0:0:0:0:
33,259,82605,1,0,0:0:0:0:
0,185,82942,1,2,0:0:0:0:
76,136,83279,1,0,0:0:0:0:
255,49,83616,5,2,0:0:0:0:
293,134,83954,1,0,0:0:0:0:
400,105,84291,1,2,0:0:0:0:
187,161,84628,1,0,0:0:0:0:
92,155,84965,2,0,P|124:81|166:69,1,112.500004291535,2|0,0:0|0:0,1:0:0:0:
318,213,85639,5,2,0:0:0:0:
434,89,85976,1,0,0:0:0:0:
512,211,86313,2,0,P|462:237|407:236,1,112.500004291535,2|0,0:0|0:0,1:0:0:0:
318,213,86987,1,0,0:0:0:0:
202,89,87324,2,0,L|133:200,1,112.500004291535,0|0,0:0|0:0,1:0:0:0:
228,236,87999,1,0,0:0:0:0:
202,89,88336,2,0,L|316:56,1,112.500004291535,2|0,0:0|0:0,1:0:0:0:
466,71,89010,2,0,L|352:104,1,112.500004291535,2|0,0:0|0:0,1:0:0:0:
125,108,89852,5,0,0:0:0:0:
120,207,90190,2,0,P|66:190|27:151,1,112.500004291535,0|0,0:0|0:0,1:0:0:0:
120,207,90695,2,0,P|79:245|25:258,1,112.500004291535,0|0,0:0|0:0,1:0:0:0:
198,68,91369,1,0,0:0:0:0:
296,185,91706,5,0,0:0:0:0:
356,104,91875,1,0,0:0:0:0:
468,127,92043,2,0,P|446:182|384:199,1,93.75,8|0,0:0|0:0,0:0:0:0:
367,109,92381,1,0,0:0:0:0:
473,152,92549,2,0,P|441:202|377:208,1,93.75,8|0,0:0|0:0,0:0:0:0:
377,117,92886,1,0,0:0:0:0:
475,177,93055,6,0,P|435:221|371:216,1,93.75,8|0,0:0|0:0,0:0:0:0:
386,127,93392,1,0,0:0:0:0:
472,203,93560,2,0,P|425:240|363:223,1,93.75,8|0,0:0|0:0,0:0:0:0:
393,138,93897,1,0,0:0:0:0:
464,227,94066,2,0,P|411:255|353:228,1,93.75,8|0,0:0|0:0,0:0:0:0:
214,167,94403,5,0,0:0:0:0:
325,223,94572,1,0,0:0:0:0:
228,95,94740,2,0,P|182:91|144:117,1,93.75,8|0,0:0|0:0,0:0:0:0:
329,210,95077,1,0,0:0:0:0:
211,101,95246,2,0,P|165:105|133:138,1,93.75,8|0,0:0|0:0,0:0:0:0:
331,197,95583,1,0,0:0:0:0:
196,110,95751,6,0,P|152:122|125:160,1,93.75,8|0,0:0|0:0,0:0:0:0:
331,184,96088,1,0,0:0:0:0:
183,121,96257,2,0,P|141:141|122:183,1,93.75,8|0,0:0|0:0,0:0:0:0:
328,171,96594,1,0,0:0:0:0:
172,135,96763,2,0,P|134:162|122:206,1,93.75,8|0,0:0|0:0,0:0:0:0:
280,256,97100,5,0,0:0:0:0:
178,349,97268,1,0,0:0:0:0:
128,185,97437,2,0,L|191:288,1,93.75,8|0,0:0|0:0,0:0:0:0:
149,333,97774,1,0,0:0:0:0:
128,163,97942,2,0,L|172:276,1,93.75,8|0,0:0|0:0,0:0:0:0:
124,314,98279,1,0,0:0:0:0:
133,142,98448,6,0,L|157:261,1,93.75,8|0,0:0|0:0,0:0:0:0:
102,290,98785,1,0,0:0:0:0:
141,123,98954,2,0,L|144:243,1,93.75,8|0,0:0|0:0,0:0:0:0:
85,262,99291,1,0,0:3:0:0:
152,105,99459,2,0,L|134:224,1,93.75,8|0,0:0|0:3,0:3:0:0:
272,232,99796,5,0,0:0:0:0:
314,81,99965,1,0,0:0:0:0:
304,273,100133,2,0,L|227:170,1,93.75,8|0,0:0|0:0,0:0:0:0:
272,67,100470,1,0,0:0:0:0:
328,251,100639,2,0,L|221:181,1,93.75,8|0,0:0|0:0,0:0:0:0:
229,69,100976,1,0,0:0:0:0:
296,211,101145,2,0,L|233:196,1,46.875,12|0,0:0|0:0,0:0:0:0:
129,208,101397,2,0,L|188:202,1,46.875,12|0,0:0|0:0,0:0:0:0:
193,273,101650,2,0,L|252:267,1,46.875,12|0,0:0|0:0,0:0:0:0:
427,239,101987,5,0,0:0:0:0:
344,76,102156,2,0,P|296:105|270:147,1,93.75,8|0,0:0|0:0,0:0:0:0:
81,278,102493,2,0,P|147:286|188:254,1,93.75,8|0,0:0|0:0,0:0:0:0:
62,212,102830,2,0,P|121:243|170:227,1,93.75,8|0,0:0|0:0,0:0:0:0:
66,145,103167,2,0,P|112:193|164:195,1,93.75,8|0,0:0|0:0,0:0:0:0:
94,83,103504,2,0,P|120:144|168:164,1,93.75,8|0,0:0|0:0,0:0:0:0:
321,123,103841,6,0,L|211:122,1,93.75,8|0,0:0|0:0,0:0:0:0:
259,34,104178,2,0,L|222:136,1,93.75,8|0,0:0|0:0,0:0:0:0:
313,90,104515,2,0,L|211:122,1,93.75,8|0,0:0|0:0,0:0:0:0:
281,44,104852,2,0,L|215:128,1,93.75,8|0,0:0|0:0,0:0:0:0:
317,157,105190,6,0,B|361:132|361:132|440:142,1,93.75,8|0,0:0|0:0,0:0:0:0:
317,157,105527,2,0,B|366:148|366:148|437:184,1,93.75,8|0,0:0|0:0,0:0:0:0:
317,157,105864,2,0,B|366:166|366:166|420:224,1,93.75,8|0,0:0|0:0,0:0:0:0:
317,156,106201,2,0,B|360:182|360:182|391:256,1,93.75,8|0,0:0|0:0,0:0:0:0:
353,303,106538,6,0,L|261:283,1,93.75,8|0,0:0|0:0,0:0:0:0:
188,263,106875,2,0,L|274:227,1,93.75,8|0,0:0|0:0,0:0:0:0:
342,187,107212,2,0,L|262:137,1,93.75,8|0,0:0|0:0,0:0:0:0:
196,96,107549,2,0,L|265:33,1,93.75,8|0,0:0|0:0,0:0:0:0:
301,113,107886,5,4,0:0:0:0:
301,113,108055,1,0,0:0:0:0:
301,270,108223,1,12,0:0:0:0:
165,191,108392,1,0,0:0:0:0:
350,137,108560,5,4,0:0:0:0:
350,137,108729,1,0,0:0:0:0:
256,301,108897,1,12,0:0:0:0:
161,137,109066,1,0,0:0:0:0:
386,192,109234,5,4,0:0:0:0:
386,192,109403,1,0,0:0:0:0:
190,305,109572,1,12,0:0:0:0:
190,78,109740,1,0,0:0:0:0:
392,270,109909,5,4,0:0:0:0:
392,270,110077,1,0,0:0:0:0:
119,270,110246,1,12,0:0:0:0:
256,34,110414,1,0,0:0:0:0:
478,85,110583,5,8,0:0:0:0:
456,110,110667,1,0,3:0:0:0:
428,129,110751,1,0,3:0:0:0:
398,142,110836,1,0,3:0:0:0:
365,151,110920,1,8,0:0:0:0:
332,156,111004,1,0,3:0:0:0:
299,157,111088,1,0,3:0:0:0:
265,157,111173,1,0,3:0:0:0:
235,155,111257,6,0,L|176:176,1,46.875,8|0,0:0|3:0,3:0:0:0:
121,181,111425,2,0,L|168:196,1,46.875,0|0,3:0|3:0,3:0:0:0:
242,207,111594,2,0,L|188:227,1,46.875,8|0,0:0|3:0,3:0:0:0:
125,228,111763,2,0,L|177:246,1,46.875,0|0,3:0|3:0,3:0:0:0:
230,269,111931,1,0,0:0:0:0:
405,147,112100,6,0,L|460:248,1,93.75,0|0,0:0|0:0,0:0:0:0:
266,121,112437,1,0,0:0:0:0:
266,121,112605,2,0,L|321:222,1,93.75,0|0,0:0|0:0,0:0:0:0:
132,84,112942,1,0,0:0:0:0:
103,316,113195,5,0,0:2:0:0:
103,316,113279,2,0,B|119:284|81:265|81:265|128:236|128:236|96:219|112:176,1,150,4|0,0:2|0:2,0:2:0:0:
140,103,113616,2,0,L|213:119,1,75,8|0,0:2|0:2,0:2:0:0:
427,118,113785,2,0,L|363:157,1,75,0|0,0:2|0:2,0:2:0:0:
164,182,113954,1,0,0:2:0:0:
160,226,114038,1,0,0:2:0:0:
169,269,114122,1,0,0:2:0:0:
197,304,114206,1,0,0:2:0:0:
238,320,114291,2,0,B|280:320|280:320|302:303|302:303|399:339|390:278,1,150,8|0,0:2|0:2,0:2:0:0:
230,98,114628,5,0,0:2:0:0:
230,98,114712,1,0,0:2:0:0:
230,98,114796,2,0,P|250:130|288:145,1,75,0|0,0:2|0:2,0:2:0:0:
444,242,114965,1,8,0:2:0:0:
444,242,115049,1,0,0:2:0:0:
444,242,115133,2,0,P|424:209|386:195,1,75,0|0,0:2|0:2,0:2:0:0:
397,59,115302,5,0,0:2:0:0:
397,59,115386,1,0,0:2:0:0:
396,57,115470,2,0,P|366:79|354:113,1,75,0|0,0:2|0:2,0:2:0:0:
272,284,115639,1,8,0:2:0:0:
272,284,115723,1,0,0:2:0:0:
272,283,115807,2,0,P|301:260|313:226,1,75,0|0,0:2|0:2,0:2:0:0:
257,89,115976,1,0,0:2:0:0:
151,208,116145,1,0,0:2:0:0:
19,50,116313,6,0,L|115:78,1,75,8|0,0:2|0:2,0:2:0:0:
283,112,116482,2,0,L|183:113,1,75,0|0,0:2|0:2,0:2:0:0:
53,181,116650,1,0,0:2:0:0:
53,181,116734,1,0,0:2:0:0:
53,181,116819,2,0,L|91:248,1,75,0|0,0:2|0:2,0:2:0:0:
17,291,116987,2,0,P|151:311|175:259,1,150,8|0,0:2|0:2,0:2:0:0:
181,111,117324,5,0,0:2:0:0:
181,111,117409,1,0,0:2:0:0:
181,111,117493,2,0,L|270:111,1,75,0|0,0:2|0:2,0:2:0:0:
432,196,117661,2,0,L|343:196,1,75,8|0,0:2|0:2,0:2:0:0:
230,298,117830,5,0,0:2:0:0:
230,298,117914,1,0,0:2:0:0:
230,298,117999,2,0,L|319:298,1,75,0|0,0:2|0:2,0:2:0:0:
382,154,118167,2,0,L|293:154,1,75,0|0,0:2|0:2,0:2:0:0:
108,75,118336,6,0,L|183:75,1,75,8|0,0:2|0:2,0:2:0:0:
308,185,118504,1,0,0:2:0:0:
308,185,118588,1,0,0:2:0:0:
308,185,118673,2,0,B|286:212|258:209|258:209|234:185|208:209|208:209|179:213|159:189,1,150,4|0,2:2|0:2,0:2:0:0:
94,188,118925,5,0,0:2:0:0:
94,188,119010,2,0,B|37:225|31:271|31:271|69:247|108:269,1,150,8|0,0:2|0:2,0:2:0:0:
153,110,119347,2,0,L|200:183,1,75,0|0,0:2|0:2,0:2:0:0:
315,237,119515,2,0,L|268:164,1,75,0|0,0:2|0:2,0:2:0:0:
191,40,119684,1,8,0:2:0:0:
236,14,119768,1,0,0:2:0:0:
287,20,119852,2,0,P|363:58|379:109,1,75,0|0,0:2|0:2,0:2:0:0:
437,157,120021,5,0,0:2:0:0:
437,157,120105,1,0,0:2:0:0:
437,157,120190,2,0,L|355:137,1,75,0|0,0:2|0:2,0:2:0:0:
200,182,120358,1,8,0:2:0:0:
200,182,120442,1,0,0:2:0:0:
200,182,120527,2,0,L|284:187,1,75,0|0,0:2|0:2,0:2:0:0:
412,82,120695,6,0,L|353:150,1,75,0|0,0:2|0:2,0:2:0:0:
236,251,120864,2,0,L|281:173,1,75,0|0,0:2|0:2,0:2:0:0:
336,28,121032,2,0,L|335:127,1,75,8|0,0:2|0:2,0:2:0:0:
306,296,121201,2,0,L|290:199,1,75,0|0,0:2|0:2,0:2:0:0:
269,65,121369,1,0,0:2:0:0:
229,43,121454,1,0,0:2:0:0:
186,34,121538,1,0,0:2:0:0:
143,45,121622,1,0,0:2:0:0:
110,73,121706,2,0,B|49:110|138:177|85:222,1,150,8|0,0:2|0:2,0:2:0:0:
207,296,122043,6,0,L|241:224,1,75,0|0,0:2|0:2,0:2:0:0:
378,127,122212,2,0,L|333:214,1,75,0|0,0:2|0:2,0:2:0:0:
206,160,122381,1,8,0:2:0:0:
206,160,122465,1,0,0:2:0:0:
206,160,122549,2,0,L|240:230,1,75,0|0,0:2|0:2,0:2:0:0:
360,270,122718,6,0,P|320:348|216:358,1,150,0|0,0:2|0:2,0:2:0:0:
443,249,123055,2,0,B|440:196|425:155|378:162|315:184,1,150,8|0,0:2|0:2,0:2:0:0:
169,209,123392,2,0,L|221:204,2,37.5,0|0|0,3:2|3:2|3:2,3:2:0:0:
325,97,123560,1,8,0:2:0:0:
141,152,123729,2,0,L|193:147,2,37.5,0|0|0,3:2|3:2|3:2,3:2:0:0:
325,97,123897,1,8,0:2:0:0:
360,270,124066,6,0,B|291:309|291:309|248:243,1,150,4|0,0:2|0:2,0:2:0:0:
222,66,124403,2,8,L|285:136,1,75,8|0,0:2|0:2,0:2:0:0:
360,270,124572,2,0,L|297:200,1,75,0|0,0:2|0:2,0:2:0:0:
184,68,124740,1,0,0:2:0:0:
145,89,124824,1,0,0:2:0:0:
114,120,124909,1,0,0:2:0:0:
101,163,124993,1,0,0:2:0:0:
110,206,125077,2,0,B|122:240|80:277|80:277|131:264|169:299,1,150,8|0,0:2|0:2,0:2:0:0:
318,217,125414,5,0,0:2:0:0:
318,217,125499,1,0,0:2:0:0:
318,217,125583,2,0,P|270:238|245:228,1,75,0|0,0:2|0:2,0:2:0:0:
429,178,125751,1,8,0:2:0:0:
429,178,125836,1,0,0:2:0:0:
429,178,125920,2,0,P|423:230|402:246,1,75,0|0,0:2|0:2,0:2:0:0:
305,94,126088,5,0,0:2:0:0:
305,94,126173,1,0,0:2:0:0:
305,94,126257,2,0,P|347:125|351:151,1,75,0|0,0:2|0:2,0:2:0:0:
215,17,126425,1,8,0:2:0:0:
215,17,126510,1,0,0:2:0:0:
215,17,126594,2,0,P|262:-4|287:6,1,75,0|0,0:2|0:2,0:2:0:0:
351,144,126763,1,0,0:2:0:0:
250,231,126931,1,0,0:2:0:0:
114,112,127100,6,0,B|90:86|90:86|96:65|96:65|55:86|55:86|64:60|64:60|33:29,1,150,8|0,0:2|0:2,0:2:0:0:
178,170,127437,2,0,P|140:206|113:205,1,75,0|0,0:2|0:2,0:2:0:0:
261,179,127605,1,0,0:2:0:0:
261,179,127690,1,0,0:2:0:0:
261,179,127774,2,0,B|275:222|238:257|238:257|177:258|154:303,1,150,8|0,0:2|0:2,0:2:0:0:
232,344,128111,6,0,L|337:304,1,75,0|0,0:2|0:2,0:2:0:0:
442,202,128279,2,0,L|357:259,1,75,0|0,0:2|0:2,0:2:0:0:
302,346,128448,2,0,L|395:265,1,75,8|0,0:2|0:2,0:2:0:0:
465,120,128616,2,0,L|398:210,1,75,0|0,0:2|0:2,0:2:0:0:
368,356,128785,2,0,L|434:237,1,75,0|0,0:2|0:2,0:2:0:0:
452,61,128954,2,0,L|417:179,1,75,0|0,0:2|0:2,0:2:0:0:
437,354,129122,1,8,0:2:0:0:
437,354,129206,1,0,0:2:0:0:
437,354,129291,2,0,L|458:210,1,75,0|0,0:2|0:2,0:2:0:0:
388,17,129459,6,0,B|347:58|363:124|363:124|404:110|400:76,1,150,4|0,2:2|0:2,0:2:0:0:
482,125,129712,1,0,0:2:0:0:
482,125,129796,2,0,P|515:200|495:262,1,150,8|0,0:2|0:2,0:2:0:0:
244,288,130133,2,0,P|296:286|314:266,1,75,0|0,0:2|0:2,0:2:0:0:
429,199,130302,2,0,P|376:200|358:220,1,75,0|0,0:2|0:2,0:2:0:0:
335,329,130470,1,8,0:2:0:0:
384,311,130555,1,0,0:2:0:0:
414,268,130639,2,0,P|432:232|424:190,1,75,0|0,0:2|0:2,0:2:0:0:
295,70,130807,6,0,P|257:106|257:133,1,75,0|0,0:2|0:2,0:2:0:0:
238,291,130976,1,0,0:2:0:0:
238,291,131060,1,0,0:2:0:0:
238,291,131145,2,0,P|197:324|170:321,1,75,8|0,0:2|0:2,0:2:0:0:
323,166,131313,1,0,0:2:0:0:
323,166,131397,1,0,0:2:0:0:
323,166,131482,2,0,P|375:166|394:147,1,75,0|0,0:2|0:2,0:2:0:0:
191,63,131650,2,0,P|168:110|177:135,1,75,0|0,0:2|0:2,0:2:0:0:
335,248,131819,6,0,L|240:223,1,75,8|0,0:2|0:2,0:2:0:0:
52,192,131987,2,0,L|168:182,1,75,0|0,0:2|0:2,0:2:0:0:
228,148,132156,1,0,0:2:0:0:
217,103,132240,1,0,0:2:0:0:
194,65,132324,1,0,0:2:0:0:
156,41,132409,1,0,0:2:0:0:
114,36,132493,2,0,B|110:89|110:89|94:101|64:110|64:110|94:122|110:140|102:162,1,150,8|0,0:2|0:2,0:2:0:0:
26,331,132830,5,0,0:2:0:0:
26,331,132914,1,0,0:2:0:0:
26,331,132999,2,0,L|41:227,1,75,0|0,0:2|0:2,0:2:0:0:
100,136,133167,2,0,L|82:219,1,75,8|0,0:2|0:2,0:2:0:0:
185,341,133336,2,0,L|113:295,1,75,0|0,0:2|0:2,0:2:0:0:
209,198,133504,6,0,P|310:130|323:141,1,150,0|0,0:2|0:2,0:2:0:0:
347,243,133841,2,0,P|427:197|417:159,1,112.500004291535,8|0,0:2|0:2,0:2:0:0:
359,110,134178,2,0,L|301:129,1,56.2500021457673,8|0,0:2|0:2,0:2:0:0:
347,243,134515,2,0,L|353:223,1,18.75,8|0,0:2|0:2,0:2:0:0:
152,92,134852,5,4,2:2:0:0:
55,124,135021,2,0,P|117:211|144:204,1,150,0|8,0:2|0:2,0:2:0:0:
284,176,135358,1,0,0:2:0:0:
105,310,135527,2,0,P|188:278|237:201,1,150,0|0,0:2|0:2,0:2:0:0:
105,310,135864,2,0,P|160:267|183:185,1,112.500004291535,8|0,0:2|0:2,0:2:0:0:
186,192,136116,1,0,0:2:0:0:
184,152,136201,1,0,0:2:0:0:
283,59,136369,6,8,B|247:110|185:41|134:90,1,150,0|8,0:2|0:2,0:2:0:0:
241,0,136706,1,0,0:2:0:0:
268,236,136875,2,0,B|270:194|304:161|350:157|384:181,1,150,0|0,0:2|0:2,0:2:0:0:
268,236,137212,2,0,B|291:256|326:256|353:233|358:203,1,112.500004291535,8|0,0:2|0:2,0:2:0:0:
361,167,137465,1,0,0:2:0:0:
354,128,137549,1,0,0:2:0:0:
190,145,137718,6,0,B|234:105|234:105|244:68|244:68|296:20,1,150,0|8,0:2|0:2,0:2:0:0:
154,60,138055,1,0,0:2:0:0:
78,166,138223,2,0,B|74:162|74:244|74:244|145:274,1,150,0|0,0:2|0:2,0:2:0:0:
141,275,138560,2,0,B|198:296|198:296|238:253,1,112.500004291535,8|0,0:2|0:2,0:2:0:0:
258,227,138813,1,0,0:2:0:0:
283,197,138897,1,0,0:2:0:0:
247,59,139066,6,0,B|321:58|321:58|358:87|358:87|334:128|334:128|304:129,1,150,0|8,0:2|0:2,0:2:0:0:
169,60,139403,1,0,0:2:0:0:
31,175,139572,2,0,B|27:171|62:164|62:164|80:112|123:145|123:145|168:127,1,150,0|0,0:2|0:2,0:2:0:0:
158,136,139909,2,0,B|142:159|142:159|160:196|120:201|120:201|110:224,1,112.500004291535,8|0,0:2|0:2,0:2:0:0:
127,260,140161,1,0,0:2:0:0:
93,281,140246,1,0,0:2:0:0:
320,172,140414,6,0,B|268:178|260:231|260:231|237:194|237:194|204:218,1,150,0|8,0:2|0:2,0:2:0:0:
344,260,140751,1,0,0:2:0:0:
389,39,140920,2,0,L|316:177,1,150,0|0,0:2|0:2,0:2:0:0:
389,39,141257,2,0,L|373:155,1,112.500004291535,8|0,0:2|0:2,0:2:0:0:
368,189,141510,1,0,0:2:0:0:
363,228,141594,1,0,0:2:0:0:
448,304,141763,6,0,P|368:338|296:300,1,150,0|8,0:2|0:2,0:2:0:0:
234,136,142100,1,0,0:2:0:0:
232,260,142268,2,0,B|203:225|203:225|196:196|196:196|204:168|204:168|234:135|234:135,1,150,0|0,0:2|0:2,0:2:0:0:
314,222,142605,2,0,B|335:247|335:247|344:272|344:272|334:290|334:290|312:315|312:315,1,112.500004291535,8|0,0:2|0:2,0:2:0:0:
271,346,142858,1,0,0:2:0:0:
219,345,142942,1,0,0:2:0:0:
31,226,143111,6,0,B|69:163|137:163|137:163|123:219|152:230,1,150,0|8,0:2|0:2,0:2:0:0:
224,176,143448,1,0,0:2:0:0:
111,296,143616,2,0,B|139:329|184:296|184:296|205:320|205:320|226:298|226:298|237:329,1,150,0|0,0:2|0:2,0:2:0:0:
31,226,143954,2,0,B|63:222|60:180|60:180|85:177|85:177|80:155|80:155|104:161,1,112.500004291535,8|0,0:2|0:2,0:2:0:0:
108,133,144206,1,0,0:2:0:0:
99,100,144291,1,0,0:2:0:0:
202,104,144459,6,0,B|132:78|132:78|91:97|91:97|160:121,1,150,0|8,0:2|0:2,0:2:0:0:
287,132,144796,1,0,0:2:0:0:
197,303,144965,2,0,L|248:209,1,75,8|0,0:2|0:2,0:2:0:0:
286,114,145133,1,0,0:2:0:0:
349,329,145302,2,0,L|309:194,1,75,8|0,0:2|0:2,0:2:0:0:
273,89,145470,1,0,0:2:0:0:
446,281,145639,6,0,L|391:192,1,75,4|0,2:2|0:2,0:2:0:0:
395,85,145807,2,0,L|450:174,1,75,0|0,0:2|0:2,0:2:0:0:
484,246,145976,2,0,L|429:157,1,75,8|0,0:2|0:2,0:2:0:0:
433,50,146145,2,0,L|488:139,1,75,0|0,0:2|0:2,0:2:0:0:
282,36,146313,2,0,B|288:100|264:152|264:152|309:123|309:82,1,168.750006437302,0|0,0:2|0:2,0:2:0:0:
197,127,146650,2,0,B|188:174|161:207|161:207|199:195|207:165,1,131.250001251698,8|0,0:2|0:2,0:2:0:0:
222,180,146903,1,0,0:2:0:0:
222,180,146987,1,0,0:2:0:0:
264,280,147156,6,0,L|165:287,1,75,0|0,0:2|0:2,0:2:0:0:
49,297,147324,2,0,L|148:290,1,75,8|0,0:2|0:2,0:2:0:0:
289,280,147493,2,0,L|167:287,1,75,0|0,0:2|0:2,0:2:0:0:
19,300,147661,2,0,B|122:291|122:291|89:192,1,168.750006437302,0|0,0:2|0:2,0:2:0:0:
26,200,147999,2,0,B|8:150|8:150|87:144,1,131.250001251698,8|0,0:2|0:2,0:2:0:0:
112,143,148251,1,0,0:2:0:0:
112,143,148336,1,0,0:2:0:0:
198,41,148504,6,0,L|244:120,1,75,0|0,0:2|0:2,0:2:0:0:
295,261,148673,2,0,L|263:175,1,75,8|0,0:2|0:2,0:2:0:0:
246,0,148841,2,0,L|265:107,1,75,0|0,0:2|0:2,0:2:0:0:
265,287,149010,2,0,B|266:195|266:195|297:168|297:168|261:152,1,168.750006437302,0|0,0:2|0:2,0:2:0:0:
343,338,149347,2,0,B|343:269|343:269|366:248|366:248|340:234,1,131.250001251698,8|0,0:2|0:2,0:2:0:0:
339,233,149600,1,0,0:2:0:0:
339,233,149684,1,0,0:2:0:0:
341,101,149852,6,0,L|282:174,1,75,0|0,0:2|0:2,0:2:0:0:
159,101,150021,2,0,L|217:174,1,75,8|0,0:2|0:2,0:2:0:0:
405,62,150190,2,0,L|333:104,1,75,0|0,0:2|0:2,0:2:0:0:
94,62,150358,2,0,B|161:101|161:101|215:170,1,150,0|0,0:2|0:2,0:2:0:0:
293,159,150695,2,0,B|335:99|335:99|387:74,1,131.250001251698,8|0,0:2|0:2,0:2:0:0:
405,62,150948,1,0,0:2:0:0:
405,62,151032,1,0,0:2:0:0:
434,172,151201,6,0,P|394:206|367:204,1,75,0|0,0:2|0:2,0:2:0:0:
264,128,151369,2,0,P|303:93|330:95,1,75,8|0,0:2|0:2,0:2:0:0:
291,207,151538,2,0,P|241:237|213:229,1,75,0|0,0:2|0:2,0:2:0:0:
115,126,151706,2,0,P|164:95|269:134,1,168.750006437302,0|0,0:2|0:2,0:2:0:0:
156,19,152043,2,0,P|91:42|33:99,1,131.250001251698,8|0,0:2|0:2,0:2:0:0:
31,105,152296,1,0,0:2:0:0:
31,105,152381,1,0,0:2:0:0:
0,257,152549,6,0,P|47:235|56:209,1,75,0|0,0:2|0:2,0:2:0:0:
98,117,152718,2,0,P|48:98|24:110,1,75,8|0,0:2|0:2,0:2:0:0:
125,225,152886,2,0,P|146:272|172:281,1,75,0|0,0:2|0:2,0:2:0:0:
258,209,153055,2,0,B|276:159|276:159|234:114|234:114|274:152|308:128,1,168.750006437302,0|0,0:2|0:2,0:2:0:0:
298,47,153392,2,0,B|344:76|344:76|380:54|380:54|359:74|364:101,1,131.250001251698,8|0,0:2|0:2,0:2:0:0:
389,86,153645,1,0,0:2:0:0:
389,86,153729,1,0,0:2:0:0:
493,162,153897,6,0,P|473:192|437:202,1,75,0|0,0:2|0:2,0:2:0:0:
287,162,154066,2,0,P|306:192|342:202,1,75,8|0,0:2|0:2,0:2:0:0:
499,230,154234,2,0,P|462:228|436:201,1,75,0|0,0:2|0:2,0:2:0:0:
280,230,154403,2,0,B|316:228|345:205|345:205|294:205|284:158,1,150,0|0,0:2|0:2,0:2:0:0:
361,136,154740,2,0,B|381:112|389:84|389:84|397:112|417:136,1,112.500004291535,8|0,0:2|0:2,0:2:0:0:
426,149,154993,1,0,0:2:0:0:
426,149,155077,1,4,0:2:0:0:
205,101,155246,6,0,P|217:75|310:88,1,112.500004291535,0|8,0:2|0:2,0:2:0:0:
292,62,155499,2,0,P|238:58|205:101,1,112.500004291535,0|0,0:2|0:2,0:2:0:0:
124,20,155751,2,0,B|92:108|108:172|108:172|120:176|120:176|112:180|112:180|124:184|124:184|116:188|116:188|128:192|128:192|120:196|120:196|132:200|132:200|124:204|124:204|136:208|136:208|128:212|128:212|140:216|140:216|168:195|161:146,1,337.500012874604,0|2,0:0|2:0,0:0:0:0:
31,36,156425,5,0,0:0:0:0:
32,59,156510,1,0,0:0:0:0:
34,82,156594,1,0,0:0:0:0:
35,106,156678,1,0,0:0:0:0:
37,129,156763,2,0,L|42:215,1,46.875,8|0,0:0|0:0,0:0:0:0:
200,237,157100,1,0,0:0:0:0:
200,237,157184,1,0,0:0:0:0:
200,237,157268,2,0,L|142:216,1,46.875,8|0,0:0|0:0,0:0:0:0:
355,211,157605,5,0,0:0:0:0:
388,193,157690,1,0,0:0:0:0:
403,159,157774,1,0,0:0:0:0:
408,122,157858,1,0,0:0:0:0:
402,75,157942,2,0,L|336:107,1,46.875
273,29,158111,2,0,L|316:110,1,46.875,8|0,0:0|0:0,0:0:0:0:
334,223,158448,1,0,0:0:0:0:
334,223,158532,1,0,0:0:0:0:
334,223,158616,2,0,L|337:131,1,46.875,8|0,0:0|0:0,0:0:0:0:
474,247,158954,5,0,0:0:0:0:
487,291,159038,1,0,0:0:0:0:
478,337,159122,1,0,0:0:0:0:
437,359,159206,1,0,0:0:0:0:
389,356,159291,2,0,P|360:314|367:303,1,46.875
397,223,159459,2,0,P|447:232|450:244,1,46.875,8|0,0:0|0:0,0:0:0:0:
340,129,159796,1,0,0:0:0:0:
340,129,159881,1,0,0:0:0:0:
340,129,159965,2,0,L|331:211,1,46.875,8|0,0:0|0:0,0:0:0:0:
219,142,160302,5,0,0:0:0:0:
188,159,160386,1,0,0:0:0:0:
158,177,160470,1,0,0:0:0:0:
127,195,160555,1,0,0:0:0:0:
97,212,160639,2,0,L|45:245,1,46.875
252,121,160807,2,0,L|304:88,1,46.875,8|0,0:0|0:0,0:0:0:0:
403,24,161145,1,0,0:0:0:0:
403,24,161229,1,0,0:0:0:0:
403,24,161313,2,0,P|418:41|394:70,1,46.875,8|0,0:0|0:0,0:0:0:0:
322,115,161566,2,0,P|317:155|348:151,1,84.3750032186509,8|0,0:0|0:0,0:0:0:0:
497,167,161819,6,0,B|483:199|470:202|470:202|462:169|408:158,1,84.3750032186509,2|0,2:0|0:0,0:0:0:0:
437,203,161987,1,0,0:0:0:0:
418,217,162072,1,0,0:0:0:0:
400,240,162156,2,0,P|375:267|385:317,1,46.875,8|0,0:0|0:0,0:0:0:0:
223,362,162493,1,0,0:0:0:0:
223,362,162577,1,0,0:0:0:0:
223,362,162661,2,0,P|198:334|208:284,1,46.875,8|0,0:0|0:0,0:0:0:0:
121,162,162999,5,0,0:0:0:0:
83,159,163083,1,0,0:0:0:0:
52,179,163167,1,0,0:0:0:0:
28,207,163251,1,0,0:0:0:0:
21,246,163336,2,0,P|56:234|97:264,1,46.875
162,178,163504,2,0,P|145:210|94:219,1,46.875,8|0,0:0|0:0,0:0:0:0:
254,79,163841,1,0,0:0:0:0:
254,79,163925,1,0,0:0:0:0:
254,79,164010,2,0,P|224:57|175:72,1,46.875,8|0,0:0|0:0,0:0:0:0:
414,73,164347,5,0,0:0:0:0:
396,88,164431,1,0,0:0:0:0:
382,104,164515,1,0,0:0:0:0:
376,123,164600,1,0,0:0:0:0:
357,141,164684,2,0,L|312:180,1,46.875
334,306,164852,2,0,L|379:267,1,46.875,8|0,0:0|0:0,0:0:0:0:
452,181,165190,1,0,0:0:0:0:
475,156,165274,1,0,0:0:0:0:
485,125,165358,2,0,P|484:88|443:57,1,46.875,8|0,0:0|0:0,0:0:0:0:
361,74,165695,5,0,0:0:0:0:
286,48,165779,1,0,0:0:0:0:
305,131,165864,1,0,0:0:0:0:
305,131,165948,1,0,0:0:0:0:
305,131,166032,2,0,P|277:155|279:206,1,46.875
132,204,166201,2,0,P|159:179|157:128,1,46.875,8|0,0:0|0:0,0:0:0:0:
5,101,166538,5,8,0:0:0:0:
5,101,166622,1,0,0:0:0:0:
5,101,166706,2,0,P|12:73|60:77,1,65.6250006258488,8|0,0:0|0:0,0:0:0:0:
188,184,166875,1,8,0:0:0:0:
214,14,166959,2,0,P|149:44|129:76,1,65.6250006258488,0|8,0:0|0:0,0:0:0:0:
183,240,167212,6,0,B|211:272|211:272|247:231|247:231|253:260|279:284|317:295|354:281|378:255|383:232|378:196,1,281.25,6|0,0:2|0:0,0:0:0:0:
312,211,167549,2,0,P|280:165|216:166,1,112.500004291535,8|0,0:0|0:0,0:0:0:0:
101,215,167886,5,0,0:0:0:0:
101,215,167970,1,0,0:0:0:0:
101,215,168055,2,0,P|103:187|131:171,1,56.2500021457673
226,161,168223,1,8,0:0:0:0:
88,34,168392,2,0,L|133:77,1,56.2500021457673
101,215,168560,6,0,P|48:231|30:293,1,112.500004291535
163,328,168897,1,8,0:0:0:0:
285,277,169066,2,0,P|264:226|212:210,1,112.500004291535
45,236,169403,1,0,0:0:0:0:
101,215,169572,2,0,P|159:224|214:211,2,112.500004291535,8|0|0,0:0|0:0|0:0,0:0:0:0:
144,130,170077,1,0,0:0:0:0:
334,108,170246,6,0,B|323:136|286:137|286:137|261:105|229:134|229:134|187:114|180:71|180:71|144:99|142:141,1,281.25,10|0,0:2|0:0,0:0:0:0:
159,99,170583,1,0,0:0:0:0:
181,73,170667,1,0,0:0:0:0:
213,63,170751,1,0,0:0:0:0:
246,60,170836,1,0,0:0:0:0:
267,66,170920,2,0,P|262:122|248:178,1,112.500004291535,8|0,0:0|0:0,0:0:0:0:
326,182,171257,6,0,P|288:246|228:249,1,112.5
178,232,171594,2,0,P|182:305|276:328,1,140.625,8|0,0:0|0:0,0:0:0:0:
158,152,171931,2,0,P|236:174|254:253,1,168.750006437302
90,110,172268,2,0,P|90:202|177:231,1,196.875001877546,8|0,0:0|0:0,0:3:0:0:
158,152,172605,6,0,B|200:143|235:166|235:166|263:184|291:168|291:168|249:81|152:88,1,281.25,6|0,0:2|0:0,0:0:0:0:
90,110,172942,2,0,B|79:107|77:135|82:160|82:160|63:143|37:131|34:141,1,112.500004291535,8|0,0:0|0:0,0:0:0:0:
34,219,173279,5,0,0:0:0:0:
34,219,173364,1,0,0:0:0:0:
34,219,173448,2,0,L|58:272,1,56.2500021457673
91,344,173616,1,8,0:0:0:0:
122,331,173701,2,0,L|173:307,1,56.2500021457673
321,304,173954,6,0,P|286:256|238:226,1,112.500004291535
79,103,174291,2,0,P|113:150|161:180,1,112.500004291535,8|0,0:0|0:0,0:0:0:0:
241,228,174628,2,0,L|177:251,1,56.2500021457673
158,178,174796,2,0,L|222:155,1,56.2500021457673
358,210,174965,2,0,P|344:152|311:106,2,112.500004291535,8|0|0,0:0|0:0|0:0,0:0:0:0:
212,201,175470,1,0,0:0:0:0:
50,77,175639,6,0,B|32:127|83:134|83:134|101:179|64:207|64:207|25:236|15:274|28:328|90:351,1,281.25,10|0,0:2|0:0,0:0:0:0:
113,269,175976,2,0,P|154:227|168:175,1,112.500004291535
205,45,176313,1,8,0:0:0:0:
205,45,176397,1,0,0:0:0:0:
205,45,176482,2,0,L|257:106,1,56.2500021457673
397,181,176650,2,0,P|362:229|314:259,1,112.500004291535
113,269,176987,2,0,P|148:221|196:191,1,112.500004291535,8|0,0:0|0:0,0:0:0:0:
317,257,177324,5,0,0:0:0:0:
317,257,177409,1,0,0:0:0:0:
317,257,177493,2,0,P|349:240|376:216,1,56.2500021457673
192,192,177661,1,8,0:0:0:0:
192,192,177746,1,0,0:0:0:0:
192,192,177830,2,0,P|160:209|133:233,1,56.2500021457673
290,72,177999,6,0,B|375:81|395:162|395:162|329:177|315:261,1,281.25,6|0,0:2|0:0,0:0:0:0:
423,341,178336,2,0,P|432:285|386:241,1,112.500004291535,8|0,0:0|0:0,0:0:0:0:
316,256,178673,5,0,0:0:0:0:
316,256,178757,1,0,0:0:0:0:
316,256,178842,2,0,P|288:254|272:226,1,56.2500021457673
391,159,179010,1,8,0:0:0:0:
207,114,179179,2,0,L|269:128,1,56.2500021457673
190,22,179347,2,0,P|137:38|119:100,1,112.500004291535
182,192,179684,5,8,0:0:0:0:
279,181,179853,2,0,P|258:130|206:114,1,112.500004291535
101,228,180190,1,0,0:0:0:0:
154,298,180359,2,0,P|178:244|181:188,2,112.500004291535,8|0|0,0:0|0:0|0:0,0:0:0:0:
143,130,180864,1,0,0:0:0:0:
101,228,181032,2,0,B|68:122|88:47|88:47|150:116|145:148,1,281.25,10|0,0:2|0:0,0:0:0:0:
159,99,181370,1,0,0:0:0:0:
181,73,181454,1,0,0:0:0:0:
213,63,181538,1,0,0:0:0:0:
246,60,181623,1,0,0:0:0:0:
267,66,181707,2,0,B|269:123|269:123|248:178,1,112.500004291535,8|0,0:0|0:0,0:0:0:0:
326,182,182044,6,0,B|299:240|299:240|250:246,1,112.500004291535
411,195,182381,2,0,B|393:121|393:121|330:100,1,140.625,8|0,0:0|0:0,0:0:0:0:
424,276,182718,2,0,B|341:265|341:265|325:181,1,168.750006437302,0|0,0:0|0:0,0:0:0:0:
411,195,183055,2,0,B|508:212|508:212|499:325,1,196.875001877546,8|0,0:0|0:0,0:0:0:0:
424,276,183392,2,0,B|419:330|419:330|378:241|249:315|230:197,1,281.25,6|0,0:2|0:0,0:0:0:0:
312,195,183729,2,0,P|334:265|342:352,1,112.500004291535,8|0,0:0|0:0,0:0:0:0:
240,272,184066,5,0,0:0:0:0:
240,272,184151,1,0,0:0:0:0:
240,272,184235,2,0,L|155:295,1,56.2500021457673
47,321,184403,1,8,0:0:0:0:
47,321,184487,2,0,L|132:298,1,56.2500021457673
312,195,184741,6,0,P|253:185|198:198,1,112.500004291535
336,78,185077,2,0,P|394:87|449:74,1,112.500004291535,8|0,0:0|0:0,0:0:0:0:
202,196,185415,2,0,P|263:203|284:193,1,56.2500021457673
336,78,185583,2,0,P|275:71|254:81,1,56.2500021457673
344,210,185751,2,0,B|376:201|381:129|417:114,2,112.500004291535,8|0|0,0:0|0:0|0:0,0:0:0:0:
294,125,186257,1,0,0:0:0:0:
407,141,186425,6,0,B|364:212|401:261|401:261|313:251|353:334|258:306,1,281.25,10|0,0:2|0:0,0:0:0:0:
178,306,186763,2,0,P|200:254|263:243,1,112.500004291535
161,174,187100,1,8,0:0:0:0:
161,174,187184,1,0,0:0:0:0:
161,174,187269,2,0,L|250:163,1,56.2500021457673
265,318,187437,2,0,P|291:268|298:213,1,112.500004291535,4|0,0:2|0:0,0:0:0:0:
248,61,187774,2,0,P|222:110|215:166,1,112.500004291535,8|0,0:0|0:0,0:0:0:0:
298,213,188111,6,0,P|292:177|279:143,1,56.2500021457673,8|0,0:0|0:0,0:0:0:0:
216,167,188448,2,0,P|221:202|234:236,1,56.2500021457673,8|0,0:0|0:0,0:0:0:0:
491,106,188785,6,0,B|486:195|396:212|396:212|410:299|509:318,1,281.25,8|0,0:0|0:0,0:0:0:0:
407,121,189122,2,0,P|332:124|300:160,1,112.500004291535,8|0,0:0|0:0,0:0:0:0:
283,264,189459,1,0,0:0:0:0:
278,231,189543,1,0,0:0:0:0:
282,197,189628,2,0,P|292:170|306:146,1,56.2500021457673
178,121,189796,2,0,P|166:146|160:173,1,56.2500021457673,8|0,0:0|0:0,0:0:0:0:
160,208,189965,1,0,0:0:0:0:
272,95,190133,6,0,P|217:85|173:132,1,112.500004291535
160,208,190470,1,8,0:0:0:0:
320,275,190639,2,0,P|299:224|247:208,1,112.500004291535
144,222,190976,1,0,0:0:0:0:
88,322,191145,2,0,P|146:331|201:318,2,112.500004291535,8|0|0,0:0|0:0|0:0,0:0:0:0:
137,190,191650,1,0,0:0:0:0:
247,207,191819,6,0,B|78:260|78:260|97:201|97:201|137:191,1,281.25,8|0,0:0|0:0,0:0:0:0:
159,99,192156,1,0,0:0:0:0:
181,73,192240,1,0,0:0:0:0:
213,63,192324,1,0,0:0:0:0:
246,60,192409,1,0,0:0:0:0:
267,66,192493,2,0,P|286:125|260:183,1,112.500004291535,8|0,0:0|0:0,0:0:0:0:
370,222,192830,6,0,P|361:279|329:266,1,112.5,2|0,0:2|0:0,0:0:0:0:
270,170,193167,2,0,P|225:227|265:244,1,140.625,10|0,0:2|0:2,0:2:0:0:
370,222,193504,2,0,P|356:308|308:288,1,168.750006437302,2|0,0:0|0:0,0:0:0:0:
270,170,193841,2,0,P|208:251|263:274,1,196.875001877546,10|0,0:2|0:0,0:0:0:0:
370,222,194178,2,0,B|398:249|398:249|410:287|410:287|403:332|403:332|370:358|370:358|329:369|329:369|284:357|284:357|259:319,1,281.25,14|0,2:2|0:0,0:0:0:0:
328,285,194515,1,8,0:0:0:0:
201,164,194684,1,0,0:0:0:0:
148,264,194852,5,4,0:0:0:0:
148,264,195021,1,0,0:0:0:0:
375,101,195190,1,12,0:0:0:0:
265,299,195358,1,0,0:0:0:0:
113,201,195527,5,4,0:0:0:0:
113,201,195696,1,0,0:0:0:0:
419,170,195865,1,12,0:0:0:0:
205,298,196033,1,0,0:0:0:0:
115,122,196201,5,4,0:0:0:0:
115,122,196370,1,0,0:0:0:0:
423,261,196539,1,12,0:0:0:0:
149,266,196707,1,0,0:0:0:0:
266,127,196875,5,8,0:0:0:0:
213,129,196959,1,0,0:0:0:0:
195,180,197043,1,0,0:0:0:0:
230,221,197127,1,0,0:0:0:0:
285,220,197212,1,8,0:0:0:0:
328,187,197296,1,0,0:0:0:0:
342,133,197380,1,0,0:0:0:0:
322,82,197464,1,0,0:0:0:0:
277,50,197549,5,8,0:0:0:0:
221,45,197633,1,0,0:0:0:0:
169,67,197717,1,0,0:0:0:0:
133,108,197801,1,0,0:0:0:0:
117,162,197886,1,8,0:0:0:0:
122,217,197970,1,0,0:0:0:0:
149,266,198054,1,0,0:0:0:0:
196,297,198139,1,0,0:0:0:0:
245,322,198223,6,0,B|291:294|291:294|310:301|310:301|351:276,1,112.500004291535,4|0,0:0|0:0,0:0:0:0:
408,213,198560,2,0,B|436:259|436:259|429:278|429:278|454:319,1,112.500004291535
265,118,198897,2,0,B|290:165|290:165|285:183|285:183|306:221,1,112.500004291535
408,213,199234,2,0,L|392:186,1,28.125,8|0,0:0|0:0,0:0:0:0:
315,23,199572,1,6,0:2:0:0:
256,192,208673,12,0,210274,0:0:0:0:
126,61,210358,6,0,P|293:94|299:105,1,168.750006437302,0|0,0:1|0:1,0:1:0:0:
134,211,210695,2,0,P|185:190|201:138,1,112.500004291535,0|0,1:1|0:1,0:1:0:0:
119,136,211032,1,0,1:1:0:0:
119,136,211116,1,0,0:1:0:0:
119,136,211201,1,0,0:1:0:0:
54,287,211369,2,0,P|89:239|137:209,1,112.500004291535,0|0,1:1|0:1,0:1:0:0:
218,158,211706,6,0,L|157:112,1,56.2500021457673,0|0,1:1|0:1,0:1:0:0:
62,140,211874,2,0,L|195:120,1,112.500004291535,0|0,0:1|1:1,0:1:0:0:
180,295,212212,2,0,B|219:273|219:273|221:250|221:250|276:225,2,112.500004291535,0|0|0,0:1|1:1|0:1,0:1:0:0:
88,273,212717,2,0,P|65:217|65:161,1,112.500004291535,0|0,1:1|0:1,0:1:0:0:
80,76,213055,5,0,1:1:0:0:
80,76,213140,1,0,0:0:0:0:
80,76,213224,2,0,P|128:111|158:159,1,112.500004291535,0|0,0:1|0:1,0:1:0:0:
236,214,213476,2,0,P|181:238|125:240,1,112.500004291535,0|0,1:1|0:1,0:1:0:0:
39,273,213729,2,0,P|45:213|71:163,1,112.500004291535,0|0,0:1|0:1,0:1:0:0:
219,149,213982,2,0,L|331:189,1,112.500004291535,0|0,0:1|1:1,0:1:0:0:
367,201,214235,1,0,0:0:0:0:
84,210,214403,5,0,1:1:0:0:
81,254,214487,1,0,0:1:0:0:
79,299,214572,2,0,P|125:336|179:352,1,112.500004291535,0|0,0:1|1:1,0:1:0:0:
338,250,214824,2,0,P|291:212|237:196,1,112.500004291535,0|0,0:1|0:1,0:1:0:0:
84,210,215077,2,0,P|130:247|184:263,1,112.500004291535,0|0,1:1|0:1,0:1:0:0:
343,161,215330,2,0,P|296:123|245:108,1,112.500004291535,0|0,0:1|0:1,0:1:0:0:
212,106,215583,1,0,0:1:0:0:
180,263,215751,5,0,1:1:0:0:
218,287,215836,1,0,0:1:0:0:
256,310,215920,2,0,B|309:337|309:337|360:288,1,112.500004291535,0|0,0:1|1:1,0:1:0:0:
410,172,216173,2,0,B|357:145|357:145|306:194,1,112.500004291535,0|0,0:1|0:1,0:1:0:0:
286,243,216425,2,0,B|339:270|339:270|390:221,1,112.500004291535,0|0,1:1|0:1,0:1:0:0:
440,105,216678,2,0,B|387:78|387:78|336:127,1,112.500004291535,0|0,0:1|0:1,0:1:0:0:
319,149,216931,1,0,0:1:0:0:
235,178,217100,5,0,1:1:0:0:
209,152,217184,1,0,0:1:0:0:
175,132,217268,2,0,P|115:128|62:147,1,112.500004291535,0|0,0:1|1:1,0:1:0:0:
156,206,217521,2,0,P|112:246|87:297,1,112.500004291535,0|0,0:1|0:1,0:1:0:0:
196,273,217774,2,0,P|192:332|211:385,1,112.500004291535,0|0,1:1|0:1,0:1:0:0:
270,291,218027,2,0,P|310:335|361:360,1,112.500004291535,0|0,0:1|0:1,0:1:0:0:
408,364,218279,1,0,0:1:0:0:
423,94,218448,5,0,1:1:0:0:
448,130,218532,1,0,0:1:0:0:
453,174,218616,2,0,P|415:238|355:241,1,112.5,0|0,0:1|1:1,0:1:0:0:
299,241,218869,2,0,P|337:176|397:174,1,112.5,0|0,0:1|0:1,0:1:0:0:
240,164,219122,2,0,P|202:228|142:231,1,112.5,0|0,1:1|0:1,0:1:0:0:
86,231,219375,2,0,P|124:166|184:164,1,112.5,0|0,0:1|0:1,0:1:0:0:
202,154,219628,1,0,0:1:0:0:
240,164,219712,1,0,0:1:0:0:
280,183,219796,6,0,P|362:177|412:76,1,168.750006437302,0|0,1:1|0:1,0:1:0:0:
308,90,220133,2,0,B|259:61|259:61|138:141,1,168.750006437302,0|0,1:1|0:1,0:1:0:0:
50,135,220470,2,0,B|94:156|201:324|-19:263|107:214|107:214|191:248|197:147|271:213,1,393.750015020371,0|0,1:1|0:1,0:1:0:0:
165,122,221145,6,0,P|332:155|338:166,1,168.750006437302,12|0,0:1|0:1,0:1:0:0:
329,231,221482,2,0,P|377:196|407:148,1,112.500004291535,8|0,1:1|0:1,0:1:0:0:
205,196,221819,1,8,1:1:0:0:
230,192,221903,1,0,0:1:0:0:
257,202,221987,1,0,0:1:0:0:
62,314,222156,2,0,P|115:231|172:218,1,112.500004291535,8|0,1:1|0:1,0:1:0:0:
41,120,222493,6,0,L|113:97,1,56.2500021457673,8|0,1:1|0:1,0:1:0:0:
194,154,222661,2,0,L|74:92,1,112.500004291535,0|8,0:1|1:1,0:1:0:0:
130,225,222999,2,0,B|84:203|84:203|62:216|62:216|-11:175,2,112.500004291535,0|8|0,0:1|1:1|0:1,0:1:0:0:
241,237,223504,2,0,P|218:292|178:332,1,112.500004291535,8|0,1:1|0:1,0:1:0:0:
165,122,223841,1,8,1:1:0:0:
177,225,224010,1,0,0:1:0:0:
91,54,224178,6,0,P|258:87|264:98,1,168.750006437302,8|0,1:1|0:1,0:1:0:0:
177,225,224515,2,0,P|225:190|255:142,1,112.500004291535,8|0,1:1|0:1,0:1:0:0:
203,39,224852,1,8,1:1:0:0:
225,47,224936,1,0,0:1:0:0:
244,69,225020,1,0,0:1:0:0:
25,142,225190,2,0,P|51:88|94:51,1,112.500004291535,8|0,1:1|0:1,0:1:0:0:
138,143,225527,5,8,1:1:0:0:
138,143,225611,2,0,L|193:195,1,56.2500021457673,0|0,0:1|0:1,0:1:0:0:
191,311,225779,1,0,0:1:0:0:
191,311,225864,2,0,P|246:316|300:300,1,112.500004291535,8|0,1:1|0:1,0:1:0:0:
252,215,226201,1,8,1:2:0:0:
88,139,226369,1,0,1:2:0:0:
252,215,226538,5,4,1:0:0:0:
252,215,226706,1,0,1:0:0:0:
88,139,226874,1,12,1:0:0:0:
103,317,227043,1,0,1:0:0:0:
252,215,227212,5,4,1:0:0:0:
252,215,227380,1,0,1:0:0:0:
252,16,227548,1,12,1:0:0:0:
80,116,227717,1,0,1:0:0:0:
252,215,227886,5,4,1:0:0:0:
252,215,228054,1,0,1:0:0:0:
438,107,228222,1,12,1:0:0:0:
251,0,228391,1,0,1:0:0:0:
252,215,228560,5,4,1:0:0:0:
252,215,228728,1,0,1:0:0:0:
455,331,228896,1,12,1:0:0:0:
454,96,229065,1,0,1:0:0:0:
249,207,229234,5,8,3:1:0:0:
202,216,229318,1,0,3:1:0:0:
158,196,229402,1,0,3:1:0:0:
132,155,229486,1,0,3:1:0:0:
130,107,229571,1,8,3:1:0:0:
152,63,229655,1,0,3:1:0:0:
191,35,229739,1,0,3:1:0:0:
239,27,229823,1,0,3:1:0:0:
284,44,229909,1,8,3:1:0:0:
315,81,229992,1,0,3:1:0:0:
327,128,230076,5,0,3:1:0:0:
353,169,230160,1,0,3:1:0:0:
398,179,230245,1,8,3:1:0:0:
425,140,230329,1,0,3:1:0:0:
403,99,230413,1,0,3:1:0:0:
356,101,230498,1,0,3:1:0:0:
322,135,230582,1,8,3:1:0:0:
312,183,230666,1,0,3:1:0:0:
324,230,230750,1,8,3:1:0:0:
353,268,230835,1,0,3:1:0:0:
397,288,230920,6,0,P|463:295|482:256,1,75,8|0,3:1|3:1,3:1:0:0:
120,158,231088,2,0,P|82:211|106:247,1,75,8|0,3:1|3:1,3:1:0:0:
403,130,231257,2,0,P|375:70|332:73,1,75,8|0,3:1|3:1,3:1:0:0:
227,296,231425,2,0,P|254:355|297:352,1,75,8|0,3:1|3:1,3:1:0:0:
247,41,231594,2,8,P|181:34|162:73,1,75,8|8,3:1|3:1,3:1:0:0:
397,288,231763,2,8,P|434:234|410:198,1,75,8|8,3:1|3:1,3:1:0:0:
120,158,231931,1,4,0:2:0:0:
180,113,233954,5,8,3:0:0:0:
330,191,234206,1,0,3:0:0:0:
330,191,234290,1,0,3:0:0:0:
330,191,234375,2,0,L|251:204,1,75,0|8,3:0|3:0,3:0:0:0:
133,216,234628,1,0,3:0:0:0:
339,277,234796,1,8,3:0:0:0:
180,113,234965,5,0,3:0:0:0:
265,318,235133,1,8,3:0:0:0:
342,114,235302,1,8,3:0:0:0:
265,318,235470,1,0,3:0:0:0:
180,113,235639,2,0,P|176:187|198:258,1,150,8|0,3:0|3:0,3:0:0:0:
310,180,235976,1,0,0:0:0:0:
405,237,236145,6,0,L|460:136,1,93.75,0|0,0:2|0:2,0:2:0:0:
266,263,236482,1,0,0:2:0:0:
266,263,236650,2,0,L|321:162,1,93.75,0|0,0:2|0:2,0:2:0:0:
132,300,236987,2,0,L|137:290,1,11.25,12|0,0:1|0:0,0:0:0:0:
137,203,237324,6,0,B|104:229|35:183|62:105|107:90|210:89|187:139|189:222|190:249|248:279,1,337.500012874604,6|0,0:2|0:2,0:2:0:0:
286,283,237661,1,8,0:2:0:0:
341,246,237746,1,0,0:2:0:0:
372,188,237830,1,0,0:2:0:0:
368,122,237914,1,0,0:2:0:0:
320,75,237999,2,0,P|271:73|217:102,1,93.75,0|0,0:2|0:2,0:2:0:0:
110,136,238167,2,0,P|158:136|212:107,1,93.75,2|0,0:2|0:2,0:2:0:0:
301,163,238336,2,0,L|210:85,1,93.75,10|0,0:2|0:2,0:2:0:0:
128,48,238504,2,0,L|218:125,1,93.75,2|0,0:2|0:2,0:2:0:0:
301,163,238673,6,0,B|356:143|377:50|377:50|446:124|384:200|301:241,1,337.500012874604,2|0,0:2|0:2,0:2:0:0:
277,234,239010,1,8,0:2:0:0:
223,197,239094,1,0,0:2:0:0:
158,186,239178,1,0,0:2:0:0:
93,202,239263,1,0,0:2:0:0:
36,168,239347,1,0,0:2:0:0:
37,102,239431,5,0,0:2:0:0:
93,69,239515,1,2,0:2:0:0:
158,80,239600,1,0,0:2:0:0:
214,116,239684,2,0,L|310:189,1,93.75,10|0,0:2|0:2,0:2:0:0:
430,287,239852,2,0,L|333:213,1,93.75,2|0,0:2|0:2,0:2:0:0:
376,145,240021,2,0,P|280:183|278:298,1,187.5,2|0,0:2|0:2,0:2:0:0:
212,333,240358,6,0,B|171:273|190:174|190:174|115:242|16:224,1,337.500012874604,10|0,0:2|0:2,0:2:0:0:
59,166,240695,1,0,0:2:0:0:
108,122,240779,1,0,0:2:0:0:
169,97,240864,1,2,0:2:0:0:
233,87,240948,1,0,0:2:0:0:
298,89,241032,1,10,0:2:0:0:
360,107,241116,1,0,0:2:0:0:
414,144,241201,5,2,0:2:0:0:
414,144,241285,1,0,0:2:0:0:
414,144,241369,2,0,P|349:165|258:160,1,93.75,2|0,0:2|0:2,0:2:0:0:
108,122,241538,1,0,0:2:0:0:
108,122,241622,1,0,0:2:0:0:
108,122,241706,2,0,P|173:101|264:106,1,93.75,10|0,0:2|0:2,0:2:0:0:
246,282,241875,5,0,0:2:0:0:
246,282,241959,1,0,0:2:0:0:
246,282,242043,2,0,P|225:217|230:126,1,93.75,2|0,0:2|0:2,0:2:0:0:
279,0,242212,1,0,0:2:0:0:
279,0,242296,1,0,0:2:0:0:
279,0,242381,2,0,P|300:65|295:156,1,93.75,10|0,0:2|0:2,0:2:0:0:
384,104,242549,2,0,P|352:164|285:225,1,93.75,2|0,0:2|0:2,0:2:0:0:
230,152,242718,6,0,B|267:176|250:218|250:218|283:234|300:269|297:317|266:356|220:371|173:355|142:322|149:276,1,337.500012874604,6|0,0:2|0:2,0:2:0:0:
214,277,243055,1,8,0:2:0:0:
162,236,243139,1,0,0:2:0:0:
144,172,243223,1,0,0:2:0:0:
159,108,243307,1,0,0:2:0:0:
213,69,243392,1,0,0:2:0:0:
277,57,243476,1,0,0:2:0:0:
341,67,243560,1,2,0:2:0:0:
384,116,243645,1,0,0:2:0:0:
401,179,243729,6,0,P|402:232|369:280,1,93.75,10|0,0:2|0:2,0:2:0:0:
259,144,243897,2,0,P|257:90|291:43,1,93.75,2|0,0:2|0:2,0:2:0:0:
165,116,244066,2,0,P|298:230|306:52,1,337.500012874604,2|0,0:2|0:2,0:2:0:0:
341,67,244403,1,8,0:2:0:0:
276,56,244487,1,0,0:2:0:0:
213,69,244572,1,0,0:2:0:0:
159,108,244656,1,0,0:2:0:0:
139,170,244740,6,0,P|151:221|196:259,1,93.75,0|0,0:2|0:2,0:2:0:0:
288,328,244909,2,0,P|275:276|230:238,1,93.75,2|0,0:2|0:2,0:2:0:0:
78,193,245077,2,0,P|118:248|194:297,1,93.75,10|0,0:2|0:2,0:2:0:0:
345,318,245246,2,0,P|304:262|228:213,1,93.75,2|0,0:2|0:2,0:2:0:0:
139,170,245414,2,0,B|244:240|240:77|379:200,1,187.5,2|0,0:2|0:2,0:2:0:0:
227,101,245751,6,0,B|287:64|363:105|363:105|345:51|345:51|439:118|495:66,1,337.500012874604,10|0,0:2|0:2,0:2:0:0:
474,148,246088,1,0,0:2:0:0:
455,211,246173,1,0,0:2:0:0:
413,261,246257,1,2,0:2:0:0:
355,291,246341,1,0,0:2:0:0:
291,310,246425,1,10,0:2:0:0:
224,312,246510,1,0,0:2:0:0:
164,285,246594,5,2,0:2:0:0:
164,285,246678,1,0,0:2:0:0:
164,285,246763,2,0,L|256:230,1,93.75,2|0,0:2|0:2,0:2:0:0:
329,146,246931,2,0,L|225:175,1,93.75,0|0,0:2|0:2,0:2:0:0:
76,179,247100,5,10,0:2:0:0:
76,179,247184,1,0,0:2:0:0:
76,179,247269,2,0,L|183:177,1,93.75,0|0,0:2|0:2,0:2:0:0:
288,140,247437,2,0,L|184:113,1,93.75,2|0,0:2|0:2,0:2:0:0:
52,55,247605,2,0,L|133:100,1,93.75,0|0,0:2|0:2,0:2:0:0:
255,127,247774,1,10,0:2:0:0:
255,127,247858,1,0,0:2:0:0:
255,127,247942,2,0,L|187:61,1,93.75,2|0,0:2|0:2,0:2:0:0:
314,193,248111,6,0,B|306:199|287:212|255:216|241:215|204:186|204:186|148:146|78:176|66:241|86:294|172:322,1,337.500012874604,6|0,0:2|0:2,0:2:0:0:
158,238,248448,1,8,0:2:0:0:
206,281,248532,1,0,0:2:0:0:
270,289,248616,1,0,0:2:0:0:
335,278,248701,1,0,0:2:0:0:
392,246,248785,1,0,0:2:0:0:
426,190,248869,1,0,0:2:0:0:
420,124,248954,1,2,0:2:0:0:
388,66,249038,1,0,0:2:0:0:
328,45,249122,6,0,B|262:29|212:60,1,93.75,10|0,0:2|0:2,0:2:0:0:
167,171,249291,2,0,P|220:174|270:143,1,93.75,2|0,0:2|0:2,0:2:0:0:
236,53,249459,2,0,B|178:114|85:61|85:61|22:143|121:257,1,337.500012874604,2|0,0:2|0:2,0:2:0:0:
135,273,249796,5,8,0:2:0:0:
188,310,249881,1,0,0:2:0:0:
251,328,249965,1,0,0:2:0:0:
316,323,250049,1,0,0:2:0:0:
376,297,250133,1,0,0:2:0:0:
418,246,250218,5,0,0:2:0:0:
423,180,250302,2,0,B|419:176|402:73,1,93.75,2|0,0:2|0:2,0:2:0:0:
193,185,250470,2,0,P|286:172|306:148,1,93.75,10|0,0:2|0:2,0:2:0:0:
408,87,250639,2,0,P|314:100|294:124,1,93.75,2|0,0:2|0:2,0:2:0:0:
124,241,250807,2,0,P|260:207|283:171,1,187.5,2|0,0:2|0:2,0:2:0:0:
168,160,251145,6,0,B|97:119|138:28|138:28|232:48|232:116|232:116|307:135|266:231,1,375,10|0,0:2|0:2,0:2:0:0:
215,172,251566,1,0,0:2:0:0:
165,215,251650,1,2,0:2:0:0:
166,280,251734,1,0,0:2:0:0:
224,311,251819,1,10,0:2:0:0:
281,279,251903,1,0,0:2:0:0:
318,225,251987,5,2,0:2:0:0:
380,203,252072,1,0,0:2:0:0:
442,223,252156,2,0,P|494:279|503:312,1,93.75,2|0,0:2|0:2,0:2:0:0:
330,136,252324,1,0,0:2:0:0:
364,119,252409,1,0,0:2:0:0:
401,114,252493,2,0,P|474:136|498:160,1,93.75,10|0,0:2|0:2,0:2:0:0:
250,95,252661,5,0,0:2:0:0:
270,63,252746,1,0,0:2:0:0:
300,40,252830,2,0,P|374:22|407:31,1,93.75,2|0,0:2|0:2,0:2:0:0:
144,134,252999,1,0,0:2:0:0:
145,96,253084,1,0,0:2:0:0:
159,61,253168,2,0,P|215:8|248:0,1,93.75,10|0,0:2|0:2,0:2:0:0:
61,58,253336,2,0,P|35:97|28:143,1,93.75,2|0,0:2|0:2,0:2:0:0:
59,289,253504,6,0,B|96:274|128:194|128:194|145:286|178:244|178:244|200:205|231:203|262:207|288:225|289:283,1,337.500012874604,6|0,0:2|0:2,0:2:0:0:
232,276,253841,1,8,0:2:0:0:
288,309,253925,1,0,0:2:0:0:
353,318,254010,1,0,0:2:0:0:
410,287,254094,1,0,0:2:0:0:
432,225,254178,1,0,0:2:0:0:
420,159,254263,5,0,0:2:0:0:
366,124,254347,1,2,0:2:0:0:
297,120,254431,1,0,0:2:0:0:
240,152,254515,2,0,B|236:148|190:239|206:271,1,93.75,10|0,0:2|0:2,0:2:0:0:
366,124,254684,2,0,P|411:32|395:0,1,93.75,2|0,0:2|0:2,0:2:0:0:
191,226,254852,6,0,B|280:205|302:121|302:121|250:153|192:157|192:157|203:120|234:98,1,337.500012874604,2|0,0:2|0:2,0:2:0:0:
266,57,255190,1,8,0:2:0:0:
329,74,255274,1,0,0:2:0:0:
353,134,255358,1,0,0:2:0:0:
311,184,255442,1,0,0:2:0:0:
245,172,255527,1,0,0:2:0:0:
222,107,255611,1,0,0:2:0:0:
266,57,255695,5,2,0:2:0:0:
329,74,255779,1,0,0:2:0:0:
353,134,255864,2,0,B|349:130|307:179|251:131,1,93.75,10|0,0:2|0:2,0:2:0:0:
157,154,256032,2,0,P|198:104|255:152,1,93.75,2|0,0:2|0:2,0:2:0:0:
287,180,256201,2,0,P|424:129|397:49,1,187.5,2|0,0:2|0:2,0:2:0:0:
486,219,256538,6,0,B|505:269|376:330|432:328|432:328|384:243|309:328|258:261,1,337.500012874604,10|0,0:2|0:2,0:2:0:0:
225,213,256875,1,0,0:2:0:0:
189,158,256959,1,0,0:2:0:0:
126,140,257043,1,2,0:2:0:0:
64,163,257128,1,0,0:2:0:0:
31,219,257212,2,0,P|53:310|104:314,1,93.75,10|0,0:2|0:2,0:2:0:0:
236,297,257381,2,0,P|213:205|162:201,1,93.75,2|0,0:2|0:2,0:2:0:0:
126,63,257549,1,0,0:2:0:0:
268,108,257718,5,0,0:2:0:0:
268,108,257802,1,0,0:2:0:0:
268,108,257886,2,0,P|321:136|338:241,1,131.250001251698,8|0,0:2|0:2,0:2:0:0:
223,257,258223,2,0,P|192:227|186:184,1,65.6250006258488,0|0,0:2|0:2,0:2:0:0:
333,177,258392,2,0,P|364:207|369:249,1,65.6250006258488,0|0,0:2|0:2,0:2:0:0:
188,149,258560,1,8,0:2:0:0:
174,72,258897,6,0,P|107:176|254:112,1,300,6|0,0:2|0:2,0:2:0:0:
257,119,259234,1,8,0:2:0:0:
257,119,259319,1,0,0:2:0:0:
257,119,259403,2,0,L|188:149,1,75,0|0,0:2|0:2,0:2:0:0:
325,51,259572,2,0,P|344:83|356:119,1,75,2|0,0:2|0:2,0:2:0:0:
305,271,259740,1,0,0:2:0:0:
305,271,259824,2,0,P|324:239|336:203,1,75,2|8,0:2|0:2,0:2:0:0:
469,89,259993,1,0,0:2:0:0:
469,89,260077,2,0,P|429:151|405:223,1,150,2|0,0:2|0:2,0:2:0:0:
230,233,260414,5,2,0:2:0:0:
230,233,260499,1,0,0:2:0:0:
230,233,260583,2,0,P|276:159|323:139,1,75,10|0,0:2|0:2,0:2:0:0:
210,89,260751,2,0,P|295:70|342:89,1,75,2|0,0:2|0:2,0:2:0:0:
397,130,260920,2,0,P|312:148|265:130,1,75,2|0,0:2|0:2,0:2:0:0:
118,160,261088,1,0,0:2:0:0:
118,160,261172,2,0,P|155:163|192:158,1,75,2|8,0:2|0:2,0:2:0:0:
353,227,261341,1,0,0:2:0:0:
353,227,261425,2,0,P|277:219|203:229,1,150,2|0,0:2|0:2,0:2:0:0:
117,50,261763,5,2,0:2:0:0:
77,104,261847,1,0,0:2:0:0:
68,170,261931,1,10,0:2:0:0:
96,231,262015,1,0,0:2:0:0:
141,281,262100,2,0,P|232:290|264:218,1,150,0|2,0:2|0:2,0:2:0:0:
228,131,262352,1,0,0:2:0:0:
228,131,262437,1,0,0:2:0:0:
228,131,262521,2,0,P|202:159|186:193,1,75,2|8,0:2|0:2,0:2:0:0:
344,240,262690,1,0,0:2:0:0:
344,240,262774,2,0,P|394:183|426:117,1,150,2|0,0:2|0:2,0:2:0:0:
354,29,263111,6,0,P|239:55|198:142,1,150,2|10,0:2|0:2,0:2:0:0:
170,157,263364,2,0,P|243:154|302:110,1,150,2|0,0:2|0:2,0:2:0:0:
398,95,263616,2,0,P|399:153|361:183,1,75,2|0,0:2|0:2,0:2:0:0:
430,325,263785,1,0,0:2:0:0:
430,325,263869,2,0,P|435:285|448:252,1,75,2|8,0:2|0:2,0:2:0:0:
423,81,264038,1,0,0:2:0:0:
423,81,264122,2,0,P|408:154|374:221,1,150,2|0,0:2|0:2,0:2:0:0:
130,268,264459,6,0,P|104:194|104:173,1,75,2|0,0:2|0:2,0:2:0:0:
256,190,264628,1,8,0:2:0:0:
256,190,264713,1,0,0:2:0:0:
256,190,264797,2,0,L|184:210,1,75,2|0,0:2|0:2,0:2:0:0:
316,131,264966,2,0,P|342:205|342:226,1,75,2|0,0:2|0:2,0:2:0:0:
155,155,265133,1,0,0:2:0:0:
155,155,265218,2,0,P|129:81|129:60,1,75,2|8,0:2|0:2,0:2:0:0:
265,0,265386,1,0,0:2:0:0:
265,0,265470,2,0,P|291:70|298:144,1,150,2|0,0:2|0:2,0:2:0:0:
183,210,265808,5,2,0:2:0:0:
183,210,265893,1,0,0:2:0:0:
183,210,265977,2,0,P|229:136|276:116,1,75,10|0,0:2|0:2,0:2:0:0:
176,79,266145,2,0,P|263:81|303:112,1,75,2|0,0:2|0:2,0:2:0:0:
300,17,266313,2,0,P|341:93|334:144,1,75,2|0,0:2|0:2,0:2:0:0:
120,171,266482,1,0,0:2:0:0:
120,171,266566,2,0,P|196:212|247:205,1,75,2|8,0:2|0:2,0:2:0:0:
362,262,266734,1,0,0:2:0:0:
362,262,266819,2,0,P|297:222|226:201,1,150,2|0,0:2|0:2,0:2:0:0:
210,69,267157,5,2,0:2:0:0:
249,123,267241,1,0,0:2:0:0:
268,187,267325,1,10,0:2:0:0:
261,249,267409,1,0,0:2:0:0:
208,292,267494,2,0,P|299:301|331:229,1,150,0|2,0:2|0:2,0:2:0:0:
128,163,267746,1,0,0:2:0:0:
128,163,267831,1,0,0:2:0:0:
128,163,267915,2,0,P|136:200|154:233,1,75,2|8,0:2|0:2,0:2:0:0:
268,187,268083,1,0,0:2:0:0:
268,187,268167,2,0,P|246:112|206:48,1,150,2|0,0:2|0:2,0:2:0:0:
208,292,268505,6,0,B|278:326|278:326|400:281,1,150,2|8,0:2|0:2,0:2:0:0:
426,268,268758,2,0,B|384:208|384:208|307:237,1,150,2|0,0:2|0:2,0:2:0:0:
269,239,269010,1,8,0:2:0:0:
244,102,269178,2,0,B|266:60|266:60|322:46,1,75,0|0,0:2|0:2,0:2:0:0:
269,239,269347,1,8,0:2:0:0:
244,102,269515,2,0,B|222:60|222:60|166:46,1,75,0|0,0:2|0:2,0:2:0:0:
386,210,269684,1,4,0:2:0:0:
292,53,269852,6,0,P|324:21|368:18,1,75,2|0,0:2|0:2,0:2:0:0:
372,156,270021,1,8,0:2:0:0:
349,204,270106,1,0,0:2:0:0:
306,235,270190,2,0,B|298:227|252:227|219:198,1,75,2|0,0:2|0:2,0:2:0:0:
350,92,270358,2,0,P|395:91|428:120,1,75,2|0,0:2|0:2,0:2:0:0:
236,219,270527,1,0,0:2:0:0:
236,219,270611,2,0,L|268:138,1,75,2|8,0:2|0:2,0:2:0:0:
418,107,270779,1,0,0:2:0:0:
418,107,270864,2,0,L|358:250,1,150,2|0,0:2|0:2,0:2:0:0:
444,180,271201,5,2,0:2:0:0:
461,229,271285,1,0,0:2:0:0:
451,280,271369,2,0,P|419:312|375:315,1,75,10|0,0:2|0:2,0:2:0:0:
333,191,271538,2,0,P|365:159|409:156,1,75,2|0,0:2|0:2,0:2:0:0:
261,319,271706,2,0,P|229:351|185:354,1,75,2|0,0:2|0:2,0:2:0:0:
143,230,271875,1,0,0:2:0:0:
143,230,271959,2,0,P|175:198|219:195,1,75,2|8,0:2|0:2,0:2:0:0:
392,153,272128,1,0,0:2:0:0:
392,153,272212,2,0,P|320:196|235:184,1,150,2|0,0:2|0:2,0:2:0:0:
143,230,272550,5,2,0:2:0:0:
195,271,272634,1,0,0:2:0:0:
261,283,272718,1,10,0:2:0:0:
322,257,272802,1,0,0:2:0:0:
374,214,272887,2,0,P|386:123|315:88,1,150,0|2,0:2|0:2,0:2:0:0:
256,89,273139,1,0,0:2:0:0:
256,89,273224,1,0,0:2:0:0:
255,88,273307,2,0,P|255:133|283:166,1,75,2|8,0:2|0:2,0:2:0:0:
389,282,273476,1,0,0:2:0:0:
389,282,273560,2,0,P|387:193|333:130,1,150,2|0,0:2|0:2,0:2:0:0:
250,170,273898,6,0,P|159:244|65:223,1,150,2|8,0:2|0:2,0:2:0:0:
43,224,274150,2,0,P|134:150|227:171,1,150,2|0,0:2|0:2,0:2:0:0:
255,88,274403,2,0,P|309:108|323:154,1,75,2|0,0:2|0:2,0:2:0:0:
249,259,274572,1,0,0:2:0:0:
249,259,274656,2,0,P|196:283|154:260,1,75,2|8,0:2|0:2,0:2:0:0:
317,120,274824,1,0,0:2:0:0:
317,120,274908,2,0,P|421:70|505:116,1,150,2|0,0:2|0:2,0:2:0:0:
369,218,275246,6,0,P|393:270|370:312,1,75,2|0,0:2|0:2,0:2:0:0:
235,163,275415,1,8,0:2:0:0:
202,204,275500,1,0,0:2:0:0:
193,255,275583,2,0,P|201:311|243:335,1,75,2|0,0:2|0:2,0:2:0:0:
317,120,275751,2,0,P|351:166|338:212,1,75,2|0,0:2|0:2,0:2:0:0:
138,233,275920,1,0,0:2:0:0:
138,233,276004,2,0,P|192:215|209:170,1,75,2|8,0:2|0:2,0:2:0:0:
268,59,276173,1,0,0:2:0:0:
268,59,276257,2,0,P|157:91|139:169,1,150,2|0,0:2|0:2,0:2:0:0:
409,217,276595,5,2,0:2:0:0:
380,173,276678,1,0,0:2:0:0:
331,157,276763,2,0,P|221:191|187:281,1,150,10|0,0:2|0:2,0:2:0:0:
502,255,277015,1,0,0:2:0:0:
502,255,277100,2,0,P|494:139|416:85,1,150,2|0,0:2|0:2,0:2:0:0:
279,263,277352,1,0,0:2:0:0:
279,263,277437,2,0,P|333:245|350:200,1,75,10|0,0:2|0:2,0:2:0:0:
457,89,277605,2,0,P|364:156|361:253,1,150,2|4,0:2|0:2,0:2:0:0:
195,86,277942,5,2,0:2:0:0:
293,182,278112,1,10,0:2:0:0:
170,264,278279,2,0,P|261:273|293:201,1,150,2|0,0:2|0:2,0:2:0:0:
127,162,278616,2,0,P|80:195|153:232,1,150,2|10,0:2|0:2,0:2:0:0:
185,155,278954,2,0,P|236:111|158:84,1,150,2|2,0:2|0:2,0:2:0:0:
283,259,279291,6,0,P|351:263|304:236,1,150,2|8,0:2|0:2,0:2:0:0:
283,259,279543,2,0,P|215:255|262:281,1,150,2|0,0:2|0:2,0:2:0:0:
296,27,279796,2,0,L|338:90,1,75,2|0,0:2|0:2,0:2:0:0:
377,309,279965,2,0,L|335:246,1,75,2|0,0:2|0:2,0:2:0:0:
285,119,280133,1,8,0:2:0:0:
242,150,280218,1,0,0:2:0:0:
199,180,280302,2,0,L|136:222,1,75,2|0,0:2|0:2,0:2:0:0:
375,52,280470,6,0,B|405:91|402:125|369:154|369:154|451:237|265:285|389:370,1,337.500012874604,6|0,0:2|0:2,0:2:0:0:
312,208,280807,2,0,P|269:288|280:364,1,93.75,10|0,0:2|0:2,0:2:0:0:
471,117,280976,2,0,P|458:27|405:-28,1,93.75,2|0,0:2|0:2,0:2:0:0:
229,214,281145,1,0,0:2:0:0:
274,246,281229,1,0,0:2:0:0:
329,249,281313,1,2,0:2:0:0:
383,235,281397,1,0,0:2:0:0:
426,198,281482,2,0,P|471:119|463:43,1,93.75,10|0,0:2|0:2,0:2:0:0:
229,214,281650,2,0,P|183:292|191:368,1,93.75,2|0,0:2|0:2,0:2:0:0:
82,32,281819,5,2,0:2:0:0:
82,32,281903,1,0,0:2:0:0:
82,32,281987,2,0,P|127:110|119:186,1,93.75,0|0,0:2|0:2,0:2:0:0:
233,125,282156,1,10,0:2:0:0:
233,125,282240,1,0,0:2:0:0:
233,125,282324,2,0,P|209:212|150:260,1,93.75,0|0,0:2|0:2,0:2:0:0:
362,236,282493,5,2,0:2:0:0:
362,236,282577,1,0,0:2:0:0:
362,236,282661,2,0,P|283:281|207:273,1,93.75,2|0,0:2|0:2,0:2:0:0:
153,170,282830,2,0,P|231:124|307:132,1,93.75,10|0,0:2|0:2,0:2:0:0:
356,306,282999,2,0,P|268:330|197:302,1,93.75,2|0,0:2|0:2,0:2:0:0:
181,99,283167,1,0,0:2:0:0:
362,236,283336,1,0,0:2:0:0:
261,78,283504,2,0,B|274:109|271:140|248:168|221:184|184:184|184:184|172:253|222:263|222:263|173:270|174:332|203:361,1,337.500012874604,10|0,0:2|0:2,0:2:0:0:
300,326,283841,5,0,0:2:0:0:
349,299,283925,1,0,0:2:0:0:
376,249,284010,1,2,0:2:0:0:
381,193,284094,1,0,0:2:0:0:
384,137,284178,2,0,P|338:57|268:27,1,93.75,10|0,0:2|0:2,0:2:0:0:
349,299,284347,2,0,P|436:323|507:295,1,93.75,2|0,0:2|0:2,0:2:0:0:
269,140,284515,5,2,0:2:0:0:
269,140,284600,1,0,0:2:0:0:
269,140,284684,2,0,P|182:116|111:144,1,93.75,0|0,0:2|0:2,0:2:0:0:
291,238,284852,2,0,P|369:193|399:123,1,93.75,10|0,0:2|0:2,0:2:0:0:
200,202,285021,2,0,P|176:289|204:359,1,93.75,0|0,0:2|0:2,0:2:0:0:
228,89,285190,1,2,0:2:0:0:
228,89,285274,1,0,0:2:0:0:
228,89,285358,2,0,P|312:66|381:93,1,93.75,0|0,0:2|0:2,0:2:0:0:
185,280,285526,2,0,P|108:236|79:168,1,93.75,10|0,0:2|0:2,0:2:0:0:
362,210,285695,2,0,P|385:294|358:363,1,93.75,2|0,0:2|0:2,0:2:0:0:
316,66,285864,6,0,B|266:62|224:89|224:89|277:260|73:253|89:172,1,337.500012874604,6|0,0:2|0:2,0:2:0:0:
153,150,286201,2,0,L|238:243,1,93.75,10|0,0:2|0:2,0:2:0:0:
375,280,286369,2,0,L|289:186,1,93.75,2|0,0:2|0:2,0:2:0:0:
332,99,286538,2,0,L|239:184,1,93.75,0|0,0:2|0:2,0:2:0:0:
202,321,286706,2,0,L|296:235,1,93.75,2|0,0:2|0:2,0:2:0:0:
329,90,286875,1,10,0:2:0:0:
378,115,286959,1,0,0:2:0:0:
390,170,287043,2,0,P|376:256|324:308,1,93.75,2|0,0:2|0:2,0:2:0:0:
174,188,287212,5,2,0:2:0:0:
174,188,287296,1,0,0:2:0:0:
174,188,287381,2,0,P|87:174|35:122,1,93.75,0|0,0:2|0:2,0:2:0:0:
320,214,287549,1,10,0:2:0:0:
320,214,287633,1,0,0:2:0:0:
320,214,287718,2,0,P|265:281|193:300,1,93.75,0|0,0:2|0:2,0:2:0:0:
245,65,287886,6,0,P|331:55|395:92,1,93.75,2|0,0:2|0:2,0:2:0:0:
174,188,288055,2,0,P|87:197|23:160,1,93.75,2|0,0:2|0:2,0:2:0:0:
107,33,288223,2,0,P|128:76|132:122,1,93.75,10|0,0:2|0:2,0:2:0:0:
320,214,288392,2,0,P|299:171|295:125,1,93.75,2|0,0:2|0:2,0:2:0:0:
82,196,288560,1,0,0:2:0:0:
245,65,288729,1,0,0:2:0:0:
364,284,288897,6,0,B|210:300|210:300|142:362|142:362|318:349,1,337.500012874604,10|0,0:2|0:2,0:2:0:0:
288,351,289234,1,0,0:2:0:0:
344,344,289319,1,0,0:2:0:0:
398,333,289403,1,2,0:2:0:0:
421,282,289487,1,0,0:2:0:0:
364,284,289572,1,10,0:2:0:0:
308,289,289656,1,2,0:2:0:0:
252,295,289740,2,0,L|157:302,1,93.75,0|0,0:2|0:2,0:2:0:0:
12,312,289909,5,8,0:2:0:0:
291,235,290077,2,0,L|192:261,1,93.75,0|0,0:2|0:2,0:2:0:0:
12,312,290246,1,10,0:2:0:0:
327,168,290414,2,0,L|214:220,1,93.75,0|0,0:2|0:2,0:2:0:0:
12,312,290583,1,8,0:2:0:0:
353,80,290751,2,0,L|232:165,1,93.75,0|0,0:2|0:2,0:2:0:0:
12,312,290920,1,8,0:2:0:0:
367,0,291088,2,0,L|296:69,1,93.75,0|0,0:2|0:2,0:2:0:0:
12,312,291257,6,0,B|26:325|56:329|81:318|94:299|100:274|99:249|84:230|64:219|41:217|16:227|16:227|-16:152|13:93|42:85|42:85,1,337.500012874604,6|0,0:2|0:2,0:2:0:0:
86,154,291594,1,10,0:2:0:0:
86,154,291678,1,0,0:2:0:0:
86,154,291763,2,0,P|174:178|245:150,1,93.75,2|0,0:2|0:2,0:2:0:0:
408,154,291931,1,0,0:2:0:0:
408,154,292015,1,0,0:2:0:0:
408,154,292100,2,0,P|320:178|249:150,1,93.75,2|0,0:2|0:2,0:2:0:0:
128,257,292268,2,0,P|173:177|243:147,1,93.75,10|0,0:2|0:2,0:2:0:0:
365,98,292437,2,0,P|319:177|249:207,1,93.75,2|0,0:2|0:2,0:2:0:0:
119,100,292605,5,2,0:2:0:0:
119,100,292690,1,0,0:2:0:0:
119,100,292774,2,0,L|178:185,1,93.75,0|0,0:2|0:2,0:2:0:0:
181,334,292942,2,0,L|121:248,1,93.75,10|0,0:2|0:2,0:2:0:0:
265,100,293111,5,0,0:2:0:0:
265,100,293196,1,0,0:2:0:0:
265,100,293280,2,0,L|324:185,1,93.75,2|0,0:2|0:2,0:2:0:0:
327,334,293448,2,0,L|267:248,1,93.75,2|0,0:2|0:2,0:2:0:0:
365,98,293616,6,0,L|287:151,1,93.75,10|0,0:2|0:2,0:2:0:0:
131,160,293785,2,0,L|208:106,1,93.75,2|0,0:2|0:2,0:2:0:0:
347,216,293954,1,0,0:2:0:0:
119,254,294122,1,0,0:2:0:0:
242,101,294291,6,0,B|199:94|154:124|151:177|177:211|177:211|204:245|201:299|156:328|103:325,1,337.500012874604,10|0,0:2|0:2,0:2:0:0:
241,179,294628,1,0,0:2:0:0:
241,179,294712,1,0,0:2:0:0:
241,179,294796,2,0,L|94:152,1,93.75,2|0,0:2|0:2,0:2:0:0:
226,286,294965,2,0,P|279:275|328:246,1,93.75,10|0,0:2|0:2,0:2:0:0:
242,101,295133,2,0,P|186:110|138:139,1,93.75,2|0,0:2|0:2,0:2:0:0:
344,200,295302,5,2,0:2:0:0:
344,154,295386,1,0,0:2:0:0:
332,111,295470,2,0,P|302:75|261:52,1,93.75,0|0,0:2|0:2,0:2:0:0:
347,311,295639,1,10,0:2:0:0:
385,288,295723,1,0,0:2:0:0:
418,256,295807,2,0,P|435:212|434:165,1,93.75,0|0,0:2|0:2,0:2:0:0:
332,111,295976,5,2,0:2:0:0:
287,111,296060,1,0,0:2:0:0:
243,123,296145,2,0,P|207:152|184:193,1,93.75,0|0,0:2|0:2,0:2:0:0:
442,106,296313,1,10,0:2:0:0:
419,69,296397,1,0,0:2:0:0:
387,36,296481,2,0,P|344:19|297:20,1,93.75,0|0,0:2|0:2,0:2:0:0:
183,86,296650,6,0,B|150:91|128:171|128:171|78:135|80:68|80:68|53:126|0:143,1,337.500012874604,6|0,0:2|0:2,0:2:0:0:
62,207,296987,1,10,0:2:0:0:
62,207,297072,1,0,0:2:0:0:
62,207,297156,2,0,P|92:241|134:262,1,93.75,2|0,0:2|0:2,0:2:0:0:
251,264,297324,2,0,P|284:231|302:188,1,93.75,0|0,0:2|0:2,0:2:0:0:
375,39,297493,2,0,P|341:71|323:114,1,93.75,2|0,0:2|0:2,0:2:0:0:
126,173,297661,1,10,0:2:0:0:
126,173,297746,1,0,0:2:0:0:
126,173,297830,2,0,P|172:175|216:160,1,93.75,2|0,0:2|0:2,0:2:0:0:
282,345,297999,5,2,0:2:0:0:
282,345,298084,1,0,0:2:0:0:
282,345,298168,2,0,P|307:305|328:264,1,93.75,0|0,0:2|0:2,0:2:0:0:
298,116,298336,2,0,P|266:143|243:188,1,93.75,10|0,0:2|0:2,0:2:0:0:
328,263,298504,2,0,B|324:259|317:205|297:159,1,93.75,0|0,0:2|0:2,0:2:0:0:
107,83,298672,6,0,P|109:132|129:178,1,93.75,2|0,0:2|0:2,0:2:0:0:
302,172,298841,2,0,P|258:138|204:122,1,93.75,2|0,0:2|0:2,0:2:0:0:
40,210,299010,1,10,0:2:0:0:
40,210,299095,1,0,0:2:0:0:
40,210,299178,2,0,P|83:243|137:259,1,93.75,2|0,0:2|0:2,0:2:0:0:
174,186,299347,5,4,0:2:0:0:
133,68,299515,1,0,0:2:0:0:
44,21,299684,2,0,P|39:93|144:183,1,150,8|0,0:2|0:2,0:2:0:0:
237,134,300021,1,4,0:2:0:0:
139,91,300190,1,0,0:2:0:0:
40,98,300358,2,0,P|78:159|216:170,1,150,8|0,0:2|0:2,0:2:0:0:
153,272,300695,6,0,B|190:269|218:242|242:212|240:180|231:146|208:121|208:121|272:87|239:2,1,281.25,12|0,0:2|0:0,0:0:0:0:
172,57,301032,2,0,B|123:-1|60:24|60:24|64:93|138:111|138:111|60:122|74:223,1,337.500012874604,12|0,0:2|0:0,0:0:0:0:
148,186,301369,2,0,B|219:187|246:263|246:263|259:178|333:223|333:223|292:154|343:94,1,393.750003755093,12|0,0:2|0:0,0:0:0:0:
396,159,301706,2,0,P|165:149|179:131,1,450,12|0,0:2|0:0,0:0:0:0:
254,165,302043,1,6,2:0:0:0:
99,94,302718,5,0,0:0:0:0:
117,183,303055,1,0,0:0:0:0:
191,119,303392,2,0,P|173:253|90:246,1,150,2|0,0:0|0:0,0:0:0:0:
369,178,304066,2,0,P|286:70|350:16,1,150,2|0,0:0|0:0,0:0:0:0:
369,87,304740,2,0,P|451:194|387:248,1,150,2|0,0:0|0:0,0:0:0:0:
387,302,305414,1,0,0:0:0:0:
291,237,305751,1,0,0:0:0:0:
55,260,306088,6,0,L|205:235,1,150,2|0,0:0|0:0,0:0:0:0:
80,148,306763,2,0,L|203:236,1,150,2|0,0:0|0:0,0:0:0:0:
297,198,307437,2,0,P|251:325|171:300,1,150,2|0,0:0|0:0,0:0:0:0:
207,239,308111,1,0,0:0:0:0:
108,227,308448,1,0,0:0:0:0:
79,141,308785,2,0,B|127:157|151:125|151:125|175:157|231:141,1,150,2|0,0:0|0:0,0:0:0:0:
249,66,309459,2,0,P|287:195|208:222,1,150,2|0,0:0|0:0,0:0:0:0:
358,113,310133,6,0,L|169:157,1,150,2|0,0:0|0:0,0:0:0:0:
80,148,310807,2,0,L|269:192,1,150,2|0,0:0|0:0,0:0:0:0:
298,191,311482,2,0,L|132:229,1,150,2|0,0:0|0:0,0:0:0:0:
141,242,312156,2,0,L|306:280,1,150,2|0,0:0|0:0,0:0:0:0:
371,292,312830,2,0,B|345:248|372:229|372:229|355:217|355:217|393:188|350:135,1,150,2|0,0:0|0:0,0:0:0:0:
305,51,313504,1,0,0:0:0:0:
235,150,313841,1,0,0:0:0:0:
111,82,314178,6,0,P|111:235|195:272,1,150,2|0,0:0|0:0,0:0:0:0:
224,288,314852,2,0,P|224:134|140:98,1,150,2|0,0:0|0:0,0:0:0:0:
101,221,315527,2,0,P|240:283|308:221,1,150,2|0,0:0|0:0,0:0:0:0:
219,164,316201,1,0,0:0:0:0:
372,201,316538,1,0,0:0:0:0:
337,132,316875,2,0,B|291:174|291:174|289:203|289:203|236:246,1,150,2|0,0:0|0:0,0:0:0:0:
252,338,317549,2,0,P|152:246|206:182,1,150,2|0,0:0|0:0,0:0:0:0:
86,177,318223,2,0,B|124:114|205:189|237:107,1,150,2|0,0:0|0:0,0:0:0:0:
277,184,318897,5,0,0:0:0:0:
154,90,319234,1,0,0:0:0:0:
79,205,319572,2,0,P|148:341|240:336,1,150,2|0,0:0|0:0,0:0:0:0:
302,254,320246,2,0,P|149:264|118:351,1,150,2|0,0:0|0:0,0:0:0:0:
352,339,320920,2,0,P|400:283|405:210,1,150,2|0,0:0|0:0,0:0:0:0:
265,137,321594,5,0,0:0:0:0:
162,252,321931,1,0,0:0:0:0:
232,131,322268,2,0,P|164:268|224:338,1,150,2|0,0:0|0:0,0:0:0:0:
113,105,322942,1,0,0:0:0:0:
161,251,323279,1,0,0:0:0:0:
91,130,323616,2,0,P|176:256|266:240,1,150,2|0,0:0|0:0,0:0:0:0:
281,239,324291,5,2,0:0:0:0:
379,203,324628,1,2,0:0:0:0:
364,306,324965,1,2,0:0:0:0:
337,231,325302,1,2,0:0:0:0:
370,260,325639,1,2,0:0:0:0:
327,275,325976,1,2,0:0:0:0:
254,289,326313,6,0,B|262:319|279:347|304:363|339:376|370:378|402:369|426:354|447:326|466:298|469:267|468:240|452:214|436:192|413:171|388:165|353:160|353:160|445:111|411:8|411:8|280:8|278:107|278:107|278:140|273:177|250:224|214:245|180:246|145:231|112:222|91:187|98:144|115:126|135:109|155:101|184:102|197:116|204:128|205:143,1,1200,6|0,2:0|0:0,1:0:0:0:
