osu file format v14

[General]
AudioFilename: audio.mp3
AudioLeadIn: 0
PreviewTime: 237200
Countdown: 0
SampleSet: Normal
StackLeniency: 0.7
Mode: 1
LetterboxInBreaks: 0
WidescreenStoryboard: 0

[Editor]
Bookmarks: 10767,43127,70093,91666,113239,134812,156385,199531,210318,237284,258857,302003
DistanceSpacing: 1
BeatDivisor: 6
GridSize: 32
TimelineZoom: 2.4

[Metadata]
Title:Start Up feat. Such
TitleUnicode:Start Up feat. Such
Artist:PSYQUI
ArtistUnicode:PSYQUI
Creator:FreezingAnimenz
Version:New Genesis Collab
Source:
Tags:Ph0eNiiXZ phoeniixz phoenix MRX-026 Your voice so... C94 comiket MEGAREX Future Core electronic japanese instrumental
BeatmapID:4153681
BeatmapSetID:1998351

[Difficulty]
HPDrainRate:4.6
CircleSize:2
OverallDifficulty:6.4
ApproachRate:10
SliderMultiplier:1.4
SliderTickRate:1

[Events]
//Background and Video events
0,0,"ccccc.jpg",0,0
//Break Periods
//Storyboard Layer 0 (Background)
//Storyboard Layer 1 (Fail)
//Storyboard Layer 2 (Pass)
//Storyboard Layer 3 (Foreground)
//Storyboard Layer 4 (Overlay)
//Storyboard Sound Samples

[TimingPoints]
-14,337.078651685393,4,1,0,30,1,0
-14,-142.857142857143,4,1,0,30,0,0
8328,-100,4,1,0,30,0,0
8412,-100,4,1,0,30,0,0
8459,-142.857142857143,4,1,0,31,0,0
8506,-142.857142857143,4,1,0,32,0,0
8553,-142.857142857143,4,1,0,33,0,0
8600,-142.857142857143,4,1,0,34,0,0
8648,-142.857142857143,4,1,0,35,0,0
8695,-142.857142857143,4,1,0,36,0,0
8742,-142.857142857143,4,1,0,37,0,0
8789,-142.857142857143,4,1,0,38,0,0
8836,-142.857142857143,4,1,0,39,0,0
8884,-142.857142857143,4,1,0,40,0,0
8931,-142.857142857143,4,1,0,41,0,0
8978,-142.857142857143,4,1,0,42,0,0
9025,-142.857142857143,4,1,0,43,0,0
9072,-142.857142857143,4,1,0,44,0,0
9120,-142.857142857143,4,1,0,45,0,0
9167,-142.857142857143,4,1,0,46,0,0
9214,-142.857142857143,4,1,0,47,0,0
9261,-142.857142857143,4,1,0,48,0,0
9308,-142.857142857143,4,1,0,49,0,0
9356,-142.857142857143,4,1,0,50,0,0
9403,-142.857142857143,4,1,0,51,0,0
9450,-142.857142857143,4,1,0,52,0,0
9497,-142.857142857143,4,1,0,53,0,0
9544,-142.857142857143,4,1,0,54,0,0
9592,-142.857142857143,4,1,0,55,0,0
9639,-142.857142857143,4,1,0,56,0,0
9686,-142.857142857143,4,1,0,57,0,0
9733,-142.857142857143,4,1,0,58,0,0
9780,-142.857142857143,4,1,0,59,0,0
9828,-142.857142857143,4,1,0,60,0,0
9875,-142.857142857143,4,1,0,61,0,0
9922,-142.857142857143,4,1,0,62,0,0
9969,-142.857142857143,4,1,0,63,0,0
10016,-142.857142857143,4,1,0,64,0,0
10064,-142.857142857143,4,1,0,65,0,0
10111,-142.857142857143,4,1,0,66,0,0
10158,-142.857142857143,4,1,0,67,0,0
10205,-142.857142857143,4,1,0,68,0,0
10252,-142.857142857143,4,1,0,69,0,0
10300,-142.857142857143,4,1,0,70,0,0
10347,-142.857142857143,4,1,0,71,0,0
10394,-142.857142857143,4,1,0,72,0,0
10441,-142.857142857143,4,1,0,73,0,0
10488,-142.857142857143,4,1,0,74,0,0
10536,-142.857142857143,4,1,0,75,0,0
10583,-142.857142857143,4,1,0,76,0,0
10630,-142.857142857143,4,1,0,77,0,0
10677,-142.857142857143,4,1,0,78,0,0
10724,-142.857142857143,4,1,0,79,0,0
10772,-100,4,1,0,80,0,0
10941,-111.111111111111,4,1,0,80,0,0
21390,-100,4,1,0,90,0,0
32335,-100,4,1,0,90,0,0
32504,-99.749934647615,4,1,0,90,0,0
32672,-99.5025854731342,4,1,0,90,0,0
32841,-99.254998576743,4,1,0,90,0,0
32925,-99.1323954708103,4,1,0,90,0,0
33009,-99.0100948781467,4,1,0,90,0,0
33093,-98.8880956804913,4,1,0,90,0,0
33262,-98.6435535871935,4,1,0,90,0,0
33346,-98.5224554617509,4,1,0,90,0,0
33515,-98.2797162017689,4,1,0,90,0,0
33599,-98.159509202454,4,1,0,90,0,0
33683,-98.0395958969188,4,1,0,90,0,0
33852,-97.7992272390965,4,1,0,90,0,0
34020,-97.5614462481005,4,1,0,90,0,0
34105,-97.4415803420862,4,1,0,90,0,0
34189,-97.3234136341325,4,1,0,90,0,0
34245,-97.2447949223446,4,1,0,90,0,0
34301,-97.1663031258108,4,1,0,90,0,0
34358,-97.0865397078379,4,1,0,90,0,0
34526,-96.8522074775038,4,1,0,90,0,0
34695,-96.6176189566214,4,1,0,90,0,0
34779,-96.501441032199,4,1,0,90,0,0
34947,-96.2699213617929,4,1,0,90,0,0
35032,-96.1532061369936,4,1,0,90,0,0
35200,-95.9233523845661,4,1,0,90,0,0
35369,-95.6932365549678,4,1,0,90,0,0
35453,-95.5792697335463,4,1,0,90,0,0
35537,-95.4655740490734,4,1,0,90,0,0
35622,-95.3507998547862,4,1,0,90,0,0
35706,-95.2376467485743,4,1,0,90,0,0
35874,-95.0121443034526,4,1,0,90,0,0
35959,-94.8984571492924,4,1,0,90,0,0
36127,-94.6745562130178,4,1,0,90,0,0
36211,-94.5630014775469,4,1,0,90,0,0
36380,-94.3393586005831,4,1,0,90,0,0
36464,-94.228591929254,4,1,0,90,0,0
36549,-94.1167710650497,4,1,0,90,0,0
36717,-93.8965392365335,4,1,0,90,0,0
36801,-93.786809374971,4,1,0,90,0,0
36886,-93.6760339612678,4,1,0,90,0,0
36942,-93.6031953938934,4,1,0,90,0,0
36998,-93.5304700109606,4,1,0,90,0,0
37054,-93.457857548857,4,1,0,90,0,0
37223,-93.2394054512596,4,1,0,90,0,0
37391,-93.0232558139535,4,1,0,90,0,0
37475,-92.9155563723238,4,1,0,90,0,0
37728,-92.5926773769681,4,1,0,90,0,0
37897,-92.3782465307912,4,1,0,90,0,0
38065,-92.1660666271704,4,1,0,90,0,0
38234,-91.9536048959475,4,1,0,90,0,0
38318,-91.8483666304856,4,1,0,90,0,0
38402,-91.7433689740112,4,1,0,90,0,0
38487,-91.637365425744,4,1,0,90,0,0
38655,-91.4285714285714,4,1,0,90,0,0
38740,-91.3232936714005,4,1,0,90,0,0
38908,-91.1159268153127,4,1,0,90,0,0
38992,-91.0125961361049,4,1,0,90,0,0
39077,-90.9082736238346,4,1,0,90,0,0
39245,-90.7027851280441,4,1,0,90,0,0
39414,-90.4970086407102,4,1,0,90,0,0
39498,-90.3950761859214,4,1,0,90,0,0
39582,-90.293373098611,4,1,0,90,0,0
39638,-90.2256980847561,4,1,0,90,0,0
39695,-90.1569186875892,4,1,0,90,0,0
39751,-90.0894479883112,4,1,0,90,0,0
39919,-89.8876404494382,4,1,0,90,0,0
40088,-89.6855418427576,4,1,0,90,0,0
40172,-89.5854281930091,4,1,0,90,0,0
40341,-89.3846847404291,4,1,0,90,0,0
40425,-89.2852412697011,4,1,0,90,0,0
40593,-89.0870166597655,4,1,0,90,0,0
40762,-88.8884982045613,4,1,0,90,0,0
40846,-88.7901551105706,4,1,0,90,0,0
40931,-88.6908625256548,4,1,0,90,0,0
41015,-88.5929560189241,4,1,0,90,0,0
41099,-88.4952654332872,4,1,0,90,0,0
41268,-88.2993725959334,4,1,0,90,0,0
41352,-88.2023280460201,4,1,0,90,0,0
41520,-88.0088774777519,4,1,0,90,0,0
41605,-87.9113236252989,4,1,0,90,0,0
41773,-87.7191460568891,4,1,0,90,0,0
41942,-87.5266704463324,4,1,0,90,0,0
42110,-87.336169110185,4,1,0,90,0,0
42195,-87.2401000776465,4,1,0,90,0,0
42279,-87.1453686786859,4,1,0,90,0,0
42373,-83.3333333333333,4,1,0,100,0,0
42784,-81.9680101123049,4,1,0,100,0,0
43122,-80.642846893385,4,1,0,100,0,0
43216,-76.9230769230769,4,1,0,80,0,0
43300,-80,4,1,0,80,0,0
43462,-100,4,1,0,79,0,0
43625,-100,4,1,0,78,0,0
43788,-100,4,1,0,77,0,0
43951,-100,4,1,0,76,0,0
44114,-100,4,1,0,75,0,0
44277,-100,4,1,0,74,0,0
44440,-100,4,1,0,73,0,0
44603,-100,4,1,0,72,0,0
44766,-100,4,1,0,71,0,0
44929,-100,4,1,0,70,0,0
45092,-100,4,1,0,69,0,0
45255,-100,4,1,0,68,0,0
45418,-100,4,1,0,67,0,0
45581,-100,4,1,0,66,0,0
45744,-107.140965195741,4,1,0,65,0,0
45906,-100,4,1,0,64,0,0
46069,-100,4,1,0,63,0,0
46232,-100,4,1,0,62,0,0
46395,-100,4,1,0,61,0,0
46558,-100,4,1,0,60,0,0
46721,-100,4,1,0,59,0,0
46884,-100,4,1,0,58,0,0
47047,-115.386809675947,4,1,0,57,0,0
47210,-100,4,1,0,56,0,0
47373,-100,4,1,0,55,0,0
47536,-100,4,1,0,54,0,0
47699,-100,4,1,0,53,0,0
47862,-100,4,1,0,52,0,0
48025,-100,4,1,0,51,0,0
48188,-100,4,1,0,20,0,0
48441,-100,4,1,0,60,0,0
48525,-125,4,1,0,60,0,0
48571,-124.959453197405,4,1,0,60,0,0
48627,-124.918932690971,4,1,0,60,0,0
49189,-124.51373096769,4,1,0,60,0,0
49526,-124.272012442755,4,1,0,60,0,0
49603,-124.031230595865,4,1,0,61,0,0
50537,-123.552455242088,4,1,0,61,0,0
50682,-123.077361935189,4,1,0,62,0,0
51268,-123.037350929924,4,1,0,62,0,0
51324,-122.998067197665,4,1,0,62,0,0
51760,-122.605211559774,4,1,0,63,0,0
52223,-122.370839289361,4,1,0,63,0,0
52560,-122.137361361951,4,1,0,63,0,0
52839,-121.673068137595,4,1,0,64,0,0
53918,-121.212291475865,4,1,0,65,0,0
53964,-121.174164340319,4,1,0,65,0,0
54020,-121.136061182892,4,1,0,65,0,0
54582,-120.754991575754,4,1,0,65,0,0
54919,-120.527633137417,4,1,0,65,0,0
54996,-120.30112923463,4,1,0,66,0,0
55931,-119.85,4,1,0,66,0,0
56075,-119.402902465214,4,1,0,67,0,0
56661,-119.365904941072,4,1,0,67,0,0
56717,-119.328930337526,4,1,0,67,0,0
57154,-118.959128305799,4,1,0,68,0,0
57953,-118.518640603883,4,1,0,68,0,0
58232,-118.081402986382,4,1,0,69,0,0
59311,-117.647379614986,4,1,0,70,0,0
59638,-117.43156221592,4,1,0,70,0,0
59807,-117.323631142727,4,1,0,70,0,0
60144,-117.108998822016,4,1,0,70,0,0
60313,-117.001659598009,4,1,0,70,0,0
60390,-116.895150365755,4,1,0,71,0,0
60650,-116.788202621279,4,1,0,71,0,0
61324,-116.363616749284,4,1,0,71,0,0
61468,-115.94210687548,4,1,0,72,0,0
62054,-115.907222643091,4,1,0,72,0,0
62110,-115.872359396065,4,1,0,72,0,0
62547,-115.523639693479,4,1,0,73,0,0
63009,-115.315536834903,4,1,0,73,0,0
63346,-115.108182376011,4,1,0,73,0,0
63626,-114.695702566338,4,1,0,74,0,0
64704,-114.285562925134,4,1,0,75,0,0
64751,-114.251668255481,4,1,0,75,0,0
64807,-114.217793684746,4,1,0,75,0,0
65369,-113.878947201723,4,1,0,75,0,0
65706,-113.676722434462,4,1,0,75,0,0
65783,-113.475214610335,4,1,0,76,0,0
66717,-113.074334594782,4,1,0,76,0,0
66862,-112.676277029145,4,1,0,77,0,0
67447,-112.643330061196,4,1,0,77,0,0
67504,-112.609814535451,4,1,0,77,0,0
67940,-112.281012210228,4,1,0,78,0,0
68402,-112.084417912309,4,1,0,78,0,0
68740,-111.887930542661,4,1,0,78,0,0
69019,-111.498167797688,4,1,0,79,0,0
70098,-111.111111111111,4,1,0,80,0,0
91502,-100,4,1,0,85,0,0
91829,-100.626818894112,4,1,0,85,0,0
91998,-101.26534750122,4,1,0,85,0,0
92167,-101.912031438936,4,1,0,85,0,0
92251,-102.236542835481,4,1,0,85,0,0
92335,-102.563127471859,4,1,0,85,0,0
92504,-103.226547249971,4,1,0,85,0,0
92672,-103.894603027852,4,1,0,85,0,0
92756,-104.231884057971,4,1,0,85,0,0
92841,-104.575416828228,4,1,0,85,0,0
93009,-105.261103738974,4,1,0,85,0,0
93178,-105.960004714572,4,1,0,85,0,0
93262,-106.310851827033,4,1,0,85,0,0
93346,-106.664030057346,4,1,0,85,0,0
93515,-107.381748686097,4,1,0,85,0,0
93683,-108.104858104858,4,1,0,85,0,0
93768,-108.474439930821,4,1,0,85,0,0
93852,-108.842164736269,4,1,0,85,0,0
94020,-109.585144853927,4,1,0,85,0,0
94189,-110.342852467065,4,1,0,85,0,0
94273,-110.723376303473,4,1,0,85,0,0
94358,-111.111111111111,4,1,0,85,0,0
94695,-100,4,1,0,85,0,0
94863,-100.717274357442,4,1,0,85,0,0
94947,-101.079784043191,4,1,0,85,0,0
95032,-101.449275362319,4,1,0,85,0,0
95200,-102.187567684644,4,1,0,85,0,0
95369,-102.941176470588,4,1,0,85,0,0
95453,-103.319901892081,4,1,0,85,0,0
95537,-103.701424301037,4,1,0,85,0,0
95706,-104.477611940299,4,1,0,85,0,0
95874,-105.260809423944,4,1,0,85,0,0
95959,-105.661560512407,4,1,0,85,0,0
96043,-106.060606060606,4,1,0,85,0,0
96211,-106.867808281236,4,1,0,85,0,0
96380,-107.692307692308,4,1,0,85,0,0
96464,-108.106869529352,4,1,0,85,0,0
96549,-108.52962826647,4,1,0,85,0,0
96717,-109.375,4,1,0,85,0,0
96886,-110.23879620543,4,1,0,85,0,0
96970,-110.673234811166,4,1,0,85,0,0
97054,-111.111111111111,4,1,0,85,0,0
97391,-100,4,1,0,85,0,0
97560,-100.721266697964,4,1,0,85,0,0
97644,-101.083651004412,4,1,0,85,0,0
97728,-101.448652366419,4,1,0,85,0,0
97897,-102.19104529315,4,1,0,85,0,0
98065,-102.939893570618,4,1,0,85,0,0
98150,-103.322971848868,4,1,0,85,0,0
98234,-103.704354704047,4,1,0,85,0,0
98402,-104.475629731285,4,1,0,85,0,0
98571,-105.263157894737,4,1,0,85,0,0
98655,-105.659025787966,4,1,0,85,0,0
98740,-106.062648869714,4,1,0,85,0,0
98908,-106.869537653398,4,1,0,85,0,0
99077,-107.693711782422,4,1,0,85,0,0
99161,-108.108108108108,4,1,0,85,0,0
99245,-108.525705876943,4,1,0,85,0,0
99414,-109.375724150716,4,1,0,85,0,0
99582,-110.234013732542,4,1,0,85,0,0
99667,-110.673419621084,4,1,0,85,0,0
99751,-111.111111111111,4,1,0,85,0,0
100088,-100,4,1,0,85,0,0
100256,-100.717274357442,4,1,0,85,0,0
100341,-101.084115353302,4,1,0,85,0,0
100425,-101.449275362319,4,1,0,85,0,0
100593,-102.187567684644,4,1,0,85,0,0
100762,-102.944204241301,4,1,0,85,0,0
100846,-103.319553317169,4,1,0,85,0,0
100931,-103.702167375298,4,1,0,85,0,0
101099,-104.477611940299,4,1,0,85,0,0
101268,-105.265506470326,4,1,0,85,0,0
101352,-105.661560512407,4,1,0,85,0,0
101520,-106.462677136926,4,1,0,85,0,0
101605,-106.8726498437,4,1,0,85,0,0
101773,-107.692307692308,4,1,0,85,0,0
101942,-108.52962826647,4,1,0,85,0,0
102110,-109.375,4,1,0,85,0,0
102279,-110.23879620543,4,1,0,85,0,0
102335,-110.528041980977,4,1,0,85,0,0
102391,-110.818809602105,4,1,0,85,0,0
102457,-111.111111111111,4,1,0,85,0,0
102784,-112.280263527649,4,1,0,85,0,0
103086,-113.477862980845,4,1,0,86,0,0
103459,-114.697626945649,4,1,0,86,0,0
103715,-115.943898113816,4,1,0,87,0,0
104133,-117.217550035856,4,1,0,87,0,0
104344,-118.519495072674,4,1,0,88,0,0
104807,-119.850686575123,4,1,0,88,0,0
104974,-121.212121212121,4,1,0,89,0,0
105481,-122.604841459257,4,1,0,89,0,0
105603,-124.029938260959,4,1,0,90,0,0
106155,-125.488553880514,4,1,0,90,0,0
106232,-126.981884953565,4,1,0,91,0,0
106829,-128.511185762276,4,1,0,91,0,0
106861,-130.082477210244,4,1,0,92,0,0
107491,-131.687845607353,4,1,0,93,0,0
107841,-133.333333333333,4,1,0,93,0,0
108009,-130.44389622535,4,1,0,93,0,0
108120,-127.660917454356,4,1,0,94,0,0
108346,-125.009657730047,4,1,0,94,0,0
108515,-122.451450799946,4,1,0,94,0,0
108683,-120.010087374464,4,1,0,94,0,0
108749,-117.650480636389,4,1,0,95,0,0
109020,-115.395039011796,4,1,0,95,0,0
109189,-113.211771785219,4,1,0,95,0,0
109358,-111.109585090165,4,1,0,95,0,0
109378,-109.095812824489,4,1,0,96,0,0
109695,-107.142384149814,4,1,0,96,0,0
109863,-105.2686367126,4,1,0,96,0,0
110008,-103.448716801146,4,1,0,97,0,0
110200,-101.700881240022,4,1,0,97,0,0
110369,-100.001236109223,4,1,0,97,0,0
110537,-98.3670342764734,4,1,0,97,0,0
110622,-97.5603873472981,4,1,0,97,0,0
110706,-96.7761229738621,4,1,0,97,0,0
110790,-96.0043670713328,4,1,0,98,0,0
110874,-95.2448227551537,4,1,0,98,0,0
110959,-94.4883729078826,4,1,0,98,0,0
111043,-93.7525350268278,4,1,0,98,0,0
111127,-93.028069408829,4,1,0,98,0,0
111211,-92.3147144405774,4,1,0,98,0,0
111266,-91.6039177942592,4,1,0,99,0,0
111380,-90.9121557081371,4,1,0,99,0,0
111464,-90.2307632251085,4,1,0,99,0,0
111549,-89.5515779452949,4,1,0,99,0,0
111633,-88.8903539132632,4,1,0,99,0,0
111717,-88.2388229006468,4,1,0,99,0,0
111801,-87.59677332034,4,1,0,99,0,0
111896,-86.9565217391304,4,1,0,100,0,0
111980,-89.1661939875213,4,1,0,80,0,0
112223,-91.5052970623617,4,1,0,80,0,0
112391,-93.9554528429693,4,1,0,80,0,0
112560,-96.556242578109,4,1,0,80,0,0
112897,-102.197373553504,4,1,0,80,0,0
112991,-105.263157894737,4,1,0,100,0,0
113244,-86.9565217391304,4,1,0,100,0,1
113328,-90.9090909090909,4,1,0,100,0,1
133459,-90.9090909090909,4,1,0,100,0,1
133543,-89.8906375033342,4,1,0,100,0,1
133627,-88.8947507254023,4,1,0,100,0,1
133796,-86.9565217391304,4,1,0,100,0,1
133880,-86.0242501595405,4,1,0,100,0,1
133964,-85.111756534916,4,1,0,100,0,1
134020,-84.5141065830721,4,1,0,100,0,1
134077,-83.9143426294821,4,1,0,100,0,1
134143,-83.3333333333333,4,1,0,100,0,0
134817,-83.3333333333333,4,1,0,100,0,1
134975,-86.9565217391304,4,1,0,100,0,1
135144,-87.8081736006613,4,1,0,100,0,1
135228,-88.2241047843414,4,1,0,100,0,1
135313,-88.6324907507655,4,1,0,100,0,1
135481,-89.380629799247,4,1,0,100,0,1
135565,-89.7146898058148,4,1,0,100,0,1
135650,-90.0188210186603,4,1,0,100,0,1
135734,-90.2813384561171,4,1,0,100,0,1
135818,-90.5020430084823,4,1,0,100,0,1
135987,-90.8063018756449,4,1,0,100,0,1
136071,-90.8832913006478,4,1,0,100,0,1
136155,-90.9090909090909,4,1,0,100,0,1
145593,-90.9090909090909,4,1,0,100,0,1
145762,-90.8351657869285,4,1,0,100,0,1
145846,-90.7984666515961,4,1,0,100,0,1
145931,-90.7613607953999,4,1,0,100,0,1
146015,-90.7247212610534,4,1,0,100,0,1
146099,-90.6881112968621,4,1,0,100,0,1
146268,-90.614544983272,4,1,0,100,0,1
146352,-90.5780238656156,4,1,0,100,0,1
146436,-90.5415321749056,4,1,0,100,0,1
146520,-90.5050698755903,4,1,0,100,0,1
146605,-90.4682033833325,4,1,0,100,0,1
146773,-90.3954261197675,4,1,0,100,0,1
146858,-90.3586488802094,4,1,0,100,0,1
146942,-90.322333701742,4,1,0,100,0,1
147110,-90.2497908449863,4,1,0,100,0,1
147279,-90.1769336594314,4,1,0,100,0,1
147363,-90.1407643677063,4,1,0,100,0,1
147447,-90.1046240788117,4,1,0,100,0,1
147616,-90.0320009919831,4,1,0,100,0,1
147784,-89.9599235640866,4,1,0,100,0,1
147953,-89.8875334495139,4,1,0,100,0,1
148037,-89.8515958915194,4,1,0,100,0,1
148122,-89.8152597448938,4,1,0,100,0,1
148206,-89.7793799430259,4,1,0,100,0,1
148290,-89.7435287965582,4,1,0,100,0,1
148459,-89.6714863863503,4,1,0,100,0,1
148543,-89.63572134012,4,1,0,100,0,1
148627,-89.599984811953,4,1,0,100,0,1
148711,-89.5642767677534,4,1,0,100,0,1
148796,-89.5281725876288,4,1,0,100,0,1
148964,-89.4568992887233,4,1,0,100,0,1
149049,-89.4208816089885,4,1,0,100,0,1
149133,-89.3853161488272,4,1,0,100,0,1
149217,-89.349778968393,4,1,0,100,0,1
149301,-89.3142700339695,4,1,0,100,0,1
149470,-89.2429148840617,4,1,0,100,0,1
149554,-89.2074908207675,4,1,0,100,0,1
149638,-89.1720948687548,4,1,0,100,0,1
149807,-89.1009666213563,4,1,0,100,0,1
149975,-89.0303716279947,4,1,0,100,0,1
150060,-88.9946965232764,4,1,0,100,0,1
150144,-88.9594692025315,4,1,0,100,0,1
150313,-88.8886796184162,4,1,0,100,0,1
150481,-88.8184204830954,4,1,0,100,0,1
150650,-88.7478551112991,4,1,0,100,0,1
150734,-88.7128228986038,4,1,0,100,0,1
150818,-88.6778183321355,4,1,0,100,0,1
150902,-88.6428413791808,4,1,0,100,0,1
150987,-88.6074761091189,4,1,0,100,0,1
151155,-88.5376606322109,4,1,0,100,0,1
151240,-88.5023792222404,4,1,0,100,0,1
151324,-88.4675405011505,4,1,0,100,0,1
151408,-88.4327291976035,4,1,0,100,0,1
151492,-88.3979452792463,4,1,0,100,0,1
151661,-88.3280461899816,4,1,0,100,0,1
151745,-88.2933445582526,4,1,0,100,0,1
151829,-88.2586701824268,4,1,0,100,0,1
151914,-88.2236107281556,4,1,0,100,0,1
151998,-88.1889910914077,4,1,0,100,0,1
152167,-88.1194219350984,4,1,0,100,0,1
152251,-88.0848840030609,4,1,0,100,0,1
152335,-88.0503731343284,4,1,0,100,0,1
152504,-87.9810224216919,4,1,0,100,0,1
152672,-87.9121902606444,4,1,0,100,0,1
152756,-87.877814552581,4,1,0,100,0,1
152841,-87.8430569644403,4,1,0,100,0,1
153009,-87.774440425156,4,1,0,100,0,1
153178,-87.7055235245746,4,1,0,100,0,1
153346,-87.6371215954617,4,1,0,100,0,1
153431,-87.6025541077329,4,1,0,100,0,1
153515,-87.5684200760738,4,1,0,100,0,1
153599,-87.5343126344684,4,1,0,100,0,1
153683,-87.5002317518587,4,1,0,100,0,1
153852,-87.431744605566,4,1,0,100,0,1
153936,-87.3977435289652,4,1,0,100,0,1
154020,-87.3637688872434,4,1,0,100,0,1
154105,-87.3294166628117,4,1,0,100,0,1
154189,-87.2954951122291,4,1,0,100,0,1
154358,-87.2273279642182,4,1,0,100,0,1
154442,-87.1934856609717,4,1,0,100,0,1
154526,-87.1596696076938,4,1,0,100,0,1
154610,-87.1258797738548,4,1,0,100,0,1
154695,-87.0917143384388,4,1,0,100,0,1
154863,-87.0242661159463,4,1,0,100,0,1
154947,-86.9905811660185,4,1,0,100,0,1
155042,-86.9565217391304,4,1,0,100,0,0
155200,-88.8830278253989,4,1,0,100,0,0
155369,-90.9090909090909,4,1,0,100,0,0
155453,-91.9508867667122,4,1,0,100,0,0
155537,-93.0168368755175,4,1,0,100,0,0
155632,-95.2380952380952,4,1,0,50,0,0
155969,-100,4,1,0,100,0,0
156127,-97.5680370584829,4,1,0,100,0,0
156211,-95.2515545505936,4,1,0,100,0,0
156296,-93.0168368755175,4,1,0,100,0,0
156380,-90.9090909090909,4,1,0,100,0,0
156559,-100,4,1,0,80,0,0
166324,-100,4,1,0,80,0,0
166418,-97.0974429854872,4,1,0,90,0,0
166661,-94.3427899949639,4,1,0,90,0,0
166829,-91.7551020408163,4,1,0,90,0,0
166998,-89.2913886240864,4,1,0,90,0,0
167167,-86.9565217391304,4,1,0,90,0,0
167345,-95.2380952380952,4,1,0,90,0,0
177953,-95.2380952380952,4,1,0,90,0,0
178122,-95.218574193036,4,1,0,90,0,0
178290,-95.1792227137894,4,1,0,90,0,0
178459,-95.1253495983345,4,1,0,90,0,0
178543,-95.0939902703775,4,1,0,90,0,0
178627,-95.0598509482278,4,1,0,90,0,0
178711,-95.0230833316821,4,1,0,90,0,0
178880,-94.9416482759006,4,1,0,90,0,0
178964,-94.89767131922,4,1,0,90,0,0
179133,-94.8025893075856,4,1,0,90,0,0
179217,-94.7521948347957,4,1,0,90,0,0
179301,-94.69980614521,4,1,0,90,0,0
179470,-94.5885964085047,4,1,0,90,0,0
179638,-94.4706990461013,4,1,0,90,0,0
179723,-94.4083774093897,4,1,0,90,0,0
179807,-94.345082815781,4,1,0,90,0,0
179863,-94.3019638927967,4,1,0,90,0,0
179919,-94.2581200996979,4,1,0,90,0,0
179975,-94.2135622897186,4,1,0,90,0,0
180144,-94.0748692669323,4,1,0,90,0,0
180313,-93.93003913782,4,1,0,90,0,0
180397,-93.8558473974063,4,1,0,90,0,0
180565,-93.7032159175053,4,1,0,90,0,0
180650,-93.6238896115463,4,1,0,90,0,0
180818,-93.4630797288933,4,1,0,90,0,0
180987,-93.2960872365699,4,1,0,90,0,0
181071,-93.2111943515303,4,1,0,90,0,0
181155,-93.1250761157134,4,1,0,90,0,0
181240,-93.0367076061817,4,1,0,90,0,0
181324,-92.9481895211213,4,1,0,90,0,0
181492,-92.7676894148927,4,1,0,90,0,0
181577,-92.6746461218128,4,1,0,90,0,0
181745,-92.4874486922527,4,1,0,90,0,0
181829,-92.3922439185729,4,1,0,90,0,0
181998,-92.1975485415586,4,1,0,90,0,0
182082,-92.0992453487464,4,1,0,90,0,0
182167,-91.9987600654616,4,1,0,90,0,0
182335,-91.7972271564119,4,1,0,90,0,0
182419,-91.6950358095793,4,1,0,90,0,0
182504,-91.5906826288901,4,1,0,90,0,0
182560,-91.5214205128163,4,1,0,90,0,0
182616,-91.4517572218197,4,1,0,90,0,0
182672,-91.3816972615172,4,1,0,90,0,0
182841,-91.1679063930541,4,1,0,90,0,0
183009,-90.9519584974634,4,1,0,90,0,0
183093,-90.8427409965587,4,1,0,90,0,0
183178,-90.7313984570303,4,1,0,90,0,0
183346,-90.5089478306039,4,1,0,90,0,0
183515,-90.2820674415768,4,1,0,90,0,0
183683,-90.0535474359582,4,1,0,90,0,0
183852,-89.8207704684088,4,1,0,90,0,0
183936,-89.7040210352876,4,1,0,90,0,0
184020,-89.5865909062081,4,1,0,90,0,0
184105,-89.4670821532039,4,1,0,90,0,0
184273,-89.2289102099209,4,1,0,90,0,0
184358,-89.1074353784745,4,1,0,90,0,0
184526,-88.8654818145649,4,1,0,90,0,0
184610,-88.7436000924528,4,1,0,90,0,0
184695,-88.6196682892507,4,1,0,90,0,0
184863,-88.3729916387145,4,1,0,90,0,0
185032,-88.1226016356176,4,1,0,90,0,0
185116,-87.9973359694776,4,1,0,90,0,0
185200,-87.8715451869135,4,1,0,90,0,0
185256,-87.787397932093,4,1,0,90,0,0
185313,-87.7015160569816,4,1,0,90,0,0
185369,-87.6169159490888,4,1,0,90,0,0
185537,-87.3618071863633,4,1,0,90,0,0
185706,-87.1032605961451,4,1,0,90,0,0
185790,-86.9740599892054,4,1,0,90,0,0
185959,-86.7127753022105,4,1,0,90,0,0
186043,-86.5822557663836,4,1,0,90,0,0
186211,-86.3199666128472,4,1,0,90,0,0
186380,-86.0544941886281,4,1,0,90,0,0
186464,-85.9219600333227,4,1,0,90,0,0
186549,-85.7874654575479,4,1,0,90,0,0
186633,-85.6541835633527,4,1,0,90,0,0
186717,-85.5205426286449,4,1,0,90,0,0
186886,-85.2506153179439,4,1,0,90,0,0
186970,-85.1159424964544,4,1,0,90,0,0
187138,-84.8456253575353,4,1,0,90,0,0
187223,-84.7083802833273,4,1,0,90,0,0
187391,-84.4362145926545,4,1,0,90,0,0
187560,-84.1612676511681,4,1,0,90,0,0
187728,-83.886853029923,4,1,0,90,0,0
187813,-83.7476151373923,4,1,0,90,0,0
187897,-83.6097628074295,4,1,0,90,0,0
187953,-83.5177253007804,4,1,0,90,0,0
188009,-83.4255814558017,4,1,0,90,0,0
188065,-83.3333333333333,4,1,0,90,0,0
188918,-95.2380952380952,4,1,0,80,0,0
189087,-95.2380952380952,4,1,0,80,0,0
189329,-95.9210775943844,4,1,0,80,0,0
189414,-96.1536632910189,4,1,0,80,0,0
189498,-96.3846234499061,4,1,0,80,0,0
189542,-96.6166958083718,4,1,0,81,0,0
189751,-97.0870057799028,4,1,0,81,0,0
189919,-97.5590931017849,4,1,0,81,0,0
189997,-98.0386453758374,4,1,0,82,0,0
190341,-98.7654320987654,4,1,0,82,0,0
190425,-99.0091254455019,4,1,0,82,0,0
190452,-99.500137757311,4,1,0,83,0,0
190762,-99.999011085729,4,1,0,83,0,0
190846,-100.248837601245,4,1,0,83,0,0
190907,-100.755265937307,4,1,0,84,0,0
191099,-101.008890220757,4,1,0,84,0,0
191268,-101.523046494583,4,1,0,84,0,0
191362,-101.780555807189,4,1,0,85,0,0
191436,-102.039374766647,4,1,0,85,0,0
191605,-102.564102564103,4,1,0,85,0,0
191773,-103.091101867711,4,1,0,85,0,0
191817,-103.895036422854,4,1,0,86,0,0
192110,-104.164735210194,4,1,0,86,0,0
192195,-104.439073764227,4,1,0,86,0,0
192272,-104.711608159884,4,1,0,87,0,0
192447,-105.26096641892,4,1,0,87,0,0
192616,-105.819441392229,4,1,0,87,0,0
192700,-106.099237201884,4,1,0,87,0,0
192727,-106.380516543054,4,1,0,88,0,0
193122,-107.527567762997,4,1,0,88,0,0
193182,-108.106952329025,4,1,0,89,0,0
193459,-108.696119531334,4,1,0,89,0,0
193637,-109.288200073493,4,1,0,90,0,0
193711,-109.586665799684,4,1,0,90,0,0
193796,-109.890348732327,4,1,0,90,0,0
194092,-111.111111111111,4,1,0,91,0,0
194301,-109.593865994744,4,1,0,91,0,0
194470,-108.108830446868,4,1,0,91,0,0
194547,-106.67194092827,4,1,0,92,0,0
194723,-105.95939751146,4,1,0,92,0,0
194807,-105.264527545736,4,1,0,92,0,0
194891,-104.578711962564,4,1,0,92,0,0
194975,-103.901774935142,4,1,0,92,0,0
195002,-102.566053045286,4,1,0,93,0,0
195313,-101.264238327701,4,1,0,93,0,0
195397,-100.629400203995,4,1,0,93,0,0
195457,-100.002472249005,4,1,0,94,0,0
195650,-98.7645277859166,4,1,0,94,0,0
195734,-98.1605513492526,4,1,0,94,0,0
195818,-97.5639170284612,4,1,0,94,0,0
195912,-96.3852550813735,4,1,0,95,0,0
196155,-95.2414588778225,4,1,0,95,0,0
196240,-94.6730328137434,4,1,0,95,0,0
196324,-94.1179207966867,4,1,0,95,0,0
196367,-93.5692805921814,4,1,0,96,0,0
196492,-93.0269996780277,4,1,0,96,0,0
196661,-91.9548068835391,4,1,0,96,0,0
196822,-90.913177353741,4,1,0,97,0,0
196914,-90.3951014570484,4,1,0,97,0,0
196998,-89.8888888888889,4,1,0,97,0,0
197082,-89.3883143286485,4,1,0,97,0,0
197167,-88.8874239128046,4,1,0,97,0,0
197251,-88.3979107935051,4,1,0,97,0,0
197277,-87.9137597531025,4,1,0,98,0,0
197419,-87.4348831679744,4,1,0,98,0,0
197504,-86.9555870845694,4,1,0,98,0,0
197588,-86.4870643574941,4,1,0,98,0,0
197672,-86.0235634383905,4,1,0,98,0,0
197732,-85.5650040191226,4,1,0,99,0,0
197841,-85.1059353236971,4,1,0,99,0,0
197925,-84.6570812666123,4,1,0,99,0,0
198009,-84.2129369391877,4,1,0,99,0,0
198093,-83.7734286010148,4,1,0,99,0,0
198188,-83.3333333333333,4,1,0,100,0,0
199705,-100,4,1,0,70,0,0
200032,-100.243173631729,4,1,0,70,0,0
200116,-100.364481538218,4,1,0,70,0,0
200200,-100.486083398641,4,1,0,70,0,0
200369,-100.731629731736,4,1,0,70,0,0
200537,-100.976915420963,4,1,0,70,0,0
200622,-101.101473953068,4,1,0,70,0,0
200706,-101.224869352112,4,1,0,70,0,0
200790,-101.34856632997,4,1,0,70,0,0
200874,-101.472565993581,4,1,0,70,0,0
201043,-101.722963107174,4,1,0,70,0,0
201127,-101.847881174223,4,1,0,70,0,0
201211,-101.973106422842,4,1,0,70,0,0
201380,-102.225983007987,4,1,0,70,0,0
201549,-102.48011689598,4,1,0,70,0,0
201633,-102.606902646178,4,1,0,70,0,0
201717,-102.734002497075,4,1,0,70,0,0
201886,-102.990671706146,4,1,0,70,0,0
202054,-103.247096484165,4,1,0,70,0,0
202138,-103.375788302213,4,1,0,70,0,0
202223,-103.506339144216,4,1,0,70,0,0
202560,-104.027196392397,4,1,0,70,0,0
202728,-104.288815149323,4,1,0,70,0,0
202813,-104.421683737197,4,1,0,70,0,0
202981,-104.685292968554,4,1,0,70,0,0
203065,-104.817597319879,4,1,0,70,0,0
203234,-105.084796894719,4,1,0,70,0,0
203318,-105.218113625494,4,1,0,70,0,0
203402,-105.351769052792,4,1,0,70,0,0
203487,-105.487361705564,4,1,0,70,0,0
203571,-105.621702480341,4,1,0,70,0,0
203740,-105.8930227138,4,1,0,70,0,0
203824,-106.02839937702,4,1,0,70,0,0
203908,-106.164122622101,4,1,0,70,0,0
203992,-106.300193781693,4,1,0,70,0,0
204077,-106.438240356899,4,1,0,70,0,0
204245,-106.712142718556,4,1,0,70,0,0
204414,-106.989101445121,4,1,0,70,0,0
204582,-107.265849940721,4,1,0,70,0,0
204751,-107.545694055656,4,1,0,70,0,0
204919,-107.825333278303,4,1,0,70,0,0
205256,-108.390683587369,4,1,0,70,0,0
205425,-108.676435412918,4,1,0,70,0,0
205509,-108.819027189137,4,1,0,70,0,0
205593,-108.961993639539,4,1,0,70,0,0
205762,-109.250769721332,4,1,0,70,0,0
205931,-109.541080525797,4,1,0,70,0,0
206015,-109.685951801159,4,1,0,70,0,0
206099,-109.831206776953,4,1,0,70,0,0
206183,-109.976846979583,4,1,0,70,0,0
206268,-110.124614695577,4,1,0,70,0,0
206436,-110.417844368954,4,1,0,70,0,0
206520,-110.565045575018,4,1,0,70,0,0
206605,-110.714399228707,4,1,0,70,0,0
206773,-111.010782386997,4,1,0,70,0,0
206942,-111.310535089448,4,1,0,70,0,0
207026,-111.46012767251,4,1,0,70,0,0
207110,-111.610122877939,4,1,0,70,0,0
207279,-111.913125428376,4,1,0,70,0,0
207447,-112.215970104377,4,1,0,70,0,0
207532,-112.369820369584,4,1,0,70,0,0
207616,-112.522275641888,4,1,0,70,0,0
207953,-113.13809343366,4,1,0,70,0,0
208122,-113.449460707946,4,1,0,70,0,0
208206,-113.604861635801,4,1,0,70,0,0
208374,-113.916944191599,4,1,0,70,0,0
208459,-114.075497238172,4,1,0,70,0,0
208627,-114.390174486065,4,1,0,70,0,0
208711,-114.54816503705,4,1,0,70,0,0
208796,-114.708481292638,4,1,0,70,0,0
208880,-114.86735293956,4,1,0,70,0,0
208964,-115.026665272404,4,1,0,70,0,0
209133,-115.348529168276,4,1,0,70,0,0
209217,-115.50917994009,4,1,0,70,0,0
209301,-115.670278826251,4,1,0,70,0,0
209386,-115.833753623269,4,1,0,70,0,0
209470,-115.995759772227,4,1,0,70,0,0
209638,-116.321135383331,4,1,0,70,0,0
209723,-116.48645635938,4,1,0,70,0,0
209807,-116.650294695481,4,1,0,70,0,0
209975,-116.979357900864,4,1,0,70,0,0
210060,-117.1465565078,4,1,0,70,0,0
210144,-117.312258289037,4,1,0,70,0,0
210323,-117.647058823529,4,1,0,75,0,0
210481,-117.626575871181,4,1,0,75,0,0
210650,-117.584692394518,4,1,0,75,0,0
210734,-117.558037114331,4,1,0,75,0,0
210862,-117.494795484132,4,1,0,71,0,0
210987,-117.458202542141,4,1,0,71,0,0
211071,-117.419233383015,4,1,0,71,0,0
211155,-117.377609649588,4,1,0,71,0,0
211324,-117.28627977485,4,1,0,71,0,0
211401,-117.237307208086,4,1,0,72,0,0
211492,-117.186070073148,4,1,0,72,0,0
211661,-117.076414514807,4,1,0,72,0,0
211829,-116.959127489926,4,1,0,72,0,0
211940,-116.833257144067,4,1,0,73,0,0
212082,-116.767874056078,4,1,0,73,0,0
212167,-116.699866486313,4,1,0,73,0,0
212335,-116.56015229518,4,1,0,73,0,0
212419,-116.487732154858,4,1,0,73,0,0
212480,-116.412759088651,4,1,0,74,0,0
212588,-116.337031157799,4,1,0,74,0,0
212672,-116.259708359759,4,1,0,74,0,0
212841,-116.099434084847,4,1,0,74,0,0
212925,-116.017489691425,4,1,0,74,0,0
213019,-115.934067579243,4,1,0,75,0,0
213178,-115.761860054326,4,1,0,75,0,0
213346,-115.585053491812,4,1,0,75,0,0
213431,-115.493525165653,4,1,0,75,0,0
213558,-115.308640552789,4,1,0,76,0,0
213683,-115.214259297046,4,1,0,76,0,0
213768,-115.117467524375,4,1,0,76,0,0
213852,-115.020563450632,4,1,0,76,0,0
214020,-114.823104476735,4,1,0,76,0,0
214098,-114.721384668932,4,1,0,77,0,0
214189,-114.619688819264,4,1,0,77,0,0
214358,-114.411628454152,4,1,0,77,0,0
214526,-114.200339039996,4,1,0,77,0,0
214637,-113.983443888228,4,1,0,78,0,0
214779,-113.874057188991,4,1,0,78,0,0
214863,-113.76364231974,4,1,0,78,0,0
214947,-113.65221504456,4,1,0,78,0,0
215032,-113.538446536259,4,1,0,78,0,0
215176,-113.310645163163,4,1,0,79,0,0
215284,-113.195309500117,4,1,0,79,0,0
215369,-113.077646846193,4,1,0,79,0,0
215453,-112.96044018317,4,1,0,79,0,0
215537,-112.842324885465,4,1,0,79,0,0
215716,-112.60199119852,4,1,0,80,0,0
215874,-112.359599216872,4,1,0,80,0,0
216043,-112.112370375574,4,1,0,80,0,0
216127,-111.988253360313,4,1,0,80,0,0
216255,-111.736122900383,4,1,0,81,0,0
216380,-111.609626233673,4,1,0,81,0,0
216464,-111.482364006135,4,1,0,81,0,0
216549,-111.352819697203,4,1,0,81,0,0
216717,-111.094557038435,4,1,0,81,0,0
216794,-110.96434230933,4,1,0,82,0,0
216886,-110.83185775047,4,1,0,82,0,0
217054,-110.567921789145,4,1,0,82,0,0
217223,-110.29969673156,4,1,0,82,0,0
217333,-110.030443767479,4,1,0,83,0,0
217475,-109.894866116826,4,1,0,83,0,0
217560,-109.757043151743,4,1,0,83,0,0
217728,-109.482813483609,4,1,0,83,0,0
217813,-109.343162802742,4,1,0,83,0,0
217873,-109.204572043237,4,1,0,84,0,0
217981,-109.065411581522,4,1,0,84,0,0
218065,-108.925691148892,4,1,0,84,0,0
218234,-108.642929232896,4,1,0,84,0,0
218318,-108.501579979606,4,1,0,84,0,0
218412,-108.359708772944,4,1,0,85,0,0
218571,-108.072733280328,4,1,0,85,0,0
218740,-107.783756292944,4,1,0,85,0,0
218824,-107.639400611391,4,1,0,85,0,0
218951,-107.349294569235,4,1,0,86,0,0
219077,-107.201823866139,4,1,0,86,0,0
219161,-107.055643516054,4,1,0,86,0,0
219245,-106.909029643029,4,1,0,86,0,0
219414,-106.61277663375,4,1,0,86,0,0
219491,-106.464906984711,4,1,0,87,0,0
219582,-106.316636705864,4,1,0,87,0,0
219751,-106.017149490999,4,1,0,87,0,0
219919,-105.717922519722,4,1,0,87,0,0
220030,-105.415456100443,4,1,0,88,0,0
220172,-105.264592660371,4,1,0,88,0,0
220256,-105.113390524401,4,1,0,88,0,0
220341,-104.960051132534,4,1,0,88,0,0
220425,-104.808189845039,4,1,0,88,0,0
220569,-104.503524320123,4,1,0,89,0,0
220678,-104.348913603712,4,1,0,89,0,0
220762,-104.195824689935,4,1,0,89,0,0
220846,-104.04244736,4,1,0,89,0,0
220931,-103.886957549091,4,1,0,89,0,0
221109,-103.578815967908,4,1,0,90,0,0
221268,-103.2677859305,4,1,0,90,0,0
221436,-102.957601100595,4,1,0,90,0,0
221520,-102.802152771422,4,1,0,90,0,0
221605,-102.644620994424,4,1,0,90,0,0
221648,-102.488718742185,4,1,0,91,0,0
221773,-102.332600265446,4,1,0,91,0,0
221942,-102.017874506975,4,1,0,91,0,0
222026,-101.861141714778,4,1,0,91,0,0
222110,-101.704217016544,4,1,0,91,0,0
222187,-101.38794190701,4,1,0,92,0,0
222447,-101.072838865995,4,1,0,92,0,0
222616,-100.755202869905,4,1,0,92,0,0
222700,-100.597093425149,4,1,0,92,0,0
222726,-100.438837831432,4,1,0,93,0,0
222869,-100.278555036145,4,1,0,93,0,0
222953,-100.120021839829,4,1,0,93,0,0
223122,-99.8006798940072,4,1,0,93,0,0
223206,-99.6417713123561,4,1,0,93,0,0
223266,-99.3236166744672,4,1,0,94,0,0
223459,-99.1624845204131,4,1,0,94,0,0
223627,-98.8437184272103,4,1,0,94,0,0
223711,-98.6841992817568,4,1,0,94,0,0
223805,-98.5226953606624,4,1,0,95,0,0
223964,-98.2032532050052,4,1,0,95,0,0
224133,-97.8816273566411,4,1,0,95,0,0
224217,-97.7216723299984,4,1,0,95,0,0
224344,-97.3996927024435,4,1,0,96,0,0
224470,-97.2395823215841,4,1,0,96,0,0
224638,-96.9192378733826,4,1,0,96,0,0
224723,-96.7571048392922,4,1,0,96,0,0
224807,-96.5968493571967,4,1,0,96,0,0
224884,-96.4365683892233,4,1,0,97,0,0
224975,-96.2762661051942,4,1,0,97,0,0
225060,-96.1140379770804,4,1,0,97,0,0
225144,-95.9537052565212,4,1,0,97,0,0
225313,-95.6311078060273,4,1,0,97,0,0
225423,-95.3104148938068,4,1,0,98,0,0
225565,-95.1500765690644,4,1,0,98,0,0
225650,-94.9878401789839,4,1,0,98,0,0
225734,-94.8275268586583,4,1,0,98,0,0
225818,-94.6672316024348,4,1,0,98,0,0
225962,-94.3448024364546,4,1,0,99,0,0
226071,-94.1845836885759,4,1,0,99,0,0
226155,-94.0243975417738,4,1,0,99,0,0
226324,-93.7022312690682,4,1,0,99,0,0
226408,-93.5421644202637,4,1,0,99,0,0
226501,-93.3821440536986,4,1,0,100,0,0
226661,-93.0603527250536,4,1,0,100,0,0
226829,-92.7406920093856,4,1,0,100,0,0
226998,-92.4193825523564,4,1,0,100,0,0
227082,-92.2597811691129,4,1,0,100,0,0
227167,-92.0979922637686,4,1,0,100,0,0
227251,-91.9371150133309,4,1,0,100,0,0
227335,-91.776798825257,4,1,0,100,0,0
227504,-91.4591305824395,4,1,0,100,0,0
227588,-91.3000105826164,4,1,0,100,0,0
227672,-91.1409808014843,4,1,0,100,0,0
227756,-90.9820440785409,4,1,0,100,0,0
227841,-90.8213128444875,4,1,0,100,0,0
228009,-90.5039321733567,4,1,0,100,0,0
228093,-90.3453966414759,4,1,0,100,0,0
228178,-90.1850824776667,4,1,0,100,0,0
228262,-90.0267644405112,4,1,0,100,0,0
228346,-89.8685584412367,4,1,0,100,0,0
228515,-89.5506128670769,4,1,0,100,0,0
228599,-89.3927597010466,4,1,0,100,0,0
228683,-89.2350286815367,4,1,0,100,0,0
228768,-89.0755467412247,4,1,0,100,0,0
228852,-88.9180688282718,4,1,0,100,0,0
229020,-88.603503546285,4,1,0,100,0,0
229189,-88.2876068966056,4,1,0,100,0,0
229273,-88.1308007971127,4,1,0,100,0,0
229358,-87.9722713436293,4,1,0,100,0,0
229442,-87.8157508576512,4,1,0,100,0,0
229526,-87.6593756093161,4,1,0,100,0,0
229610,-87.5031477350155,4,1,0,100,0,0
229695,-87.3452121750551,4,1,0,100,0,0
229779,-87.1892871598603,4,1,0,100,0,0
229863,-87.0335157804918,4,1,0,100,0,0
229947,-86.8779000594304,4,1,0,100,0,0
230032,-86.7205922576616,4,1,0,100,0,0
230116,-86.5652957218217,4,1,0,100,0,0
230200,-86.4101607690568,4,1,0,100,0,0
230284,-86.2551893119415,4,1,0,100,0,0
230369,-86.0985413104639,4,1,0,100,0,0
230453,-85.9439044775314,4,1,0,100,0,0
230537,-85.7894367398955,4,1,0,100,0,0
230622,-85.633304073635,4,1,0,100,0,0
230706,-85.4791819868397,4,1,0,100,0,0
230790,-85.3252343585416,4,1,0,100,0,0
230874,-85.1714629182284,4,1,0,100,0,0
230959,-85.0160419539404,4,1,0,100,0,0
231043,-84.8626301255602,4,1,0,100,0,0
231127,-84.7093995433399,4,1,0,100,0,0
231211,-84.5563518373444,4,1,0,100,0,0
231296,-84.401669930734,4,1,0,100,0,0
231380,-84.2489949952294,4,1,0,100,0,0
231464,-84.0965077001598,4,1,0,100,0,0
231549,-83.9423976525001,4,1,0,100,0,0
231633,-83.7902924968434,4,1,0,100,0,0
231717,-83.6383795322291,4,1,0,100,0,0
231801,-83.4866602233226,4,1,0,100,0,0
231886,-83.3333333333333,4,1,0,100,0,0
231980,-66.6666666666667,4,1,0,60,0,0
232233,-111.111111111111,4,1,0,60,0,0
233412,-108.10919148595,4,1,0,80,0,0
233740,-106.664030057346,4,1,0,80,0,0
233908,-105.265212130674,4,1,0,80,0,0
234077,-103.894603027852,4,1,0,80,0,0
234161,-103.226547249971,4,1,0,80,0,0
234245,-102.567027952082,4,1,0,80,0,0
234329,-101.915882552998,4,1,0,80,0,0
234414,-101.26534750122,4,1,0,80,0,0
234582,-100.003707960992,4,1,0,80,0,0
234667,-99.3772799292531,4,1,0,80,0,0
234751,-98.7658842055151,4,1,0,80,0,0
234835,-98.1619654231119,4,1,0,80,0,0
234919,-97.5653872589806,4,1,0,80,0,0
235088,-96.3868339230192,4,1,0,80,0,0
235256,-95.2431401631529,4,1,0,80,0,0
235341,-94.6747639274055,4,1,0,80,0,0
235425,-94.1196998778572,4,1,0,80,0,0
235509,-93.5711064080769,4,1,0,80,0,0
235593,-93.02887102894,4,1,0,80,0,0
235678,-92.4865402421042,4,1,0,80,0,0
235762,-91.9567663404821,4,1,0,80,0,0
235931,-90.9090909090909,4,1,0,80,0,0
236099,-92.7105449398443,4,1,0,80,0,0
236268,-94.5962209652184,4,1,0,80,0,0
236436,-96.5483355853089,4,1,0,80,0,0
236605,-98.5950827897642,4,1,0,80,0,0
236773,-100.717580727832,4,1,0,80,0,0
236858,-101.826661484648,4,1,0,80,0,0
236942,-102.946954813359,4,1,0,80,0,0
237036,-105.263157894737,4,1,0,100,0,0
237289,-86.9565217391304,4,1,0,100,0,1
237373,-90.9090909090909,4,1,0,100,0,1
256155,-90.9090909090909,4,1,0,100,0,1
256240,-90.3913160010721,4,1,0,100,0,1
256324,-89.88539445629,4,1,0,100,0,1
256492,-88.8903531892462,4,1,0,100,0,1
256577,-88.3952558810039,4,1,0,100,0,1
256661,-87.9113717823395,4,1,0,100,0,1
256745,-87.4327564975047,4,1,0,100,0,1
256829,-86.9593244375685,4,1,0,100,0,1
256998,-86.0221910470603,4,1,0,100,0,1
257082,-85.5638716224788,4,1,0,100,0,1
257167,-85.105040691439,4,1,0,100,0,1
257251,-84.6564166928146,4,1,0,100,0,1
257335,-84.2124976590299,4,1,0,100,0,1
257419,-83.7732099608769,4,1,0,100,0,1
257514,-83.3333333333333,4,1,0,100,0,0
257841,-90.9090909090909,4,1,0,100,0,0
258009,-88.8947507254023,4,1,0,100,0,0
258093,-87.9206887555439,4,1,0,100,0,0
258178,-86.9565217391304,4,1,0,100,0,0
258262,-86.0242501595405,4,1,0,100,0,0
258346,-85.111756534916,4,1,0,100,0,0
258515,-83.3333333333333,4,1,0,100,0,0
258862,-83.3333333333333,4,1,0,100,0,1
258946,-86.9565217391304,4,1,0,100,0,1
259105,-87.3855058952162,4,1,0,100,0,1
259189,-87.8081736006613,4,1,0,100,0,1
259273,-88.2241047843414,4,1,0,100,0,1
259358,-88.6324907507655,4,1,0,100,0,1
259442,-89.0181670272094,4,1,0,100,0,1
259526,-89.380629799247,4,1,0,100,0,1
259695,-90.0188210186603,4,1,0,100,0,1
259779,-90.2813384561171,4,1,0,100,0,1
259863,-90.5020430084823,4,1,0,100,0,1
259947,-90.6775355359161,4,1,0,100,0,1
260032,-90.8063018756449,4,1,0,100,0,1
260200,-90.9090909090909,4,1,0,100,0,1
269638,-90.9090909090909,4,1,0,100,0,1
269807,-90.8228505352261,4,1,0,100,0,1
269891,-90.7800463438308,4,1,0,100,0,1
269975,-90.7372824800776,4,1,0,100,0,1
270060,-90.6940505151287,4,1,0,100,0,1
270144,-90.6513676142667,4,1,0,100,0,1
270228,-90.608724869799,4,1,0,100,0,1
270313,-90.5656152920433,4,1,0,100,0,1
270481,-90.4805310278879,4,1,0,100,0,1
270565,-90.43804881866,4,1,0,100,0,1
270650,-90.3951014570484,4,1,0,100,0,1
270734,-90.3526994125399,4,1,0,100,0,1
270818,-90.3103371288234,4,1,0,100,0,1
270987,-90.2252284906513,4,1,0,100,0,1
271071,-90.1829856253449,4,1,0,100,0,1
271155,-90.1407822971972,4,1,0,100,0,1
271240,-90.0981167377577,4,1,0,100,0,1
271324,-90.0559927866152,4,1,0,100,0,1
271408,-90.0139082058414,4,1,0,100,0,1
271492,-89.9718629402671,4,1,0,100,0,1
271577,-89.9293570995837,4,1,0,100,0,1
271661,-89.8873907657095,4,1,0,100,0,1
271829,-89.8035754921713,4,1,0,100,0,1
271914,-89.7612284750577,4,1,0,100,0,1
271998,-89.7194188754575,4,1,0,100,0,1
272082,-89.677648206447,4,1,0,100,0,1
272167,-89.635419840562,4,1,0,100,0,1
272335,-89.5520735898869,4,1,0,100,0,1
272504,-89.4683874677903,4,1,0,100,0,1
272588,-89.4268501630465,4,1,0,100,0,1
272672,-89.3853514092832,4,1,0,100,0,1
272756,-89.3438911528565,4,1,0,100,0,1
272841,-89.3019764547446,4,1,0,100,0,1
272925,-89.2605934891624,4,1,0,100,0,1
273009,-89.2192488599456,4,1,0,100,0,1
273093,-89.1779425138479,4,1,0,100,0,1
273178,-89.1361833406787,4,1,0,100,0,1
273262,-89.0949538556419,4,1,0,100,0,1
273346,-89.0537624939457,4,1,0,100,0,1
273515,-88.9710046904986,4,1,0,100,0,1
273683,-88.8888888888889,4,1,0,100,0,1
273768,-88.8473999231234,4,1,0,100,0,1
273852,-88.8064370945256,4,1,0,100,0,1
273936,-88.7655120201012,4,1,0,100,0,1
274020,-88.7246246476788,4,1,0,100,0,1
274105,-88.6832888455277,4,1,0,100,0,1
274189,-88.6424771682618,4,1,0,100,0,1
274358,-88.5604816639299,4,1,0,100,0,1
274442,-88.5197829131653,4,1,0,100,0,1
274526,-88.4791215521578,4,1,0,100,0,1
274610,-88.4384975294066,4,1,0,100,0,1
274695,-88.3974278424581,4,1,0,100,0,1
274779,-88.3568787850656,4,1,0,100,0,1
274863,-88.3163669113834,4,1,0,100,0,1
275032,-88.2349733331879,4,1,0,100,0,1
275116,-88.194573144807,4,1,0,100,0,1
275200,-88.1542099356006,4,1,0,100,0,1
275284,-88.1138836548201,4,1,0,100,0,1
275369,-88.0731148379792,4,1,0,100,0,1
275453,-88.0328627002911,4,1,0,100,0,1
275537,-87.9926473387391,4,1,0,100,0,1
275706,-87.911849082848,4,1,0,100,0,1
275790,-87.8717441835205,4,1,0,100,0,1
275874,-87.8316758587745,4,1,0,100,0,1
275959,-87.791167709345,4,1,0,100,0,1
276043,-87.7511728177455,4,1,0,100,0,1
276127,-87.7112143503787,4,1,0,100,0,1
276211,-87.6712922575087,4,1,0,100,0,1
276380,-87.5910828163402,4,1,0,100,0,1
276464,-87.5512699804119,4,1,0,100,0,1
276549,-87.5110200063821,4,1,0,100,0,1
276633,-87.4712799026896,4,1,0,100,0,1
276717,-87.4315758758018,4,1,0,100,0,1
276801,-87.3919078766143,4,1,0,100,0,1
276886,-87.3518042628544,4,1,0,100,0,1
276970,-87.312208599551,4,1,0,100,0,1
277054,-87.2726488165872,4,1,0,100,0,1
277223,-87.1931668148627,4,1,0,100,0,1
277307,-87.1537148058972,4,1,0,100,0,1
277391,-87.1142984822299,4,1,0,100,0,1
277475,-87.0749177954654,4,1,0,100,0,1
277560,-87.0351045174339,4,1,0,100,0,1
277728,-86.9565217391304,4,1,0,100,0,1
277897,-86.9008985412525,4,1,0,100,0,1
278065,-86.788917471753,4,1,0,100,0,1
278150,-86.7165198164933,4,1,0,100,0,1
278234,-86.6359303674044,4,1,0,100,0,1
278402,-86.4504222342365,4,1,0,100,0,1
278487,-86.3452445012382,4,1,0,100,0,1
278571,-86.2343881189757,4,1,0,100,0,1
278655,-86.1170048252046,4,1,0,100,0,1
278740,-85.9918949943536,4,1,0,100,0,1
278908,-85.726984411975,4,1,0,100,0,1
279077,-85.4384735457408,4,1,0,100,0,1
279245,-85.1314500869317,4,1,0,100,0,1
279414,-84.8037396293915,4,1,0,100,0,1
279498,-84.6342328340186,4,1,0,100,0,1
279582,-84.4605345460632,4,1,0,100,0,1
279751,-84.0989512532038,4,1,0,100,0,1
279835,-83.9134797354374,4,1,0,100,0,1
280004,-83.5294121162536,4,1,0,100,0,1
280098,-83.3333333333333,4,1,0,100,0,0
280435,-83.3333333333333,4,1,0,100,0,1
280593,-86.9565217391304,4,1,0,100,0,1
280762,-87.8081736006613,4,1,0,100,0,1
280846,-88.2241047843414,4,1,0,100,0,1
280931,-88.6324907507655,4,1,0,100,0,1
281015,-89.0181670272094,4,1,0,100,0,1
281099,-89.380629799247,4,1,0,100,0,1
281268,-90.0188210186603,4,1,0,100,0,1
281352,-90.2813384561171,4,1,0,100,0,1
281436,-90.5020430084823,4,1,0,100,0,1
281520,-90.6775355359161,4,1,0,100,0,1
281605,-90.8063018756449,4,1,0,100,0,1
281689,-90.8832913006478,4,1,0,100,0,1
281773,-90.9090909090909,4,1,0,100,0,1
291211,-90.9090909090909,4,1,0,100,0,1
291380,-90.8978398465185,4,1,0,100,0,1
291549,-90.8749926379962,4,1,0,100,0,1
291633,-90.8604618225722,4,1,0,100,0,1
291717,-90.8440841181202,4,1,0,100,0,1
291801,-90.8259921345438,4,1,0,100,0,1
291886,-90.8060470637309,4,1,0,100,0,1
291970,-90.7848051819556,4,1,0,100,0,1
292054,-90.7621137086383,4,1,0,100,0,1
292138,-90.7380349554094,4,1,0,100,0,1
292223,-90.7123130138444,4,1,0,100,0,1
292391,-90.6576494337101,4,1,0,100,0,1
292560,-90.5978060119446,4,1,0,100,0,1
292644,-90.566337360878,4,1,0,100,0,1
292728,-90.5337648142629,4,1,0,100,0,1
292813,-90.4997091832391,4,1,0,100,0,1
292897,-90.4649978964722,4,1,0,100,0,1
292981,-90.4292608430296,4,1,0,100,0,1
293065,-90.3925207489092,4,1,0,100,0,1
293150,-90.3543441388141,4,1,0,100,0,1
293234,-90.3156497377757,4,1,0,100,0,1
293402,-90.2354534034294,4,1,0,100,0,1
293487,-90.1934880857531,4,1,0,100,0,1
293571,-90.1511216550597,4,1,0,100,0,1
293655,-90.1078816626677,4,1,0,100,0,1
293740,-90.0632532688349,4,1,0,100,0,1
293908,-89.972520031881,4,1,0,100,0,1
294077,-89.8779540168966,4,1,0,100,0,1
294161,-89.829754840926,4,1,0,100,0,1
294245,-89.7807780513849,4,1,0,100,0,1
294329,-89.7310355285142,4,1,0,100,0,1
294414,-89.6799331476323,4,1,0,100,0,1
294582,-89.5767040739236,4,1,0,100,0,1
294667,-89.5233703881377,4,1,0,100,0,1
294751,-89.469948873651,4,1,0,100,0,1
294835,-89.4158263862033,4,1,0,100,0,1
294919,-89.3610127167114,4,1,0,100,0,1
295004,-89.3048526965325,4,1,0,100,0,1
295088,-89.2486771653669,4,1,0,100,0,1
295256,-89.1343458601982,4,1,0,100,0,1
295425,-89.0167292807169,4,1,0,100,0,1
295593,-88.8972874220944,4,1,0,100,0,1
295678,-88.8359187299645,4,1,0,100,0,1
295762,-88.774664303935,4,1,0,100,0,1
295931,-88.6496272439615,4,1,0,100,0,1
296015,-88.5865996928675,4,1,0,100,0,1
296099,-88.5229983782313,4,1,0,100,0,1
296183,-88.4588305406825,4,1,0,100,0,1
296268,-88.3933294000357,4,1,0,100,0,1
296352,-88.3280432386501,4,1,0,100,0,1
296436,-88.2622116699807,4,1,0,100,0,1
296605,-88.1281397569654,4,1,0,100,0,1
296773,-87.9927537299934,4,1,0,100,0,1
296858,-87.9234708867585,4,1,0,100,0,1
296942,-87.8544941532307,4,1,0,100,0,1
297026,-87.7850177059233,4,1,0,100,0,1
297110,-87.7150476936581,4,1,0,100,0,1
297195,-87.6437484925947,4,1,0,100,0,1
297279,-87.5728037797885,4,1,0,100,0,1
297447,-87.4294936218901,4,1,0,100,0,1
297532,-87.3562756559047,4,1,0,100,0,1
297616,-87.2834581741236,4,1,0,100,0,1
297700,-87.2101881664419,4,1,0,100,0,1
297784,-87.1364711944981,4,1,0,100,0,1
297953,-86.9868276488481,4,1,0,100,0,1
298037,-86.9117974208681,4,1,0,100,0,1
298122,-86.8354410873248,4,1,0,100,0,1
298206,-86.7595605729639,4,1,0,100,0,1
298290,-86.6832652840498,4,1,0,100,0,1
298374,-86.6065603600018,4,1,0,100,0,1
298459,-86.5285304992928,4,1,0,100,0,1
298627,-86.3731085785867,4,1,0,100,0,1
298711,-86.2948108232619,4,1,0,100,0,1
298796,-86.2151893973376,4,1,0,100,0,1
298880,-86.1361226214428,4,1,0,100,0,1
298964,-86.0566808316067,4,1,0,100,0,1
299049,-85.9759164042843,4,1,0,100,0,1
299133,-85.8957344103612,4,1,0,100,0,1
299301,-85.7342923084327,4,1,0,100,0,1
299470,-85.5704696504002,4,1,0,100,0,1
299554,-85.4885245965282,4,1,0,100,0,1
299638,-85.4062412324741,4,1,0,100,0,1
299723,-85.3226384070579,4,1,0,100,0,1
299807,-85.2396876299792,4,1,0,100,0,1
299975,-85.0728146355916,4,1,0,100,0,1
300144,-84.9036700514578,4,1,0,100,0,1
300228,-84.8191316982406,4,1,0,100,0,1
300313,-84.733277245314,4,1,0,100,0,1
300397,-84.6481309130837,4,1,0,100,0,1
300481,-84.5626884910709,4,1,0,100,0,1
300650,-84.3899055606145,4,1,0,100,0,1
300818,-84.2170049957682,4,1,0,100,0,1
300902,-84.1301382296726,4,1,0,100,0,1
300987,-84.0419599326986,4,1,0,100,0,1
301071,-83.9545487278837,4,1,0,100,0,1
301155,-83.8668726074157,4,1,0,100,0,1
301240,-83.7778868782828,4,1,0,100,0,1
301324,-83.6896890653861,4,1,0,100,0,1
301408,-83.6012374998805,4,1,0,100,0,1
301492,-83.512535826158,4,1,0,100,0,1
301577,-83.4225272813897,4,1,0,100,0,1
301671,-83.3333333333333,4,1,0,100,0,0
302177,-100,4,1,0,70,0,0
303009,-100.319203817104,4,1,0,70,0,0
303346,-100.639426544977,4,1,0,70,0,0
304020,-101.282941753019,4,1,0,70,0,0
304695,-101.931535713592,4,1,0,70,0,0
304751,-101.985531211468,4,1,0,70,0,0
304807,-102.03955531201,4,1,0,70,0,0
305369,-102.583313010648,4,1,0,70,0,0
305706,-102.91076286149,4,1,0,70,0,0
306043,-103.239257944755,4,1,0,70,0,0
306717,-103.899397164892,4,1,0,70,0,0
307391,-104.563757490436,4,1,0,70,0,0
307447,-104.619147337217,4,1,0,70,0,0
307504,-104.675556420392,4,1,0,70,0,0
308065,-105.232365912255,4,1,0,70,0,0
308402,-105.568271641076,4,1,0,70,0,0
308740,-105.906251127339,4,1,0,70,0,0
309414,-106.583443809837,4,1,0,70,0,0
310088,-107.264966642109,4,1,0,70,0,0
310144,-107.321787382009,4,1,0,70,0,0
310200,-107.378638221172,4,1,0,70,0,0
310762,-107.950847312279,4,1,0,70,0,0
311436,-108.641113685522,4,1,0,70,0,0
312110,-109.335793805186,4,1,0,70,0,0
312794,-110.034915893938,4,1,0,70,0,0
312841,-110.094245078708,4,1,0,70,0,0
312897,-110.152564552997,4,1,0,70,0,0
313459,-110.739555596002,4,1,0,70,0,0
313796,-111.093040484509,4,1,0,70,0,0
313940,-111.447653710273,4,1,0,69,0,0
314807,-112.160279591851,4,1,0,69,0,0
315086,-112.877462192482,4,1,0,68,0,0
315537,-112.937256001408,4,1,0,68,0,0
315593,-112.997081484501,4,1,0,68,0,0
316155,-113.599230649038,4,1,0,68,0,0
316232,-113.961843729471,4,1,0,67,0,0
316829,-114.325614284698,4,1,0,67,0,0
317378,-115.057730687326,4,1,0,66,0,0
318178,-115.79344035939,4,1,0,66,0,0
318234,-115.854778829561,4,1,0,66,0,0
318290,-115.916149792143,4,1,0,66,0,0
318524,-116.53385435439,4,1,0,65,0,0
319189,-116.905834865708,4,1,0,65,0,0
319526,-117.279002753017,4,1,0,65,0,0
319670,-118.028915828305,4,1,0,64,0,0
320816,-118.78362404686,4,1,0,63,0,0
320931,-118.847670404523,4,1,0,63,0,0
320987,-118.910626771165,4,1,0,63,0,0
321549,-119.544288575737,4,1,0,63,0,0
321886,-119.925878508001,4,1,0,63,0,0
321962,-120.308686489894,4,1,0,62,0,0
322279,-120.372416790633,4,1,0,62,0,0
322335,-120.436180850789,4,1,0,62,0,0
322897,-121.077972167225,4,1,0,62,0,0
323108,-121.464457676055,4,1,0,61,0,0
323571,-121.852176861382,4,1,0,61,0,0
323627,-121.916724784758,4,1,0,61,0,0
323683,-121.981306900665,4,1,0,61,0,0
324255,-122.631332025866,4,1,0,60,0,0
324582,-123.022775918659,4,1,0,60,0,0
324919,-123.415469315299,4,1,0,60,0,0
325256,-123.809416204251,4,1,0,60,0,0
325593,-124.20462058671,4,1,0,60,0,0
325931,-124.602264814514,4,1,0,60,0,0
326109,-125,4,1,0,70,0,0

[HitObjects]
256,192,8412,8,0,10603,0:0:0:0:
256,192,10772,5,4,0:0:0:0:
256,192,11109,1,8,0:0:0:0:
256,192,11362,1,0,0:0:0:0:
256,192,11446,1,0,0:0:0:0:
256,192,11615,1,8,0:0:0:0:
256,192,11783,1,0,0:0:0:0:
256,192,11952,1,8,0:0:0:0:
256,192,12036,1,8,0:0:0:0:
256,192,12289,1,0,0:0:0:0:
256,192,12457,1,8,0:0:0:0:
256,192,12794,1,8,0:0:0:0:
256,192,12879,1,8,0:0:0:0:
256,192,13047,1,0,0:0:0:0:
256,192,13132,1,0,0:0:0:0:
256,192,13300,1,8,0:0:0:0:
256,192,13384,1,0,0:0:0:0:
256,192,13469,1,0,0:0:0:0:
256,192,13806,1,8,0:0:0:0:
256,192,14059,1,0,0:0:0:0:
256,192,14143,1,0,0:0:0:0:
256,192,14311,1,8,0:0:0:0:
256,192,14480,1,0,0:0:0:0:
256,192,14564,1,8,0:0:0:0:
256,192,14733,1,0,0:0:0:0:
256,192,14817,1,8,0:0:0:0:
256,192,14985,1,0,0:0:0:0:
256,192,15154,1,8,0:0:0:0:
256,192,15238,1,8,0:0:0:0:
256,192,15323,1,8,0:0:0:0:
256,192,15491,1,0,0:0:0:0:
256,192,15660,1,8,0:0:0:0:
256,192,15828,1,0,0:0:0:0:
256,192,15912,1,8,0:0:0:0:
256,192,15997,1,8,0:0:0:0:
256,192,16165,1,0,0:0:0:0:
256,192,16502,1,8,0:0:0:0:
256,192,16755,1,0,0:0:0:0:
256,192,16839,1,0,0:0:0:0:
256,192,17008,1,8,0:0:0:0:
256,192,17177,1,0,0:0:0:0:
256,192,17345,1,8,0:0:0:0:
256,192,17429,1,8,0:0:0:0:
256,192,17682,1,0,0:0:0:0:
256,192,17851,1,8,0:0:0:0:
256,192,18188,1,8,0:0:0:0:
256,192,18272,1,8,0:0:0:0:
256,192,18441,1,0,0:0:0:0:
256,192,18525,1,0,0:0:0:0:
256,192,18693,1,8,0:0:0:0:
256,192,18778,1,0,0:0:0:0:
256,192,18862,1,0,0:0:0:0:
256,192,19199,1,8,0:0:0:0:
256,192,19452,1,0,0:0:0:0:
256,192,19536,1,0,0:0:0:0:
256,192,19705,1,8,0:0:0:0:
256,192,19873,1,0,0:0:0:0:
256,192,19957,1,8,0:0:0:0:
256,192,20126,1,0,0:0:0:0:
256,192,20210,1,8,0:0:0:0:
256,192,20379,1,0,0:0:0:0:
256,192,20547,1,8,0:0:0:0:
256,192,20632,1,8,0:0:0:0:
256,192,20716,1,8,0:0:0:0:
256,192,20884,1,0,0:0:0:0:
256,192,21221,1,0,0:0:0:0:
256,192,21559,1,12,0:0:0:0:
256,192,21727,1,0,0:0:0:0:
256,192,21896,1,8,0:0:0:0:
256,192,22064,1,0,0:0:0:0:
256,192,22148,1,8,0:0:0:0:
256,192,22233,1,8,0:0:0:0:
256,192,22317,1,0,0:0:0:0:
256,192,22485,1,8,0:0:0:0:
256,192,22570,1,0,0:0:0:0:
256,192,22738,1,8,0:0:0:0:
256,192,22823,1,8,0:0:0:0:
256,192,22907,1,0,0:0:0:0:
256,192,23075,1,8,0:0:0:0:
256,192,23244,1,0,0:0:0:0:
256,192,23328,1,8,0:0:0:0:
256,192,23412,1,0,0:0:0:0:
256,192,23469,1,8,0:0:0:0:
256,192,23525,1,8,0:0:0:0:
256,192,23581,1,0,0:0:0:0:
256,192,23750,1,8,0:0:0:0:
256,192,23918,1,0,0:0:0:0:
256,192,24002,1,8,0:0:0:0:
256,192,24171,1,0,0:0:0:0:
256,192,24255,1,8,0:0:0:0:
256,192,24424,1,0,0:0:0:0:
256,192,24592,1,8,0:0:0:0:
256,192,24677,1,8,0:0:0:0:
256,192,24761,1,0,0:0:0:0:
256,192,24845,1,0,0:0:0:0:
256,192,24929,1,8,0:0:0:0:
256,192,25098,1,0,0:0:0:0:
256,192,25182,1,8,0:0:0:0:
256,192,25351,1,0,0:0:0:0:
256,192,25435,1,8,0:0:0:0:
256,192,25603,1,0,0:0:0:0:
256,192,25688,1,0,0:0:0:0:
256,192,25772,1,8,0:0:0:0:
256,192,25941,1,0,0:0:0:0:
256,192,26025,1,0,0:0:0:0:
256,192,26109,1,8,0:0:0:0:
256,192,26165,1,8,0:0:0:0:
256,192,26221,1,8,0:0:0:0:
256,192,26278,1,0,0:0:0:0:
256,192,26446,1,8,0:0:0:0:
256,192,26615,1,0,0:0:0:0:
256,192,26699,1,0,0:0:0:0:
256,192,26952,1,8,0:0:0:0:
256,192,27120,1,8,0:0:0:0:
256,192,27289,1,0,0:0:0:0:
256,192,27457,1,8,0:0:0:0:
256,192,27542,1,0,0:0:0:0:
256,192,27626,1,0,0:0:0:0:
256,192,27710,1,8,0:0:0:0:
256,192,27879,1,0,0:0:0:0:
256,192,27963,1,0,0:0:0:0:
256,192,28132,1,8,0:0:0:0:
256,192,28216,1,8,0:0:0:0:
256,192,28300,1,0,0:0:0:0:
256,192,28469,1,8,0:0:0:0:
256,192,28637,1,0,0:0:0:0:
256,192,28721,1,8,0:0:0:0:
256,192,28806,1,0,0:0:0:0:
256,192,28862,1,8,0:0:0:0:
256,192,28918,1,8,0:0:0:0:
256,192,28974,1,0,0:0:0:0:
256,192,29143,1,8,0:0:0:0:
256,192,29311,1,0,0:0:0:0:
256,192,29396,1,8,0:0:0:0:
256,192,29564,1,0,0:0:0:0:
256,192,29648,1,8,0:0:0:0:
256,192,29817,1,0,0:0:0:0:
256,192,29985,1,8,0:0:0:0:
256,192,30070,1,0,0:0:0:0:
256,192,30154,1,8,0:0:0:0:
256,192,30238,1,8,0:0:0:0:
256,192,30323,1,0,0:0:0:0:
256,192,30491,1,8,0:0:0:0:
256,192,30575,1,0,0:0:0:0:
256,192,30744,1,8,0:0:0:0:
256,192,30828,1,0,0:0:0:0:
256,192,30997,1,8,0:0:0:0:
256,192,31081,1,0,0:0:0:0:
256,192,31165,1,8,0:0:0:0:
256,192,31334,1,0,0:0:0:0:
256,192,31418,1,0,0:0:0:0:
256,192,31502,1,8,0:0:0:0:
256,192,31559,1,8,0:0:0:0:
256,192,31615,1,8,0:0:0:0:
256,192,31671,1,0,0:0:0:0:
256,192,31839,1,8,0:0:0:0:
256,192,32008,1,0,0:0:0:0:
256,192,32092,1,0,0:0:0:0:
256,192,32345,1,12,0:0:0:0:
256,192,32514,1,0,0:0:0:0:
256,192,32682,1,8,0:0:0:0:
256,192,32851,1,0,0:0:0:0:
256,192,32935,1,8,0:0:0:0:
256,192,33019,1,8,0:0:0:0:
256,192,33103,1,0,0:0:0:0:
256,192,33272,1,8,0:0:0:0:
256,192,33356,1,0,0:0:0:0:
256,192,33525,1,8,0:0:0:0:
256,192,33609,1,8,0:0:0:0:
256,192,33693,1,0,0:0:0:0:
256,192,33862,1,8,0:0:0:0:
256,192,34030,1,0,0:0:0:0:
256,192,34115,1,8,0:0:0:0:
256,192,34199,1,0,0:0:0:0:
256,192,34255,1,8,0:0:0:0:
256,192,34311,1,8,0:0:0:0:
256,192,34368,1,0,0:0:0:0:
256,192,34536,1,8,0:0:0:0:
256,192,34705,1,0,0:0:0:0:
256,192,34789,1,8,0:0:0:0:
256,192,34957,1,0,0:0:0:0:
256,192,35042,1,8,0:0:0:0:
256,192,35210,1,0,0:0:0:0:
256,192,35379,1,8,0:0:0:0:
256,192,35463,1,8,0:0:0:0:
256,192,35547,1,0,0:0:0:0:
256,192,35632,1,0,0:0:0:0:
256,192,35716,1,8,0:0:0:0:
256,192,35884,1,0,0:0:0:0:
256,192,35969,1,8,0:0:0:0:
256,192,36137,1,0,0:0:0:0:
256,192,36221,1,8,0:0:0:0:
256,192,36390,1,0,0:0:0:0:
256,192,36474,1,0,0:0:0:0:
256,192,36559,1,8,0:0:0:0:
256,192,36727,1,0,0:0:0:0:
256,192,36811,1,0,0:0:0:0:
256,192,36896,1,8,0:0:0:0:
256,192,36952,1,8,0:0:0:0:
256,192,37008,1,8,0:0:0:0:
256,192,37064,1,0,0:0:0:0:
256,192,37233,1,8,0:0:0:0:
256,192,37401,1,0,0:0:0:0:
256,192,37485,1,0,0:0:0:0:
256,192,37738,1,8,0:0:0:0:
256,192,37907,1,8,0:0:0:0:
256,192,38075,1,0,0:0:0:0:
256,192,38244,1,8,0:0:0:0:
256,192,38328,1,0,0:0:0:0:
256,192,38412,1,0,0:0:0:0:
256,192,38497,1,8,0:0:0:0:
256,192,38665,1,0,0:0:0:0:
256,192,38750,1,0,0:0:0:0:
256,192,38918,1,8,0:0:0:0:
256,192,39002,1,8,0:0:0:0:
256,192,39087,1,0,0:0:0:0:
256,192,39255,1,8,0:0:0:0:
256,192,39424,1,0,0:0:0:0:
256,192,39508,1,8,0:0:0:0:
256,192,39592,1,0,0:0:0:0:
256,192,39648,1,8,0:0:0:0:
256,192,39705,1,8,0:0:0:0:
256,192,39761,1,0,0:0:0:0:
256,192,39929,1,8,0:0:0:0:
256,192,40098,1,0,0:0:0:0:
256,192,40182,1,8,0:0:0:0:
256,192,40351,1,0,0:0:0:0:
256,192,40435,1,8,0:0:0:0:
256,192,40603,1,0,0:0:0:0:
256,192,40772,1,8,0:0:0:0:
256,192,40856,1,0,0:0:0:0:
256,192,40941,1,8,0:0:0:0:
256,192,41025,1,8,0:0:0:0:
256,192,41109,1,0,0:0:0:0:
256,192,41278,1,8,0:0:0:0:
256,192,41362,1,0,0:0:0:0:
256,192,41530,1,8,0:0:0:0:
256,192,41615,1,0,0:0:0:0:
256,192,41783,1,8,0:0:0:0:
256,192,41952,1,8,0:0:0:0:
256,192,42120,1,0,0:0:0:0:
256,192,42205,1,8,0:0:0:0:
256,192,42289,1,0,0:0:0:0:
256,192,42457,1,12,0:0:0:0:
256,192,42794,1,12,0:0:0:0:
256,192,43132,1,4,0:0:0:0:
256,192,43300,8,0,48188,0:0:0:0:
256,192,48525,5,0,0:0:0:0:
256,192,48581,1,0,0:0:0:0:
256,192,48637,1,8,0:0:0:0:
256,192,49199,1,0,0:0:0:0:
256,192,49536,1,0,0:0:0:0:
256,192,49873,1,8,0:0:0:0:
256,192,50547,1,8,0:0:0:0:
256,192,51221,1,0,0:0:0:0:
256,192,51278,1,0,0:0:0:0:
256,192,51334,1,8,0:0:0:0:
256,192,51896,1,0,0:0:0:0:
256,192,52233,1,8,0:0:0:0:
256,192,52570,1,0,0:0:0:0:
256,192,53244,1,0,0:0:0:0:
256,192,53918,1,0,0:0:0:0:
256,192,53974,1,0,0:0:0:0:
256,192,54030,1,8,0:0:0:0:
256,192,54592,1,0,0:0:0:0:
256,192,54929,1,0,0:0:0:0:
256,192,55266,1,8,0:0:0:0:
256,192,55941,1,8,0:0:0:0:
256,192,56615,1,0,0:0:0:0:
256,192,56671,1,0,0:0:0:0:
256,192,56727,1,8,0:0:0:0:
256,192,57289,1,0,0:0:0:0:
256,192,57963,1,8,0:0:0:0:
256,192,58637,1,0,0:0:0:0:
256,192,59311,1,8,0:0:0:0:
256,192,59648,1,0,0:0:0:0:
256,192,59817,1,8,0:0:0:0:
256,192,60154,1,8,0:0:0:0:
256,192,60323,1,0,0:0:0:0:
256,192,60491,1,0,0:0:0:0:
256,192,60660,1,8,0:0:0:0:
256,192,61334,1,8,0:0:0:0:
256,192,62008,1,0,0:0:0:0:
256,192,62064,1,0,0:0:0:0:
256,192,62120,1,8,0:0:0:0:
256,192,62682,1,0,0:0:0:0:
256,192,63019,1,8,0:0:0:0:
256,192,63356,1,0,0:0:0:0:
256,192,64030,1,0,0:0:0:0:
256,192,64705,1,0,0:0:0:0:
256,192,64761,1,0,0:0:0:0:
256,192,64817,1,8,0:0:0:0:
256,192,65379,1,0,0:0:0:0:
256,192,65716,1,0,0:0:0:0:
256,192,66053,1,8,0:0:0:0:
256,192,66727,1,8,0:0:0:0:
256,192,67401,1,0,0:0:0:0:
256,192,67457,1,0,0:0:0:0:
256,192,67514,1,8,0:0:0:0:
256,192,68075,1,0,0:0:0:0:
256,192,68412,1,8,0:0:0:0:
256,192,68750,1,0,0:0:0:0:
256,192,69424,1,0,0:0:0:0:
256,192,70098,1,8,0:0:0:0:
256,192,70772,1,0,0:0:0:0:
256,192,71446,1,0,0:0:0:0:
256,192,72120,1,0,0:0:0:0:
256,192,72794,1,8,0:0:0:0:
256,192,73132,1,8,0:0:0:0:
256,192,73469,1,0,0:0:0:0:
256,192,73806,1,8,0:0:0:0:
256,192,74143,1,0,0:0:0:0:
256,192,74311,1,8,0:0:0:0:
256,192,74396,1,8,0:0:0:0:
256,192,74480,1,0,0:0:0:0:
256,192,74817,1,0,0:0:0:0:
256,192,75154,1,0,0:0:0:0:
256,192,75491,1,8,0:0:0:0:
256,192,76165,1,0,0:0:0:0:
256,192,76839,1,8,0:0:0:0:
256,192,77514,1,8,0:0:0:0:
256,192,77851,1,0,0:0:0:0:
256,192,78188,1,8,0:0:0:0:
256,192,78525,1,8,0:0:0:0:
256,192,78862,1,0,0:0:0:0:
256,192,79536,1,8,0:0:0:0:
256,192,80210,1,8,0:0:0:0:
256,192,80884,1,0,0:0:0:0:
256,192,81559,1,8,0:0:0:0:
256,192,82233,1,8,0:0:0:0:
256,192,82570,1,0,0:0:0:0:
256,192,82907,1,8,0:0:0:0:
256,192,83244,1,8,0:0:0:0:
256,192,83581,1,0,0:0:0:0:
256,192,83918,1,0,0:0:0:0:
256,192,84255,1,8,0:0:0:0:
256,192,84592,1,8,0:0:0:0:
256,192,84929,1,0,0:0:0:0:
256,192,85603,1,8,0:0:0:0:
256,192,85941,1,0,0:0:0:0:
256,192,86278,1,8,0:0:0:0:
256,192,86615,1,8,0:0:0:0:
256,192,86952,1,0,0:0:0:0:
256,192,87289,1,8,0:0:0:0:
256,192,87626,1,0,0:0:0:0:
256,192,88300,1,8,0:0:0:0:
256,64,88637,1,0,0:0:0:0:
256,64,88806,1,8,0:0:0:0:
256,192,88974,1,0,0:0:0:0:
256,192,89311,1,8,0:0:0:0:
256,192,89480,1,0,0:0:0:0:
256,192,89817,1,8,0:0:0:0:
256,192,90154,1,0,0:0:0:0:
256,192,90323,1,8,0:0:0:0:
256,192,90660,1,0,0:0:0:0:
256,192,90997,1,8,0:0:0:0:
256,192,91671,1,0,0:0:0:0:
256,64,91839,1,0,0:0:0:0:
256,192,92008,1,8,0:0:0:0:
256,192,92177,1,0,0:0:0:0:
256,192,92261,1,0,0:0:0:0:
256,192,92345,1,0,0:0:0:0:
256,192,92514,1,8,0:0:0:0:
256,192,92682,1,8,0:0:0:0:
256,192,92766,1,8,0:0:0:0:
256,192,92851,1,0,0:0:0:0:
256,192,93019,1,8,0:0:0:0:
256,192,93188,1,0,0:0:0:0:
256,192,93272,1,0,0:0:0:0:
256,192,93356,1,0,0:0:0:0:
256,192,93525,1,8,0:0:0:0:
256,192,93693,1,0,0:0:0:0:
256,192,93778,1,0,0:0:0:0:
256,192,93862,1,8,0:0:0:0:
256,192,94030,1,8,0:0:0:0:
256,192,94199,1,0,0:0:0:0:
256,192,94283,1,8,0:0:0:0:
256,192,94368,1,0,0:0:0:0:
256,192,94705,1,8,0:0:0:0:
256,192,94873,1,0,0:0:0:0:
256,192,94957,1,0,0:0:0:0:
256,192,95042,1,0,0:0:0:0:
256,192,95210,1,8,0:0:0:0:
256,192,95379,1,8,0:0:0:0:
256,192,95463,1,8,0:0:0:0:
256,192,95547,1,0,0:0:0:0:
256,192,95716,1,8,0:0:0:0:
256,192,95884,1,0,0:0:0:0:
256,192,95969,1,8,0:0:0:0:
256,192,96053,1,0,0:0:0:0:
256,192,96221,1,8,0:0:0:0:
256,192,96390,1,0,0:0:0:0:
256,192,96474,1,0,0:0:0:0:
256,192,96559,1,0,0:0:0:0:
256,192,96727,1,8,0:0:0:0:
256,192,96896,1,0,0:0:0:0:
256,192,96980,1,0,0:0:0:0:
256,192,97064,1,8,0:0:0:0:
256,192,97401,1,8,0:0:0:0:
256,192,97570,1,0,0:0:0:0:
256,192,97654,1,0,0:0:0:0:
256,192,97738,1,0,0:0:0:0:
256,192,97907,1,8,0:0:0:0:
256,192,98075,1,8,0:0:0:0:
256,192,98160,1,8,0:0:0:0:
256,192,98244,1,0,0:0:0:0:
256,192,98412,1,8,0:0:0:0:
256,192,98581,1,0,0:0:0:0:
256,192,98665,1,0,0:0:0:0:
256,192,98750,1,0,0:0:0:0:
256,192,98918,1,8,0:0:0:0:
256,192,99087,1,0,0:0:0:0:
256,192,99171,1,0,0:0:0:0:
256,192,99255,1,8,0:0:0:0:
256,192,99424,1,8,0:0:0:0:
256,192,99592,1,0,0:0:0:0:
256,192,99677,1,8,0:0:0:0:
256,192,99761,1,0,0:0:0:0:
256,192,100098,1,8,0:0:0:0:
256,192,100266,1,0,0:0:0:0:
256,192,100351,1,0,0:0:0:0:
256,192,100435,1,0,0:0:0:0:
256,192,100603,1,8,0:0:0:0:
256,64,100772,1,8,0:0:0:0:
256,64,100856,1,8,0:0:0:0:
256,192,100941,1,0,0:0:0:0:
256,192,101109,1,8,0:0:0:0:
256,192,101278,1,0,0:0:0:0:
256,192,101362,1,8,0:0:0:0:
256,192,101530,1,0,0:0:0:0:
256,192,101615,1,8,0:0:0:0:
256,192,101783,1,0,0:0:0:0:
256,192,101952,1,0,0:0:0:0:
256,192,102120,1,8,0:0:0:0:
256,192,102289,1,0,0:0:0:0:
256,192,102345,1,0,0:0:0:0:
256,192,102401,1,0,0:0:0:0:
256,192,102457,1,8,0:0:0:0:
256,192,102794,1,8,0:0:0:0:
256,192,103132,1,8,0:0:0:0:
256,192,103469,1,8,0:0:0:0:
256,192,103806,1,8,0:0:0:0:
256,192,104143,1,8,0:0:0:0:
256,192,104480,1,8,0:0:0:0:
256,192,104817,1,8,0:0:0:0:
256,192,105154,1,8,0:0:0:0:
256,192,105491,1,8,0:0:0:0:
256,192,105828,1,8,0:0:0:0:
256,192,106165,1,8,0:0:0:0:
256,192,106502,1,8,0:0:0:0:
256,192,106839,1,8,0:0:0:0:
256,192,107177,1,8,0:0:0:0:
256,192,107514,1,8,0:0:0:0:
256,192,107851,1,8,0:0:0:0:
256,192,108019,1,0,0:0:0:0:
256,192,108188,1,8,0:0:0:0:
256,192,108356,1,0,0:0:0:0:
256,192,108525,1,8,0:0:0:0:
256,192,108693,1,0,0:0:0:0:
256,192,108862,1,8,0:0:0:0:
256,192,109030,1,0,0:0:0:0:
256,192,109199,1,8,0:0:0:0:
256,192,109368,1,0,0:0:0:0:
256,192,109536,1,8,0:0:0:0:
256,192,109705,1,0,0:0:0:0:
256,192,109873,1,8,0:0:0:0:
256,192,110042,1,0,0:0:0:0:
256,192,110210,1,8,0:0:0:0:
256,192,110379,1,0,0:0:0:0:
256,192,110547,1,8,0:0:0:0:
256,192,110632,1,8,0:0:0:0:
256,192,110716,1,0,0:0:0:0:
256,192,110800,1,0,0:0:0:0:
256,192,110884,1,8,0:0:0:0:
256,192,110969,1,8,0:0:0:0:
256,192,111053,1,0,0:0:0:0:
256,192,111137,1,0,0:0:0:0:
256,192,111221,1,8,0:0:0:0:
256,192,111306,1,8,0:0:0:0:
256,192,111390,1,0,0:0:0:0:
256,192,111474,1,0,0:0:0:0:
256,192,111559,1,8,0:0:0:0:
256,192,111643,1,8,0:0:0:0:
256,192,111727,1,0,0:0:0:0:
256,192,111811,1,0,0:0:0:0:
256,192,111896,1,0,0:0:0:0:
256,192,112064,1,8,0:0:0:0:
256,192,112233,1,0,0:0:0:0:
256,192,112401,1,0,0:0:0:0:
256,192,112570,1,8,0:0:0:0:
256,192,112907,1,8,0:0:0:0:
256,192,113075,1,0,0:0:0:0:
256,192,113160,1,0,0:0:0:0:
256,192,113244,1,12,0:0:0:0:
256,192,113412,1,0,0:0:0:0:
256,192,113581,1,8,0:0:0:0:
256,192,113750,1,0,0:0:0:0:
256,192,113834,1,8,0:0:0:0:
256,192,113918,1,0,0:0:0:0:
256,192,114002,1,0,0:0:0:0:
256,192,114087,1,8,0:0:0:0:
256,192,114171,1,0,0:0:0:0:
256,192,114255,1,8,0:0:0:0:
256,192,114424,1,8,0:0:0:0:
256,192,114508,1,8,0:0:0:0:
256,192,114592,1,0,0:0:0:0:
256,192,114677,1,0,0:0:0:0:
256,192,114761,1,8,0:0:0:0:
256,192,114929,1,0,0:0:0:0:
256,192,115014,1,0,0:0:0:0:
256,192,115098,1,8,0:0:0:0:
256,192,115154,1,8,0:0:0:0:
256,192,115210,1,8,0:0:0:0:
256,192,115266,1,0,0:0:0:0:
256,192,115351,1,0,0:0:0:0:
256,192,115435,1,8,0:0:0:0:
256,192,115603,1,0,0:0:0:0:
256,192,115688,1,8,0:0:0:0:
256,192,115772,1,0,0:0:0:0:
256,192,115941,1,8,0:0:0:0:
256,192,116109,1,0,0:0:0:0:
256,192,116278,1,8,0:0:0:0:
256,192,116362,1,0,0:0:0:0:
256,192,116446,1,8,0:0:0:0:
256,192,116530,1,8,0:0:0:0:
256,192,116615,1,0,0:0:0:0:
256,192,116783,1,8,0:0:0:0:
256,192,116868,1,8,0:0:0:0:
256,192,116952,1,0,0:0:0:0:
256,192,117036,1,0,0:0:0:0:
256,192,117120,1,8,0:0:0:0:
256,192,117289,1,0,0:0:0:0:
256,192,117373,1,0,0:0:0:0:
256,192,117457,1,8,0:0:0:0:
256,192,117626,1,0,0:0:0:0:
256,192,117710,1,0,0:0:0:0:
256,192,117794,1,8,0:0:0:0:
256,192,117851,1,0,0:0:0:0:
256,192,117907,1,0,0:0:0:0:
256,192,117963,1,8,0:0:0:0:
256,192,118047,1,8,0:0:0:0:
256,192,118132,1,0,0:0:0:0:
256,192,118300,1,8,0:0:0:0:
256,192,118384,1,0,0:0:0:0:
256,192,118469,1,0,0:0:0:0:
256,192,118637,1,8,0:0:0:0:
256,192,118806,1,8,0:0:0:0:
256,192,118974,1,0,0:0:0:0:
256,192,119143,1,8,0:0:0:0:
256,192,119227,1,0,0:0:0:0:
256,192,119311,1,8,0:0:0:0:
256,192,119396,1,8,0:0:0:0:
256,192,119480,1,0,0:0:0:0:
256,192,119564,1,8,0:0:0:0:
256,192,119648,1,0,0:0:0:0:
256,192,119817,1,8,0:0:0:0:
256,192,119901,1,8,0:0:0:0:
256,192,119985,1,0,0:0:0:0:
256,192,120154,1,8,0:0:0:0:
256,192,120323,1,0,0:0:0:0:
256,192,120407,1,0,0:0:0:0:
256,192,120491,1,8,0:0:0:0:
256,192,120547,1,8,0:0:0:0:
256,192,120603,1,8,0:0:0:0:
256,192,120660,1,0,0:0:0:0:
256,192,120828,1,8,0:0:0:0:
256,192,120997,1,0,0:0:0:0:
256,192,121081,1,8,0:0:0:0:
256,192,121250,1,0,0:0:0:0:
256,192,121334,1,8,0:0:0:0:
256,192,121502,1,0,0:0:0:0:
256,192,121671,1,8,0:0:0:0:
256,192,121755,1,0,0:0:0:0:
256,192,121839,1,8,0:0:0:0:
256,192,121924,1,8,0:0:0:0:
256,192,122008,1,0,0:0:0:0:
256,192,122177,1,8,0:0:0:0:
256,192,122261,1,0,0:0:0:0:
256,192,122429,1,8,0:0:0:0:
256,192,122514,1,0,0:0:0:0:
256,192,122682,1,8,0:0:0:0:
256,192,122766,1,0,0:0:0:0:
256,192,122851,1,8,0:0:0:0:
256,192,123019,1,0,0:0:0:0:
256,192,123103,1,0,0:0:0:0:
256,192,123188,1,8,0:0:0:0:
256,192,123244,1,0,0:0:0:0:
256,192,123300,1,0,0:0:0:0:
256,192,123356,1,8,0:0:0:0:
256,192,123525,1,0,0:0:0:0:
256,192,123693,1,8,0:0:0:0:
256,192,123862,1,0,0:0:0:0:
256,192,124030,1,12,0:0:0:0:
256,192,124199,1,0,0:0:0:0:
256,192,124368,1,8,0:0:0:0:
256,192,124536,1,0,0:0:0:0:
256,192,124620,1,8,0:0:0:0:
256,192,124705,1,0,0:0:0:0:
256,192,124789,1,0,0:0:0:0:
256,192,124873,1,8,0:0:0:0:
256,192,124957,1,0,0:0:0:0:
256,192,125042,1,8,0:0:0:0:
256,192,125210,1,8,0:0:0:0:
256,192,125294,1,8,0:0:0:0:
256,192,125379,1,0,0:0:0:0:
256,192,125463,1,0,0:0:0:0:
256,192,125547,1,8,0:0:0:0:
256,192,125716,1,0,0:0:0:0:
256,192,125800,1,0,0:0:0:0:
256,192,125884,1,8,0:0:0:0:
256,192,125941,1,8,0:0:0:0:
256,192,125997,1,8,0:0:0:0:
256,192,126053,1,0,0:0:0:0:
256,192,126137,1,0,0:0:0:0:
256,192,126221,1,8,0:0:0:0:
256,192,126390,1,0,0:0:0:0:
256,192,126474,1,8,0:0:0:0:
256,192,126559,1,0,0:0:0:0:
256,192,126727,1,8,0:0:0:0:
256,192,126896,1,0,0:0:0:0:
256,192,127064,1,8,0:0:0:0:
256,192,127148,1,0,0:0:0:0:
256,192,127233,1,8,0:0:0:0:
256,192,127317,1,8,0:0:0:0:
256,192,127401,1,0,0:0:0:0:
256,192,127570,1,8,0:0:0:0:
256,192,127654,1,8,0:0:0:0:
256,192,127738,1,0,0:0:0:0:
256,192,127823,1,0,0:0:0:0:
256,192,127907,1,8,0:0:0:0:
256,192,128075,1,0,0:0:0:0:
256,192,128160,1,0,0:0:0:0:
256,192,128244,1,8,0:0:0:0:
256,192,128412,1,0,0:0:0:0:
256,192,128497,1,0,0:0:0:0:
256,192,128581,1,8,0:0:0:0:
256,192,128637,1,0,0:0:0:0:
256,192,128693,1,0,0:0:0:0:
256,192,128750,1,8,0:0:0:0:
256,192,128834,1,8,0:0:0:0:
256,192,128918,1,0,0:0:0:0:
256,192,129087,1,8,0:0:0:0:
256,192,129171,1,0,0:0:0:0:
256,192,129255,1,0,0:0:0:0:
256,192,129424,1,8,0:0:0:0:
256,192,129592,1,8,0:0:0:0:
256,192,129761,1,0,0:0:0:0:
256,192,129929,1,8,0:0:0:0:
256,192,130014,1,0,0:0:0:0:
256,192,130098,1,8,0:0:0:0:
256,192,130182,1,8,0:0:0:0:
256,192,130266,1,0,0:0:0:0:
256,192,130351,1,8,0:0:0:0:
256,192,130435,1,0,0:0:0:0:
256,192,130603,1,8,0:0:0:0:
256,192,130688,1,8,0:0:0:0:
256,192,130772,1,0,0:0:0:0:
256,192,130941,1,8,0:0:0:0:
256,192,131109,1,0,0:0:0:0:
256,192,131193,1,0,0:0:0:0:
256,192,131278,1,8,0:0:0:0:
256,192,131334,1,8,0:0:0:0:
256,192,131390,1,8,0:0:0:0:
256,192,131446,1,0,0:0:0:0:
256,192,131615,1,8,0:0:0:0:
256,192,131783,1,0,0:0:0:0:
256,192,131868,1,8,0:0:0:0:
256,192,132036,1,0,0:0:0:0:
256,192,132120,1,8,0:0:0:0:
256,192,132289,1,0,0:0:0:0:
256,192,132457,1,8,0:0:0:0:
256,192,132542,1,0,0:0:0:0:
256,192,132626,1,8,0:0:0:0:
256,192,132710,1,8,0:0:0:0:
256,192,132794,1,0,0:0:0:0:
256,192,132963,1,8,0:0:0:0:
256,192,133047,1,0,0:0:0:0:
256,192,133216,1,8,0:0:0:0:
256,192,133300,1,0,0:0:0:0:
256,192,133469,1,8,0:0:0:0:
256,192,133553,1,0,0:0:0:0:
256,192,133637,1,8,0:0:0:0:
256,192,133806,1,0,0:0:0:0:
256,192,133890,1,0,0:0:0:0:
256,192,133974,1,8,0:0:0:0:
256,192,134030,1,8,0:0:0:0:
256,192,134087,1,8,0:0:0:0:
256,192,134143,1,4,0:0:0:0:
256,192,134480,1,4,0:0:0:0:
256,192,134817,1,12,0:0:0:0:
256,192,134985,1,0,0:0:0:0:
256,192,135154,1,8,0:0:0:0:
256,192,135238,1,0,0:0:0:0:
256,192,135323,1,8,0:0:0:0:
256,192,135491,1,0,0:0:0:0:
256,192,135575,1,8,0:0:0:0:
256,192,135660,1,0,0:0:0:0:
256,192,135744,1,0,0:0:0:0:
256,192,135828,1,8,0:0:0:0:
256,192,135997,1,8,0:0:0:0:
256,192,136081,1,8,0:0:0:0:
256,192,136165,1,0,0:0:0:0:
256,192,136334,1,8,0:0:0:0:
256,192,136502,1,0,0:0:0:0:
256,192,136587,1,0,0:0:0:0:
256,192,136671,1,8,0:0:0:0:
256,192,136839,1,0,0:0:0:0:
256,192,137008,1,0,0:0:0:0:
256,192,137177,1,8,0:0:0:0:
256,192,137345,1,0,0:0:0:0:
256,192,137429,1,8,0:0:0:0:
256,192,137514,1,0,0:0:0:0:
256,192,137682,1,8,0:0:0:0:
256,192,137851,1,0,0:0:0:0:
256,192,137935,1,0,0:0:0:0:
256,192,138019,1,8,0:0:0:0:
256,192,138188,1,0,0:0:0:0:
256,192,138272,1,0,0:0:0:0:
256,192,138356,1,0,0:0:0:0:
256,192,138441,1,0,0:0:0:0:
256,192,138525,1,8,0:0:0:0:
256,192,138693,1,0,0:0:0:0:
256,192,138778,1,8,0:0:0:0:
256,192,138862,1,0,0:0:0:0:
256,192,139030,1,8,0:0:0:0:
256,192,139199,1,0,0:0:0:0:
256,192,139283,1,0,0:0:0:0:
256,192,139368,1,0,0:0:0:0:
256,192,139536,1,8,0:0:0:0:
256,192,139705,1,0,0:0:0:0:
256,192,139873,1,8,0:0:0:0:
256,192,140042,1,8,0:0:0:0:
256,192,140126,1,8,0:0:0:0:
256,192,140210,1,0,0:0:0:0:
256,192,140379,1,8,0:0:0:0:
256,192,140547,1,0,0:0:0:0:
256,192,140632,1,0,0:0:0:0:
256,192,140716,1,8,0:0:0:0:
256,192,140884,1,0,0:0:0:0:
256,192,140969,1,8,0:0:0:0:
256,192,141053,1,0,0:0:0:0:
256,192,141137,1,0,0:0:0:0:
256,192,141221,1,8,0:0:0:0:
256,192,141390,1,0,0:0:0:0:
256,192,141474,1,8,0:0:0:0:
256,192,141559,1,0,0:0:0:0:
256,192,141727,1,8,0:0:0:0:
256,192,141896,1,8,0:0:0:0:
256,192,141980,1,8,0:0:0:0:
256,192,142064,1,8,0:0:0:0:
256,192,142233,1,0,0:0:0:0:
256,192,142401,1,0,0:0:0:0:
256,192,142570,1,8,0:0:0:0:
256,192,142738,1,0,0:0:0:0:
256,192,142823,1,8,0:0:0:0:
256,192,142907,1,0,0:0:0:0:
256,192,143075,1,8,0:0:0:0:
256,192,143244,1,0,0:0:0:0:
256,192,143328,1,0,0:0:0:0:
256,192,143412,1,8,0:0:0:0:
256,192,143581,1,0,0:0:0:0:
256,192,143665,1,0,0:0:0:0:
256,192,143750,1,8,0:0:0:0:
256,192,143834,1,0,0:0:0:0:
256,192,143918,1,8,0:0:0:0:
256,192,144087,1,8,0:0:0:0:
256,192,144171,1,8,0:0:0:0:
256,192,144255,1,0,0:0:0:0:
256,192,144424,1,8,0:0:0:0:
256,192,144592,1,0,0:0:0:0:
256,192,144677,1,8,0:0:0:0:
256,192,144761,1,0,0:0:0:0:
256,64,144845,1,0,0:0:0:0:
256,192,144929,1,8,0:0:0:0:
256,192,145098,1,0,0:0:0:0:
256,192,145266,1,8,0:0:0:0:
256,192,145435,1,0,0:0:0:0:
256,192,145603,1,12,0:0:0:0:
256,192,145772,1,0,0:0:0:0:
256,192,145856,1,0,0:0:0:0:
256,192,145941,1,8,0:0:0:0:
256,192,146025,1,0,0:0:0:0:
256,192,146109,1,8,0:0:0:0:
256,192,146278,1,0,0:0:0:0:
256,192,146362,1,8,0:0:0:0:
256,192,146446,1,0,0:0:0:0:
256,192,146530,1,0,0:0:0:0:
256,192,146615,1,8,0:0:0:0:
256,192,146783,1,8,0:0:0:0:
256,192,146868,1,8,0:0:0:0:
256,192,146952,1,0,0:0:0:0:
256,192,147120,1,8,0:0:0:0:
256,192,147289,1,0,0:0:0:0:
256,192,147373,1,0,0:0:0:0:
256,192,147457,1,8,0:0:0:0:
256,192,147626,1,0,0:0:0:0:
256,192,147794,1,0,0:0:0:0:
256,192,147963,1,8,0:0:0:0:
256,192,148047,1,8,0:0:0:0:
256,192,148132,1,0,0:0:0:0:
256,192,148216,1,8,0:0:0:0:
256,192,148300,1,0,0:0:0:0:
256,192,148469,1,8,0:0:0:0:
256,192,148553,1,8,0:0:0:0:
256,192,148637,1,0,0:0:0:0:
256,192,148721,1,0,0:0:0:0:
256,192,148806,1,8,0:0:0:0:
256,192,148974,1,0,0:0:0:0:
256,192,149059,1,0,0:0:0:0:
256,192,149143,1,0,0:0:0:0:
256,192,149227,1,0,0:0:0:0:
256,192,149311,1,8,0:0:0:0:
256,192,149480,1,0,0:0:0:0:
256,192,149564,1,8,0:0:0:0:
256,192,149648,1,0,0:0:0:0:
256,192,149817,1,8,0:0:0:0:
256,192,149985,1,0,0:0:0:0:
256,192,150070,1,0,0:0:0:0:
256,192,150154,1,0,0:0:0:0:
256,192,150323,1,8,0:0:0:0:
256,192,150491,1,0,0:0:0:0:
256,192,150660,1,8,0:0:0:0:
256,192,150744,1,0,0:0:0:0:
256,192,150828,1,8,0:0:0:0:
256,192,150912,1,8,0:0:0:0:
256,192,150997,1,0,0:0:0:0:
256,192,151165,1,8,0:0:0:0:
256,192,151250,1,0,0:0:0:0:
256,192,151334,1,0,0:0:0:0:
256,192,151418,1,0,0:0:0:0:
256,192,151502,1,8,0:0:0:0:
256,192,151671,1,0,0:0:0:0:
256,192,151755,1,8,0:0:0:0:
256,192,151839,1,0,0:0:0:0:
256,192,151924,1,0,0:0:0:0:
256,192,152008,1,8,0:0:0:0:
256,192,152177,1,0,0:0:0:0:
256,192,152261,1,8,0:0:0:0:
256,192,152345,1,0,0:0:0:0:
256,192,152514,1,8,0:0:0:0:
256,192,152682,1,8,0:0:0:0:
256,192,152766,1,8,0:0:0:0:
256,192,152851,1,8,0:0:0:0:
256,192,153019,1,0,0:0:0:0:
256,192,153188,1,0,0:0:0:0:
256,192,153356,1,8,0:0:0:0:
256,192,153441,1,8,0:0:0:0:
256,192,153525,1,0,0:0:0:0:
256,192,153609,1,8,0:0:0:0:
256,192,153693,1,0,0:0:0:0:
256,192,153862,1,8,0:0:0:0:
256,192,153946,1,8,0:0:0:0:
256,192,154030,1,0,0:0:0:0:
256,192,154115,1,0,0:0:0:0:
256,192,154199,1,8,0:0:0:0:
256,192,154368,1,0,0:0:0:0:
256,192,154452,1,0,0:0:0:0:
256,192,154536,1,8,0:0:0:0:
256,192,154620,1,0,0:0:0:0:
256,192,154705,1,8,0:0:0:0:
256,192,154873,1,8,0:0:0:0:
256,192,154957,1,8,0:0:0:0:
256,192,155042,1,4,0:0:0:0:
256,192,155210,1,8,0:0:0:0:
256,192,155379,1,0,0:0:0:0:
256,192,155463,1,8,0:0:0:0:
256,192,155547,1,0,0:0:0:0:
256,192,155716,8,0,155884,0:0:0:0:
256,192,156053,5,0,0:0:0:0:
256,192,156137,1,0,0:0:0:0:
256,192,156221,1,0,0:0:0:0:
256,192,156306,1,0,0:0:0:0:
256,192,156390,1,12,0:0:0:0:
256,64,156727,1,8,0:0:0:0:
256,64,156896,1,0,0:0:0:0:
256,64,156980,1,0,0:0:0:0:
256,64,157064,1,0,0:0:0:0:
256,64,157233,1,8,0:0:0:0:
256,64,157317,1,8,0:0:0:0:
256,64,157401,1,0,0:0:0:0:
256,64,157485,1,0,0:0:0:0:
256,64,157570,1,8,0:0:0:0:
256,64,157654,1,8,0:0:0:0:
256,192,157738,1,0,0:0:0:0:
256,64,157907,1,8,0:0:0:0:
256,64,158075,1,8,0:0:0:0:
256,192,158244,1,0,0:0:0:0:
256,174,158300,1,8,0:0:0:0:
256,192,158356,1,8,0:0:0:0:
256,64,158412,1,0,0:0:0:0:
256,192,158497,1,0,0:0:0:0:
256,64,158581,1,8,0:0:0:0:
256,64,158750,1,0,0:0:0:0:
256,64,158834,1,0,0:0:0:0:
256,192,158918,1,8,0:0:0:0:
256,192,159087,1,0,0:0:0:0:
256,64,159255,1,8,0:0:0:0:
256,192,159424,1,8,0:0:0:0:
256,64,159508,1,8,0:0:0:0:
256,192,159677,1,0,0:0:0:0:
256,192,159761,1,8,0:0:0:0:
256,192,159929,1,8,0:0:0:0:
256,64,160014,1,8,0:0:0:0:
256,64,160098,1,0,0:0:0:0:
256,64,160182,1,8,0:0:0:0:
256,192,160266,1,0,0:0:0:0:
256,64,160351,1,0,0:0:0:0:
256,64,160435,1,8,0:0:0:0:
256,64,160603,1,0,0:0:0:0:
243,190,160772,1,8,0:0:0:0:
256,64,160856,1,0,0:0:0:0:
242,192,160941,1,0,0:0:0:0:
242,192,160997,1,8,0:0:0:0:
241,190,161053,1,8,0:0:0:0:
256,64,161109,1,0,0:0:0:0:
256,64,161193,1,0,0:0:0:0:
256,64,161278,1,8,0:0:0:0:
256,64,161446,1,0,0:0:0:0:
256,64,161530,1,8,0:0:0:0:
256,64,161615,1,0,0:0:0:0:
256,64,161783,1,8,0:0:0:0:
256,64,161952,1,0,0:0:0:0:
241,190,162036,1,0,0:0:0:0:
241,190,162120,1,8,0:0:0:0:
246,190,162289,1,8,0:0:0:0:
246,190,162373,1,8,0:0:0:0:
244,190,162457,1,0,0:0:0:0:
244,190,162626,1,8,0:0:0:0:
256,64,162710,1,8,0:0:0:0:
256,64,162794,1,0,0:0:0:0:
256,64,162879,1,0,0:0:0:0:
256,64,162963,1,8,0:0:0:0:
256,64,163047,1,8,0:0:0:0:
241,190,163132,1,0,0:0:0:0:
246,190,163300,1,8,0:0:0:0:
256,64,163469,1,8,0:0:0:0:
256,64,163553,1,8,0:0:0:0:
244,190,163637,1,0,0:0:0:0:
241,190,163693,1,8,0:0:0:0:
243,190,163750,1,8,0:0:0:0:
243,190,163806,1,0,0:0:0:0:
241,190,163974,1,8,0:0:0:0:
246,190,164143,1,0,0:0:0:0:
246,190,164227,1,8,0:0:0:0:
256,64,164396,1,0,0:0:0:0:
244,190,164480,1,0,0:0:0:0:
256,64,164648,1,8,0:0:0:0:
256,64,164817,1,0,0:0:0:0:
256,64,164901,1,8,0:0:0:0:
246,190,165070,1,0,0:0:0:0:
256,64,165154,1,0,0:0:0:0:
244,190,165323,1,8,0:0:0:0:
256,64,165407,1,8,0:0:0:0:
244,190,165491,1,0,0:0:0:0:
243,190,165575,1,8,0:0:0:0:
256,64,165744,1,8,0:0:0:0:
256,64,165828,1,0,0:0:0:0:
241,190,165997,1,8,0:0:0:0:
256,64,166165,1,0,0:0:0:0:
256,64,166250,1,8,0:0:0:0:
244,190,166334,1,0,0:0:0:0:
244,190,166502,1,12,0:0:0:0:
243,190,166671,1,0,0:0:0:0:
245,172,166839,1,12,0:0:0:0:
256,64,167008,1,0,0:0:0:0:
244,190,167177,1,12,0:0:0:0:
256,192,167514,1,8,0:0:0:0:
256,192,167682,1,0,0:0:0:0:
256,192,167766,1,8,0:0:0:0:
256,192,167851,1,8,0:0:0:0:
256,192,167935,1,0,0:0:0:0:
256,192,168103,1,8,0:0:0:0:
256,192,168188,1,0,0:0:0:0:
256,192,168356,1,8,0:0:0:0:
256,192,168441,1,8,0:0:0:0:
256,192,168525,1,0,0:0:0:0:
256,192,168693,1,8,0:0:0:0:
256,192,168862,1,0,0:0:0:0:
256,64,168946,1,8,0:0:0:0:
256,64,169030,1,0,0:0:0:0:
256,192,169087,1,8,0:0:0:0:
256,192,169143,1,8,0:0:0:0:
256,192,169199,1,0,0:0:0:0:
256,192,169368,1,8,0:0:0:0:
256,192,169536,1,0,0:0:0:0:
256,192,169620,1,8,0:0:0:0:
256,192,169789,1,0,0:0:0:0:
256,192,169873,1,8,0:0:0:0:
256,192,170042,1,0,0:0:0:0:
256,192,170210,1,8,0:0:0:0:
256,192,170294,1,8,0:0:0:0:
256,192,170379,1,0,0:0:0:0:
256,192,170463,1,0,0:0:0:0:
256,192,170547,1,8,0:0:0:0:
256,192,170716,1,0,0:0:0:0:
256,192,170800,1,8,0:0:0:0:
256,192,170969,1,0,0:0:0:0:
256,192,171053,1,8,0:0:0:0:
256,192,171221,1,0,0:0:0:0:
256,192,171306,1,0,0:0:0:0:
256,192,171390,1,8,0:0:0:0:
256,192,171559,1,0,0:0:0:0:
256,192,171643,1,0,0:0:0:0:
256,192,171727,1,8,0:0:0:0:
256,192,171783,1,8,0:0:0:0:
256,192,171839,1,8,0:0:0:0:
256,192,171896,1,0,0:0:0:0:
256,192,172064,1,8,0:0:0:0:
256,192,172233,1,0,0:0:0:0:
256,192,172317,1,0,0:0:0:0:
256,192,172401,1,0,0:0:0:0:
256,192,172570,1,8,0:0:0:0:
256,192,172738,1,8,0:0:0:0:
256,192,172907,1,0,0:0:0:0:
256,192,173075,1,8,0:0:0:0:
256,192,173160,1,0,0:0:0:0:
256,192,173244,1,0,0:0:0:0:
256,192,173328,1,8,0:0:0:0:
256,192,173497,1,0,0:0:0:0:
256,192,173581,1,0,0:0:0:0:
256,192,173750,1,8,0:0:0:0:
256,192,173834,1,8,0:0:0:0:
256,192,173918,1,0,0:0:0:0:
256,192,174087,1,8,0:0:0:0:
256,192,174255,1,0,0:0:0:0:
256,192,174339,1,8,0:0:0:0:
256,192,174424,1,0,0:0:0:0:
256,192,174480,1,8,0:0:0:0:
256,192,174536,1,8,0:0:0:0:
256,192,174592,1,0,0:0:0:0:
256,192,174761,1,8,0:0:0:0:
256,192,174929,1,0,0:0:0:0:
256,192,175014,1,8,0:0:0:0:
256,192,175182,1,0,0:0:0:0:
256,192,175266,1,8,0:0:0:0:
256,192,175435,1,0,0:0:0:0:
256,192,175603,1,8,0:0:0:0:
256,192,175688,1,0,0:0:0:0:
256,192,175772,1,8,0:0:0:0:
256,192,175856,1,8,0:0:0:0:
256,192,175941,1,0,0:0:0:0:
256,192,176109,1,8,0:0:0:0:
256,192,176193,1,0,0:0:0:0:
256,192,176362,1,8,0:0:0:0:
256,192,176446,1,0,0:0:0:0:
256,192,176615,1,8,0:0:0:0:
256,192,176699,1,0,0:0:0:0:
256,192,176783,1,8,0:0:0:0:
256,192,176952,1,0,0:0:0:0:
256,192,177036,1,0,0:0:0:0:
256,192,177120,1,8,0:0:0:0:
256,192,177177,1,8,0:0:0:0:
256,192,177233,1,8,0:0:0:0:
256,192,177289,1,0,0:0:0:0:
256,192,177457,1,8,0:0:0:0:
256,192,177626,1,0,0:0:0:0:
256,192,177710,1,0,0:0:0:0:
256,192,177794,1,0,0:0:0:0:
256,192,177963,1,12,0:0:0:0:
256,192,178132,1,0,0:0:0:0:
256,192,178300,1,8,0:0:0:0:
256,192,178469,1,0,0:0:0:0:
256,192,178553,1,8,0:0:0:0:
256,192,178637,1,8,0:0:0:0:
256,192,178721,1,0,0:0:0:0:
256,192,178890,1,8,0:0:0:0:
256,192,178974,1,0,0:0:0:0:
256,192,179143,1,8,0:0:0:0:
256,192,179227,1,8,0:0:0:0:
256,192,179311,1,0,0:0:0:0:
256,192,179480,1,8,0:0:0:0:
256,192,179648,1,0,0:0:0:0:
256,192,179733,1,8,0:0:0:0:
256,192,179817,1,0,0:0:0:0:
256,192,179873,1,8,0:0:0:0:
256,192,179929,1,8,0:0:0:0:
256,192,179985,1,0,0:0:0:0:
256,192,180154,1,8,0:0:0:0:
256,192,180323,1,0,0:0:0:0:
256,192,180407,1,8,0:0:0:0:
256,192,180575,1,0,0:0:0:0:
256,192,180660,1,8,0:0:0:0:
256,192,180828,1,0,0:0:0:0:
256,192,180997,1,8,0:0:0:0:
256,192,181081,1,8,0:0:0:0:
256,192,181165,1,0,0:0:0:0:
256,192,181250,1,0,0:0:0:0:
256,192,181334,1,8,0:0:0:0:
256,192,181502,1,0,0:0:0:0:
256,192,181587,1,8,0:0:0:0:
256,192,181755,1,0,0:0:0:0:
256,192,181839,1,8,0:0:0:0:
256,192,182008,1,0,0:0:0:0:
256,192,182092,1,0,0:0:0:0:
256,192,182177,1,8,0:0:0:0:
256,192,182345,1,0,0:0:0:0:
256,192,182429,1,0,0:0:0:0:
256,192,182514,1,8,0:0:0:0:
256,192,182570,1,8,0:0:0:0:
256,192,182626,1,8,0:0:0:0:
256,192,182682,1,0,0:0:0:0:
256,192,182851,1,8,0:0:0:0:
256,192,183019,1,0,0:0:0:0:
256,192,183103,1,0,0:0:0:0:
256,192,183188,1,0,0:0:0:0:
256,192,183356,1,8,0:0:0:0:
256,192,183525,1,8,0:0:0:0:
256,192,183693,1,0,0:0:0:0:
256,192,183862,1,8,0:0:0:0:
256,192,183946,1,0,0:0:0:0:
256,192,184030,1,0,0:0:0:0:
256,192,184115,1,8,0:0:0:0:
256,192,184283,1,0,0:0:0:0:
256,192,184368,1,0,0:0:0:0:
256,192,184536,1,8,0:0:0:0:
256,192,184620,1,8,0:0:0:0:
256,192,184705,1,0,0:0:0:0:
256,192,184873,1,8,0:0:0:0:
256,192,185042,1,0,0:0:0:0:
256,192,185126,1,8,0:0:0:0:
256,192,185210,1,0,0:0:0:0:
256,192,185266,1,8,0:0:0:0:
256,192,185323,1,8,0:0:0:0:
256,192,185379,1,0,0:0:0:0:
256,192,185547,1,8,0:0:0:0:
256,192,185716,1,0,0:0:0:0:
256,192,185800,1,8,0:0:0:0:
256,192,185969,1,0,0:0:0:0:
256,192,186053,1,8,0:0:0:0:
256,192,186221,1,0,0:0:0:0:
256,192,186390,1,8,0:0:0:0:
256,192,186474,1,0,0:0:0:0:
256,192,186559,1,8,0:0:0:0:
256,192,186643,1,8,0:0:0:0:
256,192,186727,1,0,0:0:0:0:
256,192,186896,1,8,0:0:0:0:
256,192,186980,1,0,0:0:0:0:
256,192,187148,1,8,0:0:0:0:
256,192,187233,1,0,0:0:0:0:
256,192,187401,1,8,0:0:0:0:
256,192,187570,1,8,0:0:0:0:
256,192,187738,1,0,0:0:0:0:
256,64,187823,1,0,0:0:0:0:
256,64,187907,1,8,0:0:0:0:
256,64,187963,1,8,0:0:0:0:
256,64,188019,1,8,0:0:0:0:
256,320,188075,1,4,0:0:0:0:
256,320,188412,1,4,0:0:0:0:
242,190,188750,1,12,0:0:0:0:
256,192,189087,1,0,0:0:0:0:
256,192,189339,1,8,0:0:0:0:
256,192,189424,1,8,0:0:0:0:
256,192,189508,1,8,0:0:0:0:
256,192,189592,1,0,0:0:0:0:
256,192,189761,1,8,0:0:0:0:
256,192,189929,1,8,0:0:0:0:
256,192,190098,1,0,0:0:0:0:
256,192,190351,1,8,0:0:0:0:
256,192,190435,1,0,0:0:0:0:
256,192,190603,1,8,0:0:0:0:
256,192,190772,1,0,0:0:0:0:
256,192,190856,1,8,0:0:0:0:
256,192,191025,1,0,0:0:0:0:
256,192,191109,1,8,0:0:0:0:
256,192,191278,1,8,0:0:0:0:
256,192,191362,1,8,0:0:0:0:
256,192,191446,1,0,0:0:0:0:
256,192,191615,1,0,0:0:0:0:
256,192,191783,1,8,0:0:0:0:
256,192,192036,1,8,0:0:0:0:
256,192,192120,1,8,0:0:0:0:
256,192,192205,1,8,0:0:0:0:
256,192,192289,1,0,0:0:0:0:
256,192,192457,1,8,0:0:0:0:
256,192,192626,1,0,0:0:0:0:
256,192,192710,1,0,0:0:0:0:
256,192,192794,1,8,0:0:0:0:
256,192,193132,1,0,0:0:0:0:
256,192,193300,1,0,0:0:0:0:
256,192,193469,1,8,0:0:0:0:
256,192,193637,1,0,0:0:0:0:
256,192,193721,1,0,0:0:0:0:
256,192,193806,1,8,0:0:0:0:
256,192,194143,1,8,0:0:0:0:
256,192,194311,1,0,0:0:0:0:
256,192,194480,1,8,0:0:0:0:
256,192,194648,1,0,0:0:0:0:
256,192,194733,1,8,0:0:0:0:
256,192,194817,1,8,0:0:0:0:
256,192,194901,1,8,0:0:0:0:
256,192,194985,1,0,0:0:0:0:
256,192,195154,1,8,0:0:0:0:
256,192,195323,1,0,0:0:0:0:
256,192,195407,1,8,0:0:0:0:
256,192,195491,1,0,0:0:0:0:
256,192,195660,1,8,0:0:0:0:
256,192,195744,1,8,0:0:0:0:
256,192,195828,1,0,0:0:0:0:
256,192,195997,1,8,0:0:0:0:
256,192,196165,1,0,0:0:0:0:
256,192,196250,1,8,0:0:0:0:
256,192,196334,1,0,0:0:0:0:
256,192,196418,1,0,0:0:0:0:
256,192,196502,1,8,0:0:0:0:
256,192,196671,1,0,0:0:0:0:
242,190,196839,1,8,0:0:0:0:
244,190,196924,1,8,0:0:0:0:
244,190,197008,1,0,0:0:0:0:
244,190,197092,1,0,0:0:0:0:
244,190,197177,1,8,0:0:0:0:
244,190,197261,1,0,0:0:0:0:
244,190,197345,1,8,0:0:0:0:
244,190,197429,1,8,0:0:0:0:
244,190,197514,1,0,0:0:0:0:
244,190,197598,1,8,0:0:0:0:
244,190,197682,1,0,0:0:0:0:
244,190,197766,1,0,0:0:0:0:
244,190,197851,1,8,0:0:0:0:
244,190,197935,1,8,0:0:0:0:
244,190,198019,1,8,0:0:0:0:
244,190,198103,1,8,0:0:0:0:
244,190,198188,1,4,0:0:0:0:
244,190,199199,1,12,0:0:0:0:
244,190,199536,1,4,0:0:0:0:
256,192,199873,1,8,0:0:0:0:
256,192,200042,1,0,0:0:0:0:
256,192,200126,1,0,0:0:0:0:
256,192,200210,1,0,0:0:0:0:
256,192,200379,1,8,0:0:0:0:
256,192,200547,1,0,0:0:0:0:
256,192,200632,1,0,0:0:0:0:
256,192,200716,1,8,0:0:0:0:
256,192,200800,1,8,0:0:0:0:
256,192,200884,1,0,0:0:0:0:
256,192,201053,1,8,0:0:0:0:
256,192,201137,1,8,0:0:0:0:
256,192,201221,1,8,0:0:0:0:
256,192,201390,1,0,0:0:0:0:
256,192,201559,1,8,0:0:0:0:
256,192,201643,1,8,0:0:0:0:
256,192,201727,1,0,0:0:0:0:
256,192,201896,1,8,0:0:0:0:
256,192,202064,1,0,0:0:0:0:
256,192,202148,1,0,0:0:0:0:
256,192,202233,1,8,0:0:0:0:
256,192,202570,1,8,0:0:0:0:
256,192,202738,1,0,0:0:0:0:
256,192,202823,1,0,0:0:0:0:
256,192,202991,1,0,0:0:0:0:
256,192,203075,1,8,0:0:0:0:
256,192,203244,1,0,0:0:0:0:
256,192,203328,1,8,0:0:0:0:
256,192,203412,1,0,0:0:0:0:
256,192,203497,1,0,0:0:0:0:
256,192,203581,1,8,0:0:0:0:
256,192,203750,1,0,0:0:0:0:
256,192,203834,1,0,0:0:0:0:
256,192,203918,1,8,0:0:0:0:
256,192,204002,1,0,0:0:0:0:
256,192,204087,1,8,0:0:0:0:
256,192,204255,1,0,0:0:0:0:
256,192,204424,1,8,0:0:0:0:
256,192,204592,1,0,0:0:0:0:
256,192,204761,1,8,0:0:0:0:
256,192,204929,1,0,0:0:0:0:
256,192,205266,1,8,0:0:0:0:
256,192,205435,1,0,0:0:0:0:
256,192,205519,1,8,0:0:0:0:
256,192,205603,1,0,0:0:0:0:
256,192,205772,1,8,0:0:0:0:
256,192,205941,1,0,0:0:0:0:
256,192,206025,1,8,0:0:0:0:
256,192,206109,1,8,0:0:0:0:
256,192,206193,1,8,0:0:0:0:
256,192,206278,1,0,0:0:0:0:
256,192,206446,1,8,0:0:0:0:
256,192,206530,1,8,0:0:0:0:
256,192,206615,1,0,0:0:0:0:
256,192,206783,1,0,0:0:0:0:
256,192,206952,1,8,0:0:0:0:
256,192,207036,1,8,0:0:0:0:
256,192,207120,1,8,0:0:0:0:
256,192,207289,1,0,0:0:0:0:
256,192,207457,1,0,0:0:0:0:
256,192,207542,1,0,0:0:0:0:
256,192,207626,1,8,0:0:0:0:
256,192,207963,1,8,0:0:0:0:
256,192,208132,1,0,0:0:0:0:
256,192,208216,1,0,0:0:0:0:
256,192,208384,1,0,0:0:0:0:
256,192,208469,1,8,0:0:0:0:
256,192,208637,1,0,0:0:0:0:
256,192,208721,1,8,0:0:0:0:
256,192,208806,1,0,0:0:0:0:
256,192,208890,1,0,0:0:0:0:
256,192,208974,1,8,0:0:0:0:
256,192,209143,1,0,0:0:0:0:
256,192,209227,1,0,0:0:0:0:
256,192,209311,1,8,0:0:0:0:
256,192,209396,1,0,0:0:0:0:
256,192,209480,1,8,0:0:0:0:
256,192,209648,1,0,0:0:0:0:
256,192,209733,1,0,0:0:0:0:
256,192,209817,1,8,0:0:0:0:
256,192,209985,1,0,0:0:0:0:
256,192,210070,1,0,0:0:0:0:
256,192,210154,1,8,0:0:0:0:
256,192,210323,1,4,0:0:0:0:
256,192,210491,1,8,0:0:0:0:
256,192,210660,1,0,0:0:0:0:
256,192,210744,1,8,0:0:0:0:
256,192,210912,1,8,0:0:0:0:
256,192,210997,1,0,0:0:0:0:
256,192,211081,1,0,0:0:0:0:
256,192,211165,1,8,0:0:0:0:
256,192,211334,1,0,0:0:0:0:
256,192,211418,1,0,0:0:0:0:
256,192,211502,1,8,0:0:0:0:
256,192,211671,1,0,0:0:0:0:
256,192,211839,1,8,0:0:0:0:
256,192,212008,1,0,0:0:0:0:
256,192,212092,1,8,0:0:0:0:
256,192,212177,1,0,0:0:0:0:
256,192,212345,1,8,0:0:0:0:
256,192,212429,1,8,0:0:0:0:
256,192,212514,1,0,0:0:0:0:
256,192,212598,1,0,0:0:0:0:
256,192,212682,1,8,0:0:0:0:
256,192,212851,1,8,0:0:0:0:
256,192,212935,1,8,0:0:0:0:
256,192,213019,1,0,0:0:0:0:
256,192,213188,1,8,0:0:0:0:
256,192,213356,1,0,0:0:0:0:
256,192,213441,1,8,0:0:0:0:
256,192,213609,1,0,0:0:0:0:
256,192,213693,1,8,0:0:0:0:
256,192,213778,1,8,0:0:0:0:
256,192,213862,1,0,0:0:0:0:
256,192,214030,1,8,0:0:0:0:
256,192,214115,1,0,0:0:0:0:
256,192,214199,1,8,0:0:0:0:
256,192,214368,1,0,0:0:0:0:
256,192,214536,1,8,0:0:0:0:
256,192,214705,1,0,0:0:0:0:
256,192,214789,1,8,0:0:0:0:
256,192,214873,1,0,0:0:0:0:
256,192,214957,1,0,0:0:0:0:
256,192,215042,1,8,0:0:0:0:
256,192,215210,1,8,0:0:0:0:
256,192,215294,1,8,0:0:0:0:
256,192,215379,1,0,0:0:0:0:
256,192,215463,1,8,0:0:0:0:
256,192,215547,1,0,0:0:0:0:
256,192,215716,1,8,0:0:0:0:
256,192,215884,1,0,0:0:0:0:
256,192,216053,1,8,0:0:0:0:
256,192,216137,1,8,0:0:0:0:
256,192,216306,1,0,0:0:0:0:
256,192,216390,1,8,0:0:0:0:
256,192,216474,1,8,0:0:0:0:
256,192,216559,1,0,0:0:0:0:
256,192,216727,1,8,0:0:0:0:
256,192,216811,1,8,0:0:0:0:
256,192,216896,1,8,0:0:0:0:
256,192,217064,1,0,0:0:0:0:
256,192,217233,1,8,0:0:0:0:
256,192,217401,1,0,0:0:0:0:
256,192,217485,1,8,0:0:0:0:
256,192,217570,1,0,0:0:0:0:
256,192,217738,1,8,0:0:0:0:
256,192,217823,1,0,0:0:0:0:
256,192,217907,1,0,0:0:0:0:
256,192,217991,1,0,0:0:0:0:
256,192,218075,1,8,0:0:0:0:
256,192,218244,1,0,0:0:0:0:
256,192,218328,1,0,0:0:0:0:
256,192,218412,1,0,0:0:0:0:
256,192,218581,1,8,0:0:0:0:
256,192,218750,1,0,0:0:0:0:
256,192,218834,1,8,0:0:0:0:
256,192,219002,1,0,0:0:0:0:
256,192,219087,1,8,0:0:0:0:
256,192,219171,1,8,0:0:0:0:
256,192,219255,1,0,0:0:0:0:
256,192,219424,1,8,0:0:0:0:
256,192,219508,1,8,0:0:0:0:
256,192,219592,1,8,0:0:0:0:
256,192,219761,1,0,0:0:0:0:
256,192,219929,1,8,0:0:0:0:
256,192,220098,1,0,0:0:0:0:
256,192,220182,1,0,0:0:0:0:
256,192,220266,1,0,0:0:0:0:
256,192,220351,1,0,0:0:0:0:
256,192,220435,1,8,0:0:0:0:
256,192,220603,1,0,0:0:0:0:
256,192,220688,1,0,0:0:0:0:
256,192,220772,1,8,0:0:0:0:
256,192,220856,1,8,0:0:0:0:
256,192,220941,1,0,0:0:0:0:
256,192,221109,1,8,0:0:0:0:
256,192,221278,1,0,0:0:0:0:
256,192,221446,1,8,0:0:0:0:
256,192,221530,1,8,0:0:0:0:
256,192,221615,1,0,0:0:0:0:
256,192,221699,1,0,0:0:0:0:
256,192,221783,1,8,0:0:0:0:
256,192,221952,1,0,0:0:0:0:
256,192,222036,1,0,0:0:0:0:
256,192,222120,1,8,0:0:0:0:
256,192,222289,1,8,0:0:0:0:
256,192,222457,1,0,0:0:0:0:
256,192,222626,1,8,0:0:0:0:
256,192,222710,1,8,0:0:0:0:
256,192,222794,1,0,0:0:0:0:
256,192,222879,1,8,0:0:0:0:
256,192,222963,1,0,0:0:0:0:
256,192,223132,1,8,0:0:0:0:
256,192,223216,1,0,0:0:0:0:
256,192,223384,1,8,0:0:0:0:
256,192,223469,1,8,0:0:0:0:
256,192,223637,1,0,0:0:0:0:
256,192,223721,1,0,0:0:0:0:
256,192,223806,1,0,0:0:0:0:
256,192,223974,1,8,0:0:0:0:
256,192,224143,1,0,0:0:0:0:
256,192,224227,1,8,0:0:0:0:
256,192,224396,1,8,0:0:0:0:
256,192,224480,1,8,0:0:0:0:
256,192,224648,1,0,0:0:0:0:
256,192,224733,1,0,0:0:0:0:
256,192,224817,1,8,0:0:0:0:
256,192,224901,1,0,0:0:0:0:
256,192,224985,1,8,0:0:0:0:
256,192,225070,1,8,0:0:0:0:
256,192,225154,1,0,0:0:0:0:
256,192,225323,1,8,0:0:0:0:
256,192,225491,1,0,0:0:0:0:
256,192,225575,1,0,0:0:0:0:
256,192,225660,1,8,0:0:0:0:
256,192,225744,1,8,0:0:0:0:
256,192,225828,1,0,0:0:0:0:
256,192,225997,1,8,0:0:0:0:
256,192,226081,1,8,0:0:0:0:
256,192,226165,1,8,0:0:0:0:
256,192,226334,1,0,0:0:0:0:
256,192,226418,1,0,0:0:0:0:
256,64,226502,1,8,0:0:0:0:
256,192,226671,1,0,0:0:0:0:
256,192,226839,1,8,0:0:0:0:
256,192,227008,1,0,0:0:0:0:
256,192,227092,1,0,0:0:0:0:
256,192,227177,1,8,0:0:0:0:
256,64,227261,1,8,0:0:0:0:
256,192,227345,1,0,0:0:0:0:
256,192,227514,1,8,0:0:0:0:
256,192,227598,1,8,0:0:0:0:
256,192,227682,1,8,0:0:0:0:
256,192,227766,1,8,0:0:0:0:
256,192,227851,1,0,0:0:0:0:
256,192,228019,1,8,0:0:0:0:
256,192,228103,1,0,0:0:0:0:
256,192,228188,1,0,0:0:0:0:
256,192,228272,1,0,0:0:0:0:
256,192,228356,1,8,0:0:0:0:
256,192,228525,1,0,0:0:0:0:
256,192,228609,1,8,0:0:0:0:
256,192,228693,1,0,0:0:0:0:
256,192,228778,1,0,0:0:0:0:
256,192,228862,1,8,0:0:0:0:
256,192,229030,1,8,0:0:0:0:
256,192,229199,1,0,0:0:0:0:
256,192,229283,1,0,0:0:0:0:
256,192,229368,1,8,0:0:0:0:
256,192,229452,1,8,0:0:0:0:
256,192,229536,1,0,0:0:0:0:
256,192,229620,1,0,0:0:0:0:
256,192,229705,1,8,0:0:0:0:
256,192,229789,1,0,0:0:0:0:
256,192,229873,1,8,0:0:0:0:
256,192,229957,1,8,0:0:0:0:
256,192,230042,1,0,0:0:0:0:
256,192,230126,1,8,0:0:0:0:
256,192,230210,1,8,0:0:0:0:
256,192,230294,1,0,0:0:0:0:
256,192,230379,1,8,0:0:0:0:
256,192,230463,1,8,0:0:0:0:
256,192,230547,1,0,0:0:0:0:
256,192,230632,1,0,0:0:0:0:
256,192,230716,1,8,0:0:0:0:
256,192,230800,1,8,0:0:0:0:
256,192,230884,1,0,0:0:0:0:
256,192,230969,1,0,0:0:0:0:
256,192,231053,1,8,0:0:0:0:
256,192,231137,1,0,0:0:0:0:
256,192,231221,1,8,0:0:0:0:
256,192,231306,1,8,0:0:0:0:
256,192,231390,1,0,0:0:0:0:
256,192,231474,1,8,0:0:0:0:
256,192,231559,1,8,0:0:0:0:
256,192,231643,1,0,0:0:0:0:
256,192,231727,1,8,0:0:0:0:
256,192,231811,1,8,0:0:0:0:
256,192,231896,1,4,0:0:0:0:
256,192,232064,8,0,233244,0:0:0:0:
256,192,233581,5,0,0:0:0:0:
256,192,233750,1,0,0:0:0:0:
256,192,233918,1,8,0:0:0:0:
256,192,234087,1,8,0:0:0:0:
256,192,234171,1,0,0:0:0:0:
256,192,234255,1,0,0:0:0:0:
256,192,234339,1,0,0:0:0:0:
256,192,234424,1,8,0:0:0:0:
256,192,234592,1,8,0:0:0:0:
256,192,234677,1,0,0:0:0:0:
256,192,234761,1,8,0:0:0:0:
256,192,234845,1,8,0:0:0:0:
256,192,234929,1,0,0:0:0:0:
256,192,235098,1,8,0:0:0:0:
256,192,235266,1,0,0:0:0:0:
256,192,235351,1,8,0:0:0:0:
256,192,235435,1,0,0:0:0:0:
256,192,235519,1,0,0:0:0:0:
256,192,235603,1,8,0:0:0:0:
256,192,235688,1,0,0:0:0:0:
256,192,235772,1,8,0:0:0:0:
249,187,235941,1,0,0:0:0:0:
258,197,236109,1,8,0:0:0:0:
256,192,236278,1,0,0:0:0:0:
258,197,236446,1,0,0:0:0:0:
256,195,236615,1,8,0:0:0:0:
256,192,236783,1,0,0:0:0:0:
256,192,236868,1,8,0:0:0:0:
259,191,236952,1,0,0:0:0:0:
258,197,237120,1,0,0:0:0:0:
256,192,237205,1,0,0:0:0:0:
256,192,237289,1,12,0:0:0:0:
256,192,237457,1,0,0:0:0:0:
256,192,237626,1,8,0:0:0:0:
256,192,237794,1,0,0:0:0:0:
256,192,237879,1,8,0:0:0:0:
256,192,237963,1,0,0:0:0:0:
256,192,238047,1,0,0:0:0:0:
256,192,238132,1,8,0:0:0:0:
256,192,238216,1,0,0:0:0:0:
256,192,238300,1,8,0:0:0:0:
256,192,238469,1,8,0:0:0:0:
256,192,238553,1,8,0:0:0:0:
256,192,238637,1,0,0:0:0:0:
256,192,238806,1,8,0:0:0:0:
256,192,238890,1,8,0:0:0:0:
256,192,238974,1,0,0:0:0:0:
256,192,239059,1,0,0:0:0:0:
256,192,239143,1,8,0:0:0:0:
256,192,239311,1,0,0:0:0:0:
256,192,239396,1,8,0:0:0:0:
256,192,239480,1,0,0:0:0:0:
256,192,239564,1,0,0:0:0:0:
256,192,239648,1,8,0:0:0:0:
256,192,239733,1,0,0:0:0:0:
256,192,239817,1,8,0:0:0:0:
256,192,239985,1,0,0:0:0:0:
256,192,240154,1,0,0:0:0:0:
256,192,240323,1,8,0:0:0:0:
256,192,240407,1,0,0:0:0:0:
256,192,240491,1,8,0:0:0:0:
256,192,240575,1,8,0:0:0:0:
256,192,240660,1,0,0:0:0:0:
256,192,240828,1,8,0:0:0:0:
256,192,240912,1,8,0:0:0:0:
256,192,240997,1,0,0:0:0:0:
256,192,241081,1,0,0:0:0:0:
256,192,241165,1,8,0:0:0:0:
256,192,241334,1,0,0:0:0:0:
256,192,241418,1,0,0:0:0:0:
256,192,241502,1,8,0:0:0:0:
256,192,241587,1,0,0:0:0:0:
256,192,241671,1,8,0:0:0:0:
256,192,241755,1,8,0:0:0:0:
256,192,241839,1,0,0:0:0:0:
265,192,242008,1,8,0:0:0:0:
256,192,242092,1,8,0:0:0:0:
256,192,242177,1,8,0:0:0:0:
256,192,242261,1,0,0:0:0:0:
263,192,242345,1,8,0:0:0:0:
256,192,242429,1,8,0:0:0:0:
256,192,242514,1,0,0:0:0:0:
256,192,242682,1,8,0:0:0:0:
256,192,242851,1,0,0:0:0:0:
256,192,243019,1,8,0:0:0:0:
256,192,243188,1,0,0:0:0:0:
256,192,243272,1,0,0:0:0:0:
256,192,243356,1,8,0:0:0:0:
256,192,243441,1,8,0:0:0:0:
256,192,243525,1,0,0:0:0:0:
256,192,243609,1,0,0:0:0:0:
256,192,243693,1,8,0:0:0:0:
256,192,243862,1,0,0:0:0:0:
256,192,243946,1,0,0:0:0:0:
256,192,244030,1,0,0:0:0:0:
256,192,244199,1,8,0:0:0:0:
256,192,244283,1,0,0:0:0:0:
256,192,244368,1,0,0:0:0:0:
256,192,244452,1,0,0:0:0:0:
256,192,244536,1,8,0:0:0:0:
256,192,244705,1,0,0:0:0:0:
256,192,244789,1,8,0:0:0:0:
256,192,244873,1,0,0:0:0:0:
256,192,244957,1,8,0:0:0:0:
256,192,245042,1,8,0:0:0:0:
256,192,245126,1,8,0:0:0:0:
256,192,245210,1,0,0:0:0:0:
256,192,245379,1,8,0:0:0:0:
256,192,245547,1,8,0:0:0:0:
256,192,245716,1,0,0:0:0:0:
256,192,245800,1,8,0:0:0:0:
256,192,245884,1,8,0:0:0:0:
256,192,245969,1,8,0:0:0:0:
256,192,246053,1,0,0:0:0:0:
256,192,246221,1,8,0:0:0:0:
256,192,246306,1,0,0:0:0:0:
256,192,246390,1,8,0:0:0:0:
256,192,246474,1,8,0:0:0:0:
256,192,246559,1,0,0:0:0:0:
256,192,246727,1,8,0:0:0:0:
256,192,246811,1,8,0:0:0:0:
256,192,246896,1,0,0:0:0:0:
256,192,246980,1,0,0:0:0:0:
256,192,247064,1,8,0:0:0:0:
256,192,247233,1,8,0:0:0:0:
256,192,247317,1,0,0:0:0:0:
265,192,247401,1,8,0:0:0:0:
256,192,247485,1,8,0:0:0:0:
256,192,247570,1,8,0:0:0:0:
256,192,247654,1,0,0:0:0:0:
263,192,247738,1,8,0:0:0:0:
256,192,247907,1,0,0:0:0:0:
256,192,248075,1,12,0:0:0:0:
256,192,248244,1,0,0:0:0:0:
256,192,248412,1,8,0:0:0:0:
256,192,248581,1,0,0:0:0:0:
256,192,248665,1,8,0:0:0:0:
256,192,248750,1,8,0:0:0:0:
256,192,248834,1,8,0:0:0:0:
256,192,248918,1,0,0:0:0:0:
256,192,249002,1,8,0:0:0:0:
256,192,249087,1,0,0:0:0:0:
256,192,249255,1,8,0:0:0:0:
256,192,249339,1,8,0:0:0:0:
256,192,249424,1,8,0:0:0:0:
256,192,249592,1,0,0:0:0:0:
256,192,249677,1,0,0:0:0:0:
256,192,249761,1,8,0:0:0:0:
256,192,249845,1,0,0:0:0:0:
256,192,249929,1,8,0:0:0:0:
256,192,250098,1,0,0:0:0:0:
256,192,250182,1,8,0:0:0:0:
256,192,250266,1,8,0:0:0:0:
256,192,250351,1,0,0:0:0:0:
256,192,250435,1,8,0:0:0:0:
256,192,250519,1,8,0:0:0:0:
256,192,250603,1,0,0:0:0:0:
256,192,250772,1,8,0:0:0:0:
256,192,250941,1,0,0:0:0:0:
256,192,251109,1,8,0:0:0:0:
256,192,251193,1,0,0:0:0:0:
256,192,251278,1,8,0:0:0:0:
256,192,251362,1,8,0:0:0:0:
256,192,251446,1,0,0:0:0:0:
256,192,251615,1,0,0:0:0:0:
256,192,251699,1,0,0:0:0:0:
256,192,251783,1,8,0:0:0:0:
256,192,251868,1,0,0:0:0:0:
256,192,251952,1,8,0:0:0:0:
256,192,252120,1,0,0:0:0:0:
256,192,252205,1,0,0:0:0:0:
256,192,252289,1,0,0:0:0:0:
256,192,252373,1,0,0:0:0:0:
256,192,252457,1,8,0:0:0:0:
256,192,252626,1,0,0:0:0:0:
256,192,252710,1,0,0:0:0:0:
265,192,252794,1,8,0:0:0:0:
256,192,252879,1,8,0:0:0:0:
256,192,252963,1,0,0:0:0:0:
256,192,253047,1,0,0:0:0:0:
263,192,253132,1,8,0:0:0:0:
256,192,253216,1,8,0:0:0:0:
256,192,253300,1,0,0:0:0:0:
256,192,253469,1,8,0:0:0:0:
256,192,253637,1,0,0:0:0:0:
256,192,253806,1,8,0:0:0:0:
256,192,253974,1,0,0:0:0:0:
256,64,254059,1,0,0:0:0:0:
256,64,254143,1,8,0:0:0:0:
256,64,254227,1,8,0:0:0:0:
256,64,254311,1,0,0:0:0:0:
256,64,254396,1,0,0:0:0:0:
256,64,254480,1,8,0:0:0:0:
256,64,254648,1,0,0:0:0:0:
256,64,254733,1,8,0:0:0:0:
256,64,254817,1,0,0:0:0:0:
256,64,254985,1,8,0:0:0:0:
256,192,255070,1,8,0:0:0:0:
256,64,255154,1,0,0:0:0:0:
256,64,255238,1,0,0:0:0:0:
256,64,255323,1,8,0:0:0:0:
256,64,255491,1,0,0:0:0:0:
256,192,255575,1,8,0:0:0:0:
256,64,255660,1,0,0:0:0:0:
256,192,255744,1,0,0:0:0:0:
256,192,255828,1,8,0:0:0:0:
256,64,255912,1,0,0:0:0:0:
256,192,255997,1,8,0:0:0:0:
256,192,256165,1,0,0:0:0:0:
256,192,256250,1,0,0:0:0:0:
256,192,256334,1,0,0:0:0:0:
256,192,256502,1,8,0:0:0:0:
256,192,256587,1,8,0:0:0:0:
256,192,256671,1,8,0:0:0:0:
256,192,256755,1,8,0:0:0:0:
256,192,256839,1,0,0:0:0:0:
256,192,257008,1,0,0:0:0:0:
256,192,257092,1,0,0:0:0:0:
256,192,257177,1,8,0:0:0:0:
256,192,257261,1,0,0:0:0:0:
256,192,257345,1,8,0:0:0:0:
256,192,257429,1,8,0:0:0:0:
256,192,257514,1,4,0:0:0:0:
250,194,257851,1,8,0:0:0:0:
250,194,258019,1,0,0:0:0:0:
250,194,258103,1,0,0:0:0:0:
250,194,258188,1,8,0:0:0:0:
256,192,258272,1,8,0:0:0:0:
256,192,258356,1,0,0:0:0:0:
256,192,258525,1,12,0:0:0:0:
256,192,258862,1,4,0:0:0:0:
250,194,259030,1,8,0:0:0:0:
250,194,259115,1,8,0:0:0:0:
250,194,259199,1,0,0:0:0:0:
256,192,259283,1,8,0:0:0:0:
256,192,259368,1,0,0:0:0:0:
256,192,259452,1,0,0:0:0:0:
256,192,259536,1,8,0:0:0:0:
256,192,259705,1,0,0:0:0:0:
256,192,259789,1,8,0:0:0:0:
256,192,259873,1,0,0:0:0:0:
250,194,259957,1,0,0:0:0:0:
250,194,260042,1,8,0:0:0:0:
256,192,260210,1,0,0:0:0:0:
256,192,260379,1,8,0:0:0:0:
256,192,260463,1,8,0:0:0:0:
256,192,260547,1,0,0:0:0:0:
256,192,260632,1,8,0:0:0:0:
256,192,260716,1,8,0:0:0:0:
256,192,260800,1,0,0:0:0:0:
256,192,260884,1,8,0:0:0:0:
256,192,261053,1,0,0:0:0:0:
256,192,261137,1,0,0:0:0:0:
256,192,261221,1,8,0:0:0:0:
256,192,261306,1,0,0:0:0:0:
256,192,261390,1,8,0:0:0:0:
256,192,261559,1,0,0:0:0:0:
248,179,261643,1,0,0:0:0:0:
256,192,261727,1,8,0:0:0:0:
256,192,261811,1,0,0:0:0:0:
256,192,261896,1,8,0:0:0:0:
256,192,261980,1,8,0:0:0:0:
256,192,262064,1,0,0:0:0:0:
256,192,262233,1,8,0:0:0:0:
256,192,262317,1,8,0:0:0:0:
256,192,262401,1,0,0:0:0:0:
256,192,262485,1,0,0:0:0:0:
256,192,262570,1,8,0:0:0:0:
256,192,262738,1,8,0:0:0:0:
256,192,262907,1,0,0:0:0:0:
256,192,262991,1,8,0:0:0:0:
256,192,263075,1,0,0:0:0:0:
256,192,263160,1,0,0:0:0:0:
256,192,263244,1,8,0:0:0:0:
256,192,263328,1,8,0:0:0:0:
256,192,263412,1,0,0:0:0:0:
256,192,263581,1,8,0:0:0:0:
256,192,263750,1,0,0:0:0:0:
256,192,263834,1,8,0:0:0:0:
256,192,263918,1,0,0:0:0:0:
256,192,264002,1,8,0:0:0:0:
256,192,264087,1,8,0:0:0:0:
256,192,264255,1,0,0:0:0:0:
256,192,264424,1,8,0:0:0:0:
256,192,264508,1,8,0:0:0:0:
256,192,264592,1,0,0:0:0:0:
256,192,264677,1,8,0:0:0:0:
256,192,264761,1,8,0:0:0:0:
256,192,264929,1,8,0:0:0:0:
256,192,265098,1,0,0:0:0:0:
256,192,265182,1,8,0:0:0:0:
256,192,265266,1,8,0:0:0:0:
256,192,265351,1,8,0:0:0:0:
256,192,265435,1,0,0:0:0:0:
256,192,265603,1,8,0:0:0:0:
256,192,265772,1,0,0:0:0:0:
256,192,265856,1,8,0:0:0:0:
256,192,265941,1,0,0:0:0:0:
256,192,266025,1,0,0:0:0:0:
256,192,266109,1,8,0:0:0:0:
256,192,266278,1,8,0:0:0:0:
256,192,266362,1,0,0:0:0:0:
256,192,266446,1,0,0:0:0:0:
256,192,266530,1,8,0:0:0:0:
256,192,266615,1,0,0:0:0:0:
256,192,266699,1,0,0:0:0:0:
256,192,266783,1,8,0:0:0:0:
256,192,266952,1,0,0:0:0:0:
256,192,267036,1,0,0:0:0:0:
256,192,267120,1,8,0:0:0:0:
256,192,267289,1,8,0:0:0:0:
256,192,267373,1,8,0:0:0:0:
256,192,267457,1,0,0:0:0:0:
256,192,267542,1,0,0:0:0:0:
256,192,267626,1,8,0:0:0:0:
256,192,267794,1,0,0:0:0:0:
256,192,267879,1,8,0:0:0:0:
256,192,267963,1,0,0:0:0:0:
256,192,268047,1,0,0:0:0:0:
256,192,268132,1,8,0:0:0:0:
256,192,268300,1,0,0:0:0:0:
256,192,268469,1,0,0:0:0:0:
256,192,268637,1,8,0:0:0:0:
256,192,268806,1,0,0:0:0:0:
256,192,268890,1,0,0:0:0:0:
256,192,268974,1,8,0:0:0:0:
256,192,269059,1,0,0:0:0:0:
256,192,269143,1,8,0:0:0:0:
256,192,269227,1,8,0:0:0:0:
256,192,269311,1,0,0:0:0:0:
256,192,269396,1,8,0:0:0:0:
256,192,269480,1,0,0:0:0:0:
256,320,269648,1,12,0:0:0:0:
256,192,269817,1,0,0:0:0:0:
256,192,269901,1,0,0:0:0:0:
256,192,269985,1,8,0:0:0:0:
256,192,270070,1,0,0:0:0:0:
256,192,270154,1,8,0:0:0:0:
256,192,270238,1,8,0:0:0:0:
256,192,270323,1,8,0:0:0:0:
256,192,270491,1,0,0:0:0:0:
255,192,270575,1,8,0:0:0:0:
255,192,270660,1,8,0:0:0:0:
256,192,270744,1,8,0:0:0:0:
256,192,270828,1,0,0:0:0:0:
255,192,270997,1,8,0:0:0:0:
256,192,271081,1,8,0:0:0:0:
256,192,271165,1,0,0:0:0:0:
256,192,271250,1,0,0:0:0:0:
256,192,271334,1,8,0:0:0:0:
256,192,271418,1,8,0:0:0:0:
256,192,271502,1,0,0:0:0:0:
255,192,271587,1,0,0:0:0:0:
255,192,271671,1,8,0:0:0:0:
256,192,271839,1,0,0:0:0:0:
255,192,271924,1,0,0:0:0:0:
255,192,272008,1,8,0:0:0:0:
256,192,272092,1,0,0:0:0:0:
256,192,272177,1,8,0:0:0:0:
255,192,272345,1,0,0:0:0:0:
256,192,272514,1,8,0:0:0:0:
255,192,272598,1,0,0:0:0:0:
255,192,272682,1,8,0:0:0:0:
256,192,272766,1,8,0:0:0:0:
256,192,272851,1,0,0:0:0:0:
255,192,272935,1,0,0:0:0:0:
255,192,273019,1,8,0:0:0:0:
256,192,273103,1,8,0:0:0:0:
256,192,273188,1,0,0:0:0:0:
255,192,273272,1,8,0:0:0:0:
255,192,273356,1,0,0:0:0:0:
256,192,273525,1,8,0:0:0:0:
255,192,273693,1,0,0:0:0:0:
256,192,273778,1,0,0:0:0:0:
256,192,273862,1,8,0:0:0:0:
255,192,273946,1,0,0:0:0:0:
255,192,274030,1,8,0:0:0:0:
256,192,274115,1,8,0:0:0:0:
256,192,274199,1,0,0:0:0:0:
255,192,274368,1,8,0:0:0:0:
256,192,274452,1,8,0:0:0:0:
256,192,274536,1,0,0:0:0:0:
255,192,274620,1,8,0:0:0:0:
255,192,274705,1,8,0:0:0:0:
256,192,274789,1,0,0:0:0:0:
256,192,274873,1,8,0:0:0:0:
255,192,275042,1,0,0:0:0:0:
256,192,275126,1,8,0:0:0:0:
256,192,275210,1,0,0:0:0:0:
255,192,275294,1,0,0:0:0:0:
255,192,275379,1,8,0:0:0:0:
256,192,275463,1,8,0:0:0:0:
256,192,275547,1,0,0:0:0:0:
255,192,275716,1,8,0:0:0:0:
256,192,275800,1,8,0:0:0:0:
256,192,275884,1,0,0:0:0:0:
256,192,275969,1,8,0:0:0:0:
255,192,276053,1,8,0:0:0:0:
256,192,276137,1,0,0:0:0:0:
256,192,276221,1,8,0:0:0:0:
255,192,276390,1,0,0:0:0:0:
256,192,276474,1,0,0:0:0:0:
256,192,276559,1,8,0:0:0:0:
246,192,276643,1,0,0:0:0:0:
255,192,276727,1,0,0:0:0:0:
256,192,276811,1,8,0:0:0:0:
246,192,276896,1,0,0:0:0:0:
255,192,276980,1,0,0:0:0:0:
255,192,277064,1,8,0:0:0:0:
246,192,277233,1,0,0:0:0:0:
246,192,277317,1,0,0:0:0:0:
246,192,277401,1,8,0:0:0:0:
256,192,277485,1,0,0:0:0:0:
246,192,277570,1,8,0:0:0:0:
255,192,277738,1,4,0:0:0:0:
246,192,277907,1,8,0:0:0:0:
246,192,278075,1,8,0:0:0:0:
256,192,278160,1,8,0:0:0:0:
246,192,278244,1,8,0:0:0:0:
255,192,278412,1,0,0:0:0:0:
256,192,278497,1,8,0:0:0:0:
246,192,278581,1,0,0:0:0:0:
255,192,278665,1,0,0:0:0:0:
246,192,278750,1,8,0:0:0:0:
246,192,278918,1,8,0:0:0:0:
255,192,279087,1,4,0:0:0:0:
246,192,279255,1,8,0:0:0:0:
245,192,279424,1,8,0:0:0:0:
256,192,279508,1,8,0:0:0:0:
246,192,279592,1,8,0:0:0:0:
255,192,279761,1,0,0:0:0:0:
246,192,279845,1,8,0:0:0:0:
245,192,280014,1,0,0:0:0:0:
255,192,280098,1,12,0:0:0:0:
245,192,280435,1,12,0:0:0:0:
246,192,280603,1,0,0:0:0:0:
255,192,280772,1,8,0:0:0:0:
246,192,280856,1,8,0:0:0:0:
246,192,280941,1,0,0:0:0:0:
245,192,281025,1,0,0:0:0:0:
245,192,281109,1,8,0:0:0:0:
256,192,281278,1,8,0:0:0:0:
256,192,281362,1,0,0:0:0:0:
256,192,281446,1,8,0:0:0:0:
256,192,281530,1,8,0:0:0:0:
255,192,281615,1,0,0:0:0:0:
256,192,281699,1,8,0:0:0:0:
244,192,281783,1,0,0:0:0:0:
246,192,281952,1,8,0:0:0:0:
245,192,282120,1,0,0:0:0:0:
245,192,282205,1,8,0:0:0:0:
245,192,282289,1,0,0:0:0:0:
245,192,282373,1,0,0:0:0:0:
245,192,282457,1,8,0:0:0:0:
255,192,282626,1,0,0:0:0:0:
244,192,282710,1,0,0:0:0:0:
244,192,282794,1,8,0:0:0:0:
246,192,282879,1,0,0:0:0:0:
246,192,282963,1,8,0:0:0:0:
245,192,283132,1,0,0:0:0:0:
245,192,283300,1,0,0:0:0:0:
245,192,283469,1,8,0:0:0:0:
255,192,283553,1,0,0:0:0:0:
255,192,283637,1,0,0:0:0:0:
244,192,283721,1,0,0:0:0:0:
244,192,283806,1,8,0:0:0:0:
246,192,283974,1,0,0:0:0:0:
245,192,284059,1,8,0:0:0:0:
245,192,284143,1,8,0:0:0:0:
256,192,284227,1,8,0:0:0:0:
245,192,284311,1,0,0:0:0:0:
245,192,284480,1,8,0:0:0:0:
245,192,284564,1,8,0:0:0:0:
245,192,284648,1,0,0:0:0:0:
244,192,284733,1,0,0:0:0:0:
244,192,284817,1,8,0:0:0:0:
256,192,284901,1,0,0:0:0:0:
246,192,284985,1,8,0:0:0:0:
245,192,285154,1,0,0:0:0:0:
245,192,285238,1,0,0:0:0:0:
245,192,285323,1,8,0:0:0:0:
245,192,285407,1,0,0:0:0:0:
245,192,285491,1,8,0:0:0:0:
245,192,285575,1,8,0:0:0:0:
245,192,285660,1,0,0:0:0:0:
244,192,285744,1,0,0:0:0:0:
244,192,285828,1,8,0:0:0:0:
246,192,285997,1,0,0:0:0:0:
245,192,286081,1,0,0:0:0:0:
245,192,286165,1,8,0:0:0:0:
245,192,286250,1,8,0:0:0:0:
245,192,286334,1,8,0:0:0:0:
245,192,286418,1,8,0:0:0:0:
245,192,286502,1,0,0:0:0:0:
245,192,286671,1,8,0:0:0:0:
244,192,286755,1,8,0:0:0:0:
244,192,286839,1,8,0:0:0:0:
246,192,287008,1,0,0:0:0:0:
245,192,287177,1,8,0:0:0:0:
245,192,287261,1,0,0:0:0:0:
245,192,287345,1,8,0:0:0:0:
245,192,287429,1,8,0:0:0:0:
245,192,287514,1,0,0:0:0:0:
245,192,287598,1,8,0:0:0:0:
244,192,287682,1,0,0:0:0:0:
256,64,287851,1,0,0:0:0:0:
256,192,287935,1,8,0:0:0:0:
256,64,288019,1,0,0:0:0:0:
245,192,288103,1,0,0:0:0:0:
245,192,288188,1,8,0:0:0:0:
256,64,288272,1,0,0:0:0:0:
245,192,288356,1,8,0:0:0:0:
245,192,288525,1,0,0:0:0:0:
245,192,288693,1,0,0:0:0:0:
244,192,288862,1,8,0:0:0:0:
246,192,288946,1,8,0:0:0:0:
246,192,289030,1,0,0:0:0:0:
245,192,289115,1,0,0:0:0:0:
245,192,289199,1,8,0:0:0:0:
245,192,289368,1,0,0:0:0:0:
245,192,289452,1,8,0:0:0:0:
245,192,289536,1,8,0:0:0:0:
256,192,289620,1,8,0:0:0:0:
245,192,289705,1,0,0:0:0:0:
244,192,289873,1,8,0:0:0:0:
256,192,289957,1,8,0:0:0:0:
246,192,290042,1,0,0:0:0:0:
245,192,290126,1,0,0:0:0:0:
245,192,290210,1,8,0:0:0:0:
245,192,290294,1,8,0:0:0:0:
245,192,290379,1,0,0:0:0:0:
245,192,290463,1,0,0:0:0:0:
245,192,290547,1,8,0:0:0:0:
245,192,290716,1,8,0:0:0:0:
244,192,290800,1,8,0:0:0:0:
244,192,290884,1,0,0:0:0:0:
246,192,291053,1,0,0:0:0:0:
245,192,291221,1,12,0:0:0:0:
245,192,291390,1,0,0:0:0:0:
245,192,291559,1,8,0:0:0:0:
245,192,291643,1,8,0:0:0:0:
245,192,291727,1,0,0:0:0:0:
244,192,291811,1,0,0:0:0:0:
244,192,291896,1,8,0:0:0:0:
256,192,291980,1,8,0:0:0:0:
246,192,292064,1,8,0:0:0:0:
245,192,292148,1,8,0:0:0:0:
245,192,292233,1,0,0:0:0:0:
245,192,292401,1,8,0:0:0:0:
245,192,292570,1,0,0:0:0:0:
245,192,292654,1,0,0:0:0:0:
245,192,292738,1,8,0:0:0:0:
256,192,292823,1,0,0:0:0:0:
244,192,292907,1,8,0:0:0:0:
246,192,292991,1,8,0:0:0:0:
246,192,293075,1,0,0:0:0:0:
245,192,293160,1,0,0:0:0:0:
245,192,293244,1,8,0:0:0:0:
245,192,293412,1,0,0:0:0:0:
245,192,293497,1,0,0:0:0:0:
245,192,293581,1,8,0:0:0:0:
256,192,293665,1,0,0:0:0:0:
245,192,293750,1,8,0:0:0:0:
244,192,293918,1,0,0:0:0:0:
246,192,294087,1,8,0:0:0:0:
245,192,294171,1,8,0:0:0:0:
245,192,294255,1,0,0:0:0:0:
245,192,294339,1,8,0:0:0:0:
245,192,294424,1,0,0:0:0:0:
245,192,294592,1,8,0:0:0:0:
245,192,294677,1,8,0:0:0:0:
245,192,294761,1,0,0:0:0:0:
244,192,294845,1,0,0:0:0:0:
244,192,294929,1,8,0:0:0:0:
256,192,295014,1,8,0:0:0:0:
246,192,295098,1,8,0:0:0:0:
245,192,295266,1,0,0:0:0:0:
245,192,295435,1,8,0:0:0:0:
245,192,295603,1,0,0:0:0:0:
245,192,295688,1,8,0:0:0:0:
245,192,295772,1,0,0:0:0:0:
244,192,295941,1,8,0:0:0:0:
256,192,296025,1,8,0:0:0:0:
246,192,296109,1,0,0:0:0:0:
245,192,296193,1,8,0:0:0:0:
245,192,296278,1,8,0:0:0:0:
245,192,296362,1,8,0:0:0:0:
245,192,296446,1,0,0:0:0:0:
245,192,296615,1,8,0:0:0:0:
245,192,296783,1,0,0:0:0:0:
244,192,296868,1,0,0:0:0:0:
244,192,296952,1,8,0:0:0:0:
256,192,297036,1,8,0:0:0:0:
246,192,297120,1,0,0:0:0:0:
245,192,297205,1,0,0:0:0:0:
245,192,297289,1,8,0:0:0:0:
245,192,297457,1,0,0:0:0:0:
245,192,297542,1,8,0:0:0:0:
245,192,297626,1,8,0:0:0:0:
245,192,297710,1,8,0:0:0:0:
245,192,297794,1,0,0:0:0:0:
244,192,297963,1,8,0:0:0:0:
246,192,298047,1,8,0:0:0:0:
246,192,298132,1,0,0:0:0:0:
245,192,298216,1,0,0:0:0:0:
245,192,298300,1,8,0:0:0:0:
224,192,298384,1,0,0:0:0:0:
245,192,298469,1,8,0:0:0:0:
245,192,298637,1,0,0:0:0:0:
245,192,298721,1,8,0:0:0:0:
245,192,298806,1,8,0:0:0:0:
244,192,298890,1,0,0:0:0:0:
244,192,298974,1,8,0:0:0:0:
246,192,299059,1,8,0:0:0:0:
246,192,299143,1,0,0:0:0:0:
245,192,299311,1,12,0:0:0:0:
245,192,299480,1,0,0:0:0:0:
245,192,299564,1,0,0:0:0:0:
245,192,299648,1,8,0:0:0:0:
245,192,299733,1,0,0:0:0:0:
245,192,299817,1,8,0:0:0:0:
244,192,299985,1,12,0:0:0:0:
246,192,300154,1,0,0:0:0:0:
245,192,300238,1,0,0:0:0:0:
245,192,300323,1,8,0:0:0:0:
245,192,300407,1,8,0:0:0:0:
245,192,300491,1,0,0:0:0:0:
245,192,300660,1,12,0:0:0:0:
245,192,300828,1,0,0:0:0:0:
244,192,300912,1,0,0:0:0:0:
244,192,300997,1,8,0:0:0:0:
246,192,301081,1,8,0:0:0:0:
246,192,301165,1,0,0:0:0:0:
245,192,301250,1,0,0:0:0:0:
245,192,301334,1,8,0:0:0:0:
256,192,301418,1,8,0:0:0:0:
245,192,301502,1,8,0:0:0:0:
245,192,301587,1,8,0:0:0:0:
245,192,301671,1,4,0:0:0:0:
256,192,302008,1,12,0:0:0:0:
256,192,302682,1,0,0:0:0:0:
256,192,303019,1,0,0:0:0:0:
256,192,303356,1,8,0:0:0:0:
256,192,304030,1,8,0:0:0:0:
256,192,304705,1,0,0:0:0:0:
256,192,304761,1,0,0:0:0:0:
256,192,304817,1,8,0:0:0:0:
256,192,305379,1,0,0:0:0:0:
256,192,305716,1,8,0:0:0:0:
256,192,306053,1,0,0:0:0:0:
256,192,306727,1,0,0:0:0:0:
256,192,307401,1,0,0:0:0:0:
256,192,307457,1,0,0:0:0:0:
256,192,307514,1,8,0:0:0:0:
256,192,308075,1,0,0:0:0:0:
256,192,308412,1,0,0:0:0:0:
256,192,308750,1,8,0:0:0:0:
256,192,309424,1,8,0:0:0:0:
256,192,310098,1,0,0:0:0:0:
256,192,310154,1,0,0:0:0:0:
256,192,310210,1,8,0:0:0:0:
256,192,310772,1,0,0:0:0:0:
256,192,311446,1,8,0:0:0:0:
256,192,312120,1,0,0:0:0:0:
256,192,312794,1,0,0:0:0:0:
256,192,312851,1,0,0:0:0:0:
256,192,312907,1,8,0:0:0:0:
256,192,313469,1,0,0:0:0:0:
256,192,313806,1,0,0:0:0:0:
256,192,314143,1,8,0:0:0:0:
256,192,314817,1,8,0:0:0:0:
256,192,315491,1,0,0:0:0:0:
256,192,315547,1,0,0:0:0:0:
256,192,315603,1,8,0:0:0:0:
256,192,316165,1,0,0:0:0:0:
256,192,316502,1,8,0:0:0:0:
256,192,316839,1,0,0:0:0:0:
256,192,317514,1,0,0:0:0:0:
256,192,318188,1,0,0:0:0:0:
256,192,318244,1,0,0:0:0:0:
256,192,318300,1,8,0:0:0:0:
256,192,318862,1,0,0:0:0:0:
256,192,319199,1,0,0:0:0:0:
256,192,319536,1,8,0:0:0:0:
256,192,320210,1,8,0:0:0:0:
256,192,320884,1,0,0:0:0:0:
256,192,320941,1,0,0:0:0:0:
256,192,320997,1,8,0:0:0:0:
256,192,321559,1,0,0:0:0:0:
256,192,321896,1,0,0:0:0:0:
256,192,322233,1,8,0:0:0:0:
256,192,322289,1,8,0:0:0:0:
256,192,322345,1,0,0:0:0:0:
256,192,322907,1,0,0:0:0:0:
256,192,323244,1,8,0:0:0:0:
256,192,323581,1,0,0:0:0:0:
256,192,323637,1,0,0:0:0:0:
256,192,323693,1,0,0:0:0:0:
256,192,324255,1,0,0:0:0:0:
256,192,324592,1,0,0:0:0:0:
256,192,324929,1,8,0:0:0:0:
256,192,325266,1,8,0:0:0:0:
256,192,325603,1,0,0:0:0:0:
256,192,325941,1,0,0:0:0:0:
256,192,326278,1,8,0:0:0:0:
