osu file format v14

[General]
AudioFilename: audio.mp3
AudioLeadIn: 0
PreviewTime: 119971
Countdown: 0
SampleSet: Normal
StackLeniency: 0.7
Mode: 1
LetterboxInBreaks: 0
WidescreenStoryboard: 0

[Editor]
DistanceSpacing: 0.8
BeatDivisor: 4
GridSize: 32
TimelineZoom: 2.1

[Metadata]
Title:Recalled Collapse feat. Such
TitleUnicode:Recalled Collapse feat. Such
Artist:PSYQUI
ArtistUnicode:PSYQUI
Creator:rubies87
Version:Relapse
Source:
Tags:electronic english ft featuring epoqc 2021 megarex trancestep dubstep
BeatmapID:2827388
BeatmapSetID:1367168

[Difficulty]
HPDrainRate:6
CircleSize:2
OverallDifficulty:6
ApproachRate:10
SliderMultiplier:1.6
SliderTickRate:1

[Events]
//Background and Video events
0,0,"1099619.jpg",0,-75
//Break Periods
//Storyboard Layer 0 (Background)
//Storyboard Layer 1 (Fail)
//Storyboard Layer 2 (Pass)
//Storyboard Layer 3 (Foreground)
//Storyboard Layer 4 (Overlay)
//Storyboard Sound Samples

[TimingPoints]
1615,410.958904109589,4,1,0,30,1,0
1615,-200,4,1,0,30,0,0
2231,-198.834827908456,4,1,0,30,0,0
2847,-197.683544228728,4,1,0,30,0,0
4902,-193.939393939394,4,1,0,30,0,0
5519,-192.843574934192,4,1,0,30,0,0
8190,-188.235294117647,4,1,0,30,0,0
8806,-187.202815530346,4,1,0,30,0,0
9423,-186.181948170669,4,1,0,30,0,0
11067,-183.512502706809,4,1,0,30,0,0
11478,-182.857142857143,4,1,0,30,0,0
12094,-181.882667491201,4,1,0,30,0,0
12710,-180.918850658726,4,1,0,30,0,0
14765,-177.777777777778,4,1,0,30,0,0
15382,-176.856551650956,4,1,0,30,0,0
15998,-175.945133269641,4,1,0,30,0,0
16615,-175.042754192712,4,1,0,30,0,0
18053,-172.972972972973,4,1,0,30,0,0
18669,-172.100747777749,4,1,0,30,0,0
19286,-171.237568152552,4,1,0,30,0,0
20930,-168.976861998287,4,1,0,30,0,0
21341,-168.421052631579,4,1,0,30,0,0
21957,-167.594020245358,4,1,0,30,0,0
22573,-166.775348602172,4,1,0,30,0,0
23190,-165.964360813159,4,1,0,30,0,0
24217,-164.630191201504,4,1,0,30,0,0
24628,-164.102564102564,4,1,0,30,0,0
25245,-163.317301018283,4,1,0,30,0,0
25861,-162.539781611549,4,1,0,30,0,0
27916,-160,4,1,0,30,0,0
28532,-159.253419967194,4,1,0,30,0,0
29149,-158.514026113601,4,1,0,30,0,0
31204,-156.09756097561,4,1,0,30,0,0
31820,-155.386874470713,4,1,0,30,0,0
34491,-152.380952380952,4,1,0,30,0,0
35108,-151.703631784945,4,1,0,30,0,0
35724,-151.032533918131,4,1,0,30,0,0
37779,-148.837209302326,4,1,0,30,0,0
38395,-148.190958869599,4,1,0,30,0,0
41067,-145.454545454545,4,1,0,30,0,0
41683,-144.837275321177,4,1,0,30,0,0
42299,-144.225430116289,4,1,0,30,0,0
42916,-143.618526215408,4,1,0,30,0,0
44354,-142.222222222222,4,1,0,30,0,0
44971,-141.632025833682,4,1,0,30,0,0
45587,-141.046906559245,4,1,0,30,0,0
47231,-139.509512456107,4,1,0,30,0,0
47642,-139.130434782609,4,1,0,30,0,0
48258,-138.565569227358,4,1,0,30,0,0
48875,-138.005462256196,4,1,0,30,0,0
49491,-137.449676237288,4,1,0,30,0,0
50519,-136.533310031648,4,1,0,30,0,0
50930,-136.170212765957,4,1,0,30,0,0
51546,-135.629081587674,4,1,0,30,0,0
52162,-135.09241672228,4,1,0,30,0,0
52573,-134.736751335241,4,1,0,30,0,0
52984,-134.55980106679,4,1,0,30,0,0
54217,-133.333333333333,4,1,0,50,0,0
80519,-200,4,1,0,50,0,0
92025,-307.692307692308,4,1,0,50,0,0
93669,-400,4,1,0,50,0,0
106820,-142.857142857143,4,1,0,50,0,0
107025,-140.352650068562,4,1,0,50,0,0
107231,-137.934649321844,4,1,0,50,0,0
107436,-135.59836848043,4,1,0,50,0,0
107539,-134.459747457702,4,1,0,50,0,0
107642,-133.339911435631,4,1,0,50,0,0
107745,-132.238749127224,4,1,0,50,0,0
107950,-130.089931169417,4,1,0,50,0,0
108053,-129.0415823595,4,1,0,50,0,0
108258,-126.994609078845,4,1,0,50,0,0
108361,-125.995363370628,4,1,0,50,0,0
108464,-125.01156356963,4,1,0,50,0,0
108669,-123.089648652907,4,1,0,50,0,0
108875,-121.225786664436,4,1,0,50,0,0
109080,-119.417529060256,4,1,0,50,0,0
109286,-117.662562596483,4,1,0,50,0,0
109388,-116.804145145503,4,1,0,50,0,0
109491,-115.958296758154,4,1,0,50,0,0
109594,-115.124478342208,4,1,0,50,0,0
109697,-114.302696400608,4,1,0,50,0,0
109799,-113.492563399783,4,1,0,50,0,0
110005,-111.906142080514,4,1,0,50,0,0
110108,-111.129509218748,4,1,0,50,0,0
110313,-109.608019799593,4,1,0,50,0,0
110519,-108.127629528791,4,1,0,50,0,0
110724,-106.686809136232,4,1,0,50,0,0
110827,-105.980590714617,4,1,0,50,0,0
110930,-105.283771348917,4,1,0,50,0,0
111032,-104.596055264372,4,1,0,50,0,0
111238,-103.247121986475,4,1,0,50,0,0
111341,-102.585566621119,4,1,0,50,0,0
111546,-101.28777274265,4,1,0,50,0,0
111649,-100.65101073745,4,1,0,50,0,0
111751,-100.022304974009,4,1,0,50,0,0
111957,-98.7880679819969,4,1,0,50,0,0
112162,-97.5840149576778,4,1,0,50,0,0
112368,-96.4088661449662,4,1,0,50,0,0
112471,-95.8318878690247,4,1,0,50,0,0
112573,-95.2616838455237,4,1,0,50,0,0
112676,-94.6983148434874,4,1,0,50,0,0
112779,-94.141570093106,4,1,0,50,0,0
112882,-93.5912458492282,4,1,0,50,0,0
112984,-93.0474048613547,4,1,0,50,0,0
113087,-92.5097620926448,4,1,0,50,0,0
113190,-91.9783814012355,4,1,0,50,0,0
113293,-91.4530703996591,4,1,0,50,0,0
113395,-90.9336429926989,4,1,0,50,0,0
113601,-89.9124522452488,4,1,0,50,0,0
113806,-88.9138638053,4,1,0,50,0,0
114012,-87.9372128300393,4,1,0,50,0,0
114217,-86.981859933111,4,1,0,50,0,0
114423,-86.046967876946,4,1,0,50,0,0
114628,-85.1319587927267,4,1,0,50,0,0
114834,-84.2362050578787,4,1,0,50,0,0
114936,-83.7953951078572,4,1,0,50,0,0
115039,-83.3591746774834,4,1,0,50,0,0
115245,-82.5001505627748,4,1,0,50,0,0
115450,-81.6586505091417,4,1,0,50,0,0
115656,-80.8342090372646,4,1,0,50,0,0
115861,-80.0261845675905,4,1,0,50,0,0
116067,-79.2341543576408,4,1,0,50,0,0
116272,-78.4577097253039,4,1,0,50,0,0
116375,-78.0751051281291,4,1,0,50,0,0
116478,-77.6962743859469,4,1,0,50,0,0
116580,-77.3210423804365,4,1,0,50,0,0
116683,-76.9494765127113,4,1,0,50,0,0
116786,-76.5814646817772,4,1,0,50,0,0
116888,-76.2168980484663,4,1,0,50,0,0
116991,-75.8558435549082,4,1,0,50,0,0
117094,-75.4981937057156,4,1,0,50,0,0
117197,-75.1438441035753,4,1,0,50,0,0
117299,-74.792861170987,4,1,0,50,0,0
117402,-74.4451417472721,4,1,0,50,0,0
117505,-74.1005856169281,4,1,0,50,0,0
117608,-73.7592586309397,4,1,0,50,0,0
117710,-73.421061712605,4,1,0,50,0,0
117813,-73.0858985874688,4,1,0,50,0,0
117916,-72.7538344908468,4,1,0,50,0,0
118019,-72.4247741976602,4,1,0,50,0,0
118121,-72.098625151317,4,1,0,50,0,0
118224,-71.7754519341331,4,1,0,50,0,0
118327,-71.4551118987052,4,1,0,50,0,0
118532,-76.1641886647885,4,1,0,70,0,0
118635,-78.7755134194087,4,1,0,70,0,0
118841,-84.5749642882213,4,1,0,70,0,0
119046,-91.2961033910112,4,1,0,70,0,0
119149,-95.0739342449656,4,1,0,70,0,0
119354,-103.651969853861,4,1,0,70,0,0
119457,-108.548875216555,4,1,0,70,0,0
119662,-119.875760761547,4,1,0,70,0,0
119971,-142.120754320116,4,1,0,90,0,1
120382,-76.9230769230769,4,1,0,90,0,1
120484,-83.3333333333333,4,1,0,90,0,1
120587,-90.9090909090909,4,1,0,90,0,1
120690,-99.9999999999999,4,1,0,90,0,1
120793,-76.9230769230769,4,1,0,90,0,1
120895,-80,4,1,0,90,0,1
120947,-81.6326530612245,4,1,0,90,0,1
120998,-83.3333333333333,4,1,0,90,0,1
121101,-86.9565217391304,4,1,0,90,0,1
121204,-90.9090909090909,4,1,0,90,0,1
121341,-95.2380952380952,4,1,0,90,0,1
121478,-99.9999999999999,4,1,0,90,0,1
121615,-105.263157894737,4,1,0,90,0,1
121717,-76.9230769230769,4,1,0,90,0,1
121820,-83.3333333333333,4,1,0,90,0,1
121923,-90.9090909090909,4,1,0,90,0,1
122025,-76.9230769230769,4,1,0,90,0,1
122077,-80,4,1,0,90,0,1
122128,-83.3333333333333,4,1,0,90,0,1
122180,-86.9565217391304,4,1,0,90,0,1
122231,-90.9090909090909,4,1,0,90,0,1
122334,-95.2380952380952,4,1,0,90,0,1
122436,-90.9090909090909,4,1,0,90,0,1
122539,-86.9565217391304,4,1,0,90,0,1
122642,-83.3333333333333,4,1,0,90,0,1
122745,-80,4,1,0,90,0,1
122847,-76.9230769230769,4,1,0,90,0,1
122950,-83.3333333333333,4,1,0,90,0,1
123053,-90.9090909090909,4,1,0,90,0,1
123156,-100,4,1,0,90,0,1
123258,-76.9230769230769,4,1,0,90,0,1
123669,-76.9230769230769,4,1,0,90,0,1
123772,-83.3333333333333,4,1,0,90,0,1
123875,-90.9090909090909,4,1,0,90,0,1
123978,-100,4,1,0,90,0,1
124080,-76.9230769230769,4,1,0,90,0,1
124149,-81.0832725208789,4,1,0,90,0,1
124217,-85.7118368046627,4,1,0,90,0,1
124286,-90.9090909090909,4,1,0,90,0,1
124354,-96.7773153972709,4,1,0,90,0,1
124423,-103.444708803145,4,1,0,90,0,1
124491,-111.111111111111,4,1,0,90,0,1
124594,-100,4,1,0,90,0,1
124697,-90.9090909090909,4,1,0,90,0,1
124799,-83.3333333333333,4,1,0,90,0,1
124902,-76.9230769230769,4,1,0,90,0,1
125005,-83.3333333333333,4,1,0,90,0,1
125108,-90.9090909090909,4,1,0,90,0,1
125210,-76.9230769230769,4,1,0,90,0,1
125313,-83.3333333333333,4,1,0,90,0,1
125416,-90.9090909090909,4,1,0,90,0,1
125519,-100,4,1,0,90,0,1
125621,-111.111111111111,4,1,0,90,0,1
125724,-76.9230769230769,4,1,0,90,0,1
125827,-83.3333333333333,4,1,0,90,0,1
125930,-90.9090909090909,4,1,0,90,0,1
126032,-100,4,1,0,90,0,1
126135,-76.9230769230769,4,1,0,90,0,1
126238,-83.3333333333333,4,1,0,90,0,1
126546,-76.9230769230769,4,1,0,90,0,1
126956,-76.9230769230769,4,1,0,90,0,1
127058,-83.3333333333333,4,1,0,90,0,1
127161,-90.9090909090909,4,1,0,90,0,1
127264,-99.9999999999999,4,1,0,90,0,1
127367,-76.9230769230769,4,1,0,90,0,1
127469,-80,4,1,0,90,0,1
127521,-81.6326530612245,4,1,0,90,0,1
127572,-83.3333333333333,4,1,0,90,0,1
127675,-86.9565217391304,4,1,0,90,0,1
127778,-90.9090909090909,4,1,0,90,0,1
127915,-95.2380952380952,4,1,0,90,0,1
128052,-99.9999999999999,4,1,0,90,0,1
128189,-105.263157894737,4,1,0,90,0,1
128291,-76.9230769230769,4,1,0,90,0,1
128394,-83.3333333333333,4,1,0,90,0,1
128497,-90.9090909090909,4,1,0,90,0,1
128599,-76.9230769230769,4,1,0,90,0,1
128651,-80,4,1,0,90,0,1
128702,-83.3333333333333,4,1,0,90,0,1
128754,-86.9565217391304,4,1,0,90,0,1
128805,-90.9090909090909,4,1,0,90,0,1
128908,-95.2380952380952,4,1,0,90,0,1
129010,-90.9090909090908,4,1,0,90,0,1
129113,-86.9565217391304,4,1,0,90,0,1
129216,-83.3333333333333,4,1,0,90,0,1
129319,-80,4,1,0,90,0,1
129421,-76.9230769230769,4,1,0,90,0,1
129524,-83.3333333333333,4,1,0,90,0,1
129627,-90.9090909090909,4,1,0,90,0,1
129730,-100,4,1,0,90,0,1
129832,-76.9230769230769,4,1,0,90,0,1
129935,-83.3333333333333,4,1,0,90,0,1
130038,-90.9090909090909,4,1,0,90,0,1
130141,-100,4,1,0,90,0,1
130243,-76.9230769230769,4,1,0,90,0,1
130346,-83.3333333333333,4,1,0,90,0,1
130449,-90.9090909090909,4,1,0,90,0,1
130552,-100,4,1,0,90,0,1
130654,-76.9230769230769,4,1,0,90,0,1
130757,-83.3333333333333,4,1,0,90,0,1
130860,-90.9090909090909,4,1,0,90,0,1
130929,-98.0392156862745,4,1,0,90,0,1
130997,-106.382978723404,4,1,0,90,0,1
131065,-116.279069767442,4,1,0,90,0,1
131168,-100,4,1,0,90,0,1
131271,-90.9090909090909,4,1,0,90,0,1
131373,-83.3333333333333,4,1,0,90,0,1
131478,-76.9230769230769,4,1,0,90,0,0
131888,-90.9090909090909,4,1,0,90,0,0
132094,-100,4,1,0,90,0,0
132197,-105.263157894737,4,1,0,90,0,0
132402,-117.647058823529,4,1,0,90,0,0
132505,-125,4,1,0,90,0,0
132608,-133.333333333333,4,1,0,90,0,0
132710,-142.857142857143,4,1,0,90,0,0
133121,-200,4,1,0,90,0,0
133327,-166.666666666667,4,1,0,90,0,0
133430,-153.846153846154,4,1,0,90,0,0
133532,-142.857142857143,4,1,0,90,0,0
133635,-133.333333333333,4,1,0,90,0,0
133738,-125,4,1,0,90,0,0
133841,-117.647058823529,4,1,0,90,0,0
133943,-111.111111111111,4,1,0,90,0,0
134046,-105.263157894737,4,1,0,90,0,0
134149,-100,4,1,0,90,0,0
134251,-95.2380952380952,4,1,0,90,0,0
134354,-90.9090909090909,4,1,0,90,0,0
134457,-86.9565217391304,4,1,0,90,0,0
134560,-83.3333333333333,4,1,0,90,0,0
134662,-80,4,1,0,90,0,0
134765,-76.9230769230769,4,1,0,90,0,1
135175,-76.9230769230769,4,1,0,90,0,1
135227,-80,4,1,0,90,0,1
135278,-83.3333333333333,4,1,0,90,0,1
135330,-86.9565217391304,4,1,0,90,0,1
135381,-90.9090909090909,4,1,0,90,0,1
135484,-95.2380952380952,4,1,0,90,0,1
135586,-90.9090909090908,4,1,0,90,0,1
135689,-86.9565217391304,4,1,0,90,0,1
135792,-83.3333333333333,4,1,0,90,0,1
135895,-80,4,1,0,90,0,1
135997,-76.9230769230769,4,1,0,90,0,1
136100,-83.3333333333333,4,1,0,90,0,1
136203,-90.9090909090909,4,1,0,90,0,1
136306,-100,4,1,0,90,0,1
136408,-76.9230769230769,4,1,0,90,0,1
136819,-76.9230769230769,4,1,0,90,0,1
136922,-83.3333333333333,4,1,0,90,0,1
137025,-90.9090909090909,4,1,0,90,0,1
137128,-100,4,1,0,90,0,1
137230,-76.9230769230769,4,1,0,90,0,1
137299,-81.0832725208789,4,1,0,90,0,1
137368,-85.7118368046627,4,1,0,90,0,1
137436,-90.9090909090909,4,1,0,90,0,1
137505,-96.7773153972709,4,1,0,90,0,1
137573,-103.444708803145,4,1,0,90,0,1
137641,-111.111111111111,4,1,0,90,0,1
137744,-100,4,1,0,90,0,1
137847,-90.9090909090909,4,1,0,90,0,1
137949,-83.3333333333333,4,1,0,90,0,1
138052,-76.9230769230769,4,1,0,90,0,1
138155,-83.3333333333333,4,1,0,90,0,1
138258,-90.9090909090909,4,1,0,90,0,1
138360,-76.9230769230769,4,1,0,90,0,1
138463,-83.3333333333333,4,1,0,90,0,1
138566,-90.9090909090909,4,1,0,90,0,1
138669,-100,4,1,0,90,0,1
138771,-111.111111111111,4,1,0,90,0,1
138874,-76.9230769230769,4,1,0,90,0,1
138977,-83.3333333333333,4,1,0,90,0,1
139080,-90.9090909090909,4,1,0,90,0,1
139182,-100,4,1,0,90,0,1
139285,-76.9230769230769,4,1,0,90,0,1
139388,-83.3333333333333,4,1,0,90,0,1
139696,-76.9230769230769,4,1,0,90,0,1
140106,-76.9230769230769,4,1,0,90,0,1
140208,-83.3333333333333,4,1,0,90,0,1
140311,-90.9090909090909,4,1,0,90,0,1
140414,-99.9999999999999,4,1,0,90,0,1
140517,-76.9230769230769,4,1,0,90,0,1
140619,-80,4,1,0,90,0,1
140671,-81.6326530612245,4,1,0,90,0,1
140722,-83.3333333333333,4,1,0,90,0,1
140825,-86.9565217391304,4,1,0,90,0,1
140928,-90.9090909090909,4,1,0,90,0,1
140997,-93.0232558139535,4,1,0,90,0,1
141065,-95.2380952380952,4,1,0,90,0,1
141202,-99.9999999999999,4,1,0,90,0,1
141339,-105.263157894737,4,1,0,90,0,1
141441,-76.9230769230769,4,1,0,90,0,1
141544,-83.3333333333333,4,1,0,90,0,1
141647,-90.9090909090909,4,1,0,90,0,1
141749,-76.9230769230769,4,1,0,90,0,1
141801,-80,4,1,0,90,0,1
141852,-83.3333333333333,4,1,0,90,0,1
141904,-86.9565217391304,4,1,0,90,0,1
141955,-90.9090909090909,4,1,0,90,0,1
142058,-95.2380952380952,4,1,0,90,0,1
142160,-90.9090909090908,4,1,0,90,0,1
142263,-86.9565217391304,4,1,0,90,0,1
142366,-83.3333333333333,4,1,0,90,0,1
142469,-80,4,1,0,90,0,1
142571,-76.9230769230769,4,1,0,90,0,1
142674,-83.3333333333333,4,1,0,90,0,1
142777,-90.9090909090909,4,1,0,90,0,1
142880,-100,4,1,0,90,0,1
142982,-76.9230769230769,4,1,0,90,0,1
143085,-83.3333333333333,4,1,0,90,0,1
143188,-90.9090909090909,4,1,0,90,0,1
143291,-100,4,1,0,90,0,1
143393,-76.9230769230769,4,1,0,90,0,1
143496,-83.3333333333333,4,1,0,90,0,1
143599,-90.9090909090909,4,1,0,90,0,1
143702,-100,4,1,0,90,0,1
143804,-76.9230769230769,4,1,0,90,0,1
143907,-83.3333333333333,4,1,0,90,0,1
144010,-90.9090909090909,4,1,0,90,0,1
144079,-98.0392156862745,4,1,0,90,0,1
144147,-106.382978723404,4,1,0,90,0,1
144215,-116.279069767442,4,1,0,90,0,1
144318,-100,4,1,0,90,0,1
144421,-90.9090909090909,4,1,0,90,0,1
144523,-83.3333333333333,4,1,0,90,0,1
144628,-76.9230769230769,4,1,0,90,0,0
145039,-90.9090909090909,4,1,0,90,0,0
145245,-100,4,1,0,90,0,0
145450,-111.111111111111,4,1,0,90,0,0
145656,-125,4,1,0,90,0,0
145861,-76.9230769230769,4,1,0,90,0,0
146272,-142.857142857143,4,1,0,90,0,0
146478,-140.352650068562,4,1,0,90,0,0
146683,-137.934649321844,4,1,0,90,0,0
146888,-135.59836848043,4,1,0,90,0,0
146991,-134.459747457702,4,1,0,90,0,0
147094,-133.339911435631,4,1,0,90,0,0
147197,-132.238749127224,4,1,0,90,0,0
147402,-130.089931169417,4,1,0,90,0,0
147505,-129.0415823595,4,1,0,90,0,0
147710,-126.994609078845,4,1,0,90,0,0
147813,-125.995363370628,4,1,0,90,0,0
147916,-125.01156356963,4,1,0,90,0,0
148121,-123.089648652907,4,1,0,90,0,0
148327,-121.225786664436,4,1,0,90,0,0
148532,-119.417529060256,4,1,0,90,0,0
148738,-117.662562596483,4,1,0,90,0,0
148841,-116.804145145503,4,1,0,90,0,0
148943,-115.958296758154,4,1,0,90,0,0
149046,-115.124478342208,4,1,0,90,0,0
149149,-114.302696400608,4,1,0,90,0,0
149251,-113.492563399783,4,1,0,90,0,0
149457,-111.906142080514,4,1,0,90,0,0
149560,-111.129509218748,4,1,0,90,0,0
149765,-109.608019799593,4,1,0,90,0,0
149971,-108.127629528791,4,1,0,90,0,0
150176,-106.686809136232,4,1,0,90,0,0
150279,-105.980590714617,4,1,0,90,0,0
150382,-105.283771348917,4,1,0,90,0,0
150484,-104.596055264372,4,1,0,90,0,0
150690,-103.247121986475,4,1,0,90,0,0
150793,-102.585566621119,4,1,0,90,0,0
150998,-101.28777274265,4,1,0,90,0,0
151101,-100.65101073745,4,1,0,90,0,0
151204,-100.022304974009,4,1,0,90,0,0
151409,-98.7880679819969,4,1,0,90,0,0
151615,-97.5840149576778,4,1,0,90,0,0
151820,-96.4088661449662,4,1,0,90,0,0
151923,-95.8318878690247,4,1,0,90,0,0
152025,-95.2616838455237,4,1,0,90,0,0
152128,-94.6983148434874,4,1,0,90,0,0
152231,-94.141570093106,4,1,0,90,0,0
152334,-93.5912458492282,4,1,0,90,0,0
152436,-93.0474048613547,4,1,0,90,0,0
152539,-92.5097620926448,4,1,0,90,0,0
152642,-91.9783814012355,4,1,0,90,0,0
152745,-91.4530703996591,4,1,0,90,0,0
152847,-90.9336429926989,4,1,0,90,0,0
153053,-89.9124522452488,4,1,0,90,0,0
153258,-88.9138638053,4,1,0,90,0,0
153464,-87.9372128300393,4,1,0,90,0,0
153669,-86.981859933111,4,1,0,90,0,0
153875,-86.046967876946,4,1,0,90,0,0
154080,-85.1319587927267,4,1,0,90,0,0
154286,-84.2362050578787,4,1,0,90,0,0
154388,-83.7953951078572,4,1,0,90,0,0
154491,-83.3591746774834,4,1,0,90,0,0
154697,-82.5001505627748,4,1,0,90,0,0
154902,-81.6586505091417,4,1,0,90,0,0
155108,-80.8342090372646,4,1,0,90,0,0
155313,-80.0261845675905,4,1,0,90,0,0
155519,-79.2341543576408,4,1,0,90,0,0
155724,-78.4577097253039,4,1,0,90,0,0
155827,-78.0751051281291,4,1,0,90,0,0
155930,-77.6962743859469,4,1,0,90,0,0
156032,-77.3210423804365,4,1,0,90,0,0
156135,-76.9494765127113,4,1,0,90,0,0
156238,-76.5814646817772,4,1,0,90,0,0
156341,-76.2168980484663,4,1,0,90,0,0
156443,-75.8558435549082,4,1,0,90,0,0
156546,-75.4981937057156,4,1,0,90,0,0
156649,-75.1438441035753,4,1,0,90,0,0
156751,-74.792861170987,4,1,0,90,0,0
156854,-74.4451417472721,4,1,0,90,0,0
156957,-74.1005856169281,4,1,0,90,0,0
157060,-73.7592586309397,4,1,0,90,0,0
157162,-73.421061712605,4,1,0,90,0,0
157265,-73.0858985874688,4,1,0,90,0,0
157368,-72.7538344908468,4,1,0,90,0,0
157471,-72.4247741976602,4,1,0,90,0,0
157573,-72.098625151317,4,1,0,90,0,0
157676,-71.7754519341331,4,1,0,90,0,0
157779,-71.4551118987052,4,1,0,90,0,0
157958,-76.1641886647885,4,1,0,70,0,0
158190,-81.6326530612245,4,1,0,70,0,0
158395,-87.719298245614,4,1,0,70,0,0
158601,-95.0739342449656,4,1,0,70,0,0
158806,-103.651969853861,4,1,0,70,0,0
158909,-108.548875216555,4,1,0,70,0,0
159012,-113.636363636364,4,1,0,70,0,0
159423,-90.9090909090909,4,1,0,70,0,0
159628,-90.9090909090909,4,1,0,70,0,0
159731,-95.2380952380952,4,1,0,70,0,0
159834,-100,4,1,0,70,0,0
160039,-99.9999999999999,4,1,0,70,0,0
160245,-90.9090909090909,4,1,0,70,0,0
160347,-95.2380952380952,4,1,0,70,0,0
160553,-86.9565217391304,4,1,0,70,0,0
160656,-90.9090909090909,4,1,0,70,0,0
160758,-95.2380952380952,4,1,0,70,0,0
160861,-100,4,1,0,70,0,0
161067,-111.111111111111,4,1,0,70,0,0
161272,-90.9090909090909,4,1,0,70,0,0
161478,-100,4,1,0,70,0,0
161580,-105.263157894737,4,1,0,70,0,0
161683,-111.111111111111,4,1,0,70,0,0
161888,-90.9090909090908,4,1,0,70,0,0
162094,-100,4,1,0,70,0,0
162197,-105.263157894737,4,1,0,70,0,0
162299,-111.111111111111,4,1,0,70,0,0
162505,-99.9999999999999,4,1,0,70,0,0
162710,-90.9090909090909,4,1,0,70,0,0
162916,-90.9090909090909,4,1,0,70,0,0
163019,-95.2380952380952,4,1,0,70,0,0
163121,-100,4,1,0,70,0,0
163327,-100,4,1,0,70,0,0
163532,-86.9565217391304,4,1,0,70,0,0
163635,-90.9090909090909,4,1,0,70,0,0
163738,-95.2380952380952,4,1,0,70,0,0
163841,-100,4,1,0,70,0,0
163943,-105.263157894737,4,1,0,70,0,0
164046,-111.111111111111,4,1,0,70,0,0
164149,-86.9565217391304,4,1,0,70,0,0
164251,-90.9090909090909,4,1,0,70,0,0
164354,-95.2380952380952,4,1,0,70,0,0
164457,-100,4,1,0,70,0,0
164560,-90.9090909090909,4,1,0,70,0,0
164662,-95.2380952380952,4,1,0,70,0,0
164765,-100,4,1,0,70,0,0
164868,-105.263157894737,4,1,0,70,0,0
164971,-111.111111111111,4,1,0,70,0,0
165073,-117.64705882353,4,1,0,70,0,0
165176,-125,4,1,0,70,0,0
165382,-90.9090909090909,4,1,0,70,0,0
165484,-95.2380952380952,4,1,0,70,0,0
165587,-100,4,1,0,70,0,0
165690,-105.263157894737,4,1,0,70,0,0
165793,-111.111111111111,4,1,0,70,0,0
165972,-90.9090909090909,4,1,0,70,0,0
166177,-90.9090909090909,4,1,0,70,0,0
166280,-95.2380952380952,4,1,0,70,0,0
166383,-100,4,1,0,70,0,0
166588,-99.9999999999999,4,1,0,70,0,0
166794,-90.9090909090909,4,1,0,70,0,0
167000,-83.3333333333333,4,1,0,70,0,0
167616,-100,4,1,0,70,0,0
167821,-90.9090909090909,4,1,0,70,0,0
168027,-100,4,1,0,70,0,0
168129,-105.263157894737,4,1,0,70,0,0
168232,-111.111111111111,4,1,0,70,0,0
168437,-90.9090909090908,4,1,0,70,0,0
168643,-100,4,1,0,70,0,0
168746,-105.263157894737,4,1,0,70,0,0
168848,-111.111111111111,4,1,0,70,0,0
169054,-99.9999999999999,4,1,0,70,0,0
169259,-90.9090909090909,4,1,0,70,0,0
169465,-90.9090909090909,4,1,0,70,0,0
169568,-95.2380952380952,4,1,0,70,0,0
169670,-100,4,1,0,70,0,0
169876,-100,4,1,0,70,0,0
170081,-86.9565217391304,4,1,0,70,0,0
170184,-90.9090909090909,4,1,0,70,0,0
170287,-95.2380952380952,4,1,0,70,0,0
170390,-86.9565217391304,4,1,0,70,0,0
170492,-90.9090909090909,4,1,0,70,0,0
170595,-95.2380952380952,4,1,0,70,0,0
170698,-86.9565217391304,4,1,0,70,0,0
170800,-90.9090909090909,4,1,0,70,0,0
170903,-95.2380952380952,4,1,0,70,0,0
171006,-100,4,1,0,70,0,0
171109,-90.9090909090909,4,1,0,70,0,0
171211,-95.2380952380952,4,1,0,70,0,0
171314,-100,4,1,0,70,0,0
171417,-105.263157894737,4,1,0,70,0,0
171520,-111.111111111111,4,1,0,70,0,0
171622,-117.64705882353,4,1,0,70,0,0
171725,-125,4,1,0,70,0,0
171931,-90.9090909090909,4,1,0,70,0,0
172033,-95.2380952380952,4,1,0,70,0,0
172136,-100,4,1,0,70,0,0
172239,-105.263157894737,4,1,0,70,0,0
172342,-111.111111111111,4,1,0,70,0,0
172445,-117.647058823529,4,1,0,70,0,0
172548,-125,4,1,0,70,0,0
172753,-90.9090909090909,4,1,0,70,0,0
172856,-95.2380952380952,4,1,0,70,0,0
172959,-100,4,1,0,70,0,0
173164,-99.9999999999999,4,1,0,70,0,0
173370,-90.9090909090909,4,1,0,70,0,0
173472,-95.2380952380952,4,1,0,70,0,0
173678,-86.9565217391304,4,1,0,70,0,0
173781,-90.9090909090909,4,1,0,70,0,0
173883,-95.2380952380952,4,1,0,70,0,0
173986,-100,4,1,0,70,0,0
174192,-111.111111111111,4,1,0,70,0,0
174397,-90.9090909090909,4,1,0,70,0,0
174603,-100,4,1,0,70,0,0
174705,-105.263157894737,4,1,0,70,0,0
174808,-111.111111111111,4,1,0,70,0,0
175013,-90.9090909090908,4,1,0,70,0,0
175219,-100,4,1,0,70,0,0
175322,-105.263157894737,4,1,0,70,0,0
175424,-111.111111111111,4,1,0,70,0,0
175630,-99.9999999999999,4,1,0,70,0,0
175835,-90.9090909090909,4,1,0,70,0,0
176041,-90.9090909090909,4,1,0,70,0,0
176144,-95.2380952380952,4,1,0,70,0,0
176246,-100,4,1,0,70,0,0
176452,-100,4,1,0,70,0,0
176657,-86.9565217391304,4,1,0,70,0,0
176760,-90.9090909090909,4,1,0,70,0,0
176863,-95.2380952380952,4,1,0,70,0,0
176966,-86.9565217391304,4,1,0,70,0,0
177068,-90.9090909090909,4,1,0,70,0,0
177171,-95.2380952380952,4,1,0,70,0,0
177274,-86.9565217391304,4,1,0,70,0,0
177376,-90.9090909090909,4,1,0,70,0,0
177479,-95.2380952380952,4,1,0,70,0,0
177582,-100,4,1,0,70,0,0
177685,-90.9090909090909,4,1,0,70,0,0
177787,-95.2380952380952,4,1,0,70,0,0
177890,-100,4,1,0,70,0,0
177993,-105.263157894737,4,1,0,70,0,0
178096,-111.111111111111,4,1,0,70,0,0
178198,-117.64705882353,4,1,0,70,0,0
178301,-125,4,1,0,70,0,0
178507,-90.9090909090909,4,1,0,70,0,0
178609,-95.2380952380952,4,1,0,70,0,0
178712,-100,4,1,0,70,0,0
178815,-105.263157894737,4,1,0,70,0,0
178918,-111.111111111111,4,1,0,70,0,0
179123,-90.9090909090909,4,1,0,70,0,0
179328,-90.9090909090909,4,1,0,70,0,0
179431,-95.2380952380952,4,1,0,70,0,0
179534,-100,4,1,0,70,0,0
179739,-99.9999999999999,4,1,0,70,0,0
179945,-90.9090909090909,4,1,0,70,0,0
180151,-83.3333333333333,4,1,0,70,0,0
180767,-100,4,1,0,70,0,0
180972,-90.9090909090909,4,1,0,70,0,0
181178,-100,4,1,0,70,0,0
181280,-105.263157894737,4,1,0,70,0,0
181383,-111.111111111111,4,1,0,70,0,0
181588,-90.9090909090908,4,1,0,70,0,0
181794,-100,4,1,0,70,0,0
181897,-105.263157894737,4,1,0,70,0,0
181999,-111.111111111111,4,1,0,70,0,0
182205,-125,4,1,0,70,0,0
182410,-142.857142857143,4,1,0,70,0,0
184260,-90.9090909090909,4,1,0,70,0,0
184362,-95.2380952380952,4,1,0,70,0,0
184465,-100,4,1,0,70,0,0
184568,-105.263157894737,4,1,0,70,0,0
184671,-111.111111111111,4,1,0,70,0,0
184773,-117.64705882353,4,1,0,70,0,0
184876,-125,4,1,0,70,0,0
185082,-90.9090909090909,4,1,0,70,0,0
185184,-95.2380952380952,4,1,0,70,0,0
185287,-100,4,1,0,70,0,0
185390,-105.263157894737,4,1,0,70,0,0
185493,-111.111111111111,4,1,0,70,0,0
185596,-117.647058823529,4,1,0,70,0,0
185699,-125,4,1,0,70,0,0
185930,-86.9565217391304,4,1,0,70,0,0
185998,-88.4955752212389,4,1,0,70,0,0
186067,-90.0900900900901,4,1,0,70,0,0
186135,-91.743119266055,4,1,0,70,0,0
186238,-89.2857142857143,4,1,0,70,0,0
186315,-86.9565217391304,4,1,0,70,0,0
186383,-88.4955752212389,4,1,0,70,0,0
186452,-90.0900900900901,4,1,0,70,0,0
186520,-91.743119266055,4,1,0,70,0,0
186623,-89.2857142857143,4,1,0,70,0,0
186726,-86.9565217391304,4,1,0,70,0,0
186794,-88.4955752212389,4,1,0,70,0,0
186863,-90.0900900900901,4,1,0,70,0,0
186931,-91.743119266055,4,1,0,70,0,0
187034,-89.2857142857143,4,1,0,70,0,0
187137,-86.9565217391304,4,1,0,70,0,0
187205,-88.4955752212389,4,1,0,70,0,0
187274,-90.0900900900901,4,1,0,70,0,0
187342,-91.743119266055,4,1,0,70,0,0
187445,-89.2857142857143,4,1,0,70,0,0
187548,-86.9565217391304,4,1,0,70,0,0
187616,-88.4955752212389,4,1,0,70,0,0
187685,-90.0900900900901,4,1,0,70,0,0
187753,-91.743119266055,4,1,0,70,0,0
187856,-89.2857142857143,4,1,0,70,0,0
187959,-86.9565217391304,4,1,0,70,0,0
188027,-88.4955752212389,4,1,0,70,0,0
188096,-90.0900900900901,4,1,0,70,0,0
188164,-91.743119266055,4,1,0,70,0,0
188267,-89.2857142857143,4,1,0,70,0,0
188370,-86.9565217391304,4,1,0,70,0,0
188438,-88.4955752212389,4,1,0,70,0,0
188507,-90.0900900900901,4,1,0,70,0,0
188575,-91.743119266055,4,1,0,70,0,0
188678,-89.2857142857143,4,1,0,70,0,0
188781,-86.9565217391304,4,1,0,70,0,0
188849,-88.4955752212389,4,1,0,70,0,0
188918,-90.0900900900901,4,1,0,70,0,0
188986,-91.743119266055,4,1,0,70,0,0
189089,-89.2857142857143,4,1,0,70,0,0
189192,-86.9565217391304,4,1,0,70,0,0
189260,-88.4955752212389,4,1,0,70,0,0
189329,-90.0900900900901,4,1,0,70,0,0
189397,-91.743119266055,4,1,0,70,0,0
189500,-89.2857142857143,4,1,0,70,0,0
189603,-86.9565217391304,4,1,0,70,0,0
189671,-88.4955752212389,4,1,0,70,0,0
189740,-90.0900900900901,4,1,0,70,0,0
189808,-91.743119266055,4,1,0,70,0,0
189911,-89.2857142857143,4,1,0,70,0,0
190013,-86.9565217391304,4,1,0,70,0,0
190081,-88.4955752212389,4,1,0,70,0,0
190150,-90.0900900900901,4,1,0,70,0,0
190218,-91.743119266055,4,1,0,70,0,0
190321,-89.2857142857143,4,1,0,70,0,0
190424,-86.9565217391304,4,1,0,70,0,0
190492,-88.4955752212389,4,1,0,70,0,0
190561,-90.0900900900901,4,1,0,70,0,0
190629,-91.743119266055,4,1,0,70,0,0
190732,-89.2857142857143,4,1,0,70,0,0
190835,-86.9565217391304,4,1,0,70,0,0
190903,-88.4955752212389,4,1,0,70,0,0
190972,-90.0900900900901,4,1,0,70,0,0
191040,-91.743119266055,4,1,0,70,0,0
191143,-89.2857142857143,4,1,0,70,0,0
191246,-86.9565217391304,4,1,0,70,0,0
191314,-88.4955752212389,4,1,0,70,0,0
191383,-90.0900900900901,4,1,0,70,0,0
191451,-91.743119266055,4,1,0,70,0,0
191554,-89.2857142857143,4,1,0,70,0,0
191657,-86.9565217391304,4,1,0,70,0,0
191725,-88.4955752212389,4,1,0,70,0,0
191794,-90.0900900900901,4,1,0,70,0,0
191862,-91.743119266055,4,1,0,70,0,0
191965,-89.2857142857143,4,1,0,70,0,0
192068,-86.9565217391304,4,1,0,70,0,0
192136,-88.4955752212389,4,1,0,70,0,0
192205,-90.0900900900901,4,1,0,70,0,0
192273,-91.743119266055,4,1,0,70,0,0
192376,-89.2857142857143,4,1,0,70,0,0
192479,-86.9565217391304,4,1,0,70,0,0
192547,-88.4955752212389,4,1,0,70,0,0
192616,-90.0900900900901,4,1,0,70,0,0
192684,-91.743119266055,4,1,0,70,0,0
192787,-89.2857142857143,4,1,0,70,0,0
192890,-86.9565217391304,4,1,0,70,0,0
192958,-88.4955752212389,4,1,0,70,0,0
193027,-90.0900900900901,4,1,0,70,0,0
193095,-91.743119266055,4,1,0,70,0,0
193198,-89.2857142857143,4,1,0,70,0,0
193301,-86.9565217391304,4,1,0,70,0,0
193369,-88.4955752212389,4,1,0,70,0,0
193438,-90.0900900900901,4,1,0,70,0,0
193506,-91.743119266055,4,1,0,70,0,0
193609,-89.2857142857143,4,1,0,70,0,0
193712,-86.9565217391304,4,1,0,70,0,0
193780,-88.4955752212389,4,1,0,70,0,0
193849,-90.0900900900901,4,1,0,70,0,0
193917,-91.743119266055,4,1,0,70,0,0
194020,-89.2857142857143,4,1,0,70,0,0
194123,-86.9565217391304,4,1,0,70,0,0
194191,-88.4955752212389,4,1,0,70,0,0
194260,-90.0900900900901,4,1,0,70,0,0
194328,-91.743119266055,4,1,0,70,0,0
194431,-89.2857142857143,4,1,0,70,0,0
194534,-86.9565217391304,4,1,0,70,0,0
194602,-88.4955752212389,4,1,0,70,0,0
194671,-90.0900900900901,4,1,0,70,0,0
194739,-91.743119266055,4,1,0,70,0,0
194842,-89.2857142857143,4,1,0,70,0,0
194945,-86.9565217391304,4,1,0,70,0,0
195013,-88.4955752212389,4,1,0,70,0,0
195082,-90.0900900900901,4,1,0,70,0,0
195150,-91.743119266055,4,1,0,70,0,0
195253,-89.2857142857143,4,1,0,70,0,0
195356,-86.9565217391304,4,1,0,70,0,0
195424,-88.4955752212389,4,1,0,70,0,0
195493,-90.0900900900901,4,1,0,70,0,0
195561,-91.743119266055,4,1,0,70,0,0
195664,-89.2857142857143,4,1,0,70,0,0
195767,-86.9565217391304,4,1,0,70,0,0
195835,-88.4955752212389,4,1,0,70,0,0
195904,-90.0900900900901,4,1,0,70,0,0
195972,-91.743119266055,4,1,0,70,0,0
196075,-89.2857142857143,4,1,0,70,0,0
196178,-86.9565217391304,4,1,0,70,0,0
196246,-88.4955752212389,4,1,0,70,0,0
196315,-90.0900900900901,4,1,0,70,0,0
196383,-91.743119266055,4,1,0,70,0,0
196486,-89.2857142857143,4,1,0,70,0,0
196589,-86.9565217391304,4,1,0,70,0,0
196657,-88.4955752212389,4,1,0,70,0,0
196726,-90.0900900900901,4,1,0,70,0,0
196794,-91.743119266055,4,1,0,70,0,0
196897,-89.2857142857143,4,1,0,70,0,0
197000,-86.9565217391304,4,1,0,70,0,0
197068,-88.4955752212389,4,1,0,70,0,0
197137,-90.0900900900901,4,1,0,70,0,0
197205,-91.743119266055,4,1,0,70,0,0
197308,-89.2857142857143,4,1,0,70,0,0
197411,-86.9565217391304,4,1,0,70,0,0
197479,-88.4955752212389,4,1,0,70,0,0
197548,-90.0900900900901,4,1,0,70,0,0
197616,-91.743119266055,4,1,0,70,0,0
197719,-89.2857142857143,4,1,0,70,0,0
197822,-86.9565217391304,4,1,0,70,0,0
197890,-88.4955752212389,4,1,0,70,0,0
197959,-90.0900900900901,4,1,0,70,0,0
198027,-91.743119266055,4,1,0,70,0,0
198130,-89.2857142857143,4,1,0,70,0,0
198233,-86.9565217391304,4,1,0,70,0,0
198301,-88.4955752212389,4,1,0,70,0,0
198370,-90.0900900900901,4,1,0,70,0,0
198438,-91.743119266055,4,1,0,70,0,0
198541,-89.2857142857143,4,1,0,70,0,0
198644,-86.9565217391304,4,1,0,70,0,0
198712,-88.4955752212389,4,1,0,70,0,0
198781,-90.0900900900901,4,1,0,70,0,0
198849,-91.743119266055,4,1,0,70,0,0
198952,-89.2857142857143,4,1,0,70,0,0
199055,-86.9565217391304,4,1,0,70,0,0
199123,-88.4955752212389,4,1,0,70,0,0
199192,-90.0900900900901,4,1,0,70,0,0
199260,-91.743119266055,4,1,0,70,0,0
199363,-89.2857142857143,4,1,0,70,0,0
199466,-86.9565217391304,4,1,0,70,0,0
199534,-88.4955752212389,4,1,0,70,0,0
199603,-90.0900900900901,4,1,0,70,0,0
199671,-91.743119266055,4,1,0,70,0,0
199774,-89.2857142857143,4,1,0,70,0,0
199876,-86.9565217391304,4,1,0,70,0,0
199944,-88.4955752212389,4,1,0,70,0,0
200013,-90.0900900900901,4,1,0,70,0,0
200081,-91.743119266055,4,1,0,70,0,0
200184,-89.2857142857143,4,1,0,70,0,0
200287,-86.9565217391304,4,1,0,70,0,0
200355,-88.4955752212389,4,1,0,70,0,0
200424,-90.0900900900901,4,1,0,70,0,0
200492,-91.743119266055,4,1,0,70,0,0
200595,-89.2857142857143,4,1,0,70,0,0
200698,-86.9565217391304,4,1,0,70,0,0
200766,-88.4955752212389,4,1,0,70,0,0
200835,-90.0900900900901,4,1,0,70,0,0
200903,-91.743119266055,4,1,0,70,0,0
201006,-89.2857142857143,4,1,0,70,0,0
201109,-86.9565217391304,4,1,0,70,0,0
201177,-88.4955752212389,4,1,0,70,0,0
201246,-90.0900900900901,4,1,0,70,0,0
201314,-91.743119266055,4,1,0,70,0,0
201417,-89.2857142857143,4,1,0,70,0,0
201519,-86.9565217391304,4,1,0,70,0,0
201587,-88.4955752212389,4,1,0,70,0,0
201656,-90.0900900900901,4,1,0,70,0,0
201724,-91.743119266055,4,1,0,70,0,0
201827,-89.2857142857143,4,1,0,70,0,0
201930,-86.9565217391304,4,1,0,70,0,0
201998,-88.4955752212389,4,1,0,70,0,0
202067,-90.0900900900901,4,1,0,70,0,0
202135,-91.743119266055,4,1,0,70,0,0
202238,-89.2857142857143,4,1,0,70,0,0
202342,-86.9565217391304,4,1,0,70,0,0
202410,-88.4955752212389,4,1,0,70,0,0
202479,-90.0900900900901,4,1,0,70,0,0
202547,-91.743119266055,4,1,0,70,0,0
202650,-89.2857142857143,4,1,0,70,0,0
202753,-86.9565217391304,4,1,0,70,0,0
202821,-88.4955752212389,4,1,0,70,0,0
202890,-90.0900900900901,4,1,0,70,0,0
202958,-91.743119266055,4,1,0,70,0,0
203061,-89.2857142857143,4,1,0,70,0,0
203163,-86.9565217391304,4,1,0,70,0,0
203231,-88.4955752212389,4,1,0,70,0,0
203300,-90.0900900900901,4,1,0,70,0,0
203368,-91.743119266055,4,1,0,70,0,0
203471,-89.2857142857143,4,1,0,70,0,0
203574,-86.9565217391304,4,1,0,70,0,0
203642,-88.4955752212389,4,1,0,70,0,0
203711,-90.0900900900901,4,1,0,70,0,0
203779,-91.743119266055,4,1,0,70,0,0
203882,-89.2857142857143,4,1,0,70,0,0
203986,-86.9565217391304,4,1,0,70,0,0
204054,-88.4955752212389,4,1,0,70,0,0
204123,-90.0900900900901,4,1,0,70,0,0
204191,-91.743119266055,4,1,0,70,0,0
204294,-89.2857142857143,4,1,0,70,0,0
204397,-86.9565217391304,4,1,0,70,0,0
204465,-88.4955752212389,4,1,0,70,0,0
204534,-90.0900900900901,4,1,0,70,0,0
204602,-91.743119266055,4,1,0,70,0,0
204705,-89.2857142857143,4,1,0,70,0,0
204807,-86.9565217391304,4,1,0,70,0,0
204875,-88.4955752212389,4,1,0,70,0,0
204944,-90.0900900900901,4,1,0,70,0,0
205012,-91.743119266055,4,1,0,70,0,0
205115,-89.2857142857143,4,1,0,70,0,0
205218,-86.9565217391304,4,1,0,70,0,0
205286,-88.4955752212389,4,1,0,70,0,0
205355,-90.0900900900901,4,1,0,70,0,0
205423,-91.743119266055,4,1,0,70,0,0
205526,-89.2857142857143,4,1,0,70,0,0
205630,-86.9565217391304,4,1,0,70,0,0
205698,-88.4955752212389,4,1,0,70,0,0
205767,-90.0900900900901,4,1,0,70,0,0
205835,-91.743119266055,4,1,0,70,0,0
205938,-89.2857142857143,4,1,0,70,0,0
206041,-86.9565217391304,4,1,0,70,0,0
206109,-88.4955752212389,4,1,0,70,0,0
206178,-90.0900900900901,4,1,0,70,0,0
206246,-91.743119266055,4,1,0,70,0,0
206349,-89.2857142857143,4,1,0,70,0,0
206451,-86.9565217391304,4,1,0,70,0,0
206519,-88.4955752212389,4,1,0,70,0,0
206588,-90.0900900900901,4,1,0,70,0,0
206656,-91.743119266055,4,1,0,70,0,0
206759,-89.2857142857143,4,1,0,70,0,0
206862,-86.9565217391304,4,1,0,70,0,0
206930,-88.4955752212389,4,1,0,70,0,0
206999,-90.0900900900901,4,1,0,70,0,0
207067,-91.743119266055,4,1,0,70,0,0
207170,-89.2857142857143,4,1,0,70,0,0
207274,-86.9565217391304,4,1,0,70,0,0
207342,-88.4955752212389,4,1,0,70,0,0
207411,-90.0900900900901,4,1,0,70,0,0
207479,-91.743119266055,4,1,0,70,0,0
207582,-89.2857142857143,4,1,0,70,0,0
207685,-86.9565217391304,4,1,0,70,0,0
207753,-88.4955752212389,4,1,0,70,0,0
207822,-90.0900900900901,4,1,0,70,0,0
207890,-91.743119266055,4,1,0,70,0,0
207993,-89.2857142857143,4,1,0,70,0,0
208095,-86.9565217391304,4,1,0,70,0,0
208163,-88.4955752212389,4,1,0,70,0,0
208232,-90.0900900900901,4,1,0,70,0,0
208300,-91.743119266055,4,1,0,70,0,0
208403,-89.2857142857143,4,1,0,70,0,0
208506,-86.9565217391304,4,1,0,70,0,0
208574,-88.4955752212389,4,1,0,70,0,0
208643,-90.0900900900901,4,1,0,70,0,0
208711,-91.743119266055,4,1,0,70,0,0
208814,-89.2857142857143,4,1,0,70,0,0
208918,-86.9565217391304,4,1,0,70,0,0
208986,-88.4955752212389,4,1,0,70,0,0
209055,-90.0900900900901,4,1,0,70,0,0
209123,-91.743119266055,4,1,0,70,0,0
209226,-89.2857142857143,4,1,0,70,0,0
209329,-86.9565217391304,4,1,0,70,0,0
209397,-88.4955752212389,4,1,0,70,0,0
209466,-90.0900900900901,4,1,0,70,0,0
209534,-91.743119266055,4,1,0,70,0,0
209637,-89.2857142857143,4,1,0,70,0,0
209739,-86.9565217391304,4,1,0,70,0,0
209807,-88.4955752212389,4,1,0,70,0,0
209876,-90.0900900900901,4,1,0,70,0,0
209944,-91.743119266055,4,1,0,70,0,0
210150,-86.9565217391304,4,1,0,70,0,0
210355,-82.6446280991736,4,1,0,70,0,0
212025,-200,4,1,0,50,0,0
223506,-307.692307692308,4,1,0,50,0,0
225150,-400,4,1,0,50,0,0
238327,-142.857142857143,4,1,0,50,0,0
238532,-140.352650068562,4,1,0,50,0,0
238738,-137.934649321844,4,1,0,50,0,0
238943,-135.59836848043,4,1,0,50,0,0
239046,-134.459747457702,4,1,0,50,0,0
239149,-133.339911435631,4,1,0,50,0,0
239251,-132.238749127224,4,1,0,50,0,0
239457,-130.089931169417,4,1,0,50,0,0
239560,-129.0415823595,4,1,0,50,0,0
239765,-126.994609078845,4,1,0,50,0,0
239868,-125.995363370628,4,1,0,50,0,0
239971,-125.01156356963,4,1,0,50,0,0
240176,-123.089648652907,4,1,0,50,0,0
240382,-121.225786664436,4,1,0,50,0,0
240587,-119.417529060256,4,1,0,50,0,0
240793,-117.662562596483,4,1,0,50,0,0
240895,-116.804145145503,4,1,0,50,0,0
240998,-115.958296758154,4,1,0,50,0,0
241101,-115.124478342208,4,1,0,50,0,0
241204,-114.302696400608,4,1,0,50,0,0
241306,-113.492563399783,4,1,0,50,0,0
241512,-111.906142080514,4,1,0,50,0,0
241615,-111.129509218748,4,1,0,50,0,0
241820,-109.608019799593,4,1,0,50,0,0
242025,-108.127629528791,4,1,0,50,0,0
242231,-106.686809136232,4,1,0,50,0,0
242334,-105.980590714617,4,1,0,50,0,0
242436,-105.283771348917,4,1,0,50,0,0
242539,-104.596055264372,4,1,0,50,0,0
242745,-103.247121986475,4,1,0,50,0,0
242847,-102.585566621119,4,1,0,50,0,0
243053,-101.28777274265,4,1,0,50,0,0
243156,-100.65101073745,4,1,0,50,0,0
243258,-100.022304974009,4,1,0,50,0,0
243464,-98.7880679819969,4,1,0,50,0,0
243669,-97.5840149576778,4,1,0,50,0,0
243875,-96.4088661449662,4,1,0,50,0,0
243978,-95.8318878690247,4,1,0,50,0,0
244080,-95.2616838455237,4,1,0,50,0,0
244183,-94.6983148434874,4,1,0,50,0,0
244286,-94.141570093106,4,1,0,50,0,0
244388,-93.5912458492282,4,1,0,50,0,0
244491,-93.0474048613547,4,1,0,50,0,0
244594,-92.5097620926448,4,1,0,50,0,0
244697,-91.9783814012355,4,1,0,50,0,0
244799,-91.4530703996591,4,1,0,50,0,0
244902,-90.9336429926989,4,1,0,50,0,0
245108,-89.9124522452488,4,1,0,50,0,0
245313,-88.9138638053,4,1,0,50,0,0
245519,-87.9372128300393,4,1,0,50,0,0
245724,-86.981859933111,4,1,0,50,0,0
245930,-86.046967876946,4,1,0,50,0,0
246135,-85.1319587927267,4,1,0,50,0,0
246341,-84.2362050578787,4,1,0,50,0,0
246443,-83.7953951078572,4,1,0,50,0,0
246546,-83.3591746774834,4,1,0,50,0,0
246751,-82.5001505627748,4,1,0,50,0,0
246957,-81.6586505091417,4,1,0,50,0,0
247162,-80.8342090372646,4,1,0,50,0,0
247368,-80.0261845675905,4,1,0,50,0,0
247573,-79.2341543576408,4,1,0,50,0,0
247779,-78.4577097253039,4,1,0,50,0,0
247882,-78.0751051281291,4,1,0,50,0,0
247984,-77.6962743859469,4,1,0,50,0,0
248087,-77.3210423804365,4,1,0,50,0,0
248190,-76.9494765127113,4,1,0,50,0,0
248293,-76.5814646817772,4,1,0,50,0,0
248395,-76.2168980484663,4,1,0,50,0,0
248498,-75.8558435549082,4,1,0,50,0,0
248601,-75.4981937057156,4,1,0,50,0,0
248704,-75.1438441035753,4,1,0,50,0,0
248806,-74.792861170987,4,1,0,50,0,0
248909,-74.4451417472721,4,1,0,50,0,0
249012,-74.1005856169281,4,1,0,50,0,0
249115,-73.7592586309397,4,1,0,50,0,0
249217,-73.421061712605,4,1,0,50,0,0
249320,-73.0858985874688,4,1,0,50,0,0
249423,-72.7538344908468,4,1,0,50,0,0
249525,-72.4247741976602,4,1,0,50,0,0
249628,-72.098625151317,4,1,0,50,0,0
249731,-71.7754519341331,4,1,0,50,0,0
249834,-71.4551118987052,4,1,0,50,0,0
250013,-76.1641886647885,4,1,0,70,0,0
250116,-78.7755134194087,4,1,0,70,0,0
250322,-84.5749642882213,4,1,0,70,0,0
250527,-91.2961033910112,4,1,0,70,0,0
250630,-95.0739342449656,4,1,0,70,0,0
250835,-103.651969853861,4,1,0,70,0,0
250938,-108.548875216555,4,1,0,70,0,0
251143,-119.875760761547,4,1,0,70,0,0
251478,-142.120754320116,4,1,0,90,0,1
251863,-76.9230769230769,4,1,0,90,0,1
251965,-83.3333333333333,4,1,0,90,0,1
252068,-90.9090909090909,4,1,0,90,0,1
252171,-99.9999999999999,4,1,0,90,0,1
252274,-76.9230769230769,4,1,0,90,0,1
252376,-80,4,1,0,90,0,1
252428,-81.6326530612245,4,1,0,90,0,1
252479,-83.3333333333333,4,1,0,90,0,1
252582,-86.9565217391304,4,1,0,90,0,1
252685,-90.9090909090909,4,1,0,90,0,1
252822,-95.2380952380952,4,1,0,90,0,1
252959,-99.9999999999999,4,1,0,90,0,1
253096,-105.263157894737,4,1,0,90,0,1
253198,-76.9230769230769,4,1,0,90,0,1
253301,-83.3333333333333,4,1,0,90,0,1
253404,-90.9090909090909,4,1,0,90,0,1
253506,-76.9230769230769,4,1,0,90,0,1
253558,-80,4,1,0,90,0,1
253609,-83.3333333333333,4,1,0,90,0,1
253661,-86.9565217391304,4,1,0,90,0,1
253712,-90.9090909090909,4,1,0,90,0,1
253815,-95.2380952380952,4,1,0,90,0,1
253917,-90.9090909090909,4,1,0,90,0,1
254020,-86.9565217391304,4,1,0,90,0,1
254123,-83.3333333333333,4,1,0,90,0,1
254226,-80,4,1,0,90,0,1
254328,-76.9230769230769,4,1,0,90,0,1
254431,-83.3333333333333,4,1,0,90,0,1
254534,-90.9090909090909,4,1,0,90,0,1
254637,-100,4,1,0,90,0,1
254739,-76.9230769230769,4,1,0,90,0,1
255150,-76.9230769230769,4,1,0,90,0,1
255253,-83.3333333333333,4,1,0,90,0,1
255356,-90.9090909090909,4,1,0,90,0,1
255459,-100,4,1,0,90,0,1
255561,-76.9230769230769,4,1,0,90,0,1
255630,-81.0832725208789,4,1,0,90,0,1
255698,-85.7118368046627,4,1,0,90,0,1
255767,-90.9090909090909,4,1,0,90,0,1
255835,-96.7773153972709,4,1,0,90,0,1
255904,-103.444708803145,4,1,0,90,0,1
255972,-111.111111111111,4,1,0,90,0,1
256075,-100,4,1,0,90,0,1
256178,-90.9090909090909,4,1,0,90,0,1
256280,-83.3333333333333,4,1,0,90,0,1
256383,-76.9230769230769,4,1,0,90,0,1
256486,-83.3333333333333,4,1,0,90,0,1
256589,-90.9090909090909,4,1,0,90,0,1
256691,-76.9230769230769,4,1,0,90,0,1
256794,-83.3333333333333,4,1,0,90,0,1
256897,-90.9090909090909,4,1,0,90,0,1
257000,-100,4,1,0,90,0,1
257102,-111.111111111111,4,1,0,90,0,1
257205,-76.9230769230769,4,1,0,90,0,1
257308,-83.3333333333333,4,1,0,90,0,1
257411,-90.9090909090909,4,1,0,90,0,1
257513,-100,4,1,0,90,0,1
257616,-76.9230769230769,4,1,0,90,0,1
257719,-83.3333333333333,4,1,0,90,0,1
258027,-76.9230769230769,4,1,0,90,0,1
258437,-76.9230769230769,4,1,0,90,0,1
258539,-83.3333333333333,4,1,0,90,0,1
258642,-90.9090909090909,4,1,0,90,0,1
258745,-99.9999999999999,4,1,0,90,0,1
258848,-76.9230769230769,4,1,0,90,0,1
258950,-80,4,1,0,90,0,1
259002,-81.6326530612245,4,1,0,90,0,1
259053,-83.3333333333333,4,1,0,90,0,1
259156,-86.9565217391304,4,1,0,90,0,1
259259,-90.9090909090909,4,1,0,90,0,1
259396,-95.2380952380952,4,1,0,90,0,1
259533,-99.9999999999999,4,1,0,90,0,1
259670,-105.263157894737,4,1,0,90,0,1
259772,-76.9230769230769,4,1,0,90,0,1
259875,-83.3333333333333,4,1,0,90,0,1
259978,-90.9090909090909,4,1,0,90,0,1
260080,-76.9230769230769,4,1,0,90,0,1
260132,-80,4,1,0,90,0,1
260183,-83.3333333333333,4,1,0,90,0,1
260235,-86.9565217391304,4,1,0,90,0,1
260286,-90.9090909090909,4,1,0,90,0,1
260389,-95.2380952380952,4,1,0,90,0,1
260491,-90.9090909090908,4,1,0,90,0,1
260594,-86.9565217391304,4,1,0,90,0,1
260697,-83.3333333333333,4,1,0,90,0,1
260800,-80,4,1,0,90,0,1
260902,-76.9230769230769,4,1,0,90,0,1
261005,-83.3333333333333,4,1,0,90,0,1
261108,-90.9090909090909,4,1,0,90,0,1
261211,-100,4,1,0,90,0,1
261313,-76.9230769230769,4,1,0,90,0,1
261416,-83.3333333333333,4,1,0,90,0,1
261519,-90.9090909090909,4,1,0,90,0,1
261622,-100,4,1,0,90,0,1
261724,-76.9230769230769,4,1,0,90,0,1
261827,-83.3333333333333,4,1,0,90,0,1
261930,-90.9090909090909,4,1,0,90,0,1
262033,-100,4,1,0,90,0,1
262135,-76.9230769230769,4,1,0,90,0,1
262238,-83.3333333333333,4,1,0,90,0,1
262341,-90.9090909090909,4,1,0,90,0,1
262410,-98.0392156862745,4,1,0,90,0,1
262478,-106.382978723404,4,1,0,90,0,1
262546,-116.279069767442,4,1,0,90,0,1
262649,-100,4,1,0,90,0,1
262752,-90.9090909090909,4,1,0,90,0,1
262854,-83.3333333333333,4,1,0,90,0,1
262984,-76.9230769230769,4,1,0,90,0,0
263369,-90.9090909090909,4,1,0,90,0,0
263575,-100,4,1,0,90,0,0
263678,-105.263157894737,4,1,0,90,0,0
263883,-117.647058823529,4,1,0,90,0,0
263986,-125,4,1,0,90,0,0
264089,-133.333333333333,4,1,0,90,0,0
264191,-142.857142857143,4,1,0,90,0,0
264602,-200,4,1,0,90,0,0
264808,-166.666666666667,4,1,0,90,0,0
264911,-153.846153846154,4,1,0,90,0,0
265013,-142.857142857143,4,1,0,90,0,0
265116,-133.333333333333,4,1,0,90,0,0
265219,-125,4,1,0,90,0,0
265322,-117.647058823529,4,1,0,90,0,0
265424,-111.111111111111,4,1,0,90,0,0
265527,-105.263157894737,4,1,0,90,0,0
265630,-100,4,1,0,90,0,0
265732,-95.2380952380952,4,1,0,90,0,0
265835,-90.9090909090909,4,1,0,90,0,0
265938,-86.9565217391304,4,1,0,90,0,0
266041,-83.3333333333333,4,1,0,90,0,0
266143,-80,4,1,0,90,0,0
266272,-76.9230769230769,4,1,0,90,0,1
266656,-76.9230769230769,4,1,0,90,0,1
266708,-80,4,1,0,90,0,1
266759,-83.3333333333333,4,1,0,90,0,1
266811,-86.9565217391304,4,1,0,90,0,1
266862,-90.9090909090909,4,1,0,90,0,1
266965,-95.2380952380952,4,1,0,90,0,1
267067,-90.9090909090908,4,1,0,90,0,1
267170,-86.9565217391304,4,1,0,90,0,1
267273,-83.3333333333333,4,1,0,90,0,1
267376,-80,4,1,0,90,0,1
267478,-76.9230769230769,4,1,0,90,0,1
267581,-83.3333333333333,4,1,0,90,0,1
267684,-90.9090909090909,4,1,0,90,0,1
267787,-100,4,1,0,90,0,1
267889,-76.9230769230769,4,1,0,90,0,1
268300,-76.9230769230769,4,1,0,90,0,1
268403,-83.3333333333333,4,1,0,90,0,1
268506,-90.9090909090909,4,1,0,90,0,1
268609,-100,4,1,0,90,0,1
268711,-76.9230769230769,4,1,0,90,0,1
268780,-81.0832725208789,4,1,0,90,0,1
268849,-85.7118368046627,4,1,0,90,0,1
268917,-90.9090909090909,4,1,0,90,0,1
268986,-96.7773153972709,4,1,0,90,0,1
269054,-103.444708803145,4,1,0,90,0,1
269122,-111.111111111111,4,1,0,90,0,1
269225,-100,4,1,0,90,0,1
269328,-90.9090909090909,4,1,0,90,0,1
269430,-83.3333333333333,4,1,0,90,0,1
269533,-76.9230769230769,4,1,0,90,0,1
269636,-83.3333333333333,4,1,0,90,0,1
269739,-90.9090909090909,4,1,0,90,0,1
269841,-76.9230769230769,4,1,0,90,0,1
269944,-83.3333333333333,4,1,0,90,0,1
270047,-90.9090909090909,4,1,0,90,0,1
270150,-100,4,1,0,90,0,1
270252,-111.111111111111,4,1,0,90,0,1
270355,-76.9230769230769,4,1,0,90,0,1
270458,-83.3333333333333,4,1,0,90,0,1
270561,-90.9090909090909,4,1,0,90,0,1
270663,-100,4,1,0,90,0,1
270766,-76.9230769230769,4,1,0,90,0,1
270869,-83.3333333333333,4,1,0,90,0,1
271177,-76.9230769230769,4,1,0,90,0,1
271587,-76.9230769230769,4,1,0,90,0,1
271689,-83.3333333333333,4,1,0,90,0,1
271792,-90.9090909090909,4,1,0,90,0,1
271895,-99.9999999999999,4,1,0,90,0,1
271998,-76.9230769230769,4,1,0,90,0,1
272100,-80,4,1,0,90,0,1
272152,-81.6326530612245,4,1,0,90,0,1
272203,-83.3333333333333,4,1,0,90,0,1
272306,-86.9565217391304,4,1,0,90,0,1
272409,-90.9090909090909,4,1,0,90,0,1
272478,-93.0232558139535,4,1,0,90,0,1
272546,-95.2380952380952,4,1,0,90,0,1
272683,-99.9999999999999,4,1,0,90,0,1
272820,-105.263157894737,4,1,0,90,0,1
272922,-76.9230769230769,4,1,0,90,0,1
273025,-83.3333333333333,4,1,0,90,0,1
273128,-90.9090909090909,4,1,0,90,0,1
273230,-76.9230769230769,4,1,0,90,0,1
273282,-80,4,1,0,90,0,1
273333,-83.3333333333333,4,1,0,90,0,1
273385,-86.9565217391304,4,1,0,90,0,1
273436,-90.9090909090909,4,1,0,90,0,1
273539,-95.2380952380952,4,1,0,90,0,1
273641,-90.9090909090908,4,1,0,90,0,1
273744,-86.9565217391304,4,1,0,90,0,1
273847,-83.3333333333333,4,1,0,90,0,1
273950,-80,4,1,0,90,0,1
274052,-76.9230769230769,4,1,0,90,0,1
274155,-83.3333333333333,4,1,0,90,0,1
274258,-90.9090909090909,4,1,0,90,0,1
274361,-100,4,1,0,90,0,1
274463,-76.9230769230769,4,1,0,90,0,1
274566,-83.3333333333333,4,1,0,90,0,1
274669,-90.9090909090909,4,1,0,90,0,1
274772,-100,4,1,0,90,0,1
274874,-76.9230769230769,4,1,0,90,0,1
274977,-83.3333333333333,4,1,0,90,0,1
275080,-90.9090909090909,4,1,0,90,0,1
275183,-100,4,1,0,90,0,1
275285,-76.9230769230769,4,1,0,90,0,1
275388,-83.3333333333333,4,1,0,90,0,1
275491,-90.9090909090909,4,1,0,90,0,1
275560,-98.0392156862745,4,1,0,90,0,1
275628,-106.382978723404,4,1,0,90,0,1
275696,-116.279069767442,4,1,0,90,0,1
275799,-100,4,1,0,90,0,1
275902,-90.9090909090909,4,1,0,90,0,1
276004,-83.3333333333333,4,1,0,90,0,1
276135,-76.9230769230769,4,1,0,90,0,0
276520,-90.9090909090909,4,1,0,90,0,0
276726,-100,4,1,0,90,0,0
276931,-111.111111111111,4,1,0,90,0,0
277137,-125,4,1,0,90,0,0
277342,-76.9230769230769,4,1,0,90,0,0
277779,-100,4,1,0,70,0,0
278190,-100,4,1,0,30,0,0
297505,-100,4,1,0,25,0,0
299149,-100,4,1,0,20,0,0
300793,-100,4,1,0,15,0,0
302436,-100,4,1,0,10,0,0

[HitObjects]
256,192,1615,5,0,0:0:0:0:
256,192,2231,1,0,0:0:0:0:
256,192,2847,1,8,0:0:0:0:
256,192,4902,1,0,0:0:0:0:
256,192,5519,1,8,0:0:0:0:
256,192,8190,1,0,0:0:0:0:
256,192,8806,1,8,0:0:0:0:
256,192,9423,1,0,0:0:0:0:
256,192,11067,1,0,0:0:0:0:
256,192,11478,1,0,0:0:0:0:
256,192,12094,1,8,0:0:0:0:
256,192,12710,1,0,0:0:0:0:
256,192,14765,1,0,0:0:0:0:
256,192,15382,1,0,0:0:0:0:
256,192,15998,1,8,0:0:0:0:
256,192,16615,1,0,0:0:0:0:
256,192,18053,1,0,0:0:0:0:
256,192,18669,1,8,0:0:0:0:
256,192,19286,1,0,0:0:0:0:
256,192,20930,1,0,0:0:0:0:
256,192,21341,1,8,0:0:0:0:
256,192,21957,1,0,0:0:0:0:
256,192,22573,1,0,0:0:0:0:
256,192,23190,1,0,0:0:0:0:
256,192,24217,1,0,0:0:0:0:
256,192,24628,1,8,0:0:0:0:
256,192,25245,1,0,0:0:0:0:
256,192,25861,1,8,0:0:0:0:
256,192,27916,1,0,0:0:0:0:
256,192,28532,1,0,0:0:0:0:
256,192,29149,1,8,0:0:0:0:
256,192,31204,1,0,0:0:0:0:
256,192,31820,1,8,0:0:0:0:
256,192,34491,1,0,0:0:0:0:
256,192,35108,1,8,0:0:0:0:
256,192,35724,1,0,0:0:0:0:
256,192,37779,1,0,0:0:0:0:
256,192,38395,1,8,0:0:0:0:
256,192,41067,1,0,0:0:0:0:
256,192,41683,1,0,0:0:0:0:
256,192,42299,1,8,0:0:0:0:
256,192,42916,1,0,0:0:0:0:
256,192,44354,1,0,0:0:0:0:
256,192,44971,1,8,0:0:0:0:
256,192,45587,1,0,0:0:0:0:
256,192,47231,1,0,0:0:0:0:
256,192,47642,1,8,0:0:0:0:
256,192,48258,1,0,0:0:0:0:
256,192,48875,1,0,0:0:0:0:
256,192,49491,1,0,0:0:0:0:
256,192,50519,1,0,0:0:0:0:
256,192,50930,1,8,0:0:0:0:
256,192,51546,1,0,0:0:0:0:
256,192,52162,1,0,0:0:0:0:
256,192,52573,1,8,0:0:0:0:
256,192,52984,8,0,54012,0:0:0:0:
256,192,54217,5,0,0:0:0:0:
256,192,54423,1,0,0:0:0:0:
256,192,54628,1,8,0:0:0:0:
256,192,54834,1,8,0:0:0:0:
256,192,54936,1,0,0:0:0:0:
256,192,55142,1,0,0:0:0:0:
256,192,55245,1,0,0:0:0:0:
256,192,55450,1,8,0:0:0:0:
256,192,55656,1,8,0:0:0:0:
256,192,55758,1,0,0:0:0:0:
256,192,55861,1,0,0:0:0:0:
256,192,56067,1,0,0:0:0:0:
256,192,56272,1,8,0:0:0:0:
256,192,56478,1,8,0:0:0:0:
256,192,56580,1,0,0:0:0:0:
256,192,56683,1,8,0:0:0:0:
256,192,56786,1,0,0:0:0:0:
256,192,56888,1,0,0:0:0:0:
256,192,57094,1,8,0:0:0:0:
256,192,57299,1,8,0:0:0:0:
256,192,57402,1,0,0:0:0:0:
256,192,57505,1,0,0:0:0:0:
256,192,57710,1,0,0:0:0:0:
256,192,57916,1,8,0:0:0:0:
256,192,58121,1,8,0:0:0:0:
256,192,58224,1,0,0:0:0:0:
256,192,58430,1,0,0:0:0:0:
256,192,58532,1,0,0:0:0:0:
256,192,58738,1,8,0:0:0:0:
256,192,58943,1,8,0:0:0:0:
256,192,59046,1,0,0:0:0:0:
256,192,59149,1,0,0:0:0:0:
256,192,59354,1,0,0:0:0:0:
256,192,59560,1,8,0:0:0:0:
256,192,59765,1,8,0:0:0:0:
256,192,59868,1,0,0:0:0:0:
256,192,60073,1,0,0:0:0:0:
256,192,60176,1,0,0:0:0:0:
256,192,60279,1,0,0:0:0:0:
256,192,60382,1,8,0:0:0:0:
256,192,60587,1,8,0:0:0:0:
256,192,60690,1,0,0:0:0:0:
256,192,60793,1,0,0:0:0:0:
256,192,60998,1,0,0:0:0:0:
256,192,61204,1,8,0:0:0:0:
256,192,61409,1,8,0:0:0:0:
256,192,61512,1,0,0:0:0:0:
256,192,61717,1,0,0:0:0:0:
256,192,61820,1,0,0:0:0:0:
256,192,62025,1,8,0:0:0:0:
256,192,62231,1,8,0:0:0:0:
256,192,62334,1,0,0:0:0:0:
256,192,62436,1,0,0:0:0:0:
256,192,62642,1,0,0:0:0:0:
256,192,62847,1,8,0:0:0:0:
256,192,63053,1,8,0:0:0:0:
256,192,63156,1,0,0:0:0:0:
256,192,63258,1,8,0:0:0:0:
256,192,63361,1,0,0:0:0:0:
256,192,63464,1,0,0:0:0:0:
256,192,63669,1,8,0:0:0:0:
256,192,63875,1,8,0:0:0:0:
256,192,63978,1,0,0:0:0:0:
256,192,64080,1,0,0:0:0:0:
256,192,64286,1,0,0:0:0:0:
256,192,64491,1,8,0:0:0:0:
256,192,64697,1,8,0:0:0:0:
256,192,64799,1,0,0:0:0:0:
256,192,65005,1,0,0:0:0:0:
256,192,65108,1,0,0:0:0:0:
256,192,65313,1,8,0:0:0:0:
256,192,65519,1,8,0:0:0:0:
256,192,65621,1,0,0:0:0:0:
256,192,65724,1,0,0:0:0:0:
256,192,65930,1,0,0:0:0:0:
256,192,66135,1,8,0:0:0:0:
256,192,66341,1,8,0:0:0:0:
256,192,66443,1,0,0:0:0:0:
256,192,66649,1,0,0:0:0:0:
256,192,66751,1,0,0:0:0:0:
256,192,66854,1,0,0:0:0:0:
256,192,66957,1,8,0:0:0:0:
256,192,67060,1,0,0:0:0:0:
256,192,67162,1,8,0:0:0:0:
256,192,67265,1,8,0:0:0:0:
256,192,67368,1,0,0:0:0:0:
256,192,67573,1,0,0:0:0:0:
256,192,67779,1,8,0:0:0:0:
256,192,67984,1,8,0:0:0:0:
256,192,68087,1,0,0:0:0:0:
256,192,68293,1,0,0:0:0:0:
256,192,68395,1,0,0:0:0:0:
256,192,68601,1,8,0:0:0:0:
256,192,68806,1,8,0:0:0:0:
256,192,68909,1,0,0:0:0:0:
256,192,69012,1,0,0:0:0:0:
256,192,69217,1,0,0:0:0:0:
256,192,69423,1,8,0:0:0:0:
256,192,69628,1,8,0:0:0:0:
256,192,69731,1,0,0:0:0:0:
256,192,69834,1,8,0:0:0:0:
256,192,69936,1,0,0:0:0:0:
256,192,70039,1,0,0:0:0:0:
256,192,70245,1,8,0:0:0:0:
256,192,70450,1,8,0:0:0:0:
256,192,70553,1,0,0:0:0:0:
256,192,70656,1,0,0:0:0:0:
256,192,70861,1,0,0:0:0:0:
256,192,71067,1,8,0:0:0:0:
256,192,71272,1,8,0:0:0:0:
256,192,71375,1,0,0:0:0:0:
256,192,71580,1,0,0:0:0:0:
256,192,71683,1,0,0:0:0:0:
256,192,71888,1,8,0:0:0:0:
256,192,72094,1,8,0:0:0:0:
256,192,72197,1,0,0:0:0:0:
256,192,72299,1,0,0:0:0:0:
256,192,72505,1,0,0:0:0:0:
256,192,72710,1,8,0:0:0:0:
256,192,72916,1,8,0:0:0:0:
256,192,73019,1,0,0:0:0:0:
256,192,73224,1,0,0:0:0:0:
256,192,73327,1,0,0:0:0:0:
256,192,73430,1,0,0:0:0:0:
256,192,73532,1,8,0:0:0:0:
256,192,73738,1,8,0:0:0:0:
256,192,73841,1,0,0:0:0:0:
256,192,73943,1,0,0:0:0:0:
256,192,74149,1,0,0:0:0:0:
256,192,74354,1,8,0:0:0:0:
256,192,74560,1,8,0:0:0:0:
256,192,74662,1,0,0:0:0:0:
256,192,74868,1,0,0:0:0:0:
256,192,74971,1,0,0:0:0:0:
256,192,75176,1,8,0:0:0:0:
256,192,75382,1,8,0:0:0:0:
256,192,75484,1,0,0:0:0:0:
256,192,75587,1,0,0:0:0:0:
256,192,75793,1,0,0:0:0:0:
256,192,75998,1,8,0:0:0:0:
256,192,76204,1,8,0:0:0:0:
256,192,76306,1,0,0:0:0:0:
256,192,76409,1,8,0:0:0:0:
256,192,76512,1,0,0:0:0:0:
256,192,76615,1,0,0:0:0:0:
256,192,76820,1,8,0:0:0:0:
256,192,77025,1,8,0:0:0:0:
256,192,77128,1,0,0:0:0:0:
256,192,77231,1,0,0:0:0:0:
256,192,77436,1,0,0:0:0:0:
256,192,77642,1,8,0:0:0:0:
256,192,77847,1,8,0:0:0:0:
256,192,77950,1,0,0:0:0:0:
256,192,78156,1,0,0:0:0:0:
256,192,78258,1,0,0:0:0:0:
256,192,78464,1,8,0:0:0:0:
256,192,78669,1,0,0:0:0:0:
256,192,78875,1,12,0:0:0:0:
256,192,79286,8,0,80313,0:0:0:0:
256,192,80519,5,0,0:0:0:0:
256,192,81341,1,0,0:0:0:0:
256,192,81751,1,0,0:0:0:0:
256,192,81957,1,0,0:0:0:0:
256,192,82573,1,8,0:0:0:0:
256,192,82984,1,8,0:0:0:0:
256,192,83395,1,0,0:0:0:0:
256,192,84217,1,8,0:0:0:0:
256,192,85245,1,0,0:0:0:0:
256,192,85450,1,8,0:0:0:0:
256,192,85861,1,0,0:0:0:0:
256,192,86272,1,0,0:0:0:0:
256,192,86683,1,8,0:0:0:0:
256,192,89149,1,8,0:0:0:0:
256,192,89354,1,0,0:0:0:0:
256,192,89765,1,0,0:0:0:0:
256,192,90176,1,0,0:0:0:0:
256,192,90382,8,0,93258,0:0:0:0:
256,192,93669,5,0,0:0:0:0:
256,192,94491,1,8,0:0:0:0:
256,192,95313,1,0,0:0:0:0:
256,192,95724,1,0,0:0:0:0:
256,192,96135,1,8,0:0:0:0:
256,192,96957,1,0,0:0:0:0:
256,192,97779,1,8,0:0:0:0:
256,192,98395,1,0,0:0:0:0:
256,192,98601,1,0,0:0:0:0:
256,192,99012,1,0,0:0:0:0:
256,192,99423,1,8,0:0:0:0:
256,192,100245,1,0,0:0:0:0:
256,192,101067,1,8,0:0:0:0:
256,192,101888,1,0,0:0:0:0:
256,192,102299,1,0,0:0:0:0:
256,192,102710,1,8,0:0:0:0:
256,192,103532,1,0,0:0:0:0:
256,192,104354,1,8,0:0:0:0:
256,192,104971,1,0,0:0:0:0:
256,192,105176,1,0,0:0:0:0:
256,192,105587,1,0,0:0:0:0:
256,192,105998,1,8,0:0:0:0:
256,192,106820,1,0,0:0:0:0:
256,192,107025,1,8,0:0:0:0:
256,192,107231,1,0,0:0:0:0:
256,192,107436,1,8,0:0:0:0:
256,192,107539,1,8,0:0:0:0:
256,192,107642,1,0,0:0:0:0:
256,192,107745,1,8,0:0:0:0:
256,192,107950,1,0,0:0:0:0:
256,192,108053,1,8,0:0:0:0:
256,192,108258,1,0,0:0:0:0:
256,192,108361,1,0,0:0:0:0:
256,192,108464,1,0,0:0:0:0:
256,192,108669,1,8,0:0:0:0:
256,192,108875,1,0,0:0:0:0:
256,192,109080,1,8,0:0:0:0:
256,192,109286,1,0,0:0:0:0:
256,192,109388,1,8,0:0:0:0:
256,192,109491,1,0,0:0:0:0:
256,192,109594,1,0,0:0:0:0:
256,192,109697,1,8,0:0:0:0:
256,192,109799,1,0,0:0:0:0:
256,192,110005,1,0,0:0:0:0:
256,192,110108,1,0,0:0:0:0:
256,192,110313,1,8,0:0:0:0:
256,192,110519,1,0,0:0:0:0:
256,192,110724,1,8,0:0:0:0:
256,192,110827,1,8,0:0:0:0:
256,192,110930,1,0,0:0:0:0:
256,192,111032,1,8,0:0:0:0:
256,192,111238,1,0,0:0:0:0:
256,192,111341,1,8,0:0:0:0:
256,192,111546,1,0,0:0:0:0:
256,192,111649,1,0,0:0:0:0:
256,192,111751,1,0,0:0:0:0:
256,192,111957,1,8,0:0:0:0:
256,192,112162,1,0,0:0:0:0:
256,192,112368,1,0,0:0:0:0:
256,192,112471,1,8,0:0:0:0:
256,192,112573,1,0,0:0:0:0:
256,192,112676,1,0,0:0:0:0:
256,192,112779,1,8,0:0:0:0:
256,192,112882,1,0,0:0:0:0:
256,192,112984,1,8,0:0:0:0:
256,192,113087,1,8,0:0:0:0:
256,192,113190,1,8,0:0:0:0:
256,192,113293,1,8,0:0:0:0:
256,192,113395,1,0,0:0:0:0:
256,192,113601,1,8,0:0:0:0:
256,192,113806,1,8,0:0:0:0:
256,192,114012,1,8,0:0:0:0:
256,192,114217,1,8,0:0:0:0:
256,192,114423,1,8,0:0:0:0:
256,192,114628,1,8,0:0:0:0:
256,192,114834,1,8,0:0:0:0:
256,192,114936,1,8,0:0:0:0:
256,192,115039,1,8,0:0:0:0:
256,192,115245,1,8,0:0:0:0:
256,192,115450,1,8,0:0:0:0:
256,192,115656,1,8,0:0:0:0:
256,192,115861,1,8,0:0:0:0:
256,192,116067,1,8,0:0:0:0:
256,192,116272,1,8,0:0:0:0:
256,192,116375,1,8,0:0:0:0:
256,192,116478,1,8,0:0:0:0:
256,192,116580,1,8,0:0:0:0:
256,192,116683,1,8,0:0:0:0:
256,192,116786,1,0,0:0:0:0:
256,192,116888,1,0,0:0:0:0:
256,192,116991,1,0,0:0:0:0:
256,192,117094,1,8,0:0:0:0:
256,192,117197,1,0,0:0:0:0:
256,192,117299,1,0,0:0:0:0:
256,192,117402,1,0,0:0:0:0:
256,192,117505,1,8,0:0:0:0:
256,192,117608,1,0,0:0:0:0:
256,192,117710,1,0,0:0:0:0:
256,192,117813,1,0,0:0:0:0:
256,192,117916,1,8,0:0:0:0:
256,192,118019,1,0,0:0:0:0:
256,192,118121,1,0,0:0:0:0:
256,192,118224,1,0,0:0:0:0:
256,192,118327,1,0,0:0:0:0:
256,192,118532,1,8,0:0:0:0:
256,192,118635,1,8,0:0:0:0:
256,192,118841,1,8,0:0:0:0:
256,192,119046,1,8,0:0:0:0:
256,192,119149,1,8,0:0:0:0:
256,192,119354,1,8,0:0:0:0:
256,192,119457,1,8,0:0:0:0:
256,192,119662,1,8,0:0:0:0:
256,192,119971,1,0,0:0:0:0:
256,192,120382,1,8,0:0:0:0:
256,192,120484,1,8,0:0:0:0:
256,192,120587,1,0,0:0:0:0:
256,192,120690,1,0,0:0:0:0:
256,192,120793,1,8,0:0:0:0:
256,192,120895,1,0,0:0:0:0:
256,192,120947,1,0,0:0:0:0:
256,192,120998,1,8,0:0:0:0:
256,192,121101,1,8,0:0:0:0:
256,192,121204,1,0,0:0:0:0:
256,192,121341,1,0,0:0:0:0:
256,192,121478,1,0,0:0:0:0:
256,192,121615,1,0,0:0:0:0:
256,192,121717,1,8,0:0:0:0:
256,192,121820,1,8,0:0:0:0:
256,192,121923,1,0,0:0:0:0:
256,192,122025,1,8,0:0:0:0:
256,192,122077,1,8,0:0:0:0:
256,192,122128,1,0,0:0:0:0:
256,192,122180,1,0,0:0:0:0:
256,192,122231,1,8,0:0:0:0:
256,192,122334,1,0,0:0:0:0:
256,192,122436,1,8,0:0:0:0:
256,192,122539,1,8,0:0:0:0:
256,192,122642,1,0,0:0:0:0:
256,192,122745,1,0,0:0:0:0:
256,192,122847,1,8,0:0:0:0:
256,192,122950,1,0,0:0:0:0:
256,192,123053,1,8,0:0:0:0:
256,192,123156,1,8,0:0:0:0:
256,192,123258,1,0,0:0:0:0:
256,192,123669,1,8,0:0:0:0:
256,192,123772,1,8,0:0:0:0:
256,192,123875,1,0,0:0:0:0:
256,192,123978,1,0,0:0:0:0:
256,192,124080,1,8,0:0:0:0:
256,192,124149,1,8,0:0:0:0:
256,192,124217,1,8,0:0:0:0:
256,192,124286,1,0,0:0:0:0:
256,192,124354,1,0,0:0:0:0:
256,192,124423,1,0,0:0:0:0:
256,192,124491,1,8,0:0:0:0:
256,192,124594,1,0,0:0:0:0:
256,192,124697,1,8,0:0:0:0:
256,192,124799,1,8,0:0:0:0:
256,192,124902,1,0,0:0:0:0:
256,192,125005,1,8,0:0:0:0:
256,192,125108,1,8,0:0:0:0:
256,192,125210,1,0,0:0:0:0:
256,192,125313,1,8,0:0:0:0:
256,192,125416,1,8,0:0:0:0:
256,192,125519,1,8,0:0:0:0:
256,192,125621,1,0,0:0:0:0:
256,192,125724,1,8,0:0:0:0:
256,192,125827,1,0,0:0:0:0:
256,192,125930,1,0,0:0:0:0:
256,192,126032,1,0,0:0:0:0:
256,192,126135,1,8,0:0:0:0:
256,192,126238,1,0,0:0:0:0:
256,192,126546,1,0,0:0:0:0:
256,192,126957,1,8,0:0:0:0:
256,192,127060,1,8,0:0:0:0:
256,192,127162,1,0,0:0:0:0:
256,192,127265,1,0,0:0:0:0:
256,192,127368,1,8,0:0:0:0:
256,192,127471,1,0,0:0:0:0:
256,192,127522,1,0,0:0:0:0:
256,192,127573,1,8,0:0:0:0:
256,192,127676,1,8,0:0:0:0:
256,192,127779,1,0,0:0:0:0:
256,192,127916,1,0,0:0:0:0:
256,192,128053,1,0,0:0:0:0:
256,192,128190,1,0,0:0:0:0:
256,192,128293,1,8,0:0:0:0:
256,192,128395,1,8,0:0:0:0:
256,192,128498,1,0,0:0:0:0:
256,192,128601,1,8,0:0:0:0:
256,192,128652,1,8,0:0:0:0:
256,192,128704,1,0,0:0:0:0:
256,192,128755,1,0,0:0:0:0:
256,192,128806,1,8,0:0:0:0:
256,192,128909,1,0,0:0:0:0:
256,192,129012,1,8,0:0:0:0:
256,192,129114,1,8,0:0:0:0:
256,192,129217,1,0,0:0:0:0:
256,192,129320,1,0,0:0:0:0:
256,192,129423,1,8,0:0:0:0:
256,192,129525,1,0,0:0:0:0:
256,192,129628,1,8,0:0:0:0:
256,192,129731,1,8,0:0:0:0:
256,192,129834,1,0,0:0:0:0:
256,192,129936,1,0,0:0:0:0:
256,192,130039,1,8,0:0:0:0:
256,192,130142,1,8,0:0:0:0:
256,192,130245,1,0,0:0:0:0:
256,192,130347,1,0,0:0:0:0:
256,192,130450,1,0,0:0:0:0:
256,192,130553,1,0,0:0:0:0:
256,192,130656,1,8,0:0:0:0:
256,192,130758,1,8,0:0:0:0:
256,192,130861,1,0,0:0:0:0:
256,192,130930,1,0,0:0:0:0:
256,192,130998,1,0,0:0:0:0:
256,192,131067,1,8,0:0:0:0:
256,192,131169,1,0,0:0:0:0:
256,192,131272,1,8,0:0:0:0:
256,192,131375,1,8,0:0:0:0:
256,192,131478,1,4,0:0:0:0:
256,192,131888,1,8,0:0:0:0:
256,192,132094,1,0,0:0:0:0:
256,192,132197,1,8,0:0:0:0:
256,192,132402,1,8,0:0:0:0:
256,192,132505,1,0,0:0:0:0:
256,192,132608,1,0,0:0:0:0:
256,192,132710,1,8,0:0:0:0:
256,192,133121,1,0,0:0:0:0:
256,192,133327,1,8,0:0:0:0:
256,192,133430,1,0,0:0:0:0:
256,192,133532,1,8,0:0:0:0:
256,192,133635,1,8,0:0:0:0:
256,192,133738,1,0,0:0:0:0:
256,192,133841,1,0,0:0:0:0:
256,192,133943,1,8,0:0:0:0:
256,192,134046,1,8,0:0:0:0:
256,192,134149,1,8,0:0:0:0:
256,192,134251,1,8,0:0:0:0:
256,192,134354,1,8,0:0:0:0:
256,192,134457,1,0,0:0:0:0:
256,192,134560,1,8,0:0:0:0:
256,192,134662,1,8,0:0:0:0:
256,192,134765,1,0,0:0:0:0:
256,192,135176,1,8,0:0:0:0:
256,192,135228,1,8,0:0:0:0:
256,192,135279,1,0,0:0:0:0:
256,192,135330,1,0,0:0:0:0:
256,192,135382,1,8,0:0:0:0:
256,192,135484,1,0,0:0:0:0:
256,192,135587,1,8,0:0:0:0:
256,192,135690,1,8,0:0:0:0:
256,192,135793,1,0,0:0:0:0:
256,192,135895,1,0,0:0:0:0:
256,192,135998,1,8,0:0:0:0:
256,192,136101,1,0,0:0:0:0:
256,192,136204,1,8,0:0:0:0:
256,192,136306,1,8,0:0:0:0:
256,192,136409,1,0,0:0:0:0:
256,192,136820,1,8,0:0:0:0:
256,192,136923,1,8,0:0:0:0:
256,192,137025,1,0,0:0:0:0:
256,192,137128,1,0,0:0:0:0:
256,192,137231,1,8,0:0:0:0:
256,192,137299,1,8,0:0:0:0:
256,192,137368,1,8,0:0:0:0:
256,192,137436,1,0,0:0:0:0:
256,192,137505,1,0,0:0:0:0:
256,192,137573,1,0,0:0:0:0:
256,192,137642,1,8,0:0:0:0:
256,192,137745,1,0,0:0:0:0:
256,192,137847,1,8,0:0:0:0:
256,192,137950,1,8,0:0:0:0:
256,192,138053,1,0,0:0:0:0:
256,192,138156,1,8,0:0:0:0:
256,192,138258,1,8,0:0:0:0:
256,192,138361,1,0,0:0:0:0:
256,192,138464,1,8,0:0:0:0:
256,192,138567,1,8,0:0:0:0:
256,192,138669,1,8,0:0:0:0:
256,192,138772,1,0,0:0:0:0:
256,192,138875,1,8,0:0:0:0:
256,192,138978,1,0,0:0:0:0:
256,192,139080,1,0,0:0:0:0:
256,192,139183,1,0,0:0:0:0:
256,192,139286,1,8,0:0:0:0:
256,192,139388,1,0,0:0:0:0:
256,192,139697,1,0,0:0:0:0:
256,192,140108,1,8,0:0:0:0:
256,192,140210,1,8,0:0:0:0:
256,192,140313,1,0,0:0:0:0:
256,192,140416,1,0,0:0:0:0:
256,192,140519,1,8,0:0:0:0:
256,192,140621,1,0,0:0:0:0:
256,192,140673,1,0,0:0:0:0:
256,192,140724,1,0,0:0:0:0:
256,192,140827,1,8,0:0:0:0:
256,192,140930,1,0,0:0:0:0:
256,192,140998,1,0,0:0:0:0:
256,192,141067,1,0,0:0:0:0:
256,192,141204,1,8,0:0:0:0:
256,192,141341,1,0,0:0:0:0:
256,192,141443,1,8,0:0:0:0:
256,192,141546,1,8,0:0:0:0:
256,192,141649,1,0,0:0:0:0:
256,192,141751,1,8,0:0:0:0:
256,192,141803,1,8,0:0:0:0:
256,192,141854,1,0,0:0:0:0:
256,192,141906,1,0,0:0:0:0:
256,192,141957,1,8,0:0:0:0:
256,192,142060,1,0,0:0:0:0:
256,192,142162,1,8,0:0:0:0:
256,192,142265,1,8,0:0:0:0:
256,192,142368,1,0,0:0:0:0:
256,192,142471,1,0,0:0:0:0:
256,192,142573,1,8,0:0:0:0:
256,192,142676,1,0,0:0:0:0:
256,192,142779,1,8,0:0:0:0:
256,192,142882,1,8,0:0:0:0:
256,192,142984,1,0,0:0:0:0:
256,192,143087,1,0,0:0:0:0:
256,192,143190,1,8,0:0:0:0:
256,192,143293,1,8,0:0:0:0:
256,192,143395,1,0,0:0:0:0:
256,192,143498,1,0,0:0:0:0:
256,192,143601,1,0,0:0:0:0:
256,192,143704,1,0,0:0:0:0:
256,192,143806,1,8,0:0:0:0:
256,192,143909,1,8,0:0:0:0:
256,192,144012,1,0,0:0:0:0:
256,192,144080,1,0,0:0:0:0:
256,192,144149,1,0,0:0:0:0:
256,192,144217,1,8,0:0:0:0:
256,192,144320,1,0,0:0:0:0:
256,192,144423,1,8,0:0:0:0:
256,192,144525,1,8,0:0:0:0:
256,192,144628,1,0,0:0:0:0:
256,192,145039,5,0,0:0:0:0:
256,192,145245,1,0,0:0:0:0:
256,192,145450,1,0,0:0:0:0:
256,192,145656,1,0,0:0:0:0:
256,192,145861,1,8,0:0:0:0:
256,192,146272,1,0,0:0:0:0:
256,192,146478,1,8,0:0:0:0:
256,192,146683,1,0,0:0:0:0:
256,192,146888,1,8,0:0:0:0:
256,192,146991,1,8,0:0:0:0:
256,192,147094,1,0,0:0:0:0:
256,192,147197,1,8,0:0:0:0:
256,192,147402,1,0,0:0:0:0:
256,192,147505,1,8,0:0:0:0:
256,192,147710,1,0,0:0:0:0:
256,192,147813,1,0,0:0:0:0:
256,192,147916,1,0,0:0:0:0:
256,192,148121,1,8,0:0:0:0:
256,192,148327,1,0,0:0:0:0:
256,192,148532,1,8,0:0:0:0:
256,192,148738,1,0,0:0:0:0:
256,192,148841,1,8,0:0:0:0:
256,192,148943,1,0,0:0:0:0:
256,192,149046,1,0,0:0:0:0:
256,192,149149,1,8,0:0:0:0:
256,192,149251,1,0,0:0:0:0:
256,192,149457,1,0,0:0:0:0:
256,192,149560,1,0,0:0:0:0:
256,192,149765,1,8,0:0:0:0:
256,192,149971,1,0,0:0:0:0:
256,192,150176,1,8,0:0:0:0:
256,192,150279,1,8,0:0:0:0:
256,192,150382,1,0,0:0:0:0:
256,192,150484,1,8,0:0:0:0:
256,192,150690,1,0,0:0:0:0:
256,192,150793,1,8,0:0:0:0:
256,192,150998,1,0,0:0:0:0:
256,192,151101,1,0,0:0:0:0:
256,192,151204,1,0,0:0:0:0:
256,192,151409,1,8,0:0:0:0:
256,192,151615,1,0,0:0:0:0:
256,192,151820,1,0,0:0:0:0:
256,192,151923,1,8,0:0:0:0:
256,192,152025,1,0,0:0:0:0:
256,192,152128,1,0,0:0:0:0:
256,192,152231,1,8,0:0:0:0:
256,192,152334,1,0,0:0:0:0:
256,192,152436,1,8,0:0:0:0:
256,192,152539,1,8,0:0:0:0:
256,192,152642,1,8,0:0:0:0:
256,192,152745,1,8,0:0:0:0:
256,192,152847,1,0,0:0:0:0:
256,192,153053,1,8,0:0:0:0:
256,192,153258,1,8,0:0:0:0:
256,192,153464,1,8,0:0:0:0:
256,192,153669,1,8,0:0:0:0:
256,192,153875,1,8,0:0:0:0:
256,192,154080,1,8,0:0:0:0:
256,192,154286,1,8,0:0:0:0:
256,192,154388,1,8,0:0:0:0:
256,192,154491,1,8,0:0:0:0:
256,192,154697,1,8,0:0:0:0:
256,192,154902,1,8,0:0:0:0:
256,192,155108,1,8,0:0:0:0:
256,192,155313,1,8,0:0:0:0:
256,192,155519,1,8,0:0:0:0:
256,192,155724,1,8,0:0:0:0:
256,192,155827,1,8,0:0:0:0:
256,192,155930,1,8,0:0:0:0:
256,192,156032,1,8,0:0:0:0:
256,192,156135,1,8,0:0:0:0:
256,192,156238,1,0,0:0:0:0:
256,192,156341,1,0,0:0:0:0:
256,192,156443,1,0,0:0:0:0:
256,192,156546,1,8,0:0:0:0:
256,192,156649,1,0,0:0:0:0:
256,192,156751,1,0,0:0:0:0:
256,192,156854,1,0,0:0:0:0:
256,192,156957,1,8,0:0:0:0:
256,192,157060,1,0,0:0:0:0:
256,192,157162,1,0,0:0:0:0:
256,192,157265,1,0,0:0:0:0:
256,192,157368,1,8,0:0:0:0:
256,192,157471,1,0,0:0:0:0:
256,192,157573,1,0,0:0:0:0:
256,192,157676,1,0,0:0:0:0:
256,192,157779,1,0,0:0:0:0:
256,192,157984,1,8,0:0:0:0:
256,192,158190,1,8,0:0:0:0:
256,192,158395,1,8,0:0:0:0:
256,192,158601,1,8,0:0:0:0:
256,192,158806,1,0,0:0:0:0:
256,192,158909,1,0,0:0:0:0:
256,192,159012,1,8,0:0:0:0:
256,192,159423,1,0,0:0:0:0:
256,192,159628,1,8,0:0:0:0:
256,192,159731,1,8,0:0:0:0:
256,192,159834,1,0,0:0:0:0:
256,192,160039,1,0,0:0:0:0:
256,192,160245,1,8,0:0:0:0:
256,192,160347,1,0,0:0:0:0:
256,192,160553,1,8,0:0:0:0:
256,192,160656,1,8,0:0:0:0:
256,192,160758,1,0,0:0:0:0:
256,192,160861,1,0,0:0:0:0:
256,192,161272,1,0,0:0:0:0:
256,192,161478,1,8,0:0:0:0:
256,192,161580,1,0,0:0:0:0:
256,192,161683,1,0,0:0:0:0:
256,192,161888,1,8,0:0:0:0:
256,192,162094,1,0,0:0:0:0:
256,192,162197,1,8,0:0:0:0:
256,192,162299,1,0,0:0:0:0:
256,192,162505,1,0,0:0:0:0:
256,192,162710,1,0,0:0:0:0:
256,192,162916,1,8,0:0:0:0:
256,192,163019,1,8,0:0:0:0:
256,192,163121,1,0,0:0:0:0:
256,192,163327,1,0,0:0:0:0:
256,192,163532,1,8,0:0:0:0:
256,192,163635,1,0,0:0:0:0:
256,192,163738,1,0,0:0:0:0:
256,192,163841,1,0,0:0:0:0:
256,192,163943,1,0,0:0:0:0:
256,192,164046,1,0,0:0:0:0:
256,192,164149,1,8,0:0:0:0:
256,192,164251,1,8,0:0:0:0:
256,192,164354,1,8,0:0:0:0:
256,192,164457,1,8,0:0:0:0:
256,192,164560,1,0,0:0:0:0:
256,192,164662,1,0,0:0:0:0:
256,192,164765,1,8,0:0:0:0:
256,192,164868,1,0,0:0:0:0:
256,192,164971,1,0,0:0:0:0:
256,192,165073,1,0,0:0:0:0:
256,192,165176,1,8,0:0:0:0:
256,192,165382,1,0,0:0:0:0:
256,192,165484,1,8,0:0:0:0:
256,192,165587,1,0,0:0:0:0:
256,192,165690,1,0,0:0:0:0:
256,192,165793,1,8,0:0:0:0:
256,192,165998,1,0,0:0:0:0:
256,192,166204,1,8,0:0:0:0:
256,192,166306,1,8,0:0:0:0:
256,192,166409,1,0,0:0:0:0:
256,192,166615,1,0,0:0:0:0:
256,192,166820,1,8,0:0:0:0:
256,192,167025,12,0,167642,0:0:0:0:
256,192,167847,5,0,0:0:0:0:
256,192,168053,1,8,0:0:0:0:
256,192,168156,1,0,0:0:0:0:
256,192,168258,1,0,0:0:0:0:
256,192,168464,5,8,0:0:0:0:
256,192,168669,1,0,0:0:0:0:
256,192,168772,1,8,0:0:0:0:
256,192,168875,1,0,0:0:0:0:
256,192,169080,1,0,0:0:0:0:
256,192,169286,1,0,0:0:0:0:
256,192,169491,1,8,0:0:0:0:
256,192,169594,1,8,0:0:0:0:
256,192,169697,1,0,0:0:0:0:
256,192,169902,1,0,0:0:0:0:
256,192,170108,1,8,0:0:0:0:
256,192,170210,1,0,0:0:0:0:
256,192,170313,1,0,0:0:0:0:
256,192,170416,1,8,0:0:0:0:
256,192,170519,1,0,0:0:0:0:
256,192,170621,1,0,0:0:0:0:
256,192,170724,1,8,0:0:0:0:
256,192,170827,1,8,0:0:0:0:
256,192,170930,1,8,0:0:0:0:
256,192,171032,1,8,0:0:0:0:
256,192,171135,1,0,0:0:0:0:
256,192,171238,1,0,0:0:0:0:
256,192,171341,1,8,0:0:0:0:
256,192,171443,1,0,0:0:0:0:
256,192,171546,1,0,0:0:0:0:
256,192,171649,1,0,0:0:0:0:
256,192,171751,1,8,0:0:0:0:
256,192,171957,1,0,0:0:0:0:
256,192,172060,1,8,0:0:0:0:
256,192,172162,1,0,0:0:0:0:
256,192,172265,1,0,0:0:0:0:
256,192,172368,1,8,0:0:0:0:
256,192,172471,1,0,0:0:0:0:
256,192,172573,1,0,0:0:0:0:
256,192,172779,1,8,0:0:0:0:
256,192,172882,1,8,0:0:0:0:
256,192,172984,1,0,0:0:0:0:
256,192,173190,1,0,0:0:0:0:
256,192,173395,1,8,0:0:0:0:
256,192,173498,1,0,0:0:0:0:
256,192,173704,1,8,0:0:0:0:
256,192,173806,1,8,0:0:0:0:
256,192,173909,1,0,0:0:0:0:
256,192,174012,1,0,0:0:0:0:
256,192,174423,1,0,0:0:0:0:
256,192,174628,1,8,0:0:0:0:
256,192,174731,1,0,0:0:0:0:
256,192,174834,1,0,0:0:0:0:
256,192,175039,1,8,0:0:0:0:
256,192,175245,1,0,0:0:0:0:
256,192,175347,1,8,0:0:0:0:
256,192,175450,1,0,0:0:0:0:
256,192,175656,1,0,0:0:0:0:
256,192,175861,1,0,0:0:0:0:
256,192,176067,1,8,0:0:0:0:
256,192,176169,1,8,0:0:0:0:
256,192,176272,1,0,0:0:0:0:
256,192,176478,1,0,0:0:0:0:
256,192,176683,1,8,0:0:0:0:
256,192,176786,1,8,0:0:0:0:
256,192,176888,1,0,0:0:0:0:
256,192,176991,1,8,0:0:0:0:
256,192,177094,1,8,0:0:0:0:
256,192,177197,1,0,0:0:0:0:
256,192,177299,1,8,0:0:0:0:
256,192,177402,1,8,0:0:0:0:
256,192,177505,1,8,0:0:0:0:
256,192,177608,1,8,0:0:0:0:
256,192,177710,1,0,0:0:0:0:
256,192,177813,1,0,0:0:0:0:
256,192,177916,1,8,0:0:0:0:
256,192,178019,1,0,0:0:0:0:
256,192,178121,1,0,0:0:0:0:
256,192,178224,1,0,0:0:0:0:
256,192,178327,1,8,0:0:0:0:
256,192,178532,1,0,0:0:0:0:
256,192,178635,1,8,0:0:0:0:
256,192,178738,1,0,0:0:0:0:
256,192,178841,1,0,0:0:0:0:
256,192,178943,1,8,0:0:0:0:
256,192,179149,1,0,0:0:0:0:
256,192,179354,1,8,0:0:0:0:
256,192,179457,1,8,0:0:0:0:
256,192,179560,1,0,0:0:0:0:
256,192,179765,1,0,0:0:0:0:
256,192,179971,1,8,0:0:0:0:
256,192,180176,12,0,180793,0:0:0:0:
256,192,180998,5,0,0:0:0:0:
256,192,181204,1,8,0:0:0:0:
256,192,181306,1,0,0:0:0:0:
256,192,181409,1,0,0:0:0:0:
256,192,181615,1,8,0:0:0:0:
256,192,181820,1,0,0:0:0:0:
256,192,181923,1,8,0:0:0:0:
256,192,182025,1,0,0:0:0:0:
256,192,182231,1,0,0:0:0:0:
256,192,182436,1,0,0:0:0:0:
256,192,184286,1,0,0:0:0:0:
256,192,184388,1,0,0:0:0:0:
256,192,184491,1,8,0:0:0:0:
256,192,184594,1,0,0:0:0:0:
256,192,184697,1,0,0:0:0:0:
256,192,184799,1,0,0:0:0:0:
256,192,184902,1,8,0:0:0:0:
256,192,185108,1,0,0:0:0:0:
256,192,185210,1,8,0:0:0:0:
256,192,185313,1,0,0:0:0:0:
256,192,185416,1,0,0:0:0:0:
256,192,185519,1,8,0:0:0:0:
256,192,185621,1,0,0:0:0:0:
256,192,185724,1,0,0:0:0:0:
256,192,185930,1,8,0:0:0:0:
256,192,185998,1,8,0:0:0:0:
256,192,186067,1,8,0:0:0:0:
256,192,186135,1,0,0:0:0:0:
256,192,186341,1,8,0:0:0:0:
256,192,186409,1,0,0:0:0:0:
256,192,186478,1,0,0:0:0:0:
256,192,186546,1,8,0:0:0:0:
256,192,186649,1,0,0:0:0:0:
256,192,186751,1,8,0:0:0:0:
256,192,186820,1,8,0:0:0:0:
256,192,186888,1,8,0:0:0:0:
256,192,186957,1,0,0:0:0:0:
256,192,187162,1,8,0:0:0:0:
256,192,187231,1,8,0:0:0:0:
256,192,187299,1,8,0:0:0:0:
256,192,187368,1,0,0:0:0:0:
256,192,187573,1,8,0:0:0:0:
256,192,187642,1,8,0:0:0:0:
256,192,187710,1,8,0:0:0:0:
256,192,187779,1,0,0:0:0:0:
256,192,187984,1,8,0:0:0:0:
256,192,188053,1,0,0:0:0:0:
256,192,188121,1,0,0:0:0:0:
256,192,188190,1,8,0:0:0:0:
256,192,188293,1,0,0:0:0:0:
256,192,188395,1,8,0:0:0:0:
256,192,188464,1,8,0:0:0:0:
256,192,188532,1,8,0:0:0:0:
256,192,188601,1,0,0:0:0:0:
256,192,188704,1,8,0:0:0:0:
256,192,188806,1,0,0:0:0:0:
256,192,188875,1,8,0:0:0:0:
256,192,188943,1,8,0:0:0:0:
256,192,189012,1,0,0:0:0:0:
256,192,189217,1,8,0:0:0:0:
256,192,189286,1,8,0:0:0:0:
256,192,189354,1,8,0:0:0:0:
256,192,189423,1,0,0:0:0:0:
256,192,189628,1,8,0:0:0:0:
256,192,189697,1,0,0:0:0:0:
256,192,189765,1,0,0:0:0:0:
256,192,189834,1,8,0:0:0:0:
256,192,189936,1,0,0:0:0:0:
256,192,190039,1,8,0:0:0:0:
256,192,190108,1,8,0:0:0:0:
256,192,190176,1,8,0:0:0:0:
256,192,190245,1,0,0:0:0:0:
256,192,190450,1,8,0:0:0:0:
256,192,190519,1,8,0:0:0:0:
256,192,190587,1,8,0:0:0:0:
256,192,190656,1,0,0:0:0:0:
256,192,190861,1,8,0:0:0:0:
256,192,190930,1,8,0:0:0:0:
256,192,190998,1,8,0:0:0:0:
256,192,191067,1,0,0:0:0:0:
256,192,191272,1,8,0:0:0:0:
256,192,191341,1,0,0:0:0:0:
256,192,191409,1,0,0:0:0:0:
256,192,191478,1,8,0:0:0:0:
256,192,191580,1,8,0:0:0:0:
256,192,191683,1,0,0:0:0:0:
256,192,191751,1,8,0:0:0:0:
256,192,191820,1,8,0:0:0:0:
256,192,191888,1,0,0:0:0:0:
256,192,191991,1,0,0:0:0:0:
256,192,192094,1,8,0:0:0:0:
256,192,192162,1,8,0:0:0:0:
256,192,192231,1,8,0:0:0:0:
256,192,192299,1,0,0:0:0:0:
256,192,192505,1,8,0:0:0:0:
256,192,192573,1,8,0:0:0:0:
256,192,192642,1,8,0:0:0:0:
256,192,192710,1,0,0:0:0:0:
256,192,192916,1,8,0:0:0:0:
256,192,192984,1,0,0:0:0:0:
256,192,193053,1,0,0:0:0:0:
256,192,193121,1,8,0:0:0:0:
256,192,193224,1,0,0:0:0:0:
256,192,193327,1,8,0:0:0:0:
256,192,193395,1,8,0:0:0:0:
256,192,193464,1,8,0:0:0:0:
256,192,193532,1,0,0:0:0:0:
256,192,193738,1,8,0:0:0:0:
256,192,193806,1,8,0:0:0:0:
256,192,193875,1,8,0:0:0:0:
256,192,193943,1,0,0:0:0:0:
256,192,194149,1,8,0:0:0:0:
256,192,194217,1,8,0:0:0:0:
256,192,194286,1,8,0:0:0:0:
256,192,194354,1,0,0:0:0:0:
256,192,194560,1,8,0:0:0:0:
256,192,194628,1,0,0:0:0:0:
256,192,194697,1,0,0:0:0:0:
256,192,194765,1,8,0:0:0:0:
256,192,194868,1,0,0:0:0:0:
256,192,194971,1,8,0:0:0:0:
256,192,195039,1,8,0:0:0:0:
256,192,195108,1,8,0:0:0:0:
256,192,195176,1,0,0:0:0:0:
256,192,195279,1,8,0:0:0:0:
256,192,195382,1,0,0:0:0:0:
256,192,195450,1,8,0:0:0:0:
256,192,195519,1,8,0:0:0:0:
256,192,195587,1,0,0:0:0:0:
256,192,195793,1,8,0:0:0:0:
256,192,195861,1,8,0:0:0:0:
256,192,195930,1,8,0:0:0:0:
256,192,195998,1,0,0:0:0:0:
256,192,196204,1,8,0:0:0:0:
256,192,196272,1,0,0:0:0:0:
256,192,196341,1,0,0:0:0:0:
256,192,196409,1,8,0:0:0:0:
256,192,196512,1,0,0:0:0:0:
256,192,196615,1,8,0:0:0:0:
256,192,196683,1,8,0:0:0:0:
256,192,196751,1,8,0:0:0:0:
256,192,196820,1,0,0:0:0:0:
256,192,197025,1,8,0:0:0:0:
256,192,197094,1,8,0:0:0:0:
256,192,197162,1,8,0:0:0:0:
256,192,197231,1,0,0:0:0:0:
256,192,197436,1,8,0:0:0:0:
256,192,197505,1,8,0:0:0:0:
256,192,197573,1,8,0:0:0:0:
256,192,197642,1,0,0:0:0:0:
256,192,197847,1,8,0:0:0:0:
256,192,197916,1,0,0:0:0:0:
256,192,197984,1,0,0:0:0:0:
256,192,198053,1,8,0:0:0:0:
256,192,198156,1,8,0:0:0:0:
256,192,198258,1,0,0:0:0:0:
256,192,198327,1,8,0:0:0:0:
256,192,198395,1,8,0:0:0:0:
256,192,198464,1,0,0:0:0:0:
256,192,198567,1,0,0:0:0:0:
256,192,198669,1,8,0:0:0:0:
256,192,198738,1,8,0:0:0:0:
256,192,198806,1,8,0:0:0:0:
256,192,198875,1,0,0:0:0:0:
256,192,199080,1,8,0:0:0:0:
256,192,199149,1,8,0:0:0:0:
256,192,199217,1,8,0:0:0:0:
256,192,199286,1,0,0:0:0:0:
256,192,199491,1,8,0:0:0:0:
256,192,199560,1,0,0:0:0:0:
256,192,199628,1,0,0:0:0:0:
256,192,199697,1,8,0:0:0:0:
256,192,199799,1,0,0:0:0:0:
256,192,199902,1,8,0:0:0:0:
256,192,199971,1,8,0:0:0:0:
256,192,200039,1,8,0:0:0:0:
256,192,200108,1,0,0:0:0:0:
256,192,200313,1,8,0:0:0:0:
256,192,200382,1,8,0:0:0:0:
256,192,200450,1,8,0:0:0:0:
256,192,200519,1,0,0:0:0:0:
256,192,200724,1,8,0:0:0:0:
256,192,200793,1,8,0:0:0:0:
256,192,200861,1,8,0:0:0:0:
256,192,200930,1,0,0:0:0:0:
256,192,201135,1,8,0:0:0:0:
256,192,201204,1,0,0:0:0:0:
256,192,201272,1,0,0:0:0:0:
256,192,201341,1,8,0:0:0:0:
256,192,201443,1,0,0:0:0:0:
256,192,201546,1,8,0:0:0:0:
256,192,201615,1,8,0:0:0:0:
256,192,201683,1,8,0:0:0:0:
256,192,201751,1,0,0:0:0:0:
256,192,201854,1,8,0:0:0:0:
256,192,201957,1,0,0:0:0:0:
256,192,202025,1,8,0:0:0:0:
256,192,202094,1,8,0:0:0:0:
256,192,202162,1,0,0:0:0:0:
256,192,202368,1,8,0:0:0:0:
256,192,202436,1,8,0:0:0:0:
256,192,202505,1,8,0:0:0:0:
256,192,202573,1,0,0:0:0:0:
256,192,202779,1,8,0:0:0:0:
256,192,202847,1,0,0:0:0:0:
256,192,202916,1,0,0:0:0:0:
256,192,202984,1,8,0:0:0:0:
256,192,203087,1,0,0:0:0:0:
256,192,203190,1,8,0:0:0:0:
256,192,203258,1,8,0:0:0:0:
256,192,203327,1,8,0:0:0:0:
256,192,203395,1,0,0:0:0:0:
256,192,203601,1,8,0:0:0:0:
256,192,203669,1,8,0:0:0:0:
256,192,203738,1,8,0:0:0:0:
256,192,203806,1,0,0:0:0:0:
256,192,204012,1,8,0:0:0:0:
256,192,204080,1,8,0:0:0:0:
256,192,204149,1,8,0:0:0:0:
256,192,204217,1,0,0:0:0:0:
256,192,204423,1,8,0:0:0:0:
256,192,204491,1,0,0:0:0:0:
256,192,204560,1,0,0:0:0:0:
256,192,204628,1,8,0:0:0:0:
256,192,204731,1,8,0:0:0:0:
256,192,204834,1,0,0:0:0:0:
256,192,204902,1,8,0:0:0:0:
256,192,204971,1,8,0:0:0:0:
256,192,205039,1,0,0:0:0:0:
256,192,205142,1,0,0:0:0:0:
256,192,205245,1,8,0:0:0:0:
256,192,205313,1,8,0:0:0:0:
256,192,205382,1,8,0:0:0:0:
256,192,205450,1,0,0:0:0:0:
256,192,205656,1,8,0:0:0:0:
256,192,205724,1,8,0:0:0:0:
256,192,205793,1,8,0:0:0:0:
256,192,205861,1,0,0:0:0:0:
256,192,206067,1,8,0:0:0:0:
256,192,206135,1,0,0:0:0:0:
256,192,206204,1,0,0:0:0:0:
256,192,206272,1,8,0:0:0:0:
256,192,206375,1,0,0:0:0:0:
256,192,206478,1,8,0:0:0:0:
256,192,206546,1,8,0:0:0:0:
256,192,206615,1,8,0:0:0:0:
256,192,206683,1,0,0:0:0:0:
256,192,206888,1,8,0:0:0:0:
256,192,206957,1,8,0:0:0:0:
256,192,207025,1,8,0:0:0:0:
256,192,207094,1,0,0:0:0:0:
256,192,207299,1,8,0:0:0:0:
256,192,207368,1,8,0:0:0:0:
256,192,207436,1,8,0:0:0:0:
256,192,207505,1,0,0:0:0:0:
256,192,207710,1,8,0:0:0:0:
256,192,207779,1,0,0:0:0:0:
256,192,207847,1,0,0:0:0:0:
256,192,207916,1,8,0:0:0:0:
256,192,208019,1,0,0:0:0:0:
256,192,208121,1,8,0:0:0:0:
256,192,208190,1,8,0:0:0:0:
256,192,208258,1,8,0:0:0:0:
256,192,208327,1,0,0:0:0:0:
256,192,208430,1,8,0:0:0:0:
256,192,208532,1,0,0:0:0:0:
256,192,208601,1,8,0:0:0:0:
256,192,208669,1,8,0:0:0:0:
256,192,208738,1,0,0:0:0:0:
256,192,208943,1,8,0:0:0:0:
256,192,209012,1,8,0:0:0:0:
256,192,209080,1,8,0:0:0:0:
256,192,209149,1,0,0:0:0:0:
256,192,209354,1,8,0:0:0:0:
256,192,209423,1,0,0:0:0:0:
256,192,209491,1,0,0:0:0:0:
256,192,209560,1,8,0:0:0:0:
256,192,209662,1,0,0:0:0:0:
256,192,209765,1,8,0:0:0:0:
256,192,209834,1,8,0:0:0:0:
256,192,209902,1,8,0:0:0:0:
256,192,209971,1,0,0:0:0:0:
256,192,210176,1,8,0:0:0:0:
256,192,210382,1,4,0:0:0:0:
256,192,212025,5,0,0:0:0:0:
256,192,212847,1,0,0:0:0:0:
256,192,213258,1,0,0:0:0:0:
256,192,213464,1,0,0:0:0:0:
256,192,214080,1,8,0:0:0:0:
256,192,214491,1,8,0:0:0:0:
256,192,214902,1,0,0:0:0:0:
256,192,215724,1,8,0:0:0:0:
256,192,216751,1,0,0:0:0:0:
256,192,216957,1,8,0:0:0:0:
256,192,217368,1,0,0:0:0:0:
256,192,217779,1,0,0:0:0:0:
256,192,218190,1,8,0:0:0:0:
256,192,220656,1,8,0:0:0:0:
256,192,220861,1,0,0:0:0:0:
256,192,221272,1,0,0:0:0:0:
256,192,221683,1,0,0:0:0:0:
256,192,221888,8,0,224765,0:0:0:0:
256,192,225176,5,0,0:0:0:0:
256,192,225998,1,8,0:0:0:0:
256,192,226820,1,0,0:0:0:0:
256,192,227231,1,0,0:0:0:0:
256,192,227642,1,8,0:0:0:0:
256,192,228464,1,0,0:0:0:0:
256,192,229286,1,8,0:0:0:0:
256,192,229902,1,0,0:0:0:0:
256,192,230108,1,0,0:0:0:0:
256,192,230519,1,0,0:0:0:0:
256,192,230930,1,8,0:0:0:0:
256,192,231751,1,0,0:0:0:0:
256,192,232573,1,8,0:0:0:0:
256,192,233395,1,0,0:0:0:0:
256,192,233806,1,0,0:0:0:0:
256,192,234217,1,8,0:0:0:0:
256,192,235039,1,0,0:0:0:0:
256,192,235861,1,8,0:0:0:0:
256,192,236478,1,0,0:0:0:0:
256,192,236683,1,0,0:0:0:0:
256,192,237094,1,0,0:0:0:0:
256,192,237505,1,8,0:0:0:0:
256,192,238327,1,0,0:0:0:0:
256,192,238532,1,8,0:0:0:0:
256,192,238738,1,0,0:0:0:0:
256,192,238943,1,8,0:0:0:0:
256,192,239046,1,8,0:0:0:0:
256,192,239149,1,0,0:0:0:0:
256,192,239251,1,8,0:0:0:0:
256,192,239457,1,0,0:0:0:0:
256,192,239560,1,8,0:0:0:0:
256,192,239765,1,0,0:0:0:0:
256,192,239868,1,0,0:0:0:0:
256,192,239971,1,0,0:0:0:0:
256,192,240176,1,8,0:0:0:0:
256,192,240382,1,0,0:0:0:0:
256,192,240587,1,8,0:0:0:0:
256,192,240793,1,0,0:0:0:0:
256,192,240895,1,8,0:0:0:0:
256,192,240998,1,0,0:0:0:0:
256,192,241101,1,0,0:0:0:0:
256,192,241204,1,8,0:0:0:0:
256,192,241306,1,0,0:0:0:0:
256,192,241512,1,0,0:0:0:0:
256,192,241615,1,0,0:0:0:0:
256,192,241820,1,8,0:0:0:0:
256,192,242025,1,0,0:0:0:0:
256,192,242231,1,8,0:0:0:0:
256,192,242334,1,8,0:0:0:0:
256,192,242436,1,0,0:0:0:0:
256,192,242539,1,8,0:0:0:0:
256,192,242745,1,0,0:0:0:0:
256,192,242847,1,8,0:0:0:0:
256,192,243053,1,0,0:0:0:0:
256,192,243156,1,0,0:0:0:0:
256,192,243258,1,0,0:0:0:0:
256,192,243464,1,8,0:0:0:0:
256,192,243669,1,0,0:0:0:0:
256,192,243875,1,0,0:0:0:0:
256,192,243978,1,8,0:0:0:0:
256,192,244080,1,0,0:0:0:0:
256,192,244183,1,0,0:0:0:0:
256,192,244286,1,8,0:0:0:0:
256,192,244388,1,0,0:0:0:0:
256,192,244491,1,8,0:0:0:0:
256,192,244594,1,8,0:0:0:0:
256,192,244697,1,8,0:0:0:0:
256,192,244799,1,8,0:0:0:0:
256,192,244902,1,0,0:0:0:0:
256,192,245108,1,8,0:0:0:0:
256,192,245313,1,8,0:0:0:0:
256,192,245519,1,8,0:0:0:0:
256,192,245724,1,8,0:0:0:0:
256,192,245930,1,8,0:0:0:0:
256,192,246135,1,8,0:0:0:0:
256,192,246341,1,8,0:0:0:0:
256,192,246443,1,8,0:0:0:0:
256,192,246546,1,8,0:0:0:0:
256,192,246751,1,8,0:0:0:0:
256,192,246957,1,8,0:0:0:0:
256,192,247162,1,8,0:0:0:0:
256,192,247368,1,8,0:0:0:0:
256,192,247573,1,8,0:0:0:0:
256,192,247779,1,8,0:0:0:0:
256,192,247882,1,8,0:0:0:0:
256,192,247984,1,8,0:0:0:0:
256,192,248087,1,8,0:0:0:0:
256,192,248190,1,8,0:0:0:0:
256,192,248293,1,0,0:0:0:0:
256,192,248395,1,0,0:0:0:0:
256,192,248498,1,0,0:0:0:0:
256,192,248601,1,8,0:0:0:0:
256,192,248704,1,0,0:0:0:0:
256,192,248806,1,0,0:0:0:0:
256,192,248909,1,0,0:0:0:0:
256,192,249012,1,8,0:0:0:0:
256,192,249115,1,0,0:0:0:0:
256,192,249217,1,0,0:0:0:0:
256,192,249320,1,0,0:0:0:0:
256,192,249423,1,8,0:0:0:0:
256,192,249525,1,0,0:0:0:0:
256,192,249628,1,0,0:0:0:0:
256,192,249731,1,0,0:0:0:0:
256,192,249834,1,0,0:0:0:0:
256,192,250039,1,8,0:0:0:0:
256,192,250142,1,8,0:0:0:0:
256,192,250347,1,8,0:0:0:0:
256,192,250553,1,8,0:0:0:0:
256,192,250656,1,8,0:0:0:0:
256,192,250861,1,8,0:0:0:0:
256,192,250964,1,8,0:0:0:0:
256,192,251169,1,8,0:0:0:0:
256,192,251478,1,0,0:0:0:0:
256,192,251889,1,8,0:0:0:0:
256,192,251991,1,8,0:0:0:0:
256,192,252094,1,0,0:0:0:0:
256,192,252197,1,0,0:0:0:0:
256,192,252300,1,8,0:0:0:0:
256,192,252402,1,0,0:0:0:0:
256,192,252454,1,0,0:0:0:0:
256,192,252505,1,8,0:0:0:0:
256,192,252608,1,8,0:0:0:0:
256,192,252711,1,0,0:0:0:0:
256,192,252848,1,0,0:0:0:0:
256,192,252985,1,0,0:0:0:0:
256,192,253122,1,0,0:0:0:0:
256,192,253224,1,8,0:0:0:0:
256,192,253327,1,8,0:0:0:0:
256,192,253430,1,0,0:0:0:0:
256,192,253532,1,8,0:0:0:0:
256,192,253584,1,8,0:0:0:0:
256,192,253635,1,0,0:0:0:0:
256,192,253687,1,0,0:0:0:0:
256,192,253738,1,8,0:0:0:0:
256,192,253841,1,0,0:0:0:0:
256,192,253943,1,8,0:0:0:0:
256,192,254046,1,8,0:0:0:0:
256,192,254149,1,0,0:0:0:0:
256,192,254252,1,0,0:0:0:0:
256,192,254354,1,8,0:0:0:0:
256,192,254457,1,0,0:0:0:0:
256,192,254560,1,8,0:0:0:0:
256,192,254663,1,8,0:0:0:0:
256,192,254765,1,0,0:0:0:0:
256,192,255176,1,8,0:0:0:0:
256,192,255279,1,8,0:0:0:0:
256,192,255382,1,0,0:0:0:0:
256,192,255485,1,0,0:0:0:0:
256,192,255587,1,8,0:0:0:0:
256,192,255656,1,8,0:0:0:0:
256,192,255724,1,8,0:0:0:0:
256,192,255793,1,0,0:0:0:0:
256,192,255861,1,0,0:0:0:0:
256,192,255930,1,0,0:0:0:0:
256,192,255998,1,8,0:0:0:0:
256,192,256101,1,0,0:0:0:0:
256,192,256204,1,8,0:0:0:0:
256,192,256306,1,8,0:0:0:0:
256,192,256409,1,0,0:0:0:0:
256,192,256512,1,8,0:0:0:0:
256,192,256615,1,8,0:0:0:0:
256,192,256717,1,0,0:0:0:0:
256,192,256820,1,8,0:0:0:0:
256,192,256923,1,8,0:0:0:0:
256,192,257026,1,8,0:0:0:0:
256,192,257128,1,0,0:0:0:0:
256,192,257231,1,8,0:0:0:0:
256,192,257334,1,0,0:0:0:0:
256,192,257437,1,0,0:0:0:0:
256,192,257539,1,0,0:0:0:0:
256,192,257642,1,8,0:0:0:0:
256,192,257745,1,0,0:0:0:0:
256,192,258053,1,0,0:0:0:0:
256,192,258464,1,8,0:0:0:0:
256,192,258567,1,8,0:0:0:0:
256,192,258669,1,0,0:0:0:0:
256,192,258772,1,0,0:0:0:0:
256,192,258875,1,8,0:0:0:0:
256,192,258978,1,0,0:0:0:0:
256,192,259029,1,0,0:0:0:0:
256,192,259080,1,8,0:0:0:0:
256,192,259183,1,8,0:0:0:0:
256,192,259286,1,0,0:0:0:0:
256,192,259423,1,0,0:0:0:0:
256,192,259560,1,0,0:0:0:0:
256,192,259697,1,0,0:0:0:0:
256,192,259800,1,8,0:0:0:0:
256,192,259902,1,8,0:0:0:0:
256,192,260005,1,0,0:0:0:0:
256,192,260108,1,8,0:0:0:0:
256,192,260159,1,8,0:0:0:0:
256,192,260211,1,0,0:0:0:0:
256,192,260262,1,0,0:0:0:0:
256,192,260313,1,8,0:0:0:0:
256,192,260416,1,0,0:0:0:0:
256,192,260519,1,8,0:0:0:0:
256,192,260621,1,8,0:0:0:0:
256,192,260724,1,0,0:0:0:0:
256,192,260827,1,0,0:0:0:0:
256,192,260930,1,8,0:0:0:0:
256,192,261032,1,0,0:0:0:0:
256,192,261135,1,8,0:0:0:0:
256,192,261238,1,8,0:0:0:0:
256,192,261341,1,0,0:0:0:0:
256,192,261443,1,0,0:0:0:0:
256,192,261546,1,8,0:0:0:0:
256,192,261649,1,8,0:0:0:0:
256,192,261752,1,0,0:0:0:0:
256,192,261854,1,0,0:0:0:0:
256,192,261957,1,0,0:0:0:0:
256,192,262060,1,0,0:0:0:0:
256,192,262163,1,8,0:0:0:0:
256,192,262265,1,8,0:0:0:0:
256,192,262368,1,0,0:0:0:0:
256,192,262437,1,0,0:0:0:0:
256,192,262505,1,0,0:0:0:0:
256,192,262574,1,8,0:0:0:0:
256,192,262676,1,0,0:0:0:0:
256,192,262779,1,8,0:0:0:0:
256,192,262882,1,8,0:0:0:0:
256,192,262985,1,4,0:0:0:0:
256,192,263395,1,8,0:0:0:0:
256,192,263601,1,0,0:0:0:0:
256,192,263704,1,8,0:0:0:0:
256,192,263909,1,8,0:0:0:0:
256,192,264012,1,0,0:0:0:0:
256,192,264115,1,0,0:0:0:0:
256,192,264217,1,8,0:0:0:0:
256,192,264628,1,0,0:0:0:0:
256,192,264834,1,8,0:0:0:0:
256,192,264937,1,0,0:0:0:0:
256,192,265039,1,8,0:0:0:0:
256,192,265142,1,8,0:0:0:0:
256,192,265245,1,0,0:0:0:0:
256,192,265348,1,0,0:0:0:0:
256,192,265450,1,8,0:0:0:0:
256,192,265553,1,8,0:0:0:0:
256,192,265656,1,8,0:0:0:0:
256,192,265758,1,8,0:0:0:0:
256,192,265861,1,8,0:0:0:0:
256,192,265964,1,0,0:0:0:0:
256,192,266067,1,8,0:0:0:0:
256,192,266169,1,8,0:0:0:0:
256,192,266272,1,0,0:0:0:0:
256,192,266683,1,8,0:0:0:0:
256,192,266735,1,8,0:0:0:0:
256,192,266786,1,0,0:0:0:0:
256,192,266837,1,0,0:0:0:0:
256,192,266889,1,8,0:0:0:0:
256,192,266991,1,0,0:0:0:0:
256,192,267094,1,8,0:0:0:0:
256,192,267197,1,8,0:0:0:0:
256,192,267300,1,0,0:0:0:0:
256,192,267402,1,0,0:0:0:0:
256,192,267505,1,8,0:0:0:0:
256,192,267608,1,0,0:0:0:0:
256,192,267711,1,8,0:0:0:0:
256,192,267813,1,8,0:0:0:0:
256,192,267916,1,0,0:0:0:0:
256,192,268327,1,8,0:0:0:0:
256,192,268430,1,8,0:0:0:0:
256,192,268532,1,0,0:0:0:0:
256,192,268635,1,0,0:0:0:0:
256,192,268738,1,8,0:0:0:0:
256,192,268806,1,8,0:0:0:0:
256,192,268875,1,8,0:0:0:0:
256,192,268943,1,0,0:0:0:0:
256,192,269012,1,0,0:0:0:0:
256,192,269080,1,0,0:0:0:0:
256,192,269149,1,8,0:0:0:0:
256,192,269252,1,0,0:0:0:0:
256,192,269354,1,8,0:0:0:0:
256,192,269457,1,8,0:0:0:0:
256,192,269560,1,0,0:0:0:0:
256,192,269663,1,8,0:0:0:0:
256,192,269765,1,8,0:0:0:0:
256,192,269868,1,0,0:0:0:0:
256,192,269971,1,8,0:0:0:0:
256,192,270074,1,8,0:0:0:0:
256,192,270176,1,8,0:0:0:0:
256,192,270279,1,0,0:0:0:0:
256,192,270382,1,8,0:0:0:0:
256,192,270485,1,0,0:0:0:0:
256,192,270587,1,0,0:0:0:0:
256,192,270690,1,0,0:0:0:0:
256,192,270793,1,8,0:0:0:0:
256,192,270895,1,0,0:0:0:0:
256,192,271204,1,0,0:0:0:0:
256,192,271615,1,8,0:0:0:0:
256,192,271717,1,8,0:0:0:0:
256,192,271820,1,0,0:0:0:0:
256,192,271923,1,0,0:0:0:0:
256,192,272026,1,8,0:0:0:0:
256,192,272128,1,0,0:0:0:0:
256,192,272180,1,0,0:0:0:0:
256,192,272231,1,0,0:0:0:0:
256,192,272334,1,8,0:0:0:0:
256,192,272437,1,0,0:0:0:0:
256,192,272505,1,0,0:0:0:0:
256,192,272574,1,0,0:0:0:0:
256,192,272711,1,8,0:0:0:0:
256,192,272848,1,0,0:0:0:0:
256,192,272950,1,8,0:0:0:0:
256,192,273053,1,8,0:0:0:0:
256,192,273156,1,0,0:0:0:0:
256,192,273258,1,8,0:0:0:0:
256,192,273310,1,8,0:0:0:0:
256,192,273361,1,0,0:0:0:0:
256,192,273413,1,0,0:0:0:0:
256,192,273464,1,8,0:0:0:0:
256,192,273567,1,0,0:0:0:0:
256,192,273669,1,8,0:0:0:0:
256,192,273772,1,8,0:0:0:0:
256,192,273875,1,0,0:0:0:0:
256,192,273978,1,0,0:0:0:0:
256,192,274080,1,8,0:0:0:0:
256,192,274183,1,0,0:0:0:0:
256,192,274286,1,8,0:0:0:0:
256,192,274389,1,8,0:0:0:0:
256,192,274491,1,0,0:0:0:0:
256,192,274594,1,0,0:0:0:0:
256,192,274697,1,8,0:0:0:0:
256,192,274800,1,8,0:0:0:0:
256,192,274902,1,0,0:0:0:0:
256,192,275005,1,0,0:0:0:0:
256,192,275108,1,0,0:0:0:0:
256,192,275211,1,0,0:0:0:0:
256,192,275313,1,8,0:0:0:0:
256,192,275416,1,8,0:0:0:0:
256,192,275519,1,0,0:0:0:0:
256,192,275587,1,0,0:0:0:0:
256,192,275656,1,0,0:0:0:0:
256,192,275724,1,8,0:0:0:0:
256,192,275827,1,0,0:0:0:0:
256,192,275930,1,8,0:0:0:0:
256,192,276032,1,8,0:0:0:0:
256,192,276135,1,0,0:0:0:0:
256,192,276546,5,0,0:0:0:0:
256,192,276752,1,0,0:0:0:0:
256,192,276957,1,0,0:0:0:0:
256,192,277163,1,0,0:0:0:0:
256,192,277368,5,8,0:0:0:0:
256,192,277779,1,0,0:0:0:0:
256,192,279423,5,0,0:0:0:0:
256,192,279834,1,8,0:0:0:0:
256,192,280245,1,8,0:0:0:0:
256,192,280656,1,0,0:0:0:0:
256,192,281067,12,0,282299,0:0:0:0:
256,192,282710,12,0,283943,0:0:0:0:
256,192,284354,12,0,285587,0:0:0:0:
256,192,285998,12,0,287231,0:0:0:0:
256,192,287642,12,0,288875,0:0:0:0:
256,192,289286,12,0,290519,0:0:0:0:
256,192,290930,12,0,292162,0:0:0:0:
256,192,292573,5,0,0:0:0:0:
256,192,292984,1,8,0:0:0:0:
256,192,293395,1,8,0:0:0:0:
256,192,293806,1,0,0:0:0:0:
256,192,294217,12,0,295450,0:0:0:0:
256,192,295861,12,0,297094,0:0:0:0:
256,192,297505,12,0,298738,0:0:0:0:
256,192,299149,12,0,300382,0:0:0:0:
256,192,300793,12,0,302436,0:0:0:0:
