osu file format v14

[General]
AudioFilename: audio.mp3
AudioLeadIn: 0
PreviewTime: 159335
Countdown: 0
SampleSet: Normal
StackLeniency: 0.7
Mode: 3
LetterboxInBreaks: 0
SpecialStyle: 0
WidescreenStoryboard: 0

[Editor]
Bookmarks: 216869
DistanceSpacing: 0.8
BeatDivisor: 8
GridSize: 32
TimelineZoom: 2.2

[Metadata]
Title:Recalled Collapse feat. Such
TitleUnicode:Recalled Collapse feat. Such
Artist:PSYQUI
ArtistUnicode:PSYQUI
Creator:ExVeemon
Version:Hypnagogic Memory
Source:
Tags:epoqc 2021 megarex
BeatmapID:1934419
BeatmapSetID:926124

[Difficulty]
HPDrainRate:8
CircleSize:4
OverallDifficulty:7.5
ApproachRate:5
SliderMultiplier:1.4
SliderTickRate:1

[Events]
//Background and Video events
0,0,"422313-Kycb.jpg",0,0
//Break Periods
//Storyboard Layer 0 (Background)
//Storyboard Layer 1 (Fail)
//Storyboard Layer 2 (Pass)
//Storyboard Layer 3 (Foreground)
//Storyboard Layer 4 (Overlay)
//Storyboard Sound Samples

[TimingPoints]
0,410.958904109589,4,1,0,20,1,0
1,-200,4,1,0,20,0,0
1527.50603132179,410.958904109589,4,1,0,20,1,0
1528,-200,4,1,0,20,0,0
31116,-181.818181818182,4,1,0,20,0,0
34404,-166.666666666667,4,1,0,20,0,0
37691,-153.846153846154,4,1,0,20,0,0
40979,-142.857142857143,4,1,0,20,0,0
49198,-133.333333333333,4,1,0,20,0,0
50842,-125,4,1,0,20,0,0
52486,-117.647058823529,4,1,0,20,0,0
52897,-111.111111111111,4,1,0,20,0,0
53308,-105.263157894737,4,1,0,20,0,0
53719,-100,4,1,0,20,0,0
53924,-79.9999999999999,4,1,0,20,0,0
54027,-66.6666666666667,4,1,0,20,0,0
54130,-100,4,1,0,20,0,0
54232,-111.111111111111,4,1,0,20,0,0
54335,-125,4,1,0,20,0,0
78787,-125,4,1,0,15,0,0
78930.9,-123.456790123457,4,1,0,15,0,0
79074.8,-121.951219512195,4,1,0,15,0,0
79218.7,-120.481927710843,4,1,0,15,0,0
79362.6,-119.047619047619,4,1,0,15,0,0
79506.5,-117.647058823529,4,1,0,15,0,0
79650.4,-116.279069767442,4,1,0,15,0,0
79794.3,-114.942528735632,4,1,0,15,0,0
79938.2,-113.636363636364,4,1,0,15,0,0
80082.1,-112.359550561798,4,1,0,15,0,0
80226,-100,4,1,0,15,0,0
80328,-90.9090909090909,4,1,0,20,0,0
80431,-83.3333333333333,4,1,0,20,0,0
80534,-90.9090909090909,4,1,0,20,0,0
80637,-99.9999999999999,4,1,0,20,0,0
80739,-111.111111111111,4,1,0,20,0,0
80842,-125,4,1,0,20,0,0
80945,-142.857142857143,4,1,0,20,0,0
81048,-166.666666666667,4,1,0,20,0,0
85363,-166.666666666667,4,1,0,15,0,0
85623.2666666667,-163.934426229508,4,1,0,15,0,0
85883.5333333333,-161.290322580645,4,1,0,15,0,0
86143.8,-158.730158730159,4,1,0,15,0,0
86404.0666666667,-158.730158730159,4,1,0,15,0,0
86664.3333333333,-156.25,4,1,0,15,0,0
86924.6,-153.846153846154,4,1,0,15,0,0
87184.8666666667,-151.515151515152,4,1,0,15,0,0
87445.1333333333,-149.253731343284,4,1,0,15,0,0
87705.4,-147.058823529412,4,1,0,15,0,0
87965.6666666667,-147.058823529412,4,1,0,15,0,0
88225.9333333333,-144.927536231884,4,1,0,15,0,0
88486.2,-142.857142857143,4,1,0,15,0,0
88746.4666666667,-140.845070422535,4,1,0,15,0,0
89006.7333333333,-138.888888888889,4,1,0,15,0,0
89267,-136.986301369863,4,1,0,15,0,0
89527.2666666667,-136.986301369863,4,1,0,15,0,0
89787.5333333333,-135.135135135135,4,1,0,15,0,0
90047.8,-133.333333333333,4,1,0,15,0,0
90308.0666666667,-131.578947368421,4,1,0,15,0,0
90568.3333333333,-129.87012987013,4,1,0,15,0,0
90828.6,-129.87012987013,4,1,0,15,0,0
91088.8666666667,-128.205128205128,4,1,0,15,0,0
91349.1333333333,-126.582278481013,4,1,0,15,0,0
91609.4,-125,4,1,0,15,0,0
91869.6666666667,-123.456790123457,4,1,0,15,0,0
92129.9333333333,-121.951219512195,4,1,0,15,0,0
92390.2,-120.481927710843,4,1,0,15,0,0
92650.4666666667,-120.481927710843,4,1,0,15,0,0
92910.7333333333,-119.047619047619,4,1,0,15,0,0
93171,-117.647058823529,4,1,0,15,0,0
93191.55,-117.647058823529,4,1,0,15,0,0
93212.1,-116.279069767442,4,1,0,15,0,0
93232.65,-113.636363636364,4,1,0,15,0,0
93253.2,-111.111111111111,4,1,0,15,0,0
93273.75,-108.695652173913,4,1,0,15,0,0
93294.3,-105.263157894737,4,1,0,15,0,0
93314.85,-101.010101010101,4,1,0,15,0,0
93335.4,-97.0873786407767,4,1,0,15,0,0
93355.95,-92.5925925925926,4,1,0,15,0,0
93376.5,-87.719298245614,4,1,0,15,0,0
93397.05,-83.3333333333333,4,1,0,15,0,0
93417.6,-79.3650793650794,4,1,0,15,0,0
93438.15,-74.6268656716418,4,1,0,15,0,0
93458.7,-70.9219858156028,4,1,0,15,0,0
93479.25,-66.6666666666667,4,1,0,15,0,0
93499.8,-62.8930817610063,4,1,0,15,0,0
93520.35,-59.5238095238095,4,1,0,15,0,0
93540.9,-56.1797752808989,4,1,0,15,0,0
93561.45,-52.9100529100529,4,1,0,15,0,0
93582,-50,4,1,0,15,0,0
93597.4,-52.6315789473684,4,1,0,15,0,0
93612.8,-55.5555555555556,4,1,0,15,0,0
93628.2,-58.8235294117647,4,1,0,15,0,0
93643.6,-62.5,4,1,0,15,0,0
93659,-66.6666666666667,4,1,0,15,0,0
93674.4,-71.4285714285714,4,1,0,15,0,0
93689.8,-76.9230769230769,4,1,0,15,0,0
93705.2,-83.3333333333333,4,1,0,15,0,0
93720.6,-90.9090909090909,4,1,0,15,0,0
93736,-99.009900990099,4,1,0,15,0,0
93751.4,-109.89010989011,4,1,0,15,0,0
93766.8,-123.456790123457,4,1,0,15,0,0
93782.2,-140.845070422535,4,1,0,15,0,0
93797.6,-163.934426229508,4,1,0,15,0,0
93813,-196.078431372549,4,1,0,15,0,0
93828.4,-243.90243902439,4,1,0,15,0,0
93843.8,-322.58064516129,4,1,0,15,0,0
93859.2,-476.190476190476,4,1,0,15,0,0
93874.6,-909.090909090909,4,1,0,15,0,0
93890,-10000,4,1,0,15,0,0
93993,-10000,4,1,0,15,0,0
94013.55,-909.090909090909,4,1,0,15,0,0
94034.1,-476.190476190476,4,1,0,15,0,0
94054.65,-322.58064516129,4,1,0,15,0,0
94075.2,-243.90243902439,4,1,0,15,0,0
94095.75,-196.078431372549,4,1,0,15,0,0
94116.3,-163.934426229508,4,1,0,15,0,0
94136.85,-140.845070422535,4,1,0,15,0,0
94157.4,-123.456790123457,4,1,0,15,0,0
94177.95,-109.89010989011,4,1,0,15,0,0
94198.5,-100,4,1,0,15,0,0
94219.05,-90.9090909090909,4,1,0,15,0,0
94239.6,-83.3333333333333,4,1,0,15,0,0
94260.15,-76.9230769230769,4,1,0,15,0,0
94280.7,-71.4285714285714,4,1,0,15,0,0
94301.25,-66.6666666666667,4,1,0,15,0,0
94321.8,-62.5,4,1,0,15,0,0
94342.35,-58.8235294117647,4,1,0,15,0,0
94362.9,-55.5555555555556,4,1,0,15,0,0
94383.45,-52.6315789473684,4,1,0,15,0,0
94404,-50,4,1,0,15,0,0
94419.4,-52.6315789473684,4,1,0,15,0,0
94434.8,-55.5555555555556,4,1,0,15,0,0
94450.2,-58.8235294117647,4,1,0,15,0,0
94465.6,-62.5,4,1,0,15,0,0
94481,-66.6666666666667,4,1,0,15,0,0
94496.4,-71.4285714285714,4,1,0,15,0,0
94511.8,-76.9230769230769,4,1,0,15,0,0
94527.2,-83.3333333333333,4,1,0,15,0,0
94542.6,-90.9090909090909,4,1,0,15,0,0
94558,-99.009900990099,4,1,0,15,0,0
94573.4,-109.89010989011,4,1,0,15,0,0
94588.8,-123.456790123457,4,1,0,15,0,0
94604.2,-140.845070422535,4,1,0,15,0,0
94619.6,-163.934426229508,4,1,0,15,0,0
94635,-196.078431372549,4,1,0,15,0,0
94650.4,-243.90243902439,4,1,0,15,0,0
94665.8,-322.58064516129,4,1,0,15,0,0
94681.2,-476.190476190476,4,1,0,15,0,0
94696.6,-909.090909090909,4,1,0,15,0,0
94712,-10000,4,1,0,15,0,0
94815,-10000,4,1,0,15,0,0
94835.55,-909.090909090909,4,1,0,15,0,0
94856.1,-476.190476190476,4,1,0,15,0,0
94876.65,-322.58064516129,4,1,0,15,0,0
94897.2,-243.90243902439,4,1,0,15,0,0
94917.75,-196.078431372549,4,1,0,15,0,0
94938.3,-163.934426229508,4,1,0,15,0,0
94958.85,-140.845070422535,4,1,0,15,0,0
94979.4,-123.456790123457,4,1,0,15,0,0
94999.95,-109.89010989011,4,1,0,15,0,0
95020.5,-100,4,1,0,15,0,0
95041.05,-90.9090909090909,4,1,0,15,0,0
95061.6,-83.3333333333333,4,1,0,15,0,0
95082.15,-76.9230769230769,4,1,0,15,0,0
95102.7,-71.4285714285714,4,1,0,15,0,0
95123.25,-66.6666666666667,4,1,0,15,0,0
95143.8,-62.5,4,1,0,15,0,0
95164.35,-58.8235294117647,4,1,0,15,0,0
95184.9,-55.5555555555556,4,1,0,15,0,0
95205.45,-52.6315789473684,4,1,0,15,0,0
95226,-50,4,1,0,15,0,0
95236.25,-52.6315789473684,4,1,0,15,0,0
95246.5,-55.5555555555556,4,1,0,15,0,0
95256.75,-58.8235294117647,4,1,0,15,0,0
95267,-62.5,4,1,0,15,0,0
95277.25,-66.6666666666667,4,1,0,15,0,0
95287.5,-71.4285714285714,4,1,0,15,0,0
95297.75,-76.9230769230769,4,1,0,15,0,0
95308,-83.3333333333333,4,1,0,15,0,0
95318.25,-90.9090909090909,4,1,0,15,0,0
95328.5,-99.009900990099,4,1,0,15,0,0
95338.75,-109.89010989011,4,1,0,15,0,0
95349,-123.456790123457,4,1,0,15,0,0
95359.25,-140.845070422535,4,1,0,15,0,0
95369.5,-163.934426229508,4,1,0,15,0,0
95379.75,-196.078431372549,4,1,0,15,0,0
95390,-243.90243902439,4,1,0,15,0,0
95400.25,-322.58064516129,4,1,0,15,0,0
95410.5,-476.190476190476,4,1,0,15,0,0
95420.75,-909.090909090909,4,1,0,15,0,0
95431,-10000,4,1,0,15,0,0
95441.3,-909.090909090909,4,1,0,15,0,0
95451.6,-476.190476190476,4,1,0,15,0,0
95461.9,-322.58064516129,4,1,0,15,0,0
95472.2,-243.90243902439,4,1,0,15,0,0
95482.5,-196.078431372549,4,1,0,15,0,0
95492.8,-163.934426229508,4,1,0,15,0,0
95503.1,-140.845070422535,4,1,0,15,0,0
95513.4,-123.456790123457,4,1,0,15,0,0
95523.7,-109.89010989011,4,1,0,15,0,0
95534,-100,4,1,0,15,0,0
95544.3,-90.9090909090909,4,1,0,15,0,0
95554.6,-83.3333333333333,4,1,0,15,0,0
95564.9,-76.9230769230769,4,1,0,15,0,0
95575.2,-71.4285714285714,4,1,0,15,0,0
95585.5,-66.6666666666667,4,1,0,15,0,0
95595.8,-62.5,4,1,0,15,0,0
95606.1,-58.8235294117647,4,1,0,15,0,0
95616.4,-55.5555555555556,4,1,0,15,0,0
95626.7,-52.6315789473684,4,1,0,15,0,0
95637,-50,4,1,0,15,0,0
95647.25,-52.6315789473684,4,1,0,15,0,0
95657.5,-55.5555555555556,4,1,0,15,0,0
95667.75,-58.8235294117647,4,1,0,15,0,0
95678,-62.5,4,1,0,15,0,0
95688.25,-66.6666666666667,4,1,0,15,0,0
95698.5,-71.4285714285714,4,1,0,15,0,0
95708.75,-76.9230769230769,4,1,0,15,0,0
95719,-83.3333333333333,4,1,0,15,0,0
95729.25,-90.9090909090909,4,1,0,15,0,0
95739.5,-99.009900990099,4,1,0,15,0,0
95749.75,-109.89010989011,4,1,0,15,0,0
95760,-123.456790123457,4,1,0,15,0,0
95770.25,-140.845070422535,4,1,0,15,0,0
95780.5,-163.934426229508,4,1,0,15,0,0
95790.75,-196.078431372549,4,1,0,15,0,0
95801,-243.90243902439,4,1,0,15,0,0
95811.25,-322.58064516129,4,1,0,15,0,0
95821.5,-476.190476190476,4,1,0,15,0,0
95831.75,-909.090909090909,4,1,0,15,0,0
95842,-10000,4,1,0,15,0,0
95852.3,-909.090909090909,4,1,0,15,0,0
95862.6,-476.190476190476,4,1,0,15,0,0
95872.9,-322.58064516129,4,1,0,15,0,0
95883.2,-243.90243902439,4,1,0,15,0,0
95893.5,-196.078431372549,4,1,0,15,0,0
95903.8,-163.934426229508,4,1,0,15,0,0
95914.1,-140.845070422535,4,1,0,15,0,0
95924.4,-123.456790123457,4,1,0,15,0,0
95934.7,-109.89010989011,4,1,0,15,0,0
95945,-100,4,1,0,15,0,0
95955.3,-90.9090909090909,4,1,0,15,0,0
95965.6,-83.3333333333333,4,1,0,15,0,0
95975.9,-76.9230769230769,4,1,0,15,0,0
95986.2,-71.4285714285714,4,1,0,15,0,0
95996.5,-66.6666666666667,4,1,0,15,0,0
96006.8,-62.5,4,1,0,15,0,0
96017.1,-58.8235294117647,4,1,0,15,0,0
96027.4,-55.5555555555556,4,1,0,15,0,0
96037.7,-52.6315789473684,4,1,0,15,0,0
96048,-50,4,1,0,15,0,0
96063.4,-52.6315789473684,4,1,0,15,0,0
96078.8,-55.5555555555556,4,1,0,15,0,0
96094.2,-58.8235294117647,4,1,0,15,0,0
96109.6,-62.5,4,1,0,15,0,0
96125,-66.6666666666667,4,1,0,15,0,0
96140.4,-71.4285714285714,4,1,0,15,0,0
96155.8,-76.9230769230769,4,1,0,15,0,0
96171.2,-83.3333333333333,4,1,0,15,0,0
96186.6,-90.9090909090909,4,1,0,15,0,0
96202,-99.009900990099,4,1,0,15,0,0
96217.4,-109.89010989011,4,1,0,15,0,0
96232.8,-123.456790123457,4,1,0,15,0,0
96248.2,-140.845070422535,4,1,0,15,0,0
96263.6,-163.934426229508,4,1,0,15,0,0
96279,-196.078431372549,4,1,0,15,0,0
96294.4,-243.90243902439,4,1,0,15,0,0
96309.8,-322.58064516129,4,1,0,15,0,0
96325.2,-476.190476190476,4,1,0,15,0,0
96340.6,-909.090909090909,4,1,0,15,0,0
96356,-10000,4,1,0,15,0,0
96459,-10000,4,1,0,15,0,0
96479.5,-909.090909090909,4,1,0,15,0,0
96500,-476.190476190476,4,1,0,15,0,0
96520.5,-322.58064516129,4,1,0,15,0,0
96541,-243.90243902439,4,1,0,15,0,0
96561.5,-196.078431372549,4,1,0,15,0,0
96582,-163.934426229508,4,1,0,15,0,0
96602.5,-140.845070422535,4,1,0,15,0,0
96623,-123.456790123457,4,1,0,15,0,0
96643.5,-109.89010989011,4,1,0,15,0,0
96664,-100,4,1,0,15,0,0
96684.5,-90.9090909090909,4,1,0,15,0,0
96705,-83.3333333333333,4,1,0,15,0,0
96725.5,-76.9230769230769,4,1,0,15,0,0
96746,-71.4285714285714,4,1,0,15,0,0
96766.5,-66.6666666666667,4,1,0,15,0,0
96787,-62.5,4,1,0,15,0,0
96807.5,-58.8235294117647,4,1,0,15,0,0
96828,-55.5555555555556,4,1,0,15,0,0
96848.5,-52.6315789473684,4,1,0,15,0,0
96869,-50,4,1,0,15,0,0
96884.45,-52.6315789473684,4,1,0,15,0,0
96899.9,-55.5555555555556,4,1,0,15,0,0
96915.35,-58.8235294117647,4,1,0,15,0,0
96930.8,-62.5,4,1,0,15,0,0
96946.25,-66.6666666666667,4,1,0,15,0,0
96961.7,-71.4285714285714,4,1,0,15,0,0
96977.15,-76.9230769230769,4,1,0,15,0,0
96992.6,-83.3333333333333,4,1,0,15,0,0
97008.05,-90.9090909090909,4,1,0,15,0,0
97023.5,-99.009900990099,4,1,0,15,0,0
97038.95,-109.89010989011,4,1,0,15,0,0
97054.4,-123.456790123457,4,1,0,15,0,0
97069.85,-140.845070422535,4,1,0,15,0,0
97085.3,-163.934426229508,4,1,0,15,0,0
97100.75,-196.078431372549,4,1,0,15,0,0
97116.2,-243.90243902439,4,1,0,15,0,0
97131.65,-322.58064516129,4,1,0,15,0,0
97147.1,-476.190476190476,4,1,0,15,0,0
97162.55,-909.090909090909,4,1,0,15,0,0
97178,-10000,4,1,0,15,0,0
97280,-10000,4,1,0,15,0,0
97300.55,-909.090909090909,4,1,0,15,0,0
97321.1,-476.190476190476,4,1,0,15,0,0
97341.65,-322.58064516129,4,1,0,15,0,0
97362.2,-243.90243902439,4,1,0,15,0,0
97382.75,-196.078431372549,4,1,0,15,0,0
97403.3,-163.934426229508,4,1,0,15,0,0
97423.85,-140.845070422535,4,1,0,15,0,0
97444.4,-123.456790123457,4,1,0,15,0,0
97464.95,-109.89010989011,4,1,0,15,0,0
97485.5,-100,4,1,0,15,0,0
97506.05,-90.9090909090909,4,1,0,15,0,0
97526.6,-83.3333333333333,4,1,0,15,0,0
97547.15,-76.9230769230769,4,1,0,15,0,0
97567.7,-71.4285714285714,4,1,0,15,0,0
97588.25,-66.6666666666667,4,1,0,15,0,0
97608.8,-62.5,4,1,0,15,0,0
97629.35,-58.8235294117647,4,1,0,15,0,0
97649.9,-55.5555555555556,4,1,0,15,0,0
97670.45,-52.6315789473684,4,1,0,15,0,0
97691,-50,4,1,0,15,0,0
97706.45,-52.6315789473684,4,1,0,15,0,0
97721.9,-55.5555555555556,4,1,0,15,0,0
97737.35,-58.8235294117647,4,1,0,15,0,0
97752.8,-62.5,4,1,0,15,0,0
97768.25,-66.6666666666667,4,1,0,15,0,0
97783.7,-71.4285714285714,4,1,0,15,0,0
97799.15,-76.9230769230769,4,1,0,15,0,0
97814.6,-83.3333333333333,4,1,0,15,0,0
97830.05,-90.9090909090909,4,1,0,15,0,0
97845.5,-99.009900990099,4,1,0,15,0,0
97860.95,-109.89010989011,4,1,0,15,0,0
97876.4,-123.456790123457,4,1,0,15,0,0
97891.85,-140.845070422535,4,1,0,15,0,0
97907.3,-163.934426229508,4,1,0,15,0,0
97922.75,-196.078431372549,4,1,0,15,0,0
97938.2,-243.90243902439,4,1,0,15,0,0
97953.65,-322.58064516129,4,1,0,15,0,0
97969.1,-476.190476190476,4,1,0,15,0,0
97984.55,-909.090909090909,4,1,0,15,0,0
98000,-10000,4,1,0,15,0,0
98102,-10000,4,1,0,15,0,0
98112.3,-909.090909090909,4,1,0,15,0,0
98122.6,-476.190476190476,4,1,0,15,0,0
98132.9,-322.58064516129,4,1,0,15,0,0
98143.2,-243.90243902439,4,1,0,15,0,0
98153.5,-196.078431372549,4,1,0,15,0,0
98163.8,-163.934426229508,4,1,0,15,0,0
98174.1,-140.845070422535,4,1,0,15,0,0
98184.4,-123.456790123457,4,1,0,15,0,0
98194.7,-109.89010989011,4,1,0,15,0,0
98205,-100,4,1,0,15,0,0
98215.3,-90.9090909090909,4,1,0,15,0,0
98225.6,-83.3333333333333,4,1,0,15,0,0
98235.9,-76.9230769230769,4,1,0,15,0,0
98246.2,-71.4285714285714,4,1,0,15,0,0
98256.5,-66.6666666666667,4,1,0,15,0,0
98266.8,-62.5,4,1,0,15,0,0
98277.1,-58.8235294117647,4,1,0,15,0,0
98287.4,-55.5555555555556,4,1,0,15,0,0
98297.7,-52.6315789473684,4,1,0,15,0,0
98308,-50,4,1,0,15,0,0
98313.15,-52.6315789473684,4,1,0,15,0,0
98318.3,-55.5555555555556,4,1,0,15,0,0
98323.45,-58.8235294117647,4,1,0,15,0,0
98328.6,-62.5,4,1,0,15,0,0
98333.75,-66.6666666666667,4,1,0,15,0,0
98338.9,-71.4285714285714,4,1,0,15,0,0
98344.05,-76.9230769230769,4,1,0,15,0,0
98349.2,-83.3333333333333,4,1,0,15,0,0
98354.35,-90.9090909090909,4,1,0,15,0,0
98359.5,-99.009900990099,4,1,0,15,0,0
98364.65,-109.89010989011,4,1,0,15,0,0
98369.8,-123.456790123457,4,1,0,15,0,0
98374.95,-140.845070422535,4,1,0,15,0,0
98380.1,-163.934426229508,4,1,0,15,0,0
98385.25,-196.078431372549,4,1,0,15,0,0
98390.4,-243.90243902439,4,1,0,15,0,0
98395.55,-322.58064516129,4,1,0,15,0,0
98400.7,-476.190476190476,4,1,0,15,0,0
98405.85,-909.090909090909,4,1,0,15,0,0
98411,-10000,4,1,0,15,0,0
98416.1,-909.090909090909,4,1,0,15,0,0
98421.2,-476.190476190476,4,1,0,15,0,0
98426.3,-322.58064516129,4,1,0,15,0,0
98431.4,-243.90243902439,4,1,0,15,0,0
98436.5,-196.078431372549,4,1,0,15,0,0
98441.6,-163.934426229508,4,1,0,15,0,0
98446.7,-140.845070422535,4,1,0,15,0,0
98451.8,-123.456790123457,4,1,0,15,0,0
98456.9,-109.89010989011,4,1,0,15,0,0
98462,-100,4,1,0,15,0,0
98467.1,-90.9090909090909,4,1,0,15,0,0
98472.2,-83.3333333333333,4,1,0,15,0,0
98477.3,-76.9230769230769,4,1,0,15,0,0
98482.4,-71.4285714285714,4,1,0,15,0,0
98487.5,-66.6666666666667,4,1,0,15,0,0
98492.6,-62.5,4,1,0,15,0,0
98497.7,-58.8235294117647,4,1,0,15,0,0
98502.8,-55.5555555555556,4,1,0,15,0,0
98507.9,-52.6315789473684,4,1,0,15,0,0
98513,-50,4,1,0,15,0,0
98523.3,-52.6315789473684,4,1,0,15,0,0
98533.6,-55.5555555555556,4,1,0,15,0,0
98543.9,-58.8235294117647,4,1,0,15,0,0
98554.2,-62.5,4,1,0,15,0,0
98564.5,-66.6666666666667,4,1,0,15,0,0
98574.8,-71.4285714285714,4,1,0,15,0,0
98585.1,-76.9230769230769,4,1,0,15,0,0
98595.4,-83.3333333333333,4,1,0,15,0,0
98605.7,-90.9090909090909,4,1,0,15,0,0
98616,-99.009900990099,4,1,0,15,0,0
98626.3,-109.89010989011,4,1,0,15,0,0
98636.6,-123.456790123457,4,1,0,15,0,0
98646.9,-140.845070422535,4,1,0,15,0,0
98657.2,-163.934426229508,4,1,0,15,0,0
98667.5,-196.078431372549,4,1,0,15,0,0
98677.8,-243.90243902439,4,1,0,15,0,0
98688.1,-322.58064516129,4,1,0,15,0,0
98698.4,-476.190476190476,4,1,0,15,0,0
98708.7,-909.090909090909,4,1,0,15,0,0
98719,-10000,4,1,0,15,0,0
98729.25,-909.090909090909,4,1,0,15,0,0
98739.5,-476.190476190476,4,1,0,15,0,0
98749.75,-322.58064516129,4,1,0,15,0,0
98760,-243.90243902439,4,1,0,15,0,0
98770.25,-196.078431372549,4,1,0,15,0,0
98780.5,-163.934426229508,4,1,0,15,0,0
98790.75,-140.845070422535,4,1,0,15,0,0
98801,-123.456790123457,4,1,0,15,0,0
98811.25,-109.89010989011,4,1,0,15,0,0
98821.5,-100,4,1,0,15,0,0
98831.75,-90.9090909090909,4,1,0,15,0,0
98842,-83.3333333333333,4,1,0,15,0,0
98852.25,-76.9230769230769,4,1,0,15,0,0
98862.5,-71.4285714285714,4,1,0,15,0,0
98872.75,-66.6666666666667,4,1,0,15,0,0
98883,-62.5,4,1,0,15,0,0
98893.25,-58.8235294117647,4,1,0,15,0,0
98903.5,-55.5555555555556,4,1,0,15,0,0
98913.75,-52.6315789473684,4,1,0,15,0,0
98924,-50,4,1,0,15,0,0
98934.3,-52.6315789473684,4,1,0,15,0,0
98944.6,-55.5555555555556,4,1,0,15,0,0
98954.9,-58.8235294117647,4,1,0,15,0,0
98965.2,-62.5,4,1,0,15,0,0
98975.5,-66.6666666666667,4,1,0,15,0,0
98985.8,-71.4285714285714,4,1,0,15,0,0
98996.1,-76.9230769230769,4,1,0,15,0,0
99006.4,-83.3333333333333,4,1,0,15,0,0
99016.7,-90.9090909090909,4,1,0,15,0,0
99027,-99.009900990099,4,1,0,15,0,0
99037.3,-109.89010989011,4,1,0,15,0,0
99047.6,-123.456790123457,4,1,0,15,0,0
99057.9,-140.845070422535,4,1,0,15,0,0
99068.2,-163.934426229508,4,1,0,15,0,0
99078.5,-196.078431372549,4,1,0,15,0,0
99088.8,-243.90243902439,4,1,0,15,0,0
99099.1,-322.58064516129,4,1,0,15,0,0
99109.4,-476.190476190476,4,1,0,15,0,0
99119.7,-909.090909090909,4,1,0,15,0,0
99130,-10000,4,1,0,15,0,0
99140.25,-909.090909090909,4,1,0,15,0,0
99150.5,-476.190476190476,4,1,0,15,0,0
99160.75,-322.58064516129,4,1,0,15,0,0
99171,-243.90243902439,4,1,0,15,0,0
99181.25,-196.078431372549,4,1,0,15,0,0
99191.5,-163.934426229508,4,1,0,15,0,0
99201.75,-140.845070422535,4,1,0,15,0,0
99212,-123.456790123457,4,1,0,15,0,0
99222.25,-109.89010989011,4,1,0,15,0,0
99232.5,-100,4,1,0,15,0,0
99242.75,-90.9090909090909,4,1,0,15,0,0
99253,-83.3333333333333,4,1,0,15,0,0
99263.25,-76.9230769230769,4,1,0,15,0,0
99273.5,-71.4285714285714,4,1,0,15,0,0
99283.75,-66.6666666666667,4,1,0,15,0,0
99294,-62.5,4,1,0,15,0,0
99304.25,-58.8235294117647,4,1,0,15,0,0
99314.5,-55.5555555555556,4,1,0,15,0,0
99324.75,-52.6315789473684,4,1,0,15,0,0
99335,-50,4,1,0,15,0,0
99350.4,-52.6315789473684,4,1,0,15,0,0
99365.8,-55.5555555555556,4,1,0,15,0,0
99381.2,-58.8235294117647,4,1,0,15,0,0
99396.6,-62.5,4,1,0,15,0,0
99412,-66.6666666666667,4,1,0,15,0,0
99427.4,-71.4285714285714,4,1,0,15,0,0
99442.8,-76.9230769230769,4,1,0,15,0,0
99458.2,-83.3333333333333,4,1,0,15,0,0
99473.6,-90.9090909090909,4,1,0,15,0,0
99489,-99.009900990099,4,1,0,15,0,0
99504.4,-109.89010989011,4,1,0,15,0,0
99519.8,-123.456790123457,4,1,0,15,0,0
99535.2,-140.845070422535,4,1,0,15,0,0
99550.6,-163.934426229508,4,1,0,15,0,0
99566,-196.078431372549,4,1,0,15,0,0
99581.4,-243.90243902439,4,1,0,15,0,0
99596.8,-322.58064516129,4,1,0,15,0,0
99612.2,-476.190476190476,4,1,0,15,0,0
99627.6,-909.090909090909,4,1,0,15,0,0
99643,-10000,4,1,0,15,0,0
99746,-10000,4,1,0,15,0,0
99766.55,-909.090909090909,4,1,0,15,0,0
99787.1,-476.190476190476,4,1,0,15,0,0
99807.65,-322.58064516129,4,1,0,15,0,0
99828.2,-243.90243902439,4,1,0,15,0,0
99848.75,-196.078431372549,4,1,0,15,0,0
99869.3,-163.934426229508,4,1,0,15,0,0
99889.85,-140.845070422535,4,1,0,15,0,0
99910.4,-123.456790123457,4,1,0,15,0,0
99930.95,-109.89010989011,4,1,0,15,0,0
99951.5,-100,4,1,0,15,0,0
99972.05,-90.9090909090909,4,1,0,15,0,0
99992.6,-83.3333333333333,4,1,0,15,0,0
100013.15,-76.9230769230769,4,1,0,15,0,0
100033.7,-71.4285714285714,4,1,0,15,0,0
100054.25,-66.6666666666667,4,1,0,15,0,0
100074.8,-62.5,4,1,0,15,0,0
100095.35,-58.8235294117647,4,1,0,15,0,0
100115.9,-55.5555555555556,4,1,0,15,0,0
100136.45,-52.6315789473684,4,1,0,15,0,0
100157,-50,4,1,0,15,0,0
100172.4,-52.6315789473684,4,1,0,15,0,0
100187.8,-55.5555555555556,4,1,0,15,0,0
100203.2,-58.8235294117647,4,1,0,15,0,0
100218.6,-62.5,4,1,0,15,0,0
100234,-66.6666666666667,4,1,0,15,0,0
100249.4,-71.4285714285714,4,1,0,15,0,0
100264.8,-76.9230769230769,4,1,0,15,0,0
100280.2,-83.3333333333333,4,1,0,15,0,0
100295.6,-90.9090909090909,4,1,0,15,0,0
100311,-99.009900990099,4,1,0,15,0,0
100326.4,-109.89010989011,4,1,0,15,0,0
100341.8,-123.456790123457,4,1,0,15,0,0
100357.2,-140.845070422535,4,1,0,15,0,0
100372.6,-163.934426229508,4,1,0,15,0,0
100388,-196.078431372549,4,1,0,15,0,0
100403.4,-243.90243902439,4,1,0,15,0,0
100418.8,-322.58064516129,4,1,0,15,0,0
100434.2,-476.190476190476,4,1,0,15,0,0
100449.6,-909.090909090909,4,1,0,15,0,0
100465,-10000,4,1,0,15,0,0
100568,-10000,4,1,0,15,0,0
100588.55,-909.090909090909,4,1,0,15,0,0
100609.1,-476.190476190476,4,1,0,15,0,0
100629.65,-322.58064516129,4,1,0,15,0,0
100650.2,-243.90243902439,4,1,0,15,0,0
100670.75,-196.078431372549,4,1,0,15,0,0
100691.3,-163.934426229508,4,1,0,15,0,0
100711.85,-140.845070422535,4,1,0,15,0,0
100732.4,-123.456790123457,4,1,0,15,0,0
100752.95,-109.89010989011,4,1,0,15,0,0
100773.5,-100,4,1,0,15,0,0
100794.05,-90.9090909090909,4,1,0,15,0,0
100814.6,-83.3333333333333,4,1,0,15,0,0
100835.15,-76.9230769230769,4,1,0,15,0,0
100855.7,-71.4285714285714,4,1,0,15,0,0
100876.25,-66.6666666666667,4,1,0,15,0,0
100896.8,-62.5,4,1,0,15,0,0
100917.35,-58.8235294117647,4,1,0,15,0,0
100937.9,-55.5555555555556,4,1,0,15,0,0
100958.45,-52.6315789473684,4,1,0,15,0,0
100979,-50,4,1,0,15,0,0
100994.4,-52.6315789473684,4,1,0,15,0,0
101009.8,-55.5555555555556,4,1,0,15,0,0
101025.2,-58.8235294117647,4,1,0,15,0,0
101040.6,-62.5,4,1,0,15,0,0
101056,-66.6666666666667,4,1,0,15,0,0
101071.4,-71.4285714285714,4,1,0,15,0,0
101086.8,-76.9230769230769,4,1,0,15,0,0
101102.2,-83.3333333333333,4,1,0,15,0,0
101117.6,-90.9090909090909,4,1,0,15,0,0
101133,-99.009900990099,4,1,0,15,0,0
101148.4,-109.89010989011,4,1,0,15,0,0
101163.8,-123.456790123457,4,1,0,15,0,0
101179.2,-140.845070422535,4,1,0,15,0,0
101194.6,-163.934426229508,4,1,0,15,0,0
101210,-196.078431372549,4,1,0,15,0,0
101225.4,-243.90243902439,4,1,0,15,0,0
101240.8,-322.58064516129,4,1,0,15,0,0
101256.2,-476.190476190476,4,1,0,15,0,0
101271.6,-909.090909090909,4,1,0,15,0,0
101287,-10000,4,1,0,15,0,0
101390,-10000,4,1,0,15,0,0
101410.55,-909.090909090909,4,1,0,15,0,0
101431.1,-476.190476190476,4,1,0,15,0,0
101451.65,-322.58064516129,4,1,0,15,0,0
101472.2,-243.90243902439,4,1,0,15,0,0
101492.75,-196.078431372549,4,1,0,15,0,0
101513.3,-163.934426229508,4,1,0,15,0,0
101533.85,-140.845070422535,4,1,0,15,0,0
101554.4,-123.456790123457,4,1,0,15,0,0
101574.95,-109.89010989011,4,1,0,15,0,0
101595.5,-100,4,1,0,15,0,0
101616.05,-90.9090909090909,4,1,0,15,0,0
101636.6,-83.3333333333333,4,1,0,15,0,0
101657.15,-76.9230769230769,4,1,0,15,0,0
101677.7,-71.4285714285714,4,1,0,15,0,0
101698.25,-66.6666666666667,4,1,0,15,0,0
101718.8,-62.5,4,1,0,15,0,0
101739.35,-58.8235294117647,4,1,0,15,0,0
101759.9,-55.5555555555556,4,1,0,15,0,0
101780.45,-52.6315789473684,4,1,0,15,0,0
101801,-50,4,1,0,15,0,0
101811.25,-52.6315789473684,4,1,0,15,0,0
101821.5,-55.5555555555556,4,1,0,15,0,0
101831.75,-58.8235294117647,4,1,0,15,0,0
101842,-62.5,4,1,0,15,0,0
101852.25,-66.6666666666667,4,1,0,15,0,0
101862.5,-71.4285714285714,4,1,0,15,0,0
101872.75,-76.9230769230769,4,1,0,15,0,0
101883,-83.3333333333333,4,1,0,15,0,0
101893.25,-90.9090909090909,4,1,0,15,0,0
101903.5,-99.009900990099,4,1,0,15,0,0
101913.75,-109.89010989011,4,1,0,15,0,0
101924,-123.456790123457,4,1,0,15,0,0
101934.25,-140.845070422535,4,1,0,15,0,0
101944.5,-163.934426229508,4,1,0,15,0,0
101954.75,-196.078431372549,4,1,0,15,0,0
101965,-243.90243902439,4,1,0,15,0,0
101975.25,-322.58064516129,4,1,0,15,0,0
101985.5,-476.190476190476,4,1,0,15,0,0
101995.75,-909.090909090909,4,1,0,15,0,0
102006,-10000,4,1,0,15,0,0
102016.3,-909.090909090909,4,1,0,15,0,0
102026.6,-476.190476190476,4,1,0,15,0,0
102036.9,-322.58064516129,4,1,0,15,0,0
102047.2,-243.90243902439,4,1,0,15,0,0
102057.5,-196.078431372549,4,1,0,15,0,0
102067.8,-163.934426229508,4,1,0,15,0,0
102078.1,-140.845070422535,4,1,0,15,0,0
102088.4,-123.456790123457,4,1,0,15,0,0
102098.7,-109.89010989011,4,1,0,15,0,0
102109,-100,4,1,0,15,0,0
102119.3,-90.9090909090909,4,1,0,15,0,0
102129.6,-83.3333333333333,4,1,0,15,0,0
102139.9,-76.9230769230769,4,1,0,15,0,0
102150.2,-71.4285714285714,4,1,0,15,0,0
102160.5,-66.6666666666667,4,1,0,15,0,0
102170.8,-62.5,4,1,0,15,0,0
102181.1,-58.8235294117647,4,1,0,15,0,0
102191.4,-55.5555555555556,4,1,0,15,0,0
102201.7,-52.6315789473684,4,1,0,15,0,0
102212,-50,4,1,0,15,0,0
102222.25,-52.6315789473684,4,1,0,15,0,0
102232.5,-55.5555555555556,4,1,0,15,0,0
102242.75,-58.8235294117647,4,1,0,15,0,0
102253,-62.5,4,1,0,15,0,0
102263.25,-66.6666666666667,4,1,0,15,0,0
102273.5,-71.4285714285714,4,1,0,15,0,0
102283.75,-76.9230769230769,4,1,0,15,0,0
102294,-83.3333333333333,4,1,0,15,0,0
102304.25,-90.9090909090909,4,1,0,15,0,0
102314.5,-99.009900990099,4,1,0,15,0,0
102324.75,-109.89010989011,4,1,0,15,0,0
102335,-123.456790123457,4,1,0,15,0,0
102345.25,-140.845070422535,4,1,0,15,0,0
102355.5,-163.934426229508,4,1,0,15,0,0
102365.75,-196.078431372549,4,1,0,15,0,0
102376,-243.90243902439,4,1,0,15,0,0
102386.25,-322.58064516129,4,1,0,15,0,0
102396.5,-476.190476190476,4,1,0,15,0,0
102406.75,-909.090909090909,4,1,0,15,0,0
102417,-10000,4,1,0,15,0,0
102427.3,-909.090909090909,4,1,0,15,0,0
102437.6,-476.190476190476,4,1,0,15,0,0
102447.9,-322.58064516129,4,1,0,15,0,0
102458.2,-243.90243902439,4,1,0,15,0,0
102468.5,-196.078431372549,4,1,0,15,0,0
102478.8,-163.934426229508,4,1,0,15,0,0
102489.1,-140.845070422535,4,1,0,15,0,0
102499.4,-123.456790123457,4,1,0,15,0,0
102509.7,-109.89010989011,4,1,0,15,0,0
102520,-100,4,1,0,15,0,0
102530.3,-90.9090909090909,4,1,0,15,0,0
102540.6,-83.3333333333333,4,1,0,15,0,0
102550.9,-76.9230769230769,4,1,0,15,0,0
102561.2,-71.4285714285714,4,1,0,15,0,0
102571.5,-66.6666666666667,4,1,0,15,0,0
102581.8,-62.5,4,1,0,15,0,0
102592.1,-58.8235294117647,4,1,0,15,0,0
102602.4,-55.5555555555556,4,1,0,15,0,0
102612.7,-52.6315789473684,4,1,0,15,0,0
102623,-50,4,1,0,15,0,0
102638.4,-52.6315789473684,4,1,0,15,0,0
102653.8,-55.5555555555556,4,1,0,15,0,0
102669.2,-58.8235294117647,4,1,0,15,0,0
102684.6,-62.5,4,1,0,15,0,0
102700,-66.6666666666667,4,1,0,15,0,0
102715.4,-71.4285714285714,4,1,0,15,0,0
102730.8,-76.9230769230769,4,1,0,15,0,0
102746.2,-83.3333333333333,4,1,0,15,0,0
102761.6,-90.9090909090909,4,1,0,15,0,0
102777,-99.009900990099,4,1,0,15,0,0
102792.4,-109.89010989011,4,1,0,15,0,0
102807.8,-123.456790123457,4,1,0,15,0,0
102823.2,-140.845070422535,4,1,0,15,0,0
102838.6,-163.934426229508,4,1,0,15,0,0
102854,-196.078431372549,4,1,0,15,0,0
102869.4,-243.90243902439,4,1,0,15,0,0
102884.8,-322.58064516129,4,1,0,15,0,0
102900.2,-476.190476190476,4,1,0,15,0,0
102915.6,-909.090909090909,4,1,0,15,0,0
102931,-10000,4,1,0,15,0,0
103034,-10000,4,1,0,15,0,0
103054.55,-909.090909090909,4,1,0,15,0,0
103075.1,-476.190476190476,4,1,0,15,0,0
103095.65,-322.58064516129,4,1,0,15,0,0
103116.2,-243.90243902439,4,1,0,15,0,0
103136.75,-196.078431372549,4,1,0,15,0,0
103157.3,-163.934426229508,4,1,0,15,0,0
103177.85,-140.845070422535,4,1,0,15,0,0
103198.4,-123.456790123457,4,1,0,15,0,0
103218.95,-109.89010989011,4,1,0,15,0,0
103239.5,-100,4,1,0,15,0,0
103260.05,-90.9090909090909,4,1,0,15,0,0
103280.6,-83.3333333333333,4,1,0,15,0,0
103301.15,-76.9230769230769,4,1,0,15,0,0
103321.7,-71.4285714285714,4,1,0,15,0,0
103342.25,-66.6666666666667,4,1,0,15,0,0
103362.8,-62.5,4,1,0,15,0,0
103383.35,-58.8235294117647,4,1,0,15,0,0
103403.9,-55.5555555555556,4,1,0,15,0,0
103424.45,-52.6315789473684,4,1,0,15,0,0
103445,-50,4,1,0,15,0,0
103460.4,-52.6315789473684,4,1,0,15,0,0
103475.8,-55.5555555555556,4,1,0,15,0,0
103491.2,-58.8235294117647,4,1,0,15,0,0
103506.6,-62.5,4,1,0,15,0,0
103522,-66.6666666666667,4,1,0,15,0,0
103537.4,-71.4285714285714,4,1,0,15,0,0
103552.8,-76.9230769230769,4,1,0,15,0,0
103568.2,-83.3333333333333,4,1,0,15,0,0
103583.6,-90.9090909090909,4,1,0,15,0,0
103599,-99.009900990099,4,1,0,15,0,0
103614.4,-109.89010989011,4,1,0,15,0,0
103629.8,-123.456790123457,4,1,0,15,0,0
103645.2,-140.845070422535,4,1,0,15,0,0
103660.6,-163.934426229508,4,1,0,15,0,0
103676,-196.078431372549,4,1,0,15,0,0
103691.4,-243.90243902439,4,1,0,15,0,0
103706.8,-322.58064516129,4,1,0,15,0,0
103722.2,-476.190476190476,4,1,0,15,0,0
103737.6,-909.090909090909,4,1,0,15,0,0
103753,-10000,4,1,0,15,0,0
103856,-10000,4,1,0,15,0,0
103876.55,-909.090909090909,4,1,0,15,0,0
103897.1,-476.190476190476,4,1,0,15,0,0
103917.65,-322.58064516129,4,1,0,15,0,0
103938.2,-243.90243902439,4,1,0,15,0,0
103958.75,-196.078431372549,4,1,0,15,0,0
103979.3,-163.934426229508,4,1,0,15,0,0
103999.85,-140.845070422535,4,1,0,15,0,0
104020.4,-123.456790123457,4,1,0,15,0,0
104040.95,-109.89010989011,4,1,0,15,0,0
104061.5,-100,4,1,0,15,0,0
104082.05,-90.9090909090909,4,1,0,15,0,0
104102.6,-83.3333333333333,4,1,0,15,0,0
104123.15,-76.9230769230769,4,1,0,15,0,0
104143.7,-71.4285714285714,4,1,0,15,0,0
104164.25,-66.6666666666667,4,1,0,15,0,0
104184.8,-62.5,4,1,0,15,0,0
104205.35,-58.8235294117647,4,1,0,15,0,0
104225.9,-55.5555555555556,4,1,0,15,0,0
104246.45,-52.6315789473684,4,1,0,15,0,0
104267,-50,4,1,0,15,0,0
104282.4,-52.6315789473684,4,1,0,15,0,0
104297.8,-55.5555555555556,4,1,0,15,0,0
104313.2,-58.8235294117647,4,1,0,15,0,0
104328.6,-62.5,4,1,0,15,0,0
104344,-66.6666666666667,4,1,0,15,0,0
104359.4,-71.4285714285714,4,1,0,15,0,0
104374.8,-76.9230769230769,4,1,0,15,0,0
104390.2,-83.3333333333333,4,1,0,15,0,0
104405.6,-90.9090909090909,4,1,0,15,0,0
104421,-99.009900990099,4,1,0,15,0,0
104436.4,-109.89010989011,4,1,0,15,0,0
104451.8,-123.456790123457,4,1,0,15,0,0
104467.2,-140.845070422535,4,1,0,15,0,0
104482.6,-163.934426229508,4,1,0,15,0,0
104498,-196.078431372549,4,1,0,15,0,0
104513.4,-243.90243902439,4,1,0,15,0,0
104528.8,-322.58064516129,4,1,0,15,0,0
104544.2,-476.190476190476,4,1,0,15,0,0
104559.6,-909.090909090909,4,1,0,15,0,0
104575,-10000,4,1,0,15,0,0
104678,-10000,4,1,0,15,0,0
104688.25,-909.090909090909,4,1,0,15,0,0
104698.5,-476.190476190476,4,1,0,15,0,0
104708.75,-322.58064516129,4,1,0,15,0,0
104719,-243.90243902439,4,1,0,15,0,0
104729.25,-196.078431372549,4,1,0,15,0,0
104739.5,-163.934426229508,4,1,0,15,0,0
104749.75,-140.845070422535,4,1,0,15,0,0
104760,-123.456790123457,4,1,0,15,0,0
104770.25,-109.89010989011,4,1,0,15,0,0
104780.5,-100,4,1,0,15,0,0
104790.75,-90.9090909090909,4,1,0,15,0,0
104801,-83.3333333333333,4,1,0,15,0,0
104811.25,-76.9230769230769,4,1,0,15,0,0
104821.5,-71.4285714285714,4,1,0,15,0,0
104831.75,-66.6666666666667,4,1,0,15,0,0
104842,-62.5,4,1,0,15,0,0
104852.25,-58.8235294117647,4,1,0,15,0,0
104862.5,-55.5555555555556,4,1,0,15,0,0
104872.75,-52.6315789473684,4,1,0,15,0,0
104883,-50,4,1,0,15,0,0
104888.15,-52.6315789473684,4,1,0,15,0,0
104893.3,-55.5555555555556,4,1,0,15,0,0
104898.45,-58.8235294117647,4,1,0,15,0,0
104903.6,-62.5,4,1,0,15,0,0
104908.75,-66.6666666666667,4,1,0,15,0,0
104913.9,-71.4285714285714,4,1,0,15,0,0
104919.05,-76.9230769230769,4,1,0,15,0,0
104924.2,-83.3333333333333,4,1,0,15,0,0
104929.35,-90.9090909090909,4,1,0,15,0,0
104934.5,-99.009900990099,4,1,0,15,0,0
104939.65,-109.89010989011,4,1,0,15,0,0
104944.8,-123.456790123457,4,1,0,15,0,0
104949.95,-140.845070422535,4,1,0,15,0,0
104955.1,-163.934426229508,4,1,0,15,0,0
104960.25,-196.078431372549,4,1,0,15,0,0
104965.4,-243.90243902439,4,1,0,15,0,0
104970.55,-322.58064516129,4,1,0,15,0,0
104975.7,-476.190476190476,4,1,0,15,0,0
104980.85,-909.090909090909,4,1,0,15,0,0
104986,-10000,4,1,0,15,0,0
104991.1,-909.090909090909,4,1,0,15,0,0
104996.2,-476.190476190476,4,1,0,15,0,0
105001.3,-322.58064516129,4,1,0,15,0,0
105006.4,-243.90243902439,4,1,0,15,0,0
105011.5,-196.078431372549,4,1,0,15,0,0
105016.6,-163.934426229508,4,1,0,15,0,0
105021.7,-140.845070422535,4,1,0,15,0,0
105026.8,-123.456790123457,4,1,0,15,0,0
105031.9,-109.89010989011,4,1,0,15,0,0
105037,-100,4,1,0,15,0,0
105042.1,-90.9090909090909,4,1,0,15,0,0
105047.2,-83.3333333333333,4,1,0,15,0,0
105052.3,-76.9230769230769,4,1,0,15,0,0
105057.4,-71.4285714285714,4,1,0,15,0,0
105062.5,-66.6666666666667,4,1,0,15,0,0
105067.6,-62.5,4,1,0,15,0,0
105072.7,-58.8235294117647,4,1,0,15,0,0
105077.8,-55.5555555555556,4,1,0,15,0,0
105082.9,-52.6315789473684,4,1,0,15,0,0
105088,-50,4,1,0,15,0,0
105098.3,-52.6315789473684,4,1,0,15,0,0
105108.6,-55.5555555555556,4,1,0,15,0,0
105118.9,-58.8235294117647,4,1,0,15,0,0
105129.2,-62.5,4,1,0,15,0,0
105139.5,-66.6666666666667,4,1,0,15,0,0
105149.8,-71.4285714285714,4,1,0,15,0,0
105160.1,-76.9230769230769,4,1,0,15,0,0
105170.4,-83.3333333333333,4,1,0,15,0,0
105180.7,-90.9090909090909,4,1,0,15,0,0
105191,-99.009900990099,4,1,0,15,0,0
105201.3,-109.89010989011,4,1,0,15,0,0
105211.6,-123.456790123457,4,1,0,15,0,0
105221.9,-140.845070422535,4,1,0,15,0,0
105232.2,-163.934426229508,4,1,0,15,0,0
105242.5,-196.078431372549,4,1,0,15,0,0
105252.8,-243.90243902439,4,1,0,15,0,0
105263.1,-322.58064516129,4,1,0,15,0,0
105273.4,-476.190476190476,4,1,0,15,0,0
105283.7,-909.090909090909,4,1,0,15,0,0
105294,-10000,4,1,0,15,0,0
105304.25,-909.090909090909,4,1,0,15,0,0
105314.5,-476.190476190476,4,1,0,15,0,0
105324.75,-322.58064516129,4,1,0,15,0,0
105335,-243.90243902439,4,1,0,15,0,0
105345.25,-196.078431372549,4,1,0,15,0,0
105355.5,-163.934426229508,4,1,0,15,0,0
105365.75,-140.845070422535,4,1,0,15,0,0
105376,-123.456790123457,4,1,0,15,0,0
105386.25,-109.89010989011,4,1,0,15,0,0
105396.5,-100,4,1,0,15,0,0
105406.75,-90.9090909090909,4,1,0,15,0,0
105417,-83.3333333333333,4,1,0,15,0,0
105427.25,-76.9230769230769,4,1,0,15,0,0
105437.5,-71.4285714285714,4,1,0,15,0,0
105447.75,-66.6666666666667,4,1,0,15,0,0
105458,-62.5,4,1,0,15,0,0
105468.25,-58.8235294117647,4,1,0,15,0,0
105478.5,-55.5555555555556,4,1,0,15,0,0
105488.75,-52.6315789473684,4,1,0,15,0,0
105499,-50,4,1,0,15,0,0
105509.3,-52.6315789473684,4,1,0,15,0,0
105519.6,-55.5555555555556,4,1,0,15,0,0
105529.9,-58.8235294117647,4,1,0,15,0,0
105540.2,-62.5,4,1,0,15,0,0
105550.5,-66.6666666666667,4,1,0,15,0,0
105560.8,-71.4285714285714,4,1,0,15,0,0
105571.1,-76.9230769230769,4,1,0,15,0,0
105581.4,-83.3333333333333,4,1,0,15,0,0
105591.7,-90.9090909090909,4,1,0,15,0,0
105602,-99.009900990099,4,1,0,15,0,0
105612.3,-109.89010989011,4,1,0,15,0,0
105622.6,-123.456790123457,4,1,0,15,0,0
105632.9,-140.845070422535,4,1,0,15,0,0
105643.2,-163.934426229508,4,1,0,15,0,0
105653.5,-196.078431372549,4,1,0,15,0,0
105663.8,-243.90243902439,4,1,0,15,0,0
105674.1,-322.58064516129,4,1,0,15,0,0
105684.4,-476.190476190476,4,1,0,15,0,0
105694.7,-909.090909090909,4,1,0,15,0,0
105705,-10000,4,1,0,15,0,0
105715.25,-909.090909090909,4,1,0,15,0,0
105725.5,-476.190476190476,4,1,0,15,0,0
105735.75,-322.58064516129,4,1,0,15,0,0
105746,-243.90243902439,4,1,0,15,0,0
105756.25,-196.078431372549,4,1,0,15,0,0
105766.5,-163.934426229508,4,1,0,15,0,0
105776.75,-140.845070422535,4,1,0,15,0,0
105787,-123.456790123457,4,1,0,15,0,0
105797.25,-109.89010989011,4,1,0,15,0,0
105807.5,-100,4,1,0,15,0,0
105817.75,-90.9090909090909,4,1,0,15,0,0
105828,-83.3333333333333,4,1,0,15,0,0
105838.25,-76.9230769230769,4,1,0,15,0,0
105848.5,-71.4285714285714,4,1,0,15,0,0
105858.75,-66.6666666666667,4,1,0,15,0,0
105869,-62.5,4,1,0,15,0,0
105879.25,-58.8235294117647,4,1,0,15,0,0
105889.5,-55.5555555555556,4,1,0,15,0,0
105899.75,-52.6315789473684,4,1,0,15,0,0
105910,-50,4,1,0,15,0,0
105925.4,-52.6315789473684,4,1,0,15,0,0
105940.8,-55.5555555555556,4,1,0,15,0,0
105956.2,-58.8235294117647,4,1,0,15,0,0
105971.6,-62.5,4,1,0,15,0,0
105987,-66.6666666666667,4,1,0,15,0,0
106002.4,-71.4285714285714,4,1,0,15,0,0
106017.8,-76.9230769230769,4,1,0,15,0,0
106033.2,-83.3333333333333,4,1,0,15,0,0
106048.6,-90.9090909090909,4,1,0,15,0,0
106064,-99.009900990099,4,1,0,15,0,0
106079.4,-109.89010989011,4,1,0,15,0,0
106094.8,-123.456790123457,4,1,0,15,0,0
106110.2,-140.845070422535,4,1,0,15,0,0
106125.6,-163.934426229508,4,1,0,15,0,0
106141,-196.078431372549,4,1,0,15,0,0
106156.4,-243.90243902439,4,1,0,15,0,0
106171.8,-322.58064516129,4,1,0,15,0,0
106187.2,-476.190476190476,4,1,0,15,0,0
106202.6,-909.090909090909,4,1,0,15,0,0
106218,-10000,4,1,0,15,0,0
106321,-10000,4,1,0,15,0,0
106341.55,-909.090909090909,4,1,0,15,0,0
106362.1,-476.190476190476,4,1,0,15,0,0
106382.65,-322.58064516129,4,1,0,15,0,0
106403.2,-243.90243902439,4,1,0,15,0,0
106423.75,-196.078431372549,4,1,0,15,0,0
106444.3,-163.934426229508,4,1,0,15,0,0
106464.85,-140.845070422535,4,1,0,15,0,0
106485.4,-123.456790123457,4,1,0,15,0,0
106505.95,-109.89010989011,4,1,0,15,0,0
106526.5,-100,4,1,0,15,0,0
106547.05,-90.9090909090909,4,1,0,15,0,0
106567.6,-83.3333333333333,4,1,0,15,0,0
106588.15,-76.9230769230769,4,1,0,15,0,0
106608.7,-71.4285714285714,4,1,0,15,0,0
106629.25,-66.6666666666667,4,1,0,15,0,0
106649.8,-62.5,4,1,0,15,0,0
106670.35,-58.8235294117647,4,1,0,15,0,0
106690.9,-55.5555555555556,4,1,0,15,0,0
106711.45,-52.6315789473684,4,1,0,15,0,0
106732,-125,4,1,0,15,0,0
114952,-117.647058823529,4,1,0,15,0,0
116595,-111.111111111111,4,1,0,15,0,0
118239,-142.857142857143,4,1,0,15,0,0
118321.2,-135.135135135135,4,1,0,15,0,0
118403.4,-128.205128205128,4,1,0,15,0,0
118485.6,-121.951219512195,4,1,0,15,0,0
118567.8,-116.279069767442,4,1,0,15,0,0
118650,-111.111111111111,4,1,0,15,0,0
118732.2,-106.382978723404,4,1,0,15,0,0
118814.4,-102.040816326531,4,1,0,15,0,0
118896.6,-98.0392156862745,4,1,0,15,0,0
118978.8,-94.3396226415094,4,1,0,15,0,0
119061,-90.9090909090909,4,1,0,15,0,0
119143.2,-87.719298245614,4,1,0,15,0,0
119225.4,-84.7457627118644,4,1,0,15,0,0
119307.6,-81.9672131147541,4,1,0,15,0,0
119389.8,-79.3650793650794,4,1,0,15,0,0
119472,-76.9230769230769,4,1,0,15,0,0
119502.8,-70.4225352112676,4,1,0,15,0,0
119533.6,-64.9350649350649,4,1,0,15,0,0
119564.4,-60.2409638554217,4,1,0,15,0,0
119595.2,-56.1797752808989,4,1,0,15,0,0
119626,-52.6315789473684,4,1,0,15,0,0
119656.8,-49.5049504950495,4,1,0,15,0,0
119687.6,-46.7289719626168,4,1,0,15,0,0
119718.4,-44.2477876106195,4,1,0,15,0,0
119749.2,-42.0168067226891,4,1,0,15,0,0
119780,-40,4,1,0,15,0,0
119883,-10,4,1,0,15,0,0
119889.16,-10.4166666666667,4,1,0,15,0,0
119895.32,-10.85776330076,4,1,0,15,0,0
119901.48,-11.3507377979569,4,1,0,15,0,0
119907.64,-11.8764845605701,4,1,0,15,0,0
119913.8,-12.4688279301746,4,1,0,15,0,0
119919.96,-13.1233595800525,4,1,0,15,0,0
119926.12,-13.8312586445367,4,1,0,15,0,0
119932.28,-14.6412884333821,4,1,0,15,0,0
119938.44,-15.527950310559,4,1,0,15,0,0
119944.6,-16.5562913907285,4,1,0,15,0,0
119950.76,-17.7304964539007,4,1,0,15,0,0
119956.92,-19.047619047619,4,1,0,15,0,0
119963.08,-20.6185567010309,4,1,0,15,0,0
119969.24,-22.4215246636771,4,1,0,15,0,0
119975.4,-24.6305418719212,4,1,0,15,0,0
119981.56,-27.3224043715847,4,1,0,15,0,0
119987.72,-30.5810397553517,4,1,0,15,0,0
119993.88,-34.8432055749129,4,1,0,15,0,0
120000.04,-40.3225806451613,4,1,0,15,0,0
120006.2,-48.0769230769231,4,1,0,15,0,0
120012.36,-59.5238095238095,4,1,0,15,0,0
120018.52,-77.5193798449612,4,1,0,15,0,0
120024.68,-112.359550561798,4,1,0,15,0,0
120030.84,-200,4,1,0,15,0,0
120037,-10000,4,1,0,15,0,0
120294,-50,4,1,0,15,0,0
120345,-10000,4,1,0,15,0,0
120397,-50,4,1,0,15,0,0
120448,-10000,4,1,0,15,0,0
120500,-58.8235294117647,4,1,0,15,0,0
120551,-333.333333333334,4,1,0,15,0,0
120602,-58.8235294117647,4,1,0,15,0,0
120654,-333.333333333334,4,1,0,15,0,0
120705,-55.5555555555556,4,1,0,15,0,0
120808,-500,4,1,0,15,0,0
120911,-71.4285714285714,4,1,0,15,0,0
120962,-166.666666666667,4,1,0,15,0,0
121013,-71.4285714285714,4,1,0,15,0,0
121065,-166.666666666667,4,1,0,15,0,0
121116,-50,4,1,0,15,0,0
121129.7,-55.2486187845304,4,1,0,15,0,0
121143.4,-61.7283950617284,4,1,0,15,0,0
121157.1,-69.9300699300699,4,1,0,15,0,0
121170.8,-80.6451612903226,4,1,0,15,0,0
121184.5,-95.2380952380952,4,1,0,15,0,0
121198.2,-116.279069767442,4,1,0,15,0,0
121211.9,-149.253731343284,4,1,0,15,0,0
121225.6,-208.333333333333,4,1,0,15,0,0
121239.3,-344.827586206897,4,1,0,15,0,0
121253,-50,4,1,0,15,0,0
121266.7,-55.2486187845304,4,1,0,15,0,0
121280.4,-61.7283950617284,4,1,0,15,0,0
121294.1,-69.9300699300699,4,1,0,15,0,0
121307.8,-80.6451612903226,4,1,0,15,0,0
121321.5,-95.2380952380952,4,1,0,15,0,0
121335.2,-116.279069767442,4,1,0,15,0,0
121348.9,-149.253731343284,4,1,0,15,0,0
121362.6,-208.333333333333,4,1,0,15,0,0
121376.3,-344.827586206897,4,1,0,15,0,0
121390,-1000,4,1,0,15,0,0
121403.7,-344.827586206897,4,1,0,15,0,0
121417.4,-208.333333333333,4,1,0,15,0,0
121431.1,-149.253731343284,4,1,0,15,0,0
121444.8,-116.279069767442,4,1,0,15,0,0
121458.5,-95.2380952380952,4,1,0,15,0,0
121472.2,-80.6451612903226,4,1,0,15,0,0
121485.9,-69.9300699300699,4,1,0,15,0,0
121499.6,-61.7283950617284,4,1,0,15,0,0
121513.3,-55.2486187845304,4,1,0,15,0,0
121527,-50,4,1,0,15,0,0
121578,-1000,4,1,0,15,0,0
121630,-200,4,1,0,15,0,0
121650.5,-175.438596491228,4,1,0,15,0,0
121671,-156.25,4,1,0,15,0,0
121691.5,-140.845070422535,4,1,0,15,0,0
121712,-128.205128205128,4,1,0,15,0,0
121732.5,-117.647058823529,4,1,0,15,0,0
121753,-108.695652173913,4,1,0,15,0,0
121773.5,-101.010101010101,4,1,0,15,0,0
121794,-94.3396226415094,4,1,0,15,0,0
121814.5,-88.495575221239,4,1,0,15,0,0
121835,-62.5,4,1,0,15,0,0
121887,-250,4,1,0,15,0,0
121938,-58.8235294117647,4,1,0,15,0,0
121955,-333.333333333333,4,1,0,15,0,0
121972,-58.8235294117647,4,1,0,15,0,0
121989,-333.333333333333,4,1,0,15,0,0
122006,-58.8235294117647,4,1,0,15,0,0
122023,-333.333333333333,4,1,0,15,0,0
122040,-58.8235294117647,4,1,0,15,0,0
122057,-333.333333333333,4,1,0,15,0,0
122074,-58.8235294117647,4,1,0,15,0,0
122091,-333.333333333333,4,1,0,15,0,0
122108,-58.8235294117647,4,1,0,15,0,0
122125,-333.333333333333,4,1,0,15,0,0
122143,-62.5,4,1,0,15,0,0
122195,-250.000000000001,4,1,0,15,0,0
122246,-62.5,4,1,0,15,0,0
122298,-250.000000000001,4,1,0,15,0,0
122349,-50,4,1,0,15,0,0
122400,-10000,4,1,0,15,0,0
122452,-58.8235294117647,4,1,0,15,0,0
122503,-333.333333333333,4,1,0,15,0,0
122554,-58.8235294117647,4,1,0,15,0,0
122606,-333.333333333333,4,1,0,15,0,0
122657,-58.8235294117647,4,1,0,15,0,0
122709,-333.333333333333,4,1,0,15,0,0
122760,-52.6315789473684,4,1,0,15,0,0
122811,-1000,4,1,0,15,0,0
122863,-52.6315789473684,4,1,0,15,0,0
122914,-1000,4,1,0,15,0,0
122965,-52.6315789473684,4,1,0,15,0,0
123017,-1000,4,1,0,15,0,0
123068,-52.6315789473684,4,1,0,15,0,0
123119,-1000,4,1,0,15,0,0
123171,-10,4,1,0,15,0,0
123177.16,-10.4166666666667,4,1,0,15,0,0
123183.32,-10.8695652173913,4,1,0,15,0,0
123189.48,-11.3636363636364,4,1,0,15,0,0
123195.64,-11.9047619047619,4,1,0,15,0,0
123201.8,-12.5,4,1,0,15,0,0
123207.96,-13.1578947368421,4,1,0,15,0,0
123214.12,-13.8888888888889,4,1,0,15,0,0
123220.28,-14.7058823529412,4,1,0,15,0,0
123226.44,-15.625,4,1,0,15,0,0
123232.6,-16.6666666666667,4,1,0,15,0,0
123238.76,-17.8571428571429,4,1,0,15,0,0
123244.92,-19.2307692307692,4,1,0,15,0,0
123251.08,-20.7900207900208,4,1,0,15,0,0
123257.24,-22.6757369614512,4,1,0,15,0,0
123263.4,-24.9376558603491,4,1,0,15,0,0
123269.56,-27.7008310249308,4,1,0,15,0,0
123275.72,-31.1526479750779,4,1,0,15,0,0
123281.88,-35.5871886120996,4,1,0,15,0,0
123288.04,-41.49377593361,4,1,0,15,0,0
123294.2,-49.7512437810945,4,1,0,15,0,0
123300.36,-62.111801242236,4,1,0,15,0,0
123306.52,-82.6446280991736,4,1,0,15,0,0
123312.68,-123.456790123457,4,1,0,15,0,0
123318.84,-243.90243902439,4,1,0,15,0,0
123325,-10000,4,1,0,15,0,0
123582,-55.5555555555556,4,1,0,15,0,0
123633,-500,4,1,0,15,0,0
123685,-55.5555555555556,4,1,0,15,0,0
123736,-100,4,1,0,15,0,0
123839,-500,4,1,0,15,0,0
123890,-55.5555555555556,4,1,0,15,0,0
123941,-500,4,1,0,15,0,0
123993,-40,4,1,0,15,0,0
124013.5,-44.2477876106195,4,1,0,15,0,0
124034,-49.5049504950495,4,1,0,15,0,0
124054.5,-56.1797752808989,4,1,0,15,0,0
124075,-64.9350649350649,4,1,0,15,0,0
124095.5,-76.9230769230769,4,1,0,15,0,0
124116,-94.3396226415094,4,1,0,15,0,0
124136.5,-121.951219512195,4,1,0,15,0,0
124157,-172.413793103448,4,1,0,15,0,0
124177.5,-294.117647058824,4,1,0,15,0,0
124198,-1000,4,1,0,15,0,0
124218.6,-416.666666666667,4,1,0,15,0,0
124239.2,-263.157894736842,4,1,0,15,0,0
124259.8,-192.307692307692,4,1,0,15,0,0
124280.4,-151.515151515152,4,1,0,15,0,0
124301,-125,4,1,0,15,0,0
124321.6,-106.382978723404,4,1,0,15,0,0
124342.2,-92.5925925925926,4,1,0,15,0,0
124362.8,-81.9672131147541,4,1,0,15,0,0
124383.4,-73.5294117647059,4,1,0,15,0,0
124404,-52.6315789473684,4,1,0,15,0,0
124455,-1000,4,1,0,15,0,0
124506,-52.6315789473684,4,1,0,15,0,0
124558,-1000,4,1,0,15,0,0
124609,-52.6315789473684,4,1,0,15,0,0
124661,-1000,4,1,0,15,0,0
124712,-52.6315789473684,4,1,0,15,0,0
124763,-1000,4,1,0,15,0,0
124815,-45.4545454545455,4,1,0,15,0,0
124866,-10000,4,1,0,15,0,0
124917,-66.6666666666667,4,1,0,15,0,0
124969,-200,4,1,0,15,0,0
125020,-66.6666666666667,4,1,0,15,0,0
125072,-200,4,1,0,15,0,0
125123,-45.4545454545455,4,1,0,15,0,0
125174,-10000,4,1,0,15,0,0
125226,-66.6666666666667,4,1,0,15,0,0
125277,-200,4,1,0,15,0,0
125328,-66.6666666666667,4,1,0,15,0,0
125380,-200,4,1,0,15,0,0
125431,-66.6666666666667,4,1,0,15,0,0
125482,-200,4,1,0,15,0,0
125534,-55.5555555555556,4,1,0,15,0,0
125585,-500,4,1,0,15,0,0
125637,-45.4545454545455,4,1,0,15,0,0
125688,-10000,4,1,0,15,0,0
125739,-62.5,4,1,0,15,0,0
125791,-250,4,1,0,15,0,0
125842,-62.5,4,1,0,15,0,0
125893,-250,4,1,0,15,0,0
125945,-62.5,4,1,0,15,0,0
125996,-250,4,1,0,15,0,0
126048,-45.4545454545455,4,1,0,15,0,0
126099,-10000,4,1,0,15,0,0
126150,-166.666666666667,4,1,0,15,0,0
126202,-142.857142857143,4,1,0,15,0,0
126253,-125,4,1,0,15,0,0
126304,-111.111111111111,4,1,0,15,0,0
126356,-100,4,1,0,15,0,0
126366.3,-90.9090909090909,4,1,0,15,0,0
126376.6,-83.3333333333333,4,1,0,15,0,0
126386.9,-76.9230769230769,4,1,0,15,0,0
126397.2,-71.4285714285714,4,1,0,15,0,0
126407.5,-66.6666666666667,4,1,0,15,0,0
126417.8,-62.5,4,1,0,15,0,0
126428.1,-58.8235294117647,4,1,0,15,0,0
126438.4,-55.5555555555556,4,1,0,15,0,0
126448.7,-52.6315789473684,4,1,0,15,0,0
126459,-10,4,1,0,15,0,0
126465.16,-10.4166666666667,4,1,0,15,0,0
126471.32,-10.8695652173913,4,1,0,15,0,0
126477.48,-11.3636363636364,4,1,0,15,0,0
126483.64,-11.9047619047619,4,1,0,15,0,0
126489.8,-12.5,4,1,0,15,0,0
126495.96,-13.1578947368421,4,1,0,15,0,0
126502.12,-13.8888888888889,4,1,0,15,0,0
126508.28,-14.7058823529412,4,1,0,15,0,0
126514.44,-15.625,4,1,0,15,0,0
126520.6,-16.6666666666667,4,1,0,15,0,0
126526.76,-17.8571428571429,4,1,0,15,0,0
126532.92,-19.2307692307692,4,1,0,15,0,0
126539.08,-20.7900207900208,4,1,0,15,0,0
126545.24,-22.6757369614512,4,1,0,15,0,0
126551.4,-24.9376558603491,4,1,0,15,0,0
126557.56,-27.7008310249308,4,1,0,15,0,0
126563.72,-31.1526479750779,4,1,0,15,0,0
126569.88,-35.5871886120996,4,1,0,15,0,0
126576.04,-41.49377593361,4,1,0,15,0,0
126582.2,-49.7512437810945,4,1,0,15,0,0
126588.36,-62.111801242236,4,1,0,15,0,0
126594.52,-82.6446280991736,4,1,0,15,0,0
126600.68,-123.456790123457,4,1,0,15,0,0
126606.84,-243.90243902439,4,1,0,15,0,0
126613,-10000,4,1,0,15,0,0
126869,-50,4,1,0,15,0,0
126921,-10000,4,1,0,15,0,0
126972,-50,4,1,0,15,0,0
127024,-10000,4,1,0,15,0,0
127075,-58.8235294117647,4,1,0,15,0,0
127126,-333.333333333333,4,1,0,15,0,0
127178,-58.8235294117647,4,1,0,15,0,0
127229,-333.333333333333,4,1,0,15,0,0
127280,-55.5555555555556,4,1,0,15,0,0
127332,-500,4,1,0,15,0,0
127383,-71.4285714285714,4,1,0,15,0,0
127409,-166.666666666667,4,1,0,15,0,0
127435,-71.4285714285714,4,1,0,15,0,0
127460,-166.666666666667,4,1,0,15,0,0
127486,-71.4285714285714,4,1,0,15,0,0
127512,-166.666666666667,4,1,0,15,0,0
127537,-71.4285714285714,4,1,0,15,0,0
127563,-166.666666666667,4,1,0,15,0,0
127589,-71.4285714285714,4,1,0,15,0,0
127640,-166.666666666667,4,1,0,15,0,0
127691,-50,4,1,0,15,0,0
127704.7,-55.2486187845304,4,1,0,15,0,0
127718.4,-61.7283950617284,4,1,0,15,0,0
127732.1,-69.9300699300699,4,1,0,15,0,0
127745.8,-80.6451612903226,4,1,0,15,0,0
127759.5,-95.2380952380952,4,1,0,15,0,0
127773.2,-116.279069767442,4,1,0,15,0,0
127786.9,-149.253731343284,4,1,0,15,0,0
127800.6,-208.333333333333,4,1,0,15,0,0
127814.3,-344.827586206897,4,1,0,15,0,0
127828,-50,4,1,0,15,0,0
127841.7,-55.2486187845304,4,1,0,15,0,0
127855.4,-61.7283950617284,4,1,0,15,0,0
127869.1,-69.9300699300699,4,1,0,15,0,0
127882.8,-80.6451612903226,4,1,0,15,0,0
127896.5,-95.2380952380952,4,1,0,15,0,0
127910.2,-116.279069767442,4,1,0,15,0,0
127923.9,-149.253731343284,4,1,0,15,0,0
127937.6,-208.333333333333,4,1,0,15,0,0
127951.3,-344.827586206897,4,1,0,15,0,0
127965,-50,4,1,0,15,0,0
127978.7,-55.2486187845304,4,1,0,15,0,0
127992.4,-61.7283950617284,4,1,0,15,0,0
128006.1,-69.9300699300699,4,1,0,15,0,0
128019.8,-80.6451612903226,4,1,0,15,0,0
128033.5,-95.2380952380952,4,1,0,15,0,0
128047.2,-116.279069767442,4,1,0,15,0,0
128060.9,-149.253731343284,4,1,0,15,0,0
128074.6,-208.333333333333,4,1,0,15,0,0
128088.3,-344.827586206897,4,1,0,15,0,0
128102,-50,4,1,0,15,0,0
128154,-1000,4,1,0,15,0,0
128205,-200,4,1,0,15,0,0
128225.6,-175.438596491228,4,1,0,15,0,0
128246.2,-156.25,4,1,0,15,0,0
128266.8,-140.845070422535,4,1,0,15,0,0
128287.4,-128.205128205128,4,1,0,15,0,0
128308,-117.647058823529,4,1,0,15,0,0
128328.6,-108.695652173913,4,1,0,15,0,0
128349.2,-101.010101010101,4,1,0,15,0,0
128369.8,-94.3396226415094,4,1,0,15,0,0
128390.4,-88.495575221239,4,1,0,15,0,0
128411,-62.5,4,1,0,15,0,0
128462,-250,4,1,0,15,0,0
128513,-58.8235294117647,4,1,0,15,0,0
128530,-333.333333333333,4,1,0,15,0,0
128547,-58.8235294117647,4,1,0,15,0,0
128564,-333.333333333333,4,1,0,15,0,0
128581,-58.8235294117647,4,1,0,15,0,0
128598,-333.333333333333,4,1,0,15,0,0
128615,-58.8235294117647,4,1,0,15,0,0
128632,-333.333333333333,4,1,0,15,0,0
128649,-58.8235294117647,4,1,0,15,0,0
128666,-333.333333333333,4,1,0,15,0,0
128683,-58.8235294117647,4,1,0,15,0,0
128700,-333.333333333333,4,1,0,15,0,0
128719,-62.5,4,1,0,15,0,0
128770,-250,4,1,0,15,0,0
128822,-62.5,4,1,0,15,0,0
128873,-250,4,1,0,15,0,0
128924,-50,4,1,0,15,0,0
128976,-10000,4,1,0,15,0,0
129027,-58.8235294117647,4,1,0,15,0,0
129078,-333.333333333333,4,1,0,15,0,0
129130,-58.8235294117647,4,1,0,15,0,0
129181,-333.333333333333,4,1,0,15,0,0
129232,-58.8235294117647,4,1,0,15,0,0
129284,-333.333333333333,4,1,0,15,0,0
129335,-52.6315789473684,4,1,0,15,0,0
129387,-1000,4,1,0,15,0,0
129438,-52.6315789473684,4,1,0,15,0,0
129489,-10000,4,1,0,15,0,0
129541,-52.6315789473684,4,1,0,15,0,0
129592,-10000,4,1,0,15,0,0
129643,-52.6315789473684,4,1,0,15,0,0
129695,-10000,4,1,0,15,0,0
129746,-41.6666666666667,4,1,0,15,0,0
129798,-10000,4,1,0,15,0,0
129849,-41.6666666666667,4,1,0,15,0,0
129900,-10000,4,1,0,15,0,0
129952,-41.6666666666667,4,1,0,15,0,0
130003,-10000,4,1,0,15,0,0
130054,-41.6666666666667,4,1,0,15,0,0
130106,-10000,4,1,0,15,0,0
130157,-62.5,4,1,0,15,0,0
130209,-250,4,1,0,15,0,0
130260,-62.5,4,1,0,15,0,0
130311,-250,4,1,0,15,0,0
130363,-62.5,4,1,0,15,0,0
130414,-250,4,1,0,15,0,0
130465,-62.5,4,1,0,15,0,0
130517,-250,4,1,0,15,0,0
130568,-50,4,1,0,15,0,0
130619,-10000,4,1,0,15,0,0
130671,-66.6666666666667,4,1,0,15,0,0
130691.5,-72.463768115942,4,1,0,15,0,0
130712,-79.3650793650794,4,1,0,15,0,0
130732.5,-87.719298245614,4,1,0,15,0,0
130753,-98.0392156862745,4,1,0,15,0,0
130773.5,-111.111111111111,4,1,0,15,0,0
130794,-128.205128205128,4,1,0,15,0,0
130814.5,-151.515151515152,4,1,0,15,0,0
130835,-185.185185185185,4,1,0,15,0,0
130855.5,-238.095238095238,4,1,0,15,0,0
130876,-333.333333333333,4,1,0,15,0,0
130886.3,-238.095238095238,4,1,0,15,0,0
130896.6,-185.185185185185,4,1,0,15,0,0
130906.9,-151.515151515152,4,1,0,15,0,0
130917.2,-128.205128205128,4,1,0,15,0,0
130927.5,-111.111111111111,4,1,0,15,0,0
130937.8,-98.0392156862745,4,1,0,15,0,0
130948.1,-87.719298245614,4,1,0,15,0,0
130958.4,-79.3650793650794,4,1,0,15,0,0
130968.7,-72.463768115942,4,1,0,15,0,0
130979,-52.6315789473684,4,1,0,15,0,0
131030,-1000,4,1,0,15,0,0
131082,-52.6315789473684,4,1,0,15,0,0
131133,-1000,4,1,0,15,0,0
131185,-52.6315789473684,4,1,0,15,0,0
131236,-1000,4,1,0,15,0,0
131287,-52.6315789473684,4,1,0,15,0,0
131339,-1000,4,1,0,15,0,0
131390,-66.6666666666667,4,1,0,15,0,0
131410.5,-69.9300699300699,4,1,0,15,0,0
131431,-73.5294117647059,4,1,0,15,0,0
131451.5,-77.5193798449612,4,1,0,15,0,0
131472,-81.9672131147541,4,1,0,15,0,0
131492.5,-86.9565217391304,4,1,0,15,0,0
131513,-92.5925925925926,4,1,0,15,0,0
131533.5,-99.009900990099,4,1,0,15,0,0
131554,-106.382978723404,4,1,0,15,0,0
131574.5,-114.942528735632,4,1,0,15,0,0
131595,-125,4,1,0,15,0,0
131801,-100,4,1,0,15,0,0
131852,-166.666666666667,4,1,0,15,0,0
131904,-100,4,1,0,15,0,0
131955,-166.666666666667,4,1,0,15,0,0
132006,-100,4,1,0,15,0,0
132058,-166.666666666667,4,1,0,15,0,0
132109,-125,4,1,0,15,0,0
132417,-100,4,1,0,15,0,0
132469,-166.666666666667,4,1,0,15,0,0
132520,-100,4,1,0,15,0,0
132572,-166.666666666667,4,1,0,15,0,0
132623,-66.6666666666667,4,1,0,15,0,0
132726,-200,4,1,0,15,0,0
132828,-125,4,1,0,15,0,0
132848.6,-114.942528735632,4,1,0,15,0,0
132869.2,-106.382978723404,4,1,0,15,0,0
132889.8,-99.009900990099,4,1,0,15,0,0
132910.4,-92.5925925925926,4,1,0,15,0,0
132931,-86.9565217391304,4,1,0,15,0,0
132951.6,-81.9672131147541,4,1,0,15,0,0
132972.2,-77.5193798449612,4,1,0,15,0,0
132992.8,-73.5294117647059,4,1,0,15,0,0
133013.4,-69.9300699300699,4,1,0,15,0,0
133034,-50,4,1,0,15,0,0
133044.3,-53.763440860215,4,1,0,15,0,0
133054.6,-58.1395348837209,4,1,0,15,0,0
133064.9,-63.2911392405063,4,1,0,15,0,0
133075.2,-69.4444444444444,4,1,0,15,0,0
133085.5,-76.9230769230769,4,1,0,15,0,0
133095.8,-86.2068965517241,4,1,0,15,0,0
133106.1,-98.0392156862745,4,1,0,15,0,0
133116.4,-113.636363636364,4,1,0,15,0,0
133126.7,-135.135135135135,4,1,0,15,0,0
133137,-166.666666666667,4,1,0,15,0,0
133239,-125,4,1,0,15,0,0
133352,-114.942528735632,4,1,0,15,0,0
133465,-106.382978723404,4,1,0,15,0,0
133578,-99.009900990099,4,1,0,15,0,0
133691,-92.5925925925926,4,1,0,15,0,0
133804,-86.9565217391304,4,1,0,15,0,0
133917,-81.9672131147541,4,1,0,15,0,0
134030,-77.5193798449612,4,1,0,15,0,0
134143,-73.5294117647059,4,1,0,15,0,0
134256,-69.9300699300699,4,1,0,15,0,0
134369,-66.6666666666667,4,1,0,15,0,0
134379.3,-73.5294117647059,4,1,0,15,0,0
134389.6,-81.9672131147541,4,1,0,15,0,0
134399.9,-92.5925925925926,4,1,0,15,0,0
134410.2,-106.382978723404,4,1,0,15,0,0
134420.5,-125,4,1,0,15,0,0
134430.8,-151.515151515152,4,1,0,15,0,0
134441.1,-192.307692307692,4,1,0,15,0,0
134451.4,-263.157894736842,4,1,0,15,0,0
134461.7,-416.666666666667,4,1,0,15,0,0
134472,-66.6666666666667,4,1,0,15,0,0
134482.3,-73.5294117647059,4,1,0,15,0,0
134492.6,-81.9672131147541,4,1,0,15,0,0
134502.9,-92.5925925925926,4,1,0,15,0,0
134513.2,-106.382978723404,4,1,0,15,0,0
134523.5,-125,4,1,0,15,0,0
134533.8,-151.515151515152,4,1,0,15,0,0
134544.1,-192.307692307692,4,1,0,15,0,0
134554.4,-263.157894736842,4,1,0,15,0,0
134564.7,-416.666666666667,4,1,0,15,0,0
134575,-33.3333333333333,4,1,0,15,0,0
134626,-10000,4,1,0,15,0,0
134678,-1000,4,1,0,15,0,0
134719.1,-384.615384615385,4,1,0,15,0,0
134760.2,-238.095238095238,4,1,0,15,0,0
134801.3,-172.413793103448,4,1,0,15,0,0
134842.4,-135.135135135135,4,1,0,15,0,0
134883.5,-111.111111111111,4,1,0,15,0,0
134924.6,-94.3396226415094,4,1,0,15,0,0
134965.7,-81.9672131147541,4,1,0,15,0,0
135006.8,-72.463768115942,4,1,0,15,0,0
135047.9,-64.9350649350649,4,1,0,15,0,0
135089,-58.8235294117647,4,1,0,15,0,0
135106,-333.333333333333,4,1,0,15,0,0
135123,-58.8235294117647,4,1,0,15,0,0
135140,-333.333333333333,4,1,0,15,0,0
135157,-58.8235294117647,4,1,0,15,0,0
135174,-333.333333333333,4,1,0,15,0,0
135191,-58.8235294117647,4,1,0,15,0,0
135208,-333.333333333333,4,1,0,15,0,0
135225,-58.8235294117647,4,1,0,15,0,0
135242,-333.333333333333,4,1,0,15,0,0
135259,-58.8235294117647,4,1,0,15,0,0
135276,-333.333333333333,4,1,0,15,0,0
135294,-62.5,4,1,0,15,0,0
135345,-250,4,1,0,15,0,0
135397,-62.5,4,1,0,15,0,0
135448,-250,4,1,0,15,0,0
135500,-50,4,1,0,15,0,0
135551,-10000,4,1,0,15,0,0
135602,-58.8235294117647,4,1,0,15,0,0
135654,-333.333333333333,4,1,0,15,0,0
135705,-58.8235294117647,4,1,0,15,0,0
135756,-333.333333333333,4,1,0,15,0,0
135808,-58.8235294117647,4,1,0,15,0,0
135859,-333.333333333333,4,1,0,15,0,0
135911,-52.6315789473684,4,1,0,15,0,0
135962,-1000,4,1,0,15,0,0
136013,-52.6315789473684,4,1,0,15,0,0
136065,-1000,4,1,0,15,0,0
136116,-52.6315789473684,4,1,0,15,0,0
136167,-1000,4,1,0,15,0,0
136219,-52.6315789473684,4,1,0,15,0,0
136270,-1000,4,1,0,15,0,0
136322,-10,4,1,0,15,0,0
136328.16,-10.4166666666667,4,1,0,15,0,0
136334.32,-10.8695652173913,4,1,0,15,0,0
136340.48,-11.3636363636364,4,1,0,15,0,0
136346.64,-11.9047619047619,4,1,0,15,0,0
136352.8,-12.5,4,1,0,15,0,0
136358.96,-13.1578947368421,4,1,0,15,0,0
136365.12,-13.8888888888889,4,1,0,15,0,0
136371.28,-14.7058823529412,4,1,0,15,0,0
136377.44,-15.625,4,1,0,15,0,0
136383.6,-16.6666666666667,4,1,0,15,0,0
136389.76,-17.8571428571429,4,1,0,15,0,0
136395.92,-19.2307692307692,4,1,0,15,0,0
136402.08,-20.7900207900208,4,1,0,15,0,0
136408.24,-22.6757369614512,4,1,0,15,0,0
136414.4,-24.9376558603491,4,1,0,15,0,0
136420.56,-27.7008310249308,4,1,0,15,0,0
136426.72,-31.1526479750779,4,1,0,15,0,0
136432.88,-35.5871886120996,4,1,0,15,0,0
136439.04,-41.49377593361,4,1,0,15,0,0
136445.2,-49.7512437810945,4,1,0,15,0,0
136451.36,-62.111801242236,4,1,0,15,0,0
136457.52,-82.6446280991736,4,1,0,15,0,0
136463.68,-123.456790123457,4,1,0,15,0,0
136469.84,-243.90243902439,4,1,0,15,0,0
136476,-10000,4,1,0,15,0,0
136732,-55.5555555555556,4,1,0,15,0,0
136784,-500,4,1,0,15,0,0
136835,-55.5555555555556,4,1,0,15,0,0
136887,-100,4,1,0,15,0,0
136989,-500,4,1,0,15,0,0
137041,-55.5555555555556,4,1,0,15,0,0
137092,-500,4,1,0,15,0,0
137143,-40,4,1,0,15,0,0
137163.6,-44.2477876106195,4,1,0,15,0,0
137184.2,-49.5049504950495,4,1,0,15,0,0
137204.8,-56.1797752808989,4,1,0,15,0,0
137225.4,-64.9350649350649,4,1,0,15,0,0
137246,-76.9230769230769,4,1,0,15,0,0
137266.6,-94.3396226415094,4,1,0,15,0,0
137287.2,-121.951219512195,4,1,0,15,0,0
137307.8,-172.413793103448,4,1,0,15,0,0
137328.4,-294.117647058824,4,1,0,15,0,0
137349,-1000,4,1,0,15,0,0
137369.5,-416.666666666667,4,1,0,15,0,0
137390,-263.157894736842,4,1,0,15,0,0
137410.5,-192.307692307692,4,1,0,15,0,0
137431,-151.515151515152,4,1,0,15,0,0
137451.5,-125,4,1,0,15,0,0
137472,-106.382978723404,4,1,0,15,0,0
137492.5,-92.5925925925926,4,1,0,15,0,0
137513,-81.9672131147541,4,1,0,15,0,0
137533.5,-73.5294117647059,4,1,0,15,0,0
137554,-52.6315789473684,4,1,0,15,0,0
137606,-1000,4,1,0,15,0,0
137657,-52.6315789473684,4,1,0,15,0,0
137709,-1000,4,1,0,15,0,0
137760,-52.6315789473684,4,1,0,15,0,0
137811,-1000,4,1,0,15,0,0
137863,-52.6315789473684,4,1,0,15,0,0
137914,-1000,4,1,0,15,0,0
137965,-45.4545454545455,4,1,0,15,0,0
138017,-10000,4,1,0,15,0,0
138068,-66.6666666666667,4,1,0,15,0,0
138119,-200,4,1,0,15,0,0
138171,-66.6666666666667,4,1,0,15,0,0
138222,-200,4,1,0,15,0,0
138274,-45.4545454545455,4,1,0,15,0,0
138325,-10000,4,1,0,15,0,0
138376,-66.6666666666667,4,1,0,15,0,0
138428,-200,4,1,0,15,0,0
138479,-66.6666666666667,4,1,0,15,0,0
138530,-200,4,1,0,15,0,0
138582,-66.6666666666667,4,1,0,15,0,0
138633,-200,4,1,0,15,0,0
138685,-55.5555555555556,4,1,0,15,0,0
138736,-500,4,1,0,15,0,0
138787,-45.4545454545455,4,1,0,15,0,0
138839,-10000,4,1,0,15,0,0
138890,-62.5,4,1,0,15,0,0
138941,-250,4,1,0,15,0,0
138993,-62.5,4,1,0,15,0,0
139044,-250,4,1,0,15,0,0
139095,-62.5,4,1,0,15,0,0
139147,-250,4,1,0,15,0,0
139198,-45.4545454545455,4,1,0,15,0,0
139250,-10000,4,1,0,15,0,0
139301,-166.666666666667,4,1,0,15,0,0
139352,-142.857142857143,4,1,0,15,0,0
139404,-125,4,1,0,15,0,0
139455,-111.111111111111,4,1,0,15,0,0
139506,-100,4,1,0,15,0,0
139516.3,-90.9090909090909,4,1,0,15,0,0
139526.6,-83.3333333333333,4,1,0,15,0,0
139536.9,-76.9230769230769,4,1,0,15,0,0
139547.2,-71.4285714285714,4,1,0,15,0,0
139557.5,-66.6666666666667,4,1,0,15,0,0
139567.8,-62.5,4,1,0,15,0,0
139578.1,-58.8235294117647,4,1,0,15,0,0
139588.4,-55.5555555555556,4,1,0,15,0,0
139598.7,-52.6315789473684,4,1,0,15,0,0
139609,-10,4,1,0,15,0,0
139615.16,-10.4166666666667,4,1,0,15,0,0
139621.32,-10.8695652173913,4,1,0,15,0,0
139627.48,-11.3636363636364,4,1,0,15,0,0
139633.64,-11.9047619047619,4,1,0,15,0,0
139639.8,-12.5,4,1,0,15,0,0
139645.96,-13.1578947368421,4,1,0,15,0,0
139652.12,-13.8888888888889,4,1,0,15,0,0
139658.28,-14.7058823529412,4,1,0,15,0,0
139664.44,-15.625,4,1,0,15,0,0
139670.6,-16.6666666666667,4,1,0,15,0,0
139676.76,-17.8571428571429,4,1,0,15,0,0
139682.92,-19.2307692307692,4,1,0,15,0,0
139689.08,-20.7900207900208,4,1,0,15,0,0
139695.24,-22.6757369614512,4,1,0,15,0,0
139701.4,-24.9376558603491,4,1,0,15,0,0
139707.56,-27.7008310249308,4,1,0,15,0,0
139713.72,-31.1526479750779,4,1,0,15,0,0
139719.88,-35.5871886120996,4,1,0,15,0,0
139726.04,-41.49377593361,4,1,0,15,0,0
139732.2,-49.7512437810945,4,1,0,15,0,0
139738.36,-62.111801242236,4,1,0,15,0,0
139744.52,-82.6446280991736,4,1,0,15,0,0
139750.68,-123.456790123457,4,1,0,15,0,0
139756.84,-243.90243902439,4,1,0,15,0,0
139763,-10000,4,1,0,15,0,0
140020,-50,4,1,0,15,0,0
140072,-10000,4,1,0,15,0,0
140123,-50,4,1,0,15,0,0
140174,-10000,4,1,0,15,0,0
140226,-50,4,1,0,15,0,0
140277,-10000,4,1,0,15,0,0
140328,-50,4,1,0,15,0,0
140380,-10000,4,1,0,15,0,0
140431,-30.3030303030303,4,1,0,15,0,0
140482,-10000,4,1,0,15,0,0
140637,-50,4,1,0,15,0,0
140688,-10000,4,1,0,15,0,0
140739,-30.3030303030303,4,1,0,15,0,0
140763,-44.2477876106195,4,1,0,15,0,0
140787,-49.5049504950495,4,1,0,15,0,0
140811,-56.1797752808989,4,1,0,15,0,0
140835,-64.9350649350649,4,1,0,15,0,0
140859,-76.9230769230769,4,1,0,15,0,0
140883,-94.3396226415094,4,1,0,15,0,0
140907,-121.951219512195,4,1,0,15,0,0
140931,-172.413793103448,4,1,0,15,0,0
140955,-294.117647058824,4,1,0,15,0,0
140979,-50,4,1,0,15,0,0
140992.7,-55.2486187845304,4,1,0,15,0,0
141006.4,-61.7283950617284,4,1,0,15,0,0
141020.1,-69.9300699300699,4,1,0,15,0,0
141033.8,-80.6451612903226,4,1,0,15,0,0
141047.5,-95.2380952380952,4,1,0,15,0,0
141061.2,-116.279069767442,4,1,0,15,0,0
141074.9,-149.253731343284,4,1,0,15,0,0
141088.6,-208.333333333333,4,1,0,15,0,0
141102.3,-344.827586206897,4,1,0,15,0,0
141116,-50,4,1,0,15,0,0
141129.7,-55.2486187845304,4,1,0,15,0,0
141143.4,-61.7283950617284,4,1,0,15,0,0
141157.1,-69.9300699300699,4,1,0,15,0,0
141170.8,-80.6451612903226,4,1,0,15,0,0
141184.5,-95.2380952380952,4,1,0,15,0,0
141198.2,-116.279069767442,4,1,0,15,0,0
141211.9,-149.253731343284,4,1,0,15,0,0
141225.6,-208.333333333333,4,1,0,15,0,0
141239.3,-344.827586206897,4,1,0,15,0,0
141253,-50,4,1,0,15,0,0
141304,-1000,4,1,0,15,0,0
141356,-200,4,1,0,15,0,0
141376.5,-175.438596491228,4,1,0,15,0,0
141397,-156.25,4,1,0,15,0,0
141417.5,-140.845070422535,4,1,0,15,0,0
141438,-128.205128205128,4,1,0,15,0,0
141458.5,-117.647058823529,4,1,0,15,0,0
141479,-108.695652173913,4,1,0,15,0,0
141499.5,-101.010101010101,4,1,0,15,0,0
141520,-94.3396226415094,4,1,0,15,0,0
141540.5,-88.495575221239,4,1,0,15,0,0
141561,-62.5,4,1,0,15,0,0
141613,-250,4,1,0,15,0,0
141664,-58.8235294117647,4,1,0,15,0,0
141681,-333.333333333333,4,1,0,15,0,0
141698,-58.8235294117647,4,1,0,15,0,0
141715,-333.333333333333,4,1,0,15,0,0
141732,-58.8235294117647,4,1,0,15,0,0
141749,-333.333333333333,4,1,0,15,0,0
141766,-58.8235294117647,4,1,0,15,0,0
141783,-333.333333333333,4,1,0,15,0,0
141800,-58.8235294117647,4,1,0,15,0,0
141817,-333.333333333333,4,1,0,15,0,0
141834,-58.8235294117647,4,1,0,15,0,0
141851,-333.333333333333,4,1,0,15,0,0
141869,-62.5,4,1,0,15,0,0
141921,-250,4,1,0,15,0,0
141972,-62.5,4,1,0,15,0,0
142024,-250,4,1,0,15,0,0
142075,-50,4,1,0,15,0,0
142126,-10000,4,1,0,15,0,0
142178,-58.8235294117647,4,1,0,15,0,0
142229,-333.333333333333,4,1,0,15,0,0
142280,-58.8235294117647,4,1,0,15,0,0
142332,-333.333333333333,4,1,0,15,0,0
142383,-58.8235294117647,4,1,0,15,0,0
142435,-333.333333333333,4,1,0,15,0,0
142486,-52.6315789473684,4,1,0,15,0,0
142537,-1000,4,1,0,15,0,0
142589,-52.6315789473684,4,1,0,15,0,0
142640,-1000,4,1,0,15,0,0
142691,-52.6315789473684,4,1,0,15,0,0
142743,-1000,4,1,0,15,0,0
142794,-52.6315789473684,4,1,0,15,0,0
142845,-1000,4,1,0,15,0,0
142897,-41.6666666666667,4,1,0,15,0,0
142948,-10000,4,1,0,15,0,0
143000,-41.6666666666667,4,1,0,15,0,0
143051,-10000,4,1,0,15,0,0
143102,-41.6666666666667,4,1,0,15,0,0
143154,-10000,4,1,0,15,0,0
143205,-41.6666666666667,4,1,0,15,0,0
143256,-10000,4,1,0,15,0,0
143308,-62.5,4,1,0,15,0,0
143359,-250,4,1,0,15,0,0
143411,-62.5,4,1,0,15,0,0
143462,-250,4,1,0,15,0,0
143513,-62.5,4,1,0,15,0,0
143565,-250,4,1,0,15,0,0
143616,-62.5,4,1,0,15,0,0
143667,-250,4,1,0,15,0,0
143719,-50,4,1,0,15,0,0
143770,-10000,4,1,0,15,0,0
143822,-66.6666666666667,4,1,0,15,0,0
143842.5,-72.463768115942,4,1,0,15,0,0
143863,-79.3650793650794,4,1,0,15,0,0
143883.5,-87.719298245614,4,1,0,15,0,0
143904,-98.0392156862745,4,1,0,15,0,0
143924.5,-111.111111111111,4,1,0,15,0,0
143945,-128.205128205128,4,1,0,15,0,0
143965.5,-151.515151515152,4,1,0,15,0,0
143986,-185.185185185185,4,1,0,15,0,0
144006.5,-238.095238095238,4,1,0,15,0,0
144027,-333.333333333333,4,1,0,15,0,0
144037.3,-238.095238095238,4,1,0,15,0,0
144047.6,-185.185185185185,4,1,0,15,0,0
144057.9,-151.515151515152,4,1,0,15,0,0
144068.2,-128.205128205128,4,1,0,15,0,0
144078.5,-111.111111111111,4,1,0,15,0,0
144088.8,-98.0392156862745,4,1,0,15,0,0
144099.1,-87.719298245614,4,1,0,15,0,0
144109.4,-79.3650793650794,4,1,0,15,0,0
144119.7,-72.463768115942,4,1,0,15,0,0
144130,-52.6315789473684,4,1,0,15,0,0
144181,-1000,4,1,0,15,0,0
144232,-52.6315789473684,4,1,0,15,0,0
144284,-1000,4,1,0,15,0,0
144335,-52.6315789473684,4,1,0,15,0,0
144387,-1000,4,1,0,15,0,0
144438,-52.6315789473684,4,1,0,15,0,0
144489,-1000,4,1,0,15,0,0
144541,-50,4,1,0,15,0,0
144664.3,-54.6448087431694,4,1,0,15,0,0
144787.6,-60.2409638554217,4,1,0,15,0,0
144910.9,-67.1140939597315,4,1,0,15,0,0
145034.2,-75.7575757575758,4,1,0,15,0,0
145157.5,-86.9565217391304,4,1,0,15,0,0
145280.8,-102.040816326531,4,1,0,15,0,0
145404.1,-123.456790123457,4,1,0,15,0,0
145527.4,-156.25,4,1,0,15,0,0
145650.7,-212.765957446809,4,1,0,15,0,0
145774,-58.8235294117647,4,1,0,15,0,0
145825,-71.4285714285714,4,1,0,15,0,0
145876,-111.111111111111,4,1,0,15,0,0
145928,-166.666666666667,4,1,0,15,0,0
145979,-10000,4,1,0,15,0,0
145999.6,-476.190476190476,4,1,0,15,0,0
146020.2,-243.90243902439,4,1,0,15,0,0
146040.8,-163.934426229508,4,1,0,15,0,0
146061.4,-123.456790123457,4,1,0,15,0,0
146082,-100,4,1,0,15,0,0
146102.6,-83.3333333333333,4,1,0,15,0,0
146123.2,-71.4285714285714,4,1,0,15,0,0
146143.8,-62.5,4,1,0,15,0,0
146164.4,-55.5555555555556,4,1,0,15,0,0
146185,-125,4,1,0,15,0,0
147828,-117.647058823529,4,1,0,15,0,0
149472,-111.111111111111,4,1,0,15,0,0
151116,-105.263157894737,4,1,0,15,0,0
152760,-100,4,1,0,15,0,0
154404,-95.238095238095,4,1,0,15,0,0
156048,-90.9090909090908,4,1,0,15,0,0
157691,-62.5,4,1,0,15,0,0
157814.3,-68.0272108843538,4,1,0,15,0,0
157937.6,-74.6268656716418,4,1,0,15,0,0
158060.9,-82.6446280991736,4,1,0,15,0,0
158184.2,-92.5925925925926,4,1,0,15,0,0
158307.5,-105.263157894737,4,1,0,15,0,0
158430.8,-121.951219512195,4,1,0,15,0,0
158554.1,-144.927536231884,4,1,0,15,0,0
158677.4,-178.571428571429,4,1,0,15,0,0
158800.7,-232.558139534884,4,1,0,15,0,0
158924,-20,4,1,0,15,0,0
158940.44,-20.8333333333333,4,1,0,15,0,0
158956.88,-21.7391304347826,4,1,0,15,0,0
158973.32,-22.7272727272727,4,1,0,15,0,0
158989.76,-23.8095238095238,4,1,0,15,0,0
159006.2,-25,4,1,0,15,0,0
159022.64,-26.3157894736842,4,1,0,15,0,0
159039.08,-27.7777777777778,4,1,0,15,0,0
159055.52,-29.4117647058824,4,1,0,15,0,0
159071.96,-31.25,4,1,0,15,0,0
159088.4,-33.3333333333333,4,1,0,15,0,0
159104.84,-35.7142857142857,4,1,0,15,0,0
159121.28,-38.4615384615385,4,1,0,15,0,0
159137.72,-41.49377593361,4,1,0,15,0,0
159154.16,-45.2488687782805,4,1,0,15,0,0
159170.6,-49.7512437810945,4,1,0,15,0,0
159187.04,-55.2486187845304,4,1,0,15,0,0
159203.48,-62.111801242236,4,1,0,15,0,0
159219.92,-70.9219858156028,4,1,0,15,0,0
159236.36,-82.6446280991736,4,1,0,15,0,0
159252.8,-99.009900990099,4,1,0,15,0,0
159269.24,-123.456790123457,4,1,0,15,0,0
159285.68,-163.934426229508,4,1,0,15,0,0
159302.12,-243.90243902439,4,1,0,15,0,0
159318.56,-476.190476190476,4,1,0,15,0,0
159335,-58.8235294117647,4,1,0,15,0,0
159387,-105.263157894737,4,1,0,15,0,0
159746,-58.8235294117647,4,1,0,15,0,0
159798,-105.263157894737,4,1,0,15,0,0
160157,-62.5,4,1,0,15,0,0
160209,-105.263157894737,4,1,0,15,0,0
160363,-62.5,4,1,0,15,0,0
160414,-250,4,1,0,15,0,0
160465,-45.4545454545455,4,1,0,15,0,0
160517,-10000,4,1,0,15,0,0
160568,-100,4,1,0,15,0,0
160671,-62.5,4,1,0,15,0,0
160722,-250,4,1,0,15,0,0
160774,-62.5,4,1,0,15,0,0
160815.1,-69.4444444444444,4,1,0,15,0,0
160856.2,-78.125,4,1,0,15,0,0
160897.3,-89.2857142857143,4,1,0,15,0,0
160938.4,-104.166666666667,4,1,0,15,0,0
160979.5,-123.456790123457,4,1,0,15,0,0
161020.6,-153.846153846154,4,1,0,15,0,0
161061.7,-204.081632653061,4,1,0,15,0,0
161102.8,-303.030303030303,4,1,0,15,0,0
161143.9,-588.235294117647,4,1,0,15,0,0
161185,-58.8235294117647,4,1,0,15,0,0
161236,-105.263157894737,4,1,0,15,0,0
161493,-58.8235294117647,4,1,0,15,0,0
161544,-105.263157894737,4,1,0,15,0,0
161801,-58.8235294117647,4,1,0,15,0,0
161852,-105.263157894737,4,1,0,15,0,0
162006,-66.6666666666667,4,1,0,15,0,0
162058,-105.263157894737,4,1,0,15,0,0
162109,-58.8235294117647,4,1,0,15,0,0
162161,-105.263157894737,4,1,0,15,0,0
162417,-58.8235294117647,4,1,0,15,0,0
162469,-105.263157894737,4,1,0,15,0,0
162623,-58.8235294117647,4,1,0,15,0,0
162674,-105.263157894737,4,1,0,15,0,0
163034,-58.8235294117647,4,1,0,15,0,0
163085,-105.263157894737,4,1,0,15,0,0
163445,-33.3333333333333,4,1,0,15,0,0
163496,-10000,4,1,0,15,0,0
163548,-50,4,1,0,15,0,0
163599,-10000,4,1,0,15,0,0
163650,-50,4,1,0,15,0,0
163702,-10000,4,1,0,15,0,0
163753,-50,4,1,0,15,0,0
163804,-10000,4,1,0,15,0,0
163856,-50,4,1,0,15,0,0
163907,-10000,4,1,0,15,0,0
163959,-50,4,1,0,15,0,0
164010,-10000,4,1,0,15,0,0
164061,-33.3333333333333,4,1,0,15,0,0
164113,-10000,4,1,0,15,0,0
164164,-50,4,1,0,15,0,0
164215,-10000,4,1,0,15,0,0
164267,-50,4,1,0,15,0,0
164318,-10000,4,1,0,15,0,0
164369,-50,4,1,0,15,0,0
164421,-10000,4,1,0,15,0,0
164472,-58.8235294117647,4,1,0,15,0,0
164524,-105.263157894737,4,1,0,15,0,0
164780,-58.8235294117647,4,1,0,15,0,0
164832,-105.263157894737,4,1,0,15,0,0
165089,-58.8235294117647,4,1,0,15,0,0
165140,-105.263157894737,4,1,0,15,0,0
165294,-66.6666666666667,4,1,0,15,0,0
165345,-105.263157894737,4,1,0,15,0,0
165397,-58.8235294117647,4,1,0,15,0,0
165448,-105.263157894737,4,1,0,15,0,0
165705,-58.8235294117647,4,1,0,15,0,0
165756,-105.263157894737,4,1,0,15,0,0
165911,-58.8235294117647,4,1,0,15,0,0
165962,-105.263157894737,4,1,0,15,0,0
166322,-58.8235294117647,4,1,0,15,0,0
166373,-105.263157894737,4,1,0,15,0,0
166732,-41.6666666666667,4,1,0,15,0,0
166749,-10000,4,1,0,15,0,0
166766,-43.4782608695652,4,1,0,15,0,0
166783,-10000,4,1,0,15,0,0
166800,-45.4545454545455,4,1,0,15,0,0
166817,-10000,4,1,0,15,0,0
166834,-47.6190476190476,4,1,0,15,0,0
166851,-10000,4,1,0,15,0,0
166868,-50,4,1,0,15,0,0
166885,-10000,4,1,0,15,0,0
166902,-52.6315789473684,4,1,0,15,0,0
166919,-10000,4,1,0,15,0,0
166936,-55.5555555555556,4,1,0,15,0,0
166953,-10000,4,1,0,15,0,0
166970,-58.8235294117647,4,1,0,15,0,0
166987,-10000,4,1,0,15,0,0
167004,-62.5,4,1,0,15,0,0
167021,-10000,4,1,0,15,0,0
167038,-66.6666666666667,4,1,0,15,0,0
167055,-10000,4,1,0,15,0,0
167072,-71.4285714285714,4,1,0,15,0,0
167089,-10000,4,1,0,15,0,0
167106,-76.9230769230769,4,1,0,15,0,0
167123,-10000,4,1,0,15,0,0
167140,-76.9230769230769,4,1,0,15,0,0
167157,-10000,4,1,0,15,0,0
167174,-83.3333333333333,4,1,0,15,0,0
167191,-10000,4,1,0,15,0,0
167208,-90.9090909090909,4,1,0,15,0,0
167225,-10000,4,1,0,15,0,0
167242,-100,4,1,0,15,0,0
167259,-10000,4,1,0,15,0,0
167276,-111.111111111111,4,1,0,15,0,0
167293,-10000,4,1,0,15,0,0
167310,-125,4,1,0,15,0,0
167327,-10000,4,1,0,15,0,0
167344,-41.6666666666667,4,1,0,15,0,0
167361,-10000,4,1,0,15,0,0
167378,-45.4545454545455,4,1,0,15,0,0
167395,-10000,4,1,0,15,0,0
167412,-50,4,1,0,15,0,0
167429,-10000,4,1,0,15,0,0
167446,-55.5555555555556,4,1,0,15,0,0
167463,-10000,4,1,0,15,0,0
167480,-62.5,4,1,0,15,0,0
167497,-10000,4,1,0,15,0,0
167514,-71.4285714285714,4,1,0,15,0,0
167531,-10000,4,1,0,15,0,0
167548,-83.3333333333333,4,1,0,15,0,0
167565,-10000,4,1,0,15,0,0
167582,-100,4,1,0,15,0,0
167599,-10000,4,1,0,15,0,0
167616,-125,4,1,0,15,0,0
167633,-10000,4,1,0,15,0,0
167650,-166.666666666667,4,1,0,15,0,0
167667,-10000,4,1,0,15,0,0
167684,-250,4,1,0,15,0,0
167701,-10000,4,1,0,15,0,0
167718,-333.333333333333,4,1,0,15,0,0
167735,-10000,4,1,0,15,0,0
167748,-10000,4,1,0,15,0,0
167760,-58.8235294117647,4,1,0,15,0,0
167811,-105.263157894737,4,1,0,15,0,0
168068,-58.8235294117647,4,1,0,15,0,0
168119,-105.263157894737,4,1,0,15,0,0
168376,-58.8235294117647,4,1,0,15,0,0
168428,-105.263157894737,4,1,0,15,0,0
168582,-66.6666666666667,4,1,0,15,0,0
168633,-105.263157894737,4,1,0,15,0,0
168685,-66.6666666666667,4,1,0,15,0,0
168736,-105.263157894737,4,1,0,15,0,0
168787,-66.6666666666667,4,1,0,15,0,0
168839,-105.263157894737,4,1,0,15,0,0
168993,-58.8235294117647,4,1,0,15,0,0
169044,-105.263157894737,4,1,0,15,0,0
169198,-58.8235294117647,4,1,0,15,0,0
169250,-105.263157894737,4,1,0,15,0,0
169609,-58.8235294117647,4,1,0,15,0,0
169661,-105.263157894737,4,1,0,15,0,0
170020,-45.4545454545455,4,1,0,15,0,0
170072,-10000,4,1,0,15,0,0
170123,-100,4,1,0,15,0,0
170226,-62.5,4,1,0,15,0,0
170277,-250,4,1,0,15,0,0
170328,-45.4545454545455,4,1,0,15,0,0
170380,-10000,4,1,0,15,0,0
170431,-100,4,1,0,15,0,0
170534,-62.5,4,1,0,15,0,0
170585,-250,4,1,0,15,0,0
170637,-45.4545454545455,4,1,0,15,0,0
170688,-10000,4,1,0,15,0,0
170739,-62.5,4,1,0,15,0,0
170791,-250,4,1,0,15,0,0
170842,-62.5,4,1,0,15,0,0
170893,-250,4,1,0,15,0,0
170945,-62.5,4,1,0,15,0,0
170996,-250,4,1,0,15,0,0
171048,-58.8235294117647,4,1,0,15,0,0
171099,-105.263157894737,4,1,0,15,0,0
171356,-58.8235294117647,4,1,0,15,0,0
171407,-105.263157894737,4,1,0,15,0,0
171664,-58.8235294117647,4,1,0,15,0,0
171715,-105.263157894737,4,1,0,15,0,0
171869,-66.6666666666667,4,1,0,15,0,0
171921,-105.263157894737,4,1,0,15,0,0
171972,-58.8235294117647,4,1,0,15,0,0
172024,-105.263157894737,4,1,0,15,0,0
172280,-66.6666666666667,4,1,0,15,0,0
172332,-105.263157894737,4,1,0,15,0,0
172383,-66.6666666666667,4,1,0,15,0,0
172435,-105.263157894737,4,1,0,15,0,0
172486,-58.8235294117647,4,1,0,15,0,0
172537,-105.263157894737,4,1,0,15,0,0
172897,-58.8235294117647,4,1,0,15,0,0
172948,-105.263157894737,4,1,0,15,0,0
173308,-333.333333333333,4,1,0,15,0,0
173321.666666667,-277.777777777778,4,1,0,15,0,0
173335.333333333,-238.095238095238,4,1,0,15,0,0
173349,-208.333333333333,4,1,0,15,0,0
173362.666666667,-185.185185185185,4,1,0,15,0,0
173376.333333333,-166.666666666667,4,1,0,15,0,0
173390,-151.515151515152,4,1,0,15,0,0
173403.666666667,-138.888888888889,4,1,0,15,0,0
173417.333333333,-128.205128205128,4,1,0,15,0,0
173431,-119.047619047619,4,1,0,15,0,0
173444.666666667,-111.111111111111,4,1,0,15,0,0
173458.333333333,-104.166666666667,4,1,0,15,0,0
173472,-98.0392156862745,4,1,0,15,0,0
173485.666666667,-92.5925925925926,4,1,0,15,0,0
173499.333333333,-87.719298245614,4,1,0,15,0,0
173513,-83.3333333333333,4,1,0,15,0,0
173565,-100,4,1,0,15,0,0
173616,-333.333333333333,4,1,0,15,0,0
173629.733333333,-277.777777777778,4,1,0,15,0,0
173643.466666667,-238.095238095238,4,1,0,15,0,0
173657.2,-208.333333333333,4,1,0,15,0,0
173670.933333333,-185.185185185185,4,1,0,15,0,0
173684.666666667,-166.666666666667,4,1,0,15,0,0
173698.4,-151.515151515152,4,1,0,15,0,0
173712.133333333,-138.888888888889,4,1,0,15,0,0
173725.866666667,-128.205128205128,4,1,0,15,0,0
173739.6,-119.047619047619,4,1,0,15,0,0
173753.333333333,-111.111111111111,4,1,0,15,0,0
173767.066666667,-104.166666666667,4,1,0,15,0,0
173780.8,-98.0392156862745,4,1,0,15,0,0
173794.533333333,-92.5925925925926,4,1,0,15,0,0
173808.266666667,-87.719298245614,4,1,0,15,0,0
173822,-83.3333333333333,4,1,0,15,0,0
173873,-100,4,1,0,15,0,0
173924,-333.333333333333,4,1,0,15,0,0
173951.4,-277.777777777778,4,1,0,15,0,0
173978.8,-238.095238095238,4,1,0,15,0,0
174006.2,-208.333333333333,4,1,0,15,0,0
174033.6,-185.185185185185,4,1,0,15,0,0
174061,-166.666666666667,4,1,0,15,0,0
174088.4,-151.515151515152,4,1,0,15,0,0
174115.8,-138.888888888889,4,1,0,15,0,0
174143.2,-128.205128205128,4,1,0,15,0,0
174170.6,-119.047619047619,4,1,0,15,0,0
174198,-111.111111111111,4,1,0,15,0,0
174225.4,-104.166666666667,4,1,0,15,0,0
174252.8,-98.0392156862745,4,1,0,15,0,0
174280.2,-92.5925925925926,4,1,0,15,0,0
174307.6,-87.719298245614,4,1,0,15,0,0
174335,-58.8235294117647,4,1,0,15,0,0
174387,-105.263157894737,4,1,0,15,0,0
174643,-58.8235294117647,4,1,0,15,0,0
174695,-105.263157894737,4,1,0,15,0,0
174952,-58.8235294117647,4,1,0,15,0,0
175003,-105.263157894737,4,1,0,15,0,0
175157,-66.6666666666667,4,1,0,15,0,0
175209,-105.263157894737,4,1,0,15,0,0
175260,-66.6666666666667,4,1,0,15,0,0
175311,-105.263157894737,4,1,0,15,0,0
175363,-58.8235294117647,4,1,0,15,0,0
175414,-105.263157894737,4,1,0,15,0,0
175568,-58.8235294117647,4,1,0,15,0,0
175619,-105.263157894737,4,1,0,15,0,0
175774,-58.8235294117647,4,1,0,15,0,0
175825,-105.263157894737,4,1,0,15,0,0
176185,-58.8235294117647,4,1,0,15,0,0
176236,-105.263157894737,4,1,0,15,0,0
176595,-50,4,1,0,15,0,0
176647,-10000,4,1,0,15,0,0
176698,-40,4,1,0,15,0,0
176750,-10000,4,1,0,15,0,0
176801,-33.3333333333333,4,1,0,15,0,0
176852,-10000,4,1,0,15,0,0
176904,-50,4,1,0,15,0,0
176955,-10000,4,1,0,15,0,0
177006,-40,4,1,0,15,0,0
177058,-10000,4,1,0,15,0,0
177109,-33.3333333333333,4,1,0,15,0,0
177161,-10000,4,1,0,15,0,0
177212,-50,4,1,0,15,0,0
177263,-10000,4,1,0,15,0,0
177315,-40,4,1,0,15,0,0
177366,-10000,4,1,0,15,0,0
177417,-33.3333333333333,4,1,0,15,0,0
177469,-10000,4,1,0,15,0,0
177520,-33.3333333333333,4,1,0,15,0,0
177572,-10000,4,1,0,15,0,0
177623,-58.8235294117647,4,1,0,15,0,0
177674,-105.263157894737,4,1,0,15,0,0
177931,-58.8235294117647,4,1,0,15,0,0
177982,-105.263157894737,4,1,0,15,0,0
178239,-58.8235294117647,4,1,0,15,0,0
178291,-105.263157894737,4,1,0,15,0,0
178445,-66.6666666666667,4,1,0,15,0,0
178496,-105.263157894737,4,1,0,15,0,0
178548,-58.8235294117647,4,1,0,15,0,0
178599,-105.263157894737,4,1,0,15,0,0
178856,-58.8235294117647,4,1,0,15,0,0
178907,-105.263157894737,4,1,0,15,0,0
179061,-58.8235294117647,4,1,0,15,0,0
179113,-105.263157894737,4,1,0,15,0,0
179472,-58.8235294117647,4,1,0,15,0,0
179524,-105.263157894737,4,1,0,15,0,0
179883,-41.6666666666667,4,1,0,15,0,0
179900,-10000,4,1,0,15,0,0
179917,-43.4782608695652,4,1,0,15,0,0
179934,-10000,4,1,0,15,0,0
179951,-45.4545454545455,4,1,0,15,0,0
179968,-10000,4,1,0,15,0,0
179985,-47.6190476190476,4,1,0,15,0,0
180002,-10000,4,1,0,15,0,0
180019,-50,4,1,0,15,0,0
180036,-10000,4,1,0,15,0,0
180053,-52.6315789473684,4,1,0,15,0,0
180070,-10000,4,1,0,15,0,0
180087,-55.5555555555556,4,1,0,15,0,0
180104,-10000,4,1,0,15,0,0
180121,-58.8235294117647,4,1,0,15,0,0
180138,-10000,4,1,0,15,0,0
180155,-62.5,4,1,0,15,0,0
180172,-10000,4,1,0,15,0,0
180189,-66.6666666666667,4,1,0,15,0,0
180206,-10000,4,1,0,15,0,0
180223,-71.4285714285714,4,1,0,15,0,0
180240,-10000,4,1,0,15,0,0
180257,-76.9230769230769,4,1,0,15,0,0
180274,-10000,4,1,0,15,0,0
180291,-76.9230769230769,4,1,0,15,0,0
180308,-10000,4,1,0,15,0,0
180325,-83.3333333333333,4,1,0,15,0,0
180342,-10000,4,1,0,15,0,0
180359,-90.9090909090909,4,1,0,15,0,0
180376,-10000,4,1,0,15,0,0
180393,-100,4,1,0,15,0,0
180410,-10000,4,1,0,15,0,0
180427,-111.111111111111,4,1,0,15,0,0
180444,-10000,4,1,0,15,0,0
180461,-125,4,1,0,15,0,0
180478,-10000,4,1,0,15,0,0
180495,-41.6666666666667,4,1,0,15,0,0
180512,-10000,4,1,0,15,0,0
180529,-45.4545454545455,4,1,0,15,0,0
180546,-10000,4,1,0,15,0,0
180563,-50,4,1,0,15,0,0
180580,-10000,4,1,0,15,0,0
180597,-55.5555555555556,4,1,0,15,0,0
180614,-10000,4,1,0,15,0,0
180631,-62.5,4,1,0,15,0,0
180648,-10000,4,1,0,15,0,0
180665,-71.4285714285714,4,1,0,15,0,0
180682,-10000,4,1,0,15,0,0
180699,-83.3333333333333,4,1,0,15,0,0
180716,-10000,4,1,0,15,0,0
180733,-100,4,1,0,15,0,0
180750,-10000,4,1,0,15,0,0
180767,-125,4,1,0,15,0,0
180784,-10000,4,1,0,15,0,0
180801,-166.666666666667,4,1,0,15,0,0
180818,-10000,4,1,0,15,0,0
180835,-250,4,1,0,15,0,0
180852,-10000,4,1,0,15,0,0
180869,-333.333333333333,4,1,0,15,0,0
180886,-10000,4,1,0,15,0,0
180899,-10000,4,1,0,15,0,0
180911,-58.8235294117647,4,1,0,15,0,0
180962,-105.263157894737,4,1,0,15,0,0
181219,-58.8235294117647,4,1,0,15,0,0
181270,-105.263157894737,4,1,0,15,0,0
181527,-58.8235294117647,4,1,0,15,0,0
181578,-105.263157894737,4,1,0,15,0,0
181732,-66.6666666666667,4,1,0,15,0,0
181784,-105.263157894737,4,1,0,15,0,0
181835,-66.6666666666667,4,1,0,15,0,0
181887,-105.263157894737,4,1,0,15,0,0
181938,-58.8235294117647,4,1,0,15,0,0
181989,-105.263157894737,4,1,0,15,0,0
182143,-58.8235294117647,4,1,0,15,0,0
182195,-105.263157894737,4,1,0,15,0,0
182349,-66.6666666666667,4,1,0,15,0,0
182400,-117.647058823529,4,1,0,15,0,0
184198,-58.8235294117647,4,1,0,15,0,0
184250,-105.263157894737,4,1,0,15,0,0
184506,-58.8235294117647,4,1,0,15,0,0
184558,-105.263157894737,4,1,0,15,0,0
184815,-58.8235294117647,4,1,0,15,0,0
184866,-105.263157894737,4,1,0,15,0,0
185020,-66.6666666666667,4,1,0,15,0,0
185072,-105.263157894737,4,1,0,15,0,0
185123,-58.8235294117647,4,1,0,15,0,0
185174,-105.263157894737,4,1,0,15,0,0
185431,-66.6666666666667,4,1,0,15,0,0
185482,-105.263157894737,4,1,0,15,0,0
185534,-66.6666666666667,4,1,0,15,0,0
185585,-105.263157894737,4,1,0,15,0,0
185637,-58.8235294117647,4,1,0,15,0,0
185688,-105.263157894737,4,1,0,15,0,0
186048,-66.6666666666667,4,1,0,15,0,0
186099,-105.263157894737,4,1,0,15,0,0
186459,-58.8235294117647,4,1,0,15,0,0
186510,-105.263157894737,4,1,0,15,0,0
186869,-66.6666666666667,4,1,0,15,0,0
186921,-105.263157894737,4,1,0,15,0,0
187280,-66.6666666666667,4,1,0,15,0,0
187332,-105.263157894737,4,1,0,15,0,0
187691,-66.6666666666667,4,1,0,15,0,0
187743,-105.263157894737,4,1,0,15,0,0
188102,-58.8235294117647,4,1,0,15,0,0
188154,-105.263157894737,4,1,0,15,0,0
188513,-66.6666666666667,4,1,0,15,0,0
188565,-105.263157894737,4,1,0,15,0,0
188924,-66.6666666666667,4,1,0,15,0,0
188976,-105.263157894737,4,1,0,15,0,0
189335,-66.6666666666667,4,1,0,15,0,0
189387,-105.263157894737,4,1,0,15,0,0
189746,-58.8235294117647,4,1,0,15,0,0
189798,-105.263157894737,4,1,0,15,0,0
190157,-66.6666666666667,4,1,0,15,0,0
190209,-105.263157894737,4,1,0,15,0,0
190568,-66.6666666666667,4,1,0,15,0,0
190619,-105.263157894737,4,1,0,15,0,0
190979,-66.6666666666667,4,1,0,15,0,0
191030,-105.263157894737,4,1,0,15,0,0
191390,-58.8235294117647,4,1,0,15,0,0
191441,-105.263157894737,4,1,0,15,0,0
191801,-66.6666666666667,4,1,0,15,0,0
191852,-105.263157894737,4,1,0,15,0,0
192212,-66.6666666666667,4,1,0,15,0,0
192263,-105.263157894737,4,1,0,15,0,0
192623,-66.6666666666667,4,1,0,15,0,0
192674,-105.263157894737,4,1,0,15,0,0
193034,-58.8235294117647,4,1,0,15,0,0
193085,-105.263157894737,4,1,0,15,0,0
193445,-66.6666666666667,4,1,0,15,0,0
193496,-105.263157894737,4,1,0,15,0,0
193856,-66.6666666666667,4,1,0,15,0,0
193907,-105.263157894737,4,1,0,15,0,0
194267,-66.6666666666667,4,1,0,15,0,0
194318,-105.263157894737,4,1,0,15,0,0
194678,-58.8235294117647,4,1,0,15,0,0
194729,-105.263157894737,4,1,0,15,0,0
195089,-66.6666666666667,4,1,0,15,0,0
195140,-105.263157894737,4,1,0,15,0,0
195500,-66.6666666666667,4,1,0,15,0,0
195551,-105.263157894737,4,1,0,15,0,0
195911,-66.6666666666667,4,1,0,15,0,0
195962,-105.263157894737,4,1,0,15,0,0
196322,-58.8235294117647,4,1,0,15,0,0
196373,-105.263157894737,4,1,0,15,0,0
196732,-66.6666666666667,4,1,0,15,0,0
196784,-105.263157894737,4,1,0,15,0,0
197143,-66.6666666666667,4,1,0,15,0,0
197195,-105.263157894737,4,1,0,15,0,0
197554,-66.6666666666667,4,1,0,15,0,0
197606,-105.263157894737,4,1,0,15,0,0
197965,-58.8235294117647,4,1,0,15,0,0
198017,-105.263157894737,4,1,0,15,0,0
198376,-66.6666666666667,4,1,0,15,0,0
198428,-105.263157894737,4,1,0,15,0,0
198787,-66.6666666666667,4,1,0,15,0,0
198839,-105.263157894737,4,1,0,15,0,0
199198,-66.6666666666667,4,1,0,15,0,0
199250,-105.263157894737,4,1,0,15,0,0
199609,-58.8235294117647,4,1,0,15,0,0
199661,-105.263157894737,4,1,0,15,0,0
200020,-66.6666666666667,4,1,0,15,0,0
200072,-105.263157894737,4,1,0,15,0,0
200431,-66.6666666666667,4,1,0,15,0,0
200482,-105.263157894737,4,1,0,15,0,0
200842,-66.6666666666667,4,1,0,15,0,0
200893,-105.263157894737,4,1,0,15,0,0
201253,-58.8235294117647,4,1,0,15,0,0
201304,-105.263157894737,4,1,0,15,0,0
201664,-66.6666666666667,4,1,0,15,0,0
201715,-105.263157894737,4,1,0,15,0,0
202075,-66.6666666666667,4,1,0,15,0,0
202126,-105.263157894737,4,1,0,15,0,0
202486,-66.6666666666667,4,1,0,15,0,0
202537,-105.263157894737,4,1,0,15,0,0
202897,-58.8235294117647,4,1,0,15,0,0
202948,-105.263157894737,4,1,0,15,0,0
203308,-66.6666666666667,4,1,0,15,0,0
203359,-105.263157894737,4,1,0,15,0,0
203719,-66.6666666666667,4,1,0,15,0,0
203770,-105.263157894737,4,1,0,15,0,0
204130,-66.6666666666667,4,1,0,15,0,0
204181,-105.263157894737,4,1,0,15,0,0
204541,-58.8235294117647,4,1,0,15,0,0
204592,-105.263157894737,4,1,0,15,0,0
204952,-66.6666666666667,4,1,0,15,0,0
205003,-105.263157894737,4,1,0,15,0,0
205363,-66.6666666666667,4,1,0,15,0,0
205414,-105.263157894737,4,1,0,15,0,0
205774,-66.6666666666667,4,1,0,15,0,0
205825,-105.263157894737,4,1,0,15,0,0
206185,-58.8235294117647,4,1,0,15,0,0
206236,-105.263157894737,4,1,0,15,0,0
206595,-66.6666666666667,4,1,0,15,0,0
206647,-105.263157894737,4,1,0,15,0,0
207006,-66.6666666666667,4,1,0,15,0,0
207058,-105.263157894737,4,1,0,15,0,0
207417,-66.6666666666667,4,1,0,15,0,0
207469,-105.263157894737,4,1,0,15,0,0
207828,-58.8235294117647,4,1,0,15,0,0
207880,-105.263157894737,4,1,0,15,0,0
208239,-66.6666666666667,4,1,0,15,0,0
208291,-105.263157894737,4,1,0,15,0,0
208650,-66.6666666666667,4,1,0,15,0,0
208702,-105.263157894737,4,1,0,15,0,0
209061,-66.6666666666667,4,1,0,15,0,0
209113,-105.263157894737,4,1,0,15,0,0
209472,-58.8235294117647,4,1,0,15,0,0
209524,-105.263157894737,4,1,0,15,0,0
209883,-66.6666666666667,4,1,0,15,0,0
209935,-105.263157894737,4,1,0,15,0,0
210294,-83.3333333333333,4,1,0,15,0,0
210389.866666667,-86.9565217391304,4,1,0,15,0,0
210485.733333333,-90.0900900900901,4,1,0,15,0,0
210581.6,-94.3396226415094,4,1,0,15,0,0
210677.466666667,-99.009900990099,4,1,0,15,0,0
210773.333333333,-103.092783505155,4,1,0,15,0,0
210869.2,-108.695652173913,4,1,0,15,0,0
210965.066666667,-114.942528735632,4,1,0,15,0,0
211060.933333333,-120.481927710843,4,1,0,15,0,0
211156.8,-128.205128205128,4,1,0,15,0,0
211252.666666667,-136.986301369863,4,1,0,15,0,0
211348.533333333,-144.927536231884,4,1,0,15,0,0
211444.4,-156.25,4,1,0,15,0,0
211540.266666667,-169.491525423729,4,1,0,15,0,0
211636.133333333,-181.818181818182,4,1,0,15,0,0
211732,-200,4,1,0,15,0,0
211784,-166.666666666667,4,1,0,15,0,0
211835,-125,4,1,0,15,0,0
211887,-100,4,1,0,15,0,0
211938,-83.3333333333333,4,1,0,15,0,0
212041,-90.9090909090909,4,1,0,15,0,0
212143,-100,4,1,0,15,0,0
212246,-111.111111111111,4,1,0,15,0,0
212349,-125,4,1,0,15,0,0
216869,-166.666666666667,4,1,0,15,0,0
217129.266666667,-163.934426229508,4,1,0,15,0,0
217389.533333333,-161.290322580645,4,1,0,15,0,0
217649.8,-158.730158730159,4,1,0,15,0,0
217910.066666667,-158.730158730159,4,1,0,15,0,0
218170.333333333,-156.25,4,1,0,15,0,0
218430.6,-153.846153846154,4,1,0,15,0,0
218690.866666667,-151.515151515152,4,1,0,15,0,0
218951.133333333,-149.253731343284,4,1,0,15,0,0
219211.4,-147.058823529412,4,1,0,15,0,0
219471.666666667,-147.058823529412,4,1,0,15,0,0
219731.933333333,-144.927536231884,4,1,0,15,0,0
219992.2,-142.857142857143,4,1,0,15,0,0
220252.466666667,-140.845070422535,4,1,0,15,0,0
220512.733333333,-138.888888888889,4,1,0,15,0,0
220773,-136.986301369863,4,1,0,15,0,0
221033.266666667,-136.986301369863,4,1,0,15,0,0
221293.533333333,-135.135135135135,4,1,0,15,0,0
221553.8,-133.333333333333,4,1,0,15,0,0
221814.066666667,-131.578947368421,4,1,0,15,0,0
222074.333333333,-129.87012987013,4,1,0,15,0,0
222334.6,-129.87012987013,4,1,0,15,0,0
222594.866666667,-128.205128205128,4,1,0,15,0,0
222855.133333333,-126.582278481013,4,1,0,15,0,0
223115.4,-125,4,1,0,15,0,0
223375.666666667,-123.456790123457,4,1,0,15,0,0
223635.933333333,-121.951219512195,4,1,0,15,0,0
223896.2,-120.481927710843,4,1,0,15,0,0
224156.466666667,-120.481927710843,4,1,0,15,0,0
224416.733333333,-119.047619047619,4,1,0,15,0,0
224677,-117.647058823529,4,1,0,15,0,0
224697.55,-117.647058823529,4,1,0,15,0,0
224718.1,-116.279069767442,4,1,0,15,0,0
224738.65,-113.636363636364,4,1,0,15,0,0
224759.2,-111.111111111111,4,1,0,15,0,0
224779.75,-108.695652173913,4,1,0,15,0,0
224800.3,-105.263157894737,4,1,0,15,0,0
224820.85,-101.010101010101,4,1,0,15,0,0
224841.4,-97.0873786407767,4,1,0,15,0,0
224861.95,-92.5925925925926,4,1,0,15,0,0
224882.5,-87.719298245614,4,1,0,15,0,0
224903.05,-83.3333333333333,4,1,0,15,0,0
224923.6,-79.3650793650794,4,1,0,15,0,0
224944.15,-74.6268656716418,4,1,0,15,0,0
224964.7,-70.9219858156028,4,1,0,15,0,0
224985.25,-66.6666666666667,4,1,0,15,0,0
225005.8,-62.8930817610063,4,1,0,15,0,0
225026.35,-59.5238095238095,4,1,0,15,0,0
225046.9,-56.1797752808989,4,1,0,15,0,0
225067.45,-52.9100529100529,4,1,0,15,0,0
225088,-50,4,1,0,15,0,0
225103.4,-52.6315789473684,4,1,0,15,0,0
225118.8,-55.5555555555556,4,1,0,15,0,0
225134.2,-58.8235294117647,4,1,0,15,0,0
225149.6,-62.5,4,1,0,15,0,0
225165,-66.6666666666667,4,1,0,15,0,0
225180.4,-71.4285714285714,4,1,0,15,0,0
225195.8,-76.9230769230769,4,1,0,15,0,0
225211.2,-83.3333333333333,4,1,0,15,0,0
225226.6,-90.9090909090909,4,1,0,15,0,0
225242,-99.009900990099,4,1,0,15,0,0
225257.4,-109.89010989011,4,1,0,15,0,0
225272.8,-123.456790123457,4,1,0,15,0,0
225288.2,-140.845070422535,4,1,0,15,0,0
225303.6,-163.934426229508,4,1,0,15,0,0
225319,-196.078431372549,4,1,0,15,0,0
225334.4,-243.90243902439,4,1,0,15,0,0
225349.8,-322.58064516129,4,1,0,15,0,0
225365.2,-476.190476190476,4,1,0,15,0,0
225380.6,-909.090909090909,4,1,0,15,0,0
225396,-10000,4,1,0,15,0,0
225499,-10000,4,1,0,15,0,0
225519.55,-909.090909090909,4,1,0,15,0,0
225540.1,-476.190476190476,4,1,0,15,0,0
225560.65,-322.58064516129,4,1,0,15,0,0
225581.2,-243.90243902439,4,1,0,15,0,0
225601.75,-196.078431372549,4,1,0,15,0,0
225622.3,-163.934426229508,4,1,0,15,0,0
225642.85,-140.845070422535,4,1,0,15,0,0
225663.4,-123.456790123457,4,1,0,15,0,0
225683.95,-109.89010989011,4,1,0,15,0,0
225704.5,-100,4,1,0,15,0,0
225725.05,-90.9090909090909,4,1,0,15,0,0
225745.6,-83.3333333333333,4,1,0,15,0,0
225766.15,-76.9230769230769,4,1,0,15,0,0
225786.7,-71.4285714285714,4,1,0,15,0,0
225807.25,-66.6666666666667,4,1,0,15,0,0
225827.8,-62.5,4,1,0,15,0,0
225848.35,-58.8235294117647,4,1,0,15,0,0
225868.9,-55.5555555555556,4,1,0,15,0,0
225889.45,-52.6315789473684,4,1,0,15,0,0
225910,-50,4,1,0,15,0,0
225925.4,-52.6315789473684,4,1,0,15,0,0
225940.8,-55.5555555555556,4,1,0,15,0,0
225956.2,-58.8235294117647,4,1,0,15,0,0
225971.6,-62.5,4,1,0,15,0,0
225987,-66.6666666666667,4,1,0,15,0,0
226002.4,-71.4285714285714,4,1,0,15,0,0
226017.8,-76.9230769230769,4,1,0,15,0,0
226033.2,-83.3333333333333,4,1,0,15,0,0
226048.6,-90.9090909090909,4,1,0,15,0,0
226064,-99.009900990099,4,1,0,15,0,0
226079.4,-109.89010989011,4,1,0,15,0,0
226094.8,-123.456790123457,4,1,0,15,0,0
226110.2,-140.845070422535,4,1,0,15,0,0
226125.6,-163.934426229508,4,1,0,15,0,0
226141,-196.078431372549,4,1,0,15,0,0
226156.4,-243.90243902439,4,1,0,15,0,0
226171.8,-322.58064516129,4,1,0,15,0,0
226187.2,-476.190476190476,4,1,0,15,0,0
226202.6,-909.090909090909,4,1,0,15,0,0
226218,-10000,4,1,0,15,0,0
226321,-10000,4,1,0,15,0,0
226341.55,-909.090909090909,4,1,0,15,0,0
226362.1,-476.190476190476,4,1,0,15,0,0
226382.65,-322.58064516129,4,1,0,15,0,0
226403.2,-243.90243902439,4,1,0,15,0,0
226423.75,-196.078431372549,4,1,0,15,0,0
226444.3,-163.934426229508,4,1,0,15,0,0
226464.85,-140.845070422535,4,1,0,15,0,0
226485.4,-123.456790123457,4,1,0,15,0,0
226505.95,-109.89010989011,4,1,0,15,0,0
226526.5,-100,4,1,0,15,0,0
226547.05,-90.9090909090909,4,1,0,15,0,0
226567.6,-83.3333333333333,4,1,0,15,0,0
226588.15,-76.9230769230769,4,1,0,15,0,0
226608.7,-71.4285714285714,4,1,0,15,0,0
226629.25,-66.6666666666667,4,1,0,15,0,0
226649.8,-62.5,4,1,0,15,0,0
226670.35,-58.8235294117647,4,1,0,15,0,0
226690.9,-55.5555555555556,4,1,0,15,0,0
226711.45,-52.6315789473684,4,1,0,15,0,0
226732,-50,4,1,0,15,0,0
226742.25,-52.6315789473684,4,1,0,15,0,0
226752.5,-55.5555555555556,4,1,0,15,0,0
226762.75,-58.8235294117647,4,1,0,15,0,0
226773,-62.5,4,1,0,15,0,0
226783.25,-66.6666666666667,4,1,0,15,0,0
226793.5,-71.4285714285714,4,1,0,15,0,0
226803.75,-76.9230769230769,4,1,0,15,0,0
226814,-83.3333333333333,4,1,0,15,0,0
226824.25,-90.9090909090909,4,1,0,15,0,0
226834.5,-99.009900990099,4,1,0,15,0,0
226844.75,-109.89010989011,4,1,0,15,0,0
226855,-123.456790123457,4,1,0,15,0,0
226865.25,-140.845070422535,4,1,0,15,0,0
226875.5,-163.934426229508,4,1,0,15,0,0
226885.75,-196.078431372549,4,1,0,15,0,0
226896,-243.90243902439,4,1,0,15,0,0
226906.25,-322.58064516129,4,1,0,15,0,0
226916.5,-476.190476190476,4,1,0,15,0,0
226926.75,-909.090909090909,4,1,0,15,0,0
226937,-10000,4,1,0,15,0,0
226947.3,-909.090909090909,4,1,0,15,0,0
226957.6,-476.190476190476,4,1,0,15,0,0
226967.9,-322.58064516129,4,1,0,15,0,0
226978.2,-243.90243902439,4,1,0,15,0,0
226988.5,-196.078431372549,4,1,0,15,0,0
226998.8,-163.934426229508,4,1,0,15,0,0
227009.1,-140.845070422535,4,1,0,15,0,0
227019.4,-123.456790123457,4,1,0,15,0,0
227029.7,-109.89010989011,4,1,0,15,0,0
227040,-100,4,1,0,15,0,0
227050.3,-90.9090909090909,4,1,0,15,0,0
227060.6,-83.3333333333333,4,1,0,15,0,0
227070.9,-76.9230769230769,4,1,0,15,0,0
227081.2,-71.4285714285714,4,1,0,15,0,0
227091.5,-66.6666666666667,4,1,0,15,0,0
227101.8,-62.5,4,1,0,15,0,0
227112.1,-58.8235294117647,4,1,0,15,0,0
227122.4,-55.5555555555556,4,1,0,15,0,0
227132.7,-52.6315789473684,4,1,0,15,0,0
227143,-50,4,1,0,15,0,0
227153.25,-52.6315789473684,4,1,0,15,0,0
227163.5,-55.5555555555556,4,1,0,15,0,0
227173.75,-58.8235294117647,4,1,0,15,0,0
227184,-62.5,4,1,0,15,0,0
227194.25,-66.6666666666667,4,1,0,15,0,0
227204.5,-71.4285714285714,4,1,0,15,0,0
227214.75,-76.9230769230769,4,1,0,15,0,0
227225,-83.3333333333333,4,1,0,15,0,0
227235.25,-90.9090909090909,4,1,0,15,0,0
227245.5,-99.009900990099,4,1,0,15,0,0
227255.75,-109.89010989011,4,1,0,15,0,0
227266,-123.456790123457,4,1,0,15,0,0
227276.25,-140.845070422535,4,1,0,15,0,0
227286.5,-163.934426229508,4,1,0,15,0,0
227296.75,-196.078431372549,4,1,0,15,0,0
227307,-243.90243902439,4,1,0,15,0,0
227317.25,-322.58064516129,4,1,0,15,0,0
227327.5,-476.190476190476,4,1,0,15,0,0
227337.75,-909.090909090909,4,1,0,15,0,0
227348,-10000,4,1,0,15,0,0
227358.3,-909.090909090909,4,1,0,15,0,0
227368.6,-476.190476190476,4,1,0,15,0,0
227378.9,-322.58064516129,4,1,0,15,0,0
227389.2,-243.90243902439,4,1,0,15,0,0
227399.5,-196.078431372549,4,1,0,15,0,0
227409.8,-163.934426229508,4,1,0,15,0,0
227420.1,-140.845070422535,4,1,0,15,0,0
227430.4,-123.456790123457,4,1,0,15,0,0
227440.7,-109.89010989011,4,1,0,15,0,0
227451,-100,4,1,0,15,0,0
227461.3,-90.9090909090909,4,1,0,15,0,0
227471.6,-83.3333333333333,4,1,0,15,0,0
227481.9,-76.9230769230769,4,1,0,15,0,0
227492.2,-71.4285714285714,4,1,0,15,0,0
227502.5,-66.6666666666667,4,1,0,15,0,0
227512.8,-62.5,4,1,0,15,0,0
227523.1,-58.8235294117647,4,1,0,15,0,0
227533.4,-55.5555555555556,4,1,0,15,0,0
227543.7,-52.6315789473684,4,1,0,15,0,0
227554,-50,4,1,0,15,0,0
227569.4,-52.6315789473684,4,1,0,15,0,0
227584.8,-55.5555555555556,4,1,0,15,0,0
227600.2,-58.8235294117647,4,1,0,15,0,0
227615.6,-62.5,4,1,0,15,0,0
227631,-66.6666666666667,4,1,0,15,0,0
227646.4,-71.4285714285714,4,1,0,15,0,0
227661.8,-76.9230769230769,4,1,0,15,0,0
227677.2,-83.3333333333333,4,1,0,15,0,0
227692.6,-90.9090909090909,4,1,0,15,0,0
227708,-99.009900990099,4,1,0,15,0,0
227723.4,-109.89010989011,4,1,0,15,0,0
227738.8,-123.456790123457,4,1,0,15,0,0
227754.2,-140.845070422535,4,1,0,15,0,0
227769.6,-163.934426229508,4,1,0,15,0,0
227785,-196.078431372549,4,1,0,15,0,0
227800.4,-243.90243902439,4,1,0,15,0,0
227815.8,-322.58064516129,4,1,0,15,0,0
227831.2,-476.190476190476,4,1,0,15,0,0
227846.6,-909.090909090909,4,1,0,15,0,0
227862,-10000,4,1,0,15,0,0
227965,-10000,4,1,0,15,0,0
227985.5,-909.090909090909,4,1,0,15,0,0
228006,-476.190476190476,4,1,0,15,0,0
228026.5,-322.58064516129,4,1,0,15,0,0
228047,-243.90243902439,4,1,0,15,0,0
228067.5,-196.078431372549,4,1,0,15,0,0
228088,-163.934426229508,4,1,0,15,0,0
228108.5,-140.845070422535,4,1,0,15,0,0
228129,-123.456790123457,4,1,0,15,0,0
228149.5,-109.89010989011,4,1,0,15,0,0
228170,-100,4,1,0,15,0,0
228190.5,-90.9090909090909,4,1,0,15,0,0
228211,-83.3333333333333,4,1,0,15,0,0
228231.5,-76.9230769230769,4,1,0,15,0,0
228252,-71.4285714285714,4,1,0,15,0,0
228272.5,-66.6666666666667,4,1,0,15,0,0
228293,-62.5,4,1,0,15,0,0
228313.5,-58.8235294117647,4,1,0,15,0,0
228334,-55.5555555555556,4,1,0,15,0,0
228354.5,-52.6315789473684,4,1,0,15,0,0
228375,-50,4,1,0,15,0,0
228390.45,-52.6315789473684,4,1,0,15,0,0
228405.9,-55.5555555555556,4,1,0,15,0,0
228421.35,-58.8235294117647,4,1,0,15,0,0
228436.8,-62.5,4,1,0,15,0,0
228452.25,-66.6666666666667,4,1,0,15,0,0
228467.7,-71.4285714285714,4,1,0,15,0,0
228483.15,-76.9230769230769,4,1,0,15,0,0
228498.6,-83.3333333333333,4,1,0,15,0,0
228514.05,-90.9090909090909,4,1,0,15,0,0
228529.5,-99.009900990099,4,1,0,15,0,0
228544.95,-109.89010989011,4,1,0,15,0,0
228560.4,-123.456790123457,4,1,0,15,0,0
228575.85,-140.845070422535,4,1,0,15,0,0
228591.3,-163.934426229508,4,1,0,15,0,0
228606.75,-196.078431372549,4,1,0,15,0,0
228622.2,-243.90243902439,4,1,0,15,0,0
228637.65,-322.58064516129,4,1,0,15,0,0
228653.1,-476.190476190476,4,1,0,15,0,0
228668.55,-909.090909090909,4,1,0,15,0,0
228684,-10000,4,1,0,15,0,0
228786,-10000,4,1,0,15,0,0
228806.55,-909.090909090909,4,1,0,15,0,0
228827.1,-476.190476190476,4,1,0,15,0,0
228847.65,-322.58064516129,4,1,0,15,0,0
228868.2,-243.90243902439,4,1,0,15,0,0
228888.75,-196.078431372549,4,1,0,15,0,0
228909.3,-163.934426229508,4,1,0,15,0,0
228929.85,-140.845070422535,4,1,0,15,0,0
228950.4,-123.456790123457,4,1,0,15,0,0
228970.95,-109.89010989011,4,1,0,15,0,0
228991.5,-100,4,1,0,15,0,0
229012.05,-90.9090909090909,4,1,0,15,0,0
229032.6,-83.3333333333333,4,1,0,15,0,0
229053.15,-76.9230769230769,4,1,0,15,0,0
229073.7,-71.4285714285714,4,1,0,15,0,0
229094.25,-66.6666666666667,4,1,0,15,0,0
229114.8,-62.5,4,1,0,15,0,0
229135.35,-58.8235294117647,4,1,0,15,0,0
229155.9,-55.5555555555556,4,1,0,15,0,0
229176.45,-52.6315789473684,4,1,0,15,0,0
229197,-50,4,1,0,15,0,0
229212.45,-52.6315789473684,4,1,0,15,0,0
229227.9,-55.5555555555556,4,1,0,15,0,0
229243.35,-58.8235294117647,4,1,0,15,0,0
229258.8,-62.5,4,1,0,15,0,0
229274.25,-66.6666666666667,4,1,0,15,0,0
229289.7,-71.4285714285714,4,1,0,15,0,0
229305.15,-76.9230769230769,4,1,0,15,0,0
229320.6,-83.3333333333333,4,1,0,15,0,0
229336.05,-90.9090909090909,4,1,0,15,0,0
229351.5,-99.009900990099,4,1,0,15,0,0
229366.95,-109.89010989011,4,1,0,15,0,0
229382.4,-123.456790123457,4,1,0,15,0,0
229397.85,-140.845070422535,4,1,0,15,0,0
229413.3,-163.934426229508,4,1,0,15,0,0
229428.75,-196.078431372549,4,1,0,15,0,0
229444.2,-243.90243902439,4,1,0,15,0,0
229459.65,-322.58064516129,4,1,0,15,0,0
229475.1,-476.190476190476,4,1,0,15,0,0
229490.55,-909.090909090909,4,1,0,15,0,0
229506,-10000,4,1,0,15,0,0
229608,-10000,4,1,0,15,0,0
229618.3,-909.090909090909,4,1,0,15,0,0
229628.6,-476.190476190476,4,1,0,15,0,0
229638.9,-322.58064516129,4,1,0,15,0,0
229649.2,-243.90243902439,4,1,0,15,0,0
229659.5,-196.078431372549,4,1,0,15,0,0
229669.8,-163.934426229508,4,1,0,15,0,0
229680.1,-140.845070422535,4,1,0,15,0,0
229690.4,-123.456790123457,4,1,0,15,0,0
229700.7,-109.89010989011,4,1,0,15,0,0
229711,-100,4,1,0,15,0,0
229721.3,-90.9090909090909,4,1,0,15,0,0
229731.6,-83.3333333333333,4,1,0,15,0,0
229741.9,-76.9230769230769,4,1,0,15,0,0
229752.2,-71.4285714285714,4,1,0,15,0,0
229762.5,-66.6666666666667,4,1,0,15,0,0
229772.8,-62.5,4,1,0,15,0,0
229783.1,-58.8235294117647,4,1,0,15,0,0
229793.4,-55.5555555555556,4,1,0,15,0,0
229803.7,-52.6315789473684,4,1,0,15,0,0
229814,-50,4,1,0,15,0,0
229819.15,-52.6315789473684,4,1,0,15,0,0
229824.3,-55.5555555555556,4,1,0,15,0,0
229829.45,-58.8235294117647,4,1,0,15,0,0
229834.6,-62.5,4,1,0,15,0,0
229839.75,-66.6666666666667,4,1,0,15,0,0
229844.9,-71.4285714285714,4,1,0,15,0,0
229850.05,-76.9230769230769,4,1,0,15,0,0
229855.2,-83.3333333333333,4,1,0,15,0,0
229860.35,-90.9090909090909,4,1,0,15,0,0
229865.5,-99.009900990099,4,1,0,15,0,0
229870.65,-109.89010989011,4,1,0,15,0,0
229875.8,-123.456790123457,4,1,0,15,0,0
229880.95,-140.845070422535,4,1,0,15,0,0
229886.1,-163.934426229508,4,1,0,15,0,0
229891.25,-196.078431372549,4,1,0,15,0,0
229896.4,-243.90243902439,4,1,0,15,0,0
229901.55,-322.58064516129,4,1,0,15,0,0
229906.7,-476.190476190476,4,1,0,15,0,0
229911.85,-909.090909090909,4,1,0,15,0,0
229917,-10000,4,1,0,15,0,0
229922.1,-909.090909090909,4,1,0,15,0,0
229927.2,-476.190476190476,4,1,0,15,0,0
229932.3,-322.58064516129,4,1,0,15,0,0
229937.4,-243.90243902439,4,1,0,15,0,0
229942.5,-196.078431372549,4,1,0,15,0,0
229947.6,-163.934426229508,4,1,0,15,0,0
229952.7,-140.845070422535,4,1,0,15,0,0
229957.8,-123.456790123457,4,1,0,15,0,0
229962.9,-109.89010989011,4,1,0,15,0,0
229968,-100,4,1,0,15,0,0
229973.1,-90.9090909090909,4,1,0,15,0,0
229978.2,-83.3333333333333,4,1,0,15,0,0
229983.3,-76.9230769230769,4,1,0,15,0,0
229988.4,-71.4285714285714,4,1,0,15,0,0
229993.5,-66.6666666666667,4,1,0,15,0,0
229998.6,-62.5,4,1,0,15,0,0
230003.7,-58.8235294117647,4,1,0,15,0,0
230008.8,-55.5555555555556,4,1,0,15,0,0
230013.9,-52.6315789473684,4,1,0,15,0,0
230019,-50,4,1,0,15,0,0
230029.3,-52.6315789473684,4,1,0,15,0,0
230039.6,-55.5555555555556,4,1,0,15,0,0
230049.9,-58.8235294117647,4,1,0,15,0,0
230060.2,-62.5,4,1,0,15,0,0
230070.5,-66.6666666666667,4,1,0,15,0,0
230080.8,-71.4285714285714,4,1,0,15,0,0
230091.1,-76.9230769230769,4,1,0,15,0,0
230101.4,-83.3333333333333,4,1,0,15,0,0
230111.7,-90.9090909090909,4,1,0,15,0,0
230122,-99.009900990099,4,1,0,15,0,0
230132.3,-109.89010989011,4,1,0,15,0,0
230142.6,-123.456790123457,4,1,0,15,0,0
230152.9,-140.845070422535,4,1,0,15,0,0
230163.2,-163.934426229508,4,1,0,15,0,0
230173.5,-196.078431372549,4,1,0,15,0,0
230183.8,-243.90243902439,4,1,0,15,0,0
230194.1,-322.58064516129,4,1,0,15,0,0
230204.4,-476.190476190476,4,1,0,15,0,0
230214.7,-909.090909090909,4,1,0,15,0,0
230225,-10000,4,1,0,15,0,0
230235.25,-909.090909090909,4,1,0,15,0,0
230245.5,-476.190476190476,4,1,0,15,0,0
230255.75,-322.58064516129,4,1,0,15,0,0
230266,-243.90243902439,4,1,0,15,0,0
230276.25,-196.078431372549,4,1,0,15,0,0
230286.5,-163.934426229508,4,1,0,15,0,0
230296.75,-140.845070422535,4,1,0,15,0,0
230307,-123.456790123457,4,1,0,15,0,0
230317.25,-109.89010989011,4,1,0,15,0,0
230327.5,-100,4,1,0,15,0,0
230337.75,-90.9090909090909,4,1,0,15,0,0
230348,-83.3333333333333,4,1,0,15,0,0
230358.25,-76.9230769230769,4,1,0,15,0,0
230368.5,-71.4285714285714,4,1,0,15,0,0
230378.75,-66.6666666666667,4,1,0,15,0,0
230389,-62.5,4,1,0,15,0,0
230399.25,-58.8235294117647,4,1,0,15,0,0
230409.5,-55.5555555555556,4,1,0,15,0,0
230419.75,-52.6315789473684,4,1,0,15,0,0
230430,-50,4,1,0,15,0,0
230440.3,-52.6315789473684,4,1,0,15,0,0
230450.6,-55.5555555555556,4,1,0,15,0,0
230460.9,-58.8235294117647,4,1,0,15,0,0
230471.2,-62.5,4,1,0,15,0,0
230481.5,-66.6666666666667,4,1,0,15,0,0
230491.8,-71.4285714285714,4,1,0,15,0,0
230502.1,-76.9230769230769,4,1,0,15,0,0
230512.4,-83.3333333333333,4,1,0,15,0,0
230522.7,-90.9090909090909,4,1,0,15,0,0
230533,-99.009900990099,4,1,0,15,0,0
230543.3,-109.89010989011,4,1,0,15,0,0
230553.6,-123.456790123457,4,1,0,15,0,0
230563.9,-140.845070422535,4,1,0,15,0,0
230574.2,-163.934426229508,4,1,0,15,0,0
230584.5,-196.078431372549,4,1,0,15,0,0
230594.8,-243.90243902439,4,1,0,15,0,0
230605.1,-322.58064516129,4,1,0,15,0,0
230615.4,-476.190476190476,4,1,0,15,0,0
230625.7,-909.090909090909,4,1,0,15,0,0
230636,-10000,4,1,0,15,0,0
230646.25,-909.090909090909,4,1,0,15,0,0
230656.5,-476.190476190476,4,1,0,15,0,0
230666.75,-322.58064516129,4,1,0,15,0,0
230677,-243.90243902439,4,1,0,15,0,0
230687.25,-196.078431372549,4,1,0,15,0,0
230697.5,-163.934426229508,4,1,0,15,0,0
230707.75,-140.845070422535,4,1,0,15,0,0
230718,-123.456790123457,4,1,0,15,0,0
230728.25,-109.89010989011,4,1,0,15,0,0
230738.5,-100,4,1,0,15,0,0
230748.75,-90.9090909090909,4,1,0,15,0,0
230759,-83.3333333333333,4,1,0,15,0,0
230769.25,-76.9230769230769,4,1,0,15,0,0
230779.5,-71.4285714285714,4,1,0,15,0,0
230789.75,-66.6666666666667,4,1,0,15,0,0
230800,-62.5,4,1,0,15,0,0
230810.25,-58.8235294117647,4,1,0,15,0,0
230820.5,-55.5555555555556,4,1,0,15,0,0
230830.75,-52.6315789473684,4,1,0,15,0,0
230841,-50,4,1,0,15,0,0
230856.4,-52.6315789473684,4,1,0,15,0,0
230871.8,-55.5555555555556,4,1,0,15,0,0
230887.2,-58.8235294117647,4,1,0,15,0,0
230902.6,-62.5,4,1,0,15,0,0
230918,-66.6666666666667,4,1,0,15,0,0
230933.4,-71.4285714285714,4,1,0,15,0,0
230948.8,-76.9230769230769,4,1,0,15,0,0
230964.2,-83.3333333333333,4,1,0,15,0,0
230979.6,-90.9090909090909,4,1,0,15,0,0
230995,-99.009900990099,4,1,0,15,0,0
231010.4,-109.89010989011,4,1,0,15,0,0
231025.8,-123.456790123457,4,1,0,15,0,0
231041.2,-140.845070422535,4,1,0,15,0,0
231056.6,-163.934426229508,4,1,0,15,0,0
231072,-196.078431372549,4,1,0,15,0,0
231087.4,-243.90243902439,4,1,0,15,0,0
231102.8,-322.58064516129,4,1,0,15,0,0
231118.2,-476.190476190476,4,1,0,15,0,0
231133.6,-909.090909090909,4,1,0,15,0,0
231149,-10000,4,1,0,15,0,0
231252,-10000,4,1,0,15,0,0
231272.55,-909.090909090909,4,1,0,15,0,0
231293.1,-476.190476190476,4,1,0,15,0,0
231313.65,-322.58064516129,4,1,0,15,0,0
231334.2,-243.90243902439,4,1,0,15,0,0
231354.75,-196.078431372549,4,1,0,15,0,0
231375.3,-163.934426229508,4,1,0,15,0,0
231395.85,-140.845070422535,4,1,0,15,0,0
231416.4,-123.456790123457,4,1,0,15,0,0
231436.95,-109.89010989011,4,1,0,15,0,0
231457.5,-100,4,1,0,15,0,0
231478.05,-90.9090909090909,4,1,0,15,0,0
231498.6,-83.3333333333333,4,1,0,15,0,0
231519.15,-76.9230769230769,4,1,0,15,0,0
231539.7,-71.4285714285714,4,1,0,15,0,0
231560.25,-66.6666666666667,4,1,0,15,0,0
231580.8,-62.5,4,1,0,15,0,0
231601.35,-58.8235294117647,4,1,0,15,0,0
231621.9,-55.5555555555556,4,1,0,15,0,0
231642.45,-52.6315789473684,4,1,0,15,0,0
231663,-50,4,1,0,15,0,0
231678.4,-52.6315789473684,4,1,0,15,0,0
231693.8,-55.5555555555556,4,1,0,15,0,0
231709.2,-58.8235294117647,4,1,0,15,0,0
231724.6,-62.5,4,1,0,15,0,0
231740,-66.6666666666667,4,1,0,15,0,0
231755.4,-71.4285714285714,4,1,0,15,0,0
231770.8,-76.9230769230769,4,1,0,15,0,0
231786.2,-83.3333333333333,4,1,0,15,0,0
231801.6,-90.9090909090909,4,1,0,15,0,0
231817,-99.009900990099,4,1,0,15,0,0
231832.4,-109.89010989011,4,1,0,15,0,0
231847.8,-123.456790123457,4,1,0,15,0,0
231863.2,-140.845070422535,4,1,0,15,0,0
231878.6,-163.934426229508,4,1,0,15,0,0
231894,-196.078431372549,4,1,0,15,0,0
231909.4,-243.90243902439,4,1,0,15,0,0
231924.8,-322.58064516129,4,1,0,15,0,0
231940.2,-476.190476190476,4,1,0,15,0,0
231955.6,-909.090909090909,4,1,0,15,0,0
231971,-10000,4,1,0,15,0,0
232074,-10000,4,1,0,15,0,0
232094.55,-909.090909090909,4,1,0,15,0,0
232115.1,-476.190476190476,4,1,0,15,0,0
232135.65,-322.58064516129,4,1,0,15,0,0
232156.2,-243.90243902439,4,1,0,15,0,0
232176.75,-196.078431372549,4,1,0,15,0,0
232197.3,-163.934426229508,4,1,0,15,0,0
232217.85,-140.845070422535,4,1,0,15,0,0
232238.4,-123.456790123457,4,1,0,15,0,0
232258.95,-109.89010989011,4,1,0,15,0,0
232279.5,-100,4,1,0,15,0,0
232300.05,-90.9090909090909,4,1,0,15,0,0
232320.6,-83.3333333333333,4,1,0,15,0,0
232341.15,-76.9230769230769,4,1,0,15,0,0
232361.7,-71.4285714285714,4,1,0,15,0,0
232382.25,-66.6666666666667,4,1,0,15,0,0
232402.8,-62.5,4,1,0,15,0,0
232423.35,-58.8235294117647,4,1,0,15,0,0
232443.9,-55.5555555555556,4,1,0,15,0,0
232464.45,-52.6315789473684,4,1,0,15,0,0
232485,-50,4,1,0,15,0,0
232500.4,-52.6315789473684,4,1,0,15,0,0
232515.8,-55.5555555555556,4,1,0,15,0,0
232531.2,-58.8235294117647,4,1,0,15,0,0
232546.6,-62.5,4,1,0,15,0,0
232562,-66.6666666666667,4,1,0,15,0,0
232577.4,-71.4285714285714,4,1,0,15,0,0
232592.8,-76.9230769230769,4,1,0,15,0,0
232608.2,-83.3333333333333,4,1,0,15,0,0
232623.6,-90.9090909090909,4,1,0,15,0,0
232639,-99.009900990099,4,1,0,15,0,0
232654.4,-109.89010989011,4,1,0,15,0,0
232669.8,-123.456790123457,4,1,0,15,0,0
232685.2,-140.845070422535,4,1,0,15,0,0
232700.6,-163.934426229508,4,1,0,15,0,0
232716,-196.078431372549,4,1,0,15,0,0
232731.4,-243.90243902439,4,1,0,15,0,0
232746.8,-322.58064516129,4,1,0,15,0,0
232762.2,-476.190476190476,4,1,0,15,0,0
232777.6,-909.090909090909,4,1,0,15,0,0
232793,-10000,4,1,0,15,0,0
232896,-10000,4,1,0,15,0,0
232916.55,-909.090909090909,4,1,0,15,0,0
232937.1,-476.190476190476,4,1,0,15,0,0
232957.65,-322.58064516129,4,1,0,15,0,0
232978.2,-243.90243902439,4,1,0,15,0,0
232998.75,-196.078431372549,4,1,0,15,0,0
233019.3,-163.934426229508,4,1,0,15,0,0
233039.85,-140.845070422535,4,1,0,15,0,0
233060.4,-123.456790123457,4,1,0,15,0,0
233080.95,-109.89010989011,4,1,0,15,0,0
233101.5,-100,4,1,0,15,0,0
233122.05,-90.9090909090909,4,1,0,15,0,0
233142.6,-83.3333333333333,4,1,0,15,0,0
233163.15,-76.9230769230769,4,1,0,15,0,0
233183.7,-71.4285714285714,4,1,0,15,0,0
233204.25,-66.6666666666667,4,1,0,15,0,0
233224.8,-62.5,4,1,0,15,0,0
233245.35,-58.8235294117647,4,1,0,15,0,0
233265.9,-55.5555555555556,4,1,0,15,0,0
233286.45,-52.6315789473684,4,1,0,15,0,0
233307,-50,4,1,0,15,0,0
233317.25,-52.6315789473684,4,1,0,15,0,0
233327.5,-55.5555555555556,4,1,0,15,0,0
233337.75,-58.8235294117647,4,1,0,15,0,0
233348,-62.5,4,1,0,15,0,0
233358.25,-66.6666666666667,4,1,0,15,0,0
233368.5,-71.4285714285714,4,1,0,15,0,0
233378.75,-76.9230769230769,4,1,0,15,0,0
233389,-83.3333333333333,4,1,0,15,0,0
233399.25,-90.9090909090909,4,1,0,15,0,0
233409.5,-99.009900990099,4,1,0,15,0,0
233419.75,-109.89010989011,4,1,0,15,0,0
233430,-123.456790123457,4,1,0,15,0,0
233440.25,-140.845070422535,4,1,0,15,0,0
233450.5,-163.934426229508,4,1,0,15,0,0
233460.75,-196.078431372549,4,1,0,15,0,0
233471,-243.90243902439,4,1,0,15,0,0
233481.25,-322.58064516129,4,1,0,15,0,0
233491.5,-476.190476190476,4,1,0,15,0,0
233501.75,-909.090909090909,4,1,0,15,0,0
233512,-10000,4,1,0,15,0,0
233522.3,-909.090909090909,4,1,0,15,0,0
233532.6,-476.190476190476,4,1,0,15,0,0
233542.9,-322.58064516129,4,1,0,15,0,0
233553.2,-243.90243902439,4,1,0,15,0,0
233563.5,-196.078431372549,4,1,0,15,0,0
233573.8,-163.934426229508,4,1,0,15,0,0
233584.1,-140.845070422535,4,1,0,15,0,0
233594.4,-123.456790123457,4,1,0,15,0,0
233604.7,-109.89010989011,4,1,0,15,0,0
233615,-100,4,1,0,15,0,0
233625.3,-90.9090909090909,4,1,0,15,0,0
233635.6,-83.3333333333333,4,1,0,15,0,0
233645.9,-76.9230769230769,4,1,0,15,0,0
233656.2,-71.4285714285714,4,1,0,15,0,0
233666.5,-66.6666666666667,4,1,0,15,0,0
233676.8,-62.5,4,1,0,15,0,0
233687.1,-58.8235294117647,4,1,0,15,0,0
233697.4,-55.5555555555556,4,1,0,15,0,0
233707.7,-52.6315789473684,4,1,0,15,0,0
233718,-50,4,1,0,15,0,0
233728.25,-52.6315789473684,4,1,0,15,0,0
233738.5,-55.5555555555556,4,1,0,15,0,0
233748.75,-58.8235294117647,4,1,0,15,0,0
233759,-62.5,4,1,0,15,0,0
233769.25,-66.6666666666667,4,1,0,15,0,0
233779.5,-71.4285714285714,4,1,0,15,0,0
233789.75,-76.9230769230769,4,1,0,15,0,0
233800,-83.3333333333333,4,1,0,15,0,0
233810.25,-90.9090909090909,4,1,0,15,0,0
233820.5,-99.009900990099,4,1,0,15,0,0
233830.75,-109.89010989011,4,1,0,15,0,0
233841,-123.456790123457,4,1,0,15,0,0
233851.25,-140.845070422535,4,1,0,15,0,0
233861.5,-163.934426229508,4,1,0,15,0,0
233871.75,-196.078431372549,4,1,0,15,0,0
233882,-243.90243902439,4,1,0,15,0,0
233892.25,-322.58064516129,4,1,0,15,0,0
233902.5,-476.190476190476,4,1,0,15,0,0
233912.75,-909.090909090909,4,1,0,15,0,0
233923,-10000,4,1,0,15,0,0
233933.3,-909.090909090909,4,1,0,15,0,0
233943.6,-476.190476190476,4,1,0,15,0,0
233953.9,-322.58064516129,4,1,0,15,0,0
233964.2,-243.90243902439,4,1,0,15,0,0
233974.5,-196.078431372549,4,1,0,15,0,0
233984.8,-163.934426229508,4,1,0,15,0,0
233995.1,-140.845070422535,4,1,0,15,0,0
234005.4,-123.456790123457,4,1,0,15,0,0
234015.7,-109.89010989011,4,1,0,15,0,0
234026,-100,4,1,0,15,0,0
234036.3,-90.9090909090909,4,1,0,15,0,0
234046.6,-83.3333333333333,4,1,0,15,0,0
234056.9,-76.9230769230769,4,1,0,15,0,0
234067.2,-71.4285714285714,4,1,0,15,0,0
234077.5,-66.6666666666667,4,1,0,15,0,0
234087.8,-62.5,4,1,0,15,0,0
234098.1,-58.8235294117647,4,1,0,15,0,0
234108.4,-55.5555555555556,4,1,0,15,0,0
234118.7,-52.6315789473684,4,1,0,15,0,0
234129,-50,4,1,0,15,0,0
234144.4,-52.6315789473684,4,1,0,15,0,0
234159.8,-55.5555555555556,4,1,0,15,0,0
234175.2,-58.8235294117647,4,1,0,15,0,0
234190.6,-62.5,4,1,0,15,0,0
234206,-66.6666666666667,4,1,0,15,0,0
234221.4,-71.4285714285714,4,1,0,15,0,0
234236.8,-76.9230769230769,4,1,0,15,0,0
234252.2,-83.3333333333333,4,1,0,15,0,0
234267.6,-90.9090909090909,4,1,0,15,0,0
234283,-99.009900990099,4,1,0,15,0,0
234298.4,-109.89010989011,4,1,0,15,0,0
234313.8,-123.456790123457,4,1,0,15,0,0
234329.2,-140.845070422535,4,1,0,15,0,0
234344.6,-163.934426229508,4,1,0,15,0,0
234360,-196.078431372549,4,1,0,15,0,0
234375.4,-243.90243902439,4,1,0,15,0,0
234390.8,-322.58064516129,4,1,0,15,0,0
234406.2,-476.190476190476,4,1,0,15,0,0
234421.6,-909.090909090909,4,1,0,15,0,0
234437,-10000,4,1,0,15,0,0
234540,-10000,4,1,0,15,0,0
234560.55,-909.090909090909,4,1,0,15,0,0
234581.1,-476.190476190476,4,1,0,15,0,0
234601.65,-322.58064516129,4,1,0,15,0,0
234622.2,-243.90243902439,4,1,0,15,0,0
234642.75,-196.078431372549,4,1,0,15,0,0
234663.3,-163.934426229508,4,1,0,15,0,0
234683.85,-140.845070422535,4,1,0,15,0,0
234704.4,-123.456790123457,4,1,0,15,0,0
234724.95,-109.89010989011,4,1,0,15,0,0
234745.5,-100,4,1,0,15,0,0
234766.05,-90.9090909090909,4,1,0,15,0,0
234786.6,-83.3333333333333,4,1,0,15,0,0
234807.15,-76.9230769230769,4,1,0,15,0,0
234827.7,-71.4285714285714,4,1,0,15,0,0
234848.25,-66.6666666666667,4,1,0,15,0,0
234868.8,-62.5,4,1,0,15,0,0
234889.35,-58.8235294117647,4,1,0,15,0,0
234909.9,-55.5555555555556,4,1,0,15,0,0
234930.45,-52.6315789473684,4,1,0,15,0,0
234951,-50,4,1,0,15,0,0
234966.4,-52.6315789473684,4,1,0,15,0,0
234981.8,-55.5555555555556,4,1,0,15,0,0
234997.2,-58.8235294117647,4,1,0,15,0,0
235012.6,-62.5,4,1,0,15,0,0
235028,-66.6666666666667,4,1,0,15,0,0
235043.4,-71.4285714285714,4,1,0,15,0,0
235058.8,-76.9230769230769,4,1,0,15,0,0
235074.2,-83.3333333333333,4,1,0,15,0,0
235089.6,-90.9090909090909,4,1,0,15,0,0
235105,-99.009900990099,4,1,0,15,0,0
235120.4,-109.89010989011,4,1,0,15,0,0
235135.8,-123.456790123457,4,1,0,15,0,0
235151.2,-140.845070422535,4,1,0,15,0,0
235166.6,-163.934426229508,4,1,0,15,0,0
235182,-196.078431372549,4,1,0,15,0,0
235197.4,-243.90243902439,4,1,0,15,0,0
235212.8,-322.58064516129,4,1,0,15,0,0
235228.2,-476.190476190476,4,1,0,15,0,0
235243.6,-909.090909090909,4,1,0,15,0,0
235259,-10000,4,1,0,15,0,0
235362,-10000,4,1,0,15,0,0
235382.55,-909.090909090909,4,1,0,15,0,0
235403.1,-476.190476190476,4,1,0,15,0,0
235423.65,-322.58064516129,4,1,0,15,0,0
235444.2,-243.90243902439,4,1,0,15,0,0
235464.75,-196.078431372549,4,1,0,15,0,0
235485.3,-163.934426229508,4,1,0,15,0,0
235505.85,-140.845070422535,4,1,0,15,0,0
235526.4,-123.456790123457,4,1,0,15,0,0
235546.95,-109.89010989011,4,1,0,15,0,0
235567.5,-100,4,1,0,15,0,0
235588.05,-90.9090909090909,4,1,0,15,0,0
235608.6,-83.3333333333333,4,1,0,15,0,0
235629.15,-76.9230769230769,4,1,0,15,0,0
235649.7,-71.4285714285714,4,1,0,15,0,0
235670.25,-66.6666666666667,4,1,0,15,0,0
235690.8,-62.5,4,1,0,15,0,0
235711.35,-58.8235294117647,4,1,0,15,0,0
235731.9,-55.5555555555556,4,1,0,15,0,0
235752.45,-52.6315789473684,4,1,0,15,0,0
235773,-50,4,1,0,15,0,0
235788.4,-52.6315789473684,4,1,0,15,0,0
235803.8,-55.5555555555556,4,1,0,15,0,0
235819.2,-58.8235294117647,4,1,0,15,0,0
235834.6,-62.5,4,1,0,15,0,0
235850,-66.6666666666667,4,1,0,15,0,0
235865.4,-71.4285714285714,4,1,0,15,0,0
235880.8,-76.9230769230769,4,1,0,15,0,0
235896.2,-83.3333333333333,4,1,0,15,0,0
235911.6,-90.9090909090909,4,1,0,15,0,0
235927,-99.009900990099,4,1,0,15,0,0
235942.4,-109.89010989011,4,1,0,15,0,0
235957.8,-123.456790123457,4,1,0,15,0,0
235973.2,-140.845070422535,4,1,0,15,0,0
235988.6,-163.934426229508,4,1,0,15,0,0
236004,-196.078431372549,4,1,0,15,0,0
236019.4,-243.90243902439,4,1,0,15,0,0
236034.8,-322.58064516129,4,1,0,15,0,0
236050.2,-476.190476190476,4,1,0,15,0,0
236065.6,-909.090909090909,4,1,0,15,0,0
236081,-10000,4,1,0,15,0,0
236184,-10000,4,1,0,15,0,0
236194.25,-909.090909090909,4,1,0,15,0,0
236204.5,-476.190476190476,4,1,0,15,0,0
236214.75,-322.58064516129,4,1,0,15,0,0
236225,-243.90243902439,4,1,0,15,0,0
236235.25,-196.078431372549,4,1,0,15,0,0
236245.5,-163.934426229508,4,1,0,15,0,0
236255.75,-140.845070422535,4,1,0,15,0,0
236266,-123.456790123457,4,1,0,15,0,0
236276.25,-109.89010989011,4,1,0,15,0,0
236286.5,-100,4,1,0,15,0,0
236296.75,-90.9090909090909,4,1,0,15,0,0
236307,-83.3333333333333,4,1,0,15,0,0
236317.25,-76.9230769230769,4,1,0,15,0,0
236327.5,-71.4285714285714,4,1,0,15,0,0
236337.75,-66.6666666666667,4,1,0,15,0,0
236348,-62.5,4,1,0,15,0,0
236358.25,-58.8235294117647,4,1,0,15,0,0
236368.5,-55.5555555555556,4,1,0,15,0,0
236378.75,-52.6315789473684,4,1,0,15,0,0
236389,-50,4,1,0,15,0,0
236394.15,-52.6315789473684,4,1,0,15,0,0
236399.3,-55.5555555555556,4,1,0,15,0,0
236404.45,-58.8235294117647,4,1,0,15,0,0
236409.6,-62.5,4,1,0,15,0,0
236414.75,-66.6666666666667,4,1,0,15,0,0
236419.9,-71.4285714285714,4,1,0,15,0,0
236425.05,-76.9230769230769,4,1,0,15,0,0
236430.2,-83.3333333333333,4,1,0,15,0,0
236435.35,-90.9090909090909,4,1,0,15,0,0
236440.5,-99.009900990099,4,1,0,15,0,0
236445.65,-109.89010989011,4,1,0,15,0,0
236450.8,-123.456790123457,4,1,0,15,0,0
236455.95,-140.845070422535,4,1,0,15,0,0
236461.1,-163.934426229508,4,1,0,15,0,0
236466.25,-196.078431372549,4,1,0,15,0,0
236471.4,-243.90243902439,4,1,0,15,0,0
236476.55,-322.58064516129,4,1,0,15,0,0
236481.7,-476.190476190476,4,1,0,15,0,0
236486.85,-909.090909090909,4,1,0,15,0,0
236492,-10000,4,1,0,15,0,0
236497.1,-909.090909090909,4,1,0,15,0,0
236502.2,-476.190476190476,4,1,0,15,0,0
236507.3,-322.58064516129,4,1,0,15,0,0
236512.4,-243.90243902439,4,1,0,15,0,0
236517.5,-196.078431372549,4,1,0,15,0,0
236522.6,-163.934426229508,4,1,0,15,0,0
236527.7,-140.845070422535,4,1,0,15,0,0
236532.8,-123.456790123457,4,1,0,15,0,0
236537.9,-109.89010989011,4,1,0,15,0,0
236543,-100,4,1,0,15,0,0
236548.1,-90.9090909090909,4,1,0,15,0,0
236553.2,-83.3333333333333,4,1,0,15,0,0
236558.3,-76.9230769230769,4,1,0,15,0,0
236563.4,-71.4285714285714,4,1,0,15,0,0
236568.5,-66.6666666666667,4,1,0,15,0,0
236573.6,-62.5,4,1,0,15,0,0
236578.7,-58.8235294117647,4,1,0,15,0,0
236583.8,-55.5555555555556,4,1,0,15,0,0
236588.9,-52.6315789473684,4,1,0,15,0,0
236594,-50,4,1,0,15,0,0
236604.3,-52.6315789473684,4,1,0,15,0,0
236614.6,-55.5555555555556,4,1,0,15,0,0
236624.9,-58.8235294117647,4,1,0,15,0,0
236635.2,-62.5,4,1,0,15,0,0
236645.5,-66.6666666666667,4,1,0,15,0,0
236655.8,-71.4285714285714,4,1,0,15,0,0
236666.1,-76.9230769230769,4,1,0,15,0,0
236676.4,-83.3333333333333,4,1,0,15,0,0
236686.7,-90.9090909090909,4,1,0,15,0,0
236697,-99.009900990099,4,1,0,15,0,0
236707.3,-109.89010989011,4,1,0,15,0,0
236717.6,-123.456790123457,4,1,0,15,0,0
236727.9,-140.845070422535,4,1,0,15,0,0
236738.2,-163.934426229508,4,1,0,15,0,0
236748.5,-196.078431372549,4,1,0,15,0,0
236758.8,-243.90243902439,4,1,0,15,0,0
236769.1,-322.58064516129,4,1,0,15,0,0
236779.4,-476.190476190476,4,1,0,15,0,0
236789.7,-909.090909090909,4,1,0,15,0,0
236800,-10000,4,1,0,15,0,0
236810.25,-909.090909090909,4,1,0,15,0,0
236820.5,-476.190476190476,4,1,0,15,0,0
236830.75,-322.58064516129,4,1,0,15,0,0
236841,-243.90243902439,4,1,0,15,0,0
236851.25,-196.078431372549,4,1,0,15,0,0
236861.5,-163.934426229508,4,1,0,15,0,0
236871.75,-140.845070422535,4,1,0,15,0,0
236882,-123.456790123457,4,1,0,15,0,0
236892.25,-109.89010989011,4,1,0,15,0,0
236902.5,-100,4,1,0,15,0,0
236912.75,-90.9090909090909,4,1,0,15,0,0
236923,-83.3333333333333,4,1,0,15,0,0
236933.25,-76.9230769230769,4,1,0,15,0,0
236943.5,-71.4285714285714,4,1,0,15,0,0
236953.75,-66.6666666666667,4,1,0,15,0,0
236964,-62.5,4,1,0,15,0,0
236974.25,-58.8235294117647,4,1,0,15,0,0
236984.5,-55.5555555555556,4,1,0,15,0,0
236994.75,-52.6315789473684,4,1,0,15,0,0
237005,-50,4,1,0,15,0,0
237015.3,-52.6315789473684,4,1,0,15,0,0
237025.6,-55.5555555555556,4,1,0,15,0,0
237035.9,-58.8235294117647,4,1,0,15,0,0
237046.2,-62.5,4,1,0,15,0,0
237056.5,-66.6666666666667,4,1,0,15,0,0
237066.8,-71.4285714285714,4,1,0,15,0,0
237077.1,-76.9230769230769,4,1,0,15,0,0
237087.4,-83.3333333333333,4,1,0,15,0,0
237097.7,-90.9090909090909,4,1,0,15,0,0
237108,-99.009900990099,4,1,0,15,0,0
237118.3,-109.89010989011,4,1,0,15,0,0
237128.6,-123.456790123457,4,1,0,15,0,0
237138.9,-140.845070422535,4,1,0,15,0,0
237149.2,-163.934426229508,4,1,0,15,0,0
237159.5,-196.078431372549,4,1,0,15,0,0
237169.8,-243.90243902439,4,1,0,15,0,0
237180.1,-322.58064516129,4,1,0,15,0,0
237190.4,-476.190476190476,4,1,0,15,0,0
237200.7,-909.090909090909,4,1,0,15,0,0
237211,-10000,4,1,0,15,0,0
237221.25,-909.090909090909,4,1,0,15,0,0
237231.5,-476.190476190476,4,1,0,15,0,0
237241.75,-322.58064516129,4,1,0,15,0,0
237252,-243.90243902439,4,1,0,15,0,0
237262.25,-196.078431372549,4,1,0,15,0,0
237272.5,-163.934426229508,4,1,0,15,0,0
237282.75,-140.845070422535,4,1,0,15,0,0
237293,-123.456790123457,4,1,0,15,0,0
237303.25,-109.89010989011,4,1,0,15,0,0
237313.5,-100,4,1,0,15,0,0
237323.75,-90.9090909090909,4,1,0,15,0,0
237334,-83.3333333333333,4,1,0,15,0,0
237344.25,-76.9230769230769,4,1,0,15,0,0
237354.5,-71.4285714285714,4,1,0,15,0,0
237364.75,-66.6666666666667,4,1,0,15,0,0
237375,-62.5,4,1,0,15,0,0
237385.25,-58.8235294117647,4,1,0,15,0,0
237395.5,-55.5555555555556,4,1,0,15,0,0
237405.75,-52.6315789473684,4,1,0,15,0,0
237416,-50,4,1,0,15,0,0
237431.4,-52.6315789473684,4,1,0,15,0,0
237446.8,-55.5555555555556,4,1,0,15,0,0
237462.2,-58.8235294117647,4,1,0,15,0,0
237477.6,-62.5,4,1,0,15,0,0
237493,-66.6666666666667,4,1,0,15,0,0
237508.4,-71.4285714285714,4,1,0,15,0,0
237523.8,-76.9230769230769,4,1,0,15,0,0
237539.2,-83.3333333333333,4,1,0,15,0,0
237554.6,-90.9090909090909,4,1,0,15,0,0
237570,-99.009900990099,4,1,0,15,0,0
237585.4,-109.89010989011,4,1,0,15,0,0
237600.8,-123.456790123457,4,1,0,15,0,0
237616.2,-140.845070422535,4,1,0,15,0,0
237631.6,-163.934426229508,4,1,0,15,0,0
237647,-196.078431372549,4,1,0,15,0,0
237662.4,-243.90243902439,4,1,0,15,0,0
237677.8,-322.58064516129,4,1,0,15,0,0
237693.2,-476.190476190476,4,1,0,15,0,0
237708.6,-909.090909090909,4,1,0,15,0,0
237724,-10000,4,1,0,15,0,0
237827,-10000,4,1,0,15,0,0
237847.55,-909.090909090909,4,1,0,15,0,0
237868.1,-476.190476190476,4,1,0,15,0,0
237888.65,-322.58064516129,4,1,0,15,0,0
237909.2,-243.90243902439,4,1,0,15,0,0
237929.75,-196.078431372549,4,1,0,15,0,0
237950.3,-163.934426229508,4,1,0,15,0,0
237970.85,-140.845070422535,4,1,0,15,0,0
237991.4,-123.456790123457,4,1,0,15,0,0
238011.95,-109.89010989011,4,1,0,15,0,0
238032.5,-100,4,1,0,15,0,0
238053.05,-90.9090909090909,4,1,0,15,0,0
238073.6,-83.3333333333333,4,1,0,15,0,0
238094.15,-76.9230769230769,4,1,0,15,0,0
238114.7,-71.4285714285714,4,1,0,15,0,0
238135.25,-66.6666666666667,4,1,0,15,0,0
238155.8,-62.5,4,1,0,15,0,0
238176.35,-58.8235294117647,4,1,0,15,0,0
238196.9,-55.5555555555556,4,1,0,15,0,0
238217.45,-52.6315789473684,4,1,0,15,0,0
238238,-125,4,1,0,15,0,0
246458,-117.647058823529,4,1,0,15,0,0
248101,-111.111111111111,4,1,0,15,0,0
249745,-142.857142857143,4,1,0,15,0,0
249827.2,-135.135135135135,4,1,0,15,0,0
249909.4,-128.205128205128,4,1,0,15,0,0
249991.6,-121.951219512195,4,1,0,15,0,0
250073.8,-116.279069767442,4,1,0,15,0,0
250156,-111.111111111111,4,1,0,15,0,0
250238.2,-106.382978723404,4,1,0,15,0,0
250320.4,-102.040816326531,4,1,0,15,0,0
250402.6,-98.0392156862745,4,1,0,15,0,0
250484.8,-94.3396226415094,4,1,0,15,0,0
250567,-90.9090909090909,4,1,0,15,0,0
250649.2,-87.719298245614,4,1,0,15,0,0
250731.4,-84.7457627118644,4,1,0,15,0,0
250813.6,-81.9672131147541,4,1,0,15,0,0
250895.8,-79.3650793650794,4,1,0,15,0,0
250978,-76.9230769230769,4,1,0,15,0,0
251008.8,-70.4225352112676,4,1,0,15,0,0
251039.6,-64.9350649350649,4,1,0,15,0,0
251070.4,-60.2409638554217,4,1,0,15,0,0
251101.2,-56.1797752808989,4,1,0,15,0,0
251132,-52.6315789473684,4,1,0,15,0,0
251162.8,-49.5049504950495,4,1,0,15,0,0
251193.6,-46.7289719626168,4,1,0,15,0,0
251224.4,-44.2477876106195,4,1,0,15,0,0
251255.2,-42.0168067226891,4,1,0,15,0,0
251286,-40,4,1,0,15,0,0
251389,-10,4,1,0,15,0,0
251395.16,-10.4166666666667,4,1,0,15,0,0
251401.32,-10.85776330076,4,1,0,15,0,0
251407.48,-11.3507377979569,4,1,0,15,0,0
251413.64,-11.8764845605701,4,1,0,15,0,0
251419.8,-12.4688279301746,4,1,0,15,0,0
251425.96,-13.1233595800525,4,1,0,15,0,0
251432.12,-13.8312586445367,4,1,0,15,0,0
251438.28,-14.6412884333821,4,1,0,15,0,0
251444.44,-15.527950310559,4,1,0,15,0,0
251450.6,-16.5562913907285,4,1,0,15,0,0
251456.76,-17.7304964539007,4,1,0,15,0,0
251462.92,-19.047619047619,4,1,0,15,0,0
251469.08,-20.6185567010309,4,1,0,15,0,0
251475.24,-22.4215246636771,4,1,0,15,0,0
251481.4,-24.6305418719212,4,1,0,15,0,0
251487.56,-27.3224043715847,4,1,0,15,0,0
251493.72,-30.5810397553517,4,1,0,15,0,0
251499.88,-34.8432055749129,4,1,0,15,0,0
251506.04,-40.3225806451613,4,1,0,15,0,0
251512.2,-48.0769230769231,4,1,0,15,0,0
251518.36,-59.5238095238095,4,1,0,15,0,0
251524.52,-77.5193798449612,4,1,0,15,0,0
251530.68,-112.359550561798,4,1,0,15,0,0
251536.84,-200,4,1,0,15,0,0
251543,-10000,4,1,0,15,0,0
251800,-50,4,1,0,15,0,0
251851,-10000,4,1,0,15,0,0
251903,-50,4,1,0,15,0,0
251954,-10000,4,1,0,15,0,0
252006,-58.8235294117647,4,1,0,15,0,0
252057,-333.333333333334,4,1,0,15,0,0
252108,-58.8235294117647,4,1,0,15,0,0
252160,-333.333333333334,4,1,0,15,0,0
252211,-55.5555555555556,4,1,0,15,0,0
252314,-500,4,1,0,15,0,0
252417,-71.4285714285714,4,1,0,15,0,0
252468,-166.666666666667,4,1,0,15,0,0
252519,-71.4285714285714,4,1,0,15,0,0
252571,-166.666666666667,4,1,0,15,0,0
252622,-50,4,1,0,15,0,0
252635.7,-55.2486187845304,4,1,0,15,0,0
252649.4,-61.7283950617284,4,1,0,15,0,0
252663.1,-69.9300699300699,4,1,0,15,0,0
252676.8,-80.6451612903226,4,1,0,15,0,0
252690.5,-95.2380952380952,4,1,0,15,0,0
252704.2,-116.279069767442,4,1,0,15,0,0
252717.9,-149.253731343284,4,1,0,15,0,0
252731.6,-208.333333333333,4,1,0,15,0,0
252745.3,-344.827586206897,4,1,0,15,0,0
252759,-50,4,1,0,15,0,0
252772.7,-55.2486187845304,4,1,0,15,0,0
252786.4,-61.7283950617284,4,1,0,15,0,0
252800.1,-69.9300699300699,4,1,0,15,0,0
252813.8,-80.6451612903226,4,1,0,15,0,0
252827.5,-95.2380952380952,4,1,0,15,0,0
252841.2,-116.279069767442,4,1,0,15,0,0
252854.9,-149.253731343284,4,1,0,15,0,0
252868.6,-208.333333333333,4,1,0,15,0,0
252882.3,-344.827586206897,4,1,0,15,0,0
252896,-1000,4,1,0,15,0,0
252909.7,-344.827586206897,4,1,0,15,0,0
252923.4,-208.333333333333,4,1,0,15,0,0
252937.1,-149.253731343284,4,1,0,15,0,0
252950.8,-116.279069767442,4,1,0,15,0,0
252964.5,-95.2380952380952,4,1,0,15,0,0
252978.2,-80.6451612903226,4,1,0,15,0,0
252991.9,-69.9300699300699,4,1,0,15,0,0
253005.6,-61.7283950617284,4,1,0,15,0,0
253019.3,-55.2486187845304,4,1,0,15,0,0
253033,-50,4,1,0,15,0,0
253084,-1000,4,1,0,15,0,0
253136,-200,4,1,0,15,0,0
253156.5,-175.438596491228,4,1,0,15,0,0
253177,-156.25,4,1,0,15,0,0
253197.5,-140.845070422535,4,1,0,15,0,0
253218,-128.205128205128,4,1,0,15,0,0
253238.5,-117.647058823529,4,1,0,15,0,0
253259,-108.695652173913,4,1,0,15,0,0
253279.5,-101.010101010101,4,1,0,15,0,0
253300,-94.3396226415094,4,1,0,15,0,0
253320.5,-88.495575221239,4,1,0,15,0,0
253341,-62.5,4,1,0,15,0,0
253393,-250,4,1,0,15,0,0
253444,-58.8235294117647,4,1,0,15,0,0
253461,-333.333333333333,4,1,0,15,0,0
253478,-58.8235294117647,4,1,0,15,0,0
253495,-333.333333333333,4,1,0,15,0,0
253512,-58.8235294117647,4,1,0,15,0,0
253529,-333.333333333333,4,1,0,15,0,0
253546,-58.8235294117647,4,1,0,15,0,0
253563,-333.333333333333,4,1,0,15,0,0
253580,-58.8235294117647,4,1,0,15,0,0
253597,-333.333333333333,4,1,0,15,0,0
253614,-58.8235294117647,4,1,0,15,0,0
253631,-333.333333333333,4,1,0,15,0,0
253649,-62.5,4,1,0,15,0,0
253701,-250.000000000001,4,1,0,15,0,0
253752,-62.5,4,1,0,15,0,0
253804,-250.000000000001,4,1,0,15,0,0
253855,-50,4,1,0,15,0,0
253906,-10000,4,1,0,15,0,0
253958,-58.8235294117647,4,1,0,15,0,0
254009,-333.333333333333,4,1,0,15,0,0
254060,-58.8235294117647,4,1,0,15,0,0
254112,-333.333333333333,4,1,0,15,0,0
254163,-58.8235294117647,4,1,0,15,0,0
254215,-333.333333333333,4,1,0,15,0,0
254266,-52.6315789473684,4,1,0,15,0,0
254317,-1000,4,1,0,15,0,0
254369,-52.6315789473684,4,1,0,15,0,0
254420,-1000,4,1,0,15,0,0
254471,-52.6315789473684,4,1,0,15,0,0
254523,-1000,4,1,0,15,0,0
254574,-52.6315789473684,4,1,0,15,0,0
254625,-1000,4,1,0,15,0,0
254677,-10,4,1,0,15,0,0
254683.16,-10.4166666666667,4,1,0,15,0,0
254689.32,-10.8695652173913,4,1,0,15,0,0
254695.48,-11.3636363636364,4,1,0,15,0,0
254701.64,-11.9047619047619,4,1,0,15,0,0
254707.8,-12.5,4,1,0,15,0,0
254713.96,-13.1578947368421,4,1,0,15,0,0
254720.12,-13.8888888888889,4,1,0,15,0,0
254726.28,-14.7058823529412,4,1,0,15,0,0
254732.44,-15.625,4,1,0,15,0,0
254738.6,-16.6666666666667,4,1,0,15,0,0
254744.76,-17.8571428571429,4,1,0,15,0,0
254750.92,-19.2307692307692,4,1,0,15,0,0
254757.08,-20.7900207900208,4,1,0,15,0,0
254763.24,-22.6757369614512,4,1,0,15,0,0
254769.4,-24.9376558603491,4,1,0,15,0,0
254775.56,-27.7008310249308,4,1,0,15,0,0
254781.72,-31.1526479750779,4,1,0,15,0,0
254787.88,-35.5871886120996,4,1,0,15,0,0
254794.04,-41.49377593361,4,1,0,15,0,0
254800.2,-49.7512437810945,4,1,0,15,0,0
254806.36,-62.111801242236,4,1,0,15,0,0
254812.52,-82.6446280991736,4,1,0,15,0,0
254818.68,-123.456790123457,4,1,0,15,0,0
254824.84,-243.90243902439,4,1,0,15,0,0
254831,-10000,4,1,0,15,0,0
255088,-55.5555555555556,4,1,0,15,0,0
255139,-500,4,1,0,15,0,0
255191,-55.5555555555556,4,1,0,15,0,0
255242,-100,4,1,0,15,0,0
255345,-500,4,1,0,15,0,0
255396,-55.5555555555556,4,1,0,15,0,0
255447,-500,4,1,0,15,0,0
255499,-40,4,1,0,15,0,0
255519.5,-44.2477876106195,4,1,0,15,0,0
255540,-49.5049504950495,4,1,0,15,0,0
255560.5,-56.1797752808989,4,1,0,15,0,0
255581,-64.9350649350649,4,1,0,15,0,0
255601.5,-76.9230769230769,4,1,0,15,0,0
255622,-94.3396226415094,4,1,0,15,0,0
255642.5,-121.951219512195,4,1,0,15,0,0
255663,-172.413793103448,4,1,0,15,0,0
255683.5,-294.117647058824,4,1,0,15,0,0
255704,-1000,4,1,0,15,0,0
255724.6,-416.666666666667,4,1,0,15,0,0
255745.2,-263.157894736842,4,1,0,15,0,0
255765.8,-192.307692307692,4,1,0,15,0,0
255786.4,-151.515151515152,4,1,0,15,0,0
255807,-125,4,1,0,15,0,0
255827.6,-106.382978723404,4,1,0,15,0,0
255848.2,-92.5925925925926,4,1,0,15,0,0
255868.8,-81.9672131147541,4,1,0,15,0,0
255889.4,-73.5294117647059,4,1,0,15,0,0
255910,-52.6315789473684,4,1,0,15,0,0
255961,-1000,4,1,0,15,0,0
256012,-52.6315789473684,4,1,0,15,0,0
256064,-1000,4,1,0,15,0,0
256115,-52.6315789473684,4,1,0,15,0,0
256167,-1000,4,1,0,15,0,0
256218,-52.6315789473684,4,1,0,15,0,0
256269,-1000,4,1,0,15,0,0
256321,-45.4545454545455,4,1,0,15,0,0
256372,-10000,4,1,0,15,0,0
256423,-66.6666666666667,4,1,0,15,0,0
256475,-200,4,1,0,15,0,0
256526,-66.6666666666667,4,1,0,15,0,0
256578,-200,4,1,0,15,0,0
256629,-45.4545454545455,4,1,0,15,0,0
256680,-10000,4,1,0,15,0,0
256732,-66.6666666666667,4,1,0,15,0,0
256783,-200,4,1,0,15,0,0
256834,-66.6666666666667,4,1,0,15,0,0
256886,-200,4,1,0,15,0,0
256937,-66.6666666666667,4,1,0,15,0,0
256988,-200,4,1,0,15,0,0
257040,-55.5555555555556,4,1,0,15,0,0
257091,-500,4,1,0,15,0,0
257143,-45.4545454545455,4,1,0,15,0,0
257194,-10000,4,1,0,15,0,0
257245,-62.5,4,1,0,15,0,0
257297,-250,4,1,0,15,0,0
257348,-62.5,4,1,0,15,0,0
257399,-250,4,1,0,15,0,0
257451,-62.5,4,1,0,15,0,0
257502,-250,4,1,0,15,0,0
257554,-45.4545454545455,4,1,0,15,0,0
257605,-10000,4,1,0,15,0,0
257656,-166.666666666667,4,1,0,15,0,0
257708,-142.857142857143,4,1,0,15,0,0
257759,-125,4,1,0,15,0,0
257810,-111.111111111111,4,1,0,15,0,0
257862,-100,4,1,0,15,0,0
257872.3,-90.9090909090909,4,1,0,15,0,0
257882.6,-83.3333333333333,4,1,0,15,0,0
257892.9,-76.9230769230769,4,1,0,15,0,0
257903.2,-71.4285714285714,4,1,0,15,0,0
257913.5,-66.6666666666667,4,1,0,15,0,0
257923.8,-62.5,4,1,0,15,0,0
257934.1,-58.8235294117647,4,1,0,15,0,0
257944.4,-55.5555555555556,4,1,0,15,0,0
257954.7,-52.6315789473684,4,1,0,15,0,0
257965,-10,4,1,0,15,0,0
257971.16,-10.4166666666667,4,1,0,15,0,0
257977.32,-10.8695652173913,4,1,0,15,0,0
257983.48,-11.3636363636364,4,1,0,15,0,0
257989.64,-11.9047619047619,4,1,0,15,0,0
257995.8,-12.5,4,1,0,15,0,0
258001.96,-13.1578947368421,4,1,0,15,0,0
258008.12,-13.8888888888889,4,1,0,15,0,0
258014.28,-14.7058823529412,4,1,0,15,0,0
258020.44,-15.625,4,1,0,15,0,0
258026.6,-16.6666666666667,4,1,0,15,0,0
258032.76,-17.8571428571429,4,1,0,15,0,0
258038.92,-19.2307692307692,4,1,0,15,0,0
258045.08,-20.7900207900208,4,1,0,15,0,0
258051.24,-22.6757369614512,4,1,0,15,0,0
258057.4,-24.9376558603491,4,1,0,15,0,0
258063.56,-27.7008310249308,4,1,0,15,0,0
258069.72,-31.1526479750779,4,1,0,15,0,0
258075.88,-35.5871886120996,4,1,0,15,0,0
258082.04,-41.49377593361,4,1,0,15,0,0
258088.2,-49.7512437810945,4,1,0,15,0,0
258094.36,-62.111801242236,4,1,0,15,0,0
258100.52,-82.6446280991736,4,1,0,15,0,0
258106.68,-123.456790123457,4,1,0,15,0,0
258112.84,-243.90243902439,4,1,0,15,0,0
258119,-10000,4,1,0,15,0,0
258375,-50,4,1,0,15,0,0
258427,-10000,4,1,0,15,0,0
258478,-50,4,1,0,15,0,0
258530,-10000,4,1,0,15,0,0
258581,-58.8235294117647,4,1,0,15,0,0
258632,-333.333333333333,4,1,0,15,0,0
258684,-58.8235294117647,4,1,0,15,0,0
258735,-333.333333333333,4,1,0,15,0,0
258786,-55.5555555555556,4,1,0,15,0,0
258838,-500,4,1,0,15,0,0
258889,-71.4285714285714,4,1,0,15,0,0
258915,-166.666666666667,4,1,0,15,0,0
258941,-71.4285714285714,4,1,0,15,0,0
258966,-166.666666666667,4,1,0,15,0,0
258992,-71.4285714285714,4,1,0,15,0,0
259018,-166.666666666667,4,1,0,15,0,0
259043,-71.4285714285714,4,1,0,15,0,0
259069,-166.666666666667,4,1,0,15,0,0
259095,-71.4285714285714,4,1,0,15,0,0
259146,-166.666666666667,4,1,0,15,0,0
259197,-50,4,1,0,15,0,0
259210.7,-55.2486187845304,4,1,0,15,0,0
259224.4,-61.7283950617284,4,1,0,15,0,0
259238.1,-69.9300699300699,4,1,0,15,0,0
259251.8,-80.6451612903226,4,1,0,15,0,0
259265.5,-95.2380952380952,4,1,0,15,0,0
259279.2,-116.279069767442,4,1,0,15,0,0
259292.9,-149.253731343284,4,1,0,15,0,0
259306.6,-208.333333333333,4,1,0,15,0,0
259320.3,-344.827586206897,4,1,0,15,0,0
259334,-50,4,1,0,15,0,0
259347.7,-55.2486187845304,4,1,0,15,0,0
259361.4,-61.7283950617284,4,1,0,15,0,0
259375.1,-69.9300699300699,4,1,0,15,0,0
259388.8,-80.6451612903226,4,1,0,15,0,0
259402.5,-95.2380952380952,4,1,0,15,0,0
259416.2,-116.279069767442,4,1,0,15,0,0
259429.9,-149.253731343284,4,1,0,15,0,0
259443.6,-208.333333333333,4,1,0,15,0,0
259457.3,-344.827586206897,4,1,0,15,0,0
259471,-50,4,1,0,15,0,0
259484.7,-55.2486187845304,4,1,0,15,0,0
259498.4,-61.7283950617284,4,1,0,15,0,0
259512.1,-69.9300699300699,4,1,0,15,0,0
259525.8,-80.6451612903226,4,1,0,15,0,0
259539.5,-95.2380952380952,4,1,0,15,0,0
259553.2,-116.279069767442,4,1,0,15,0,0
259566.9,-149.253731343284,4,1,0,15,0,0
259580.6,-208.333333333333,4,1,0,15,0,0
259594.3,-344.827586206897,4,1,0,15,0,0
259608,-50,4,1,0,15,0,0
259660,-1000,4,1,0,15,0,0
259711,-200,4,1,0,15,0,0
259731.6,-175.438596491228,4,1,0,15,0,0
259752.2,-156.25,4,1,0,15,0,0
259772.8,-140.845070422535,4,1,0,15,0,0
259793.4,-128.205128205128,4,1,0,15,0,0
259814,-117.647058823529,4,1,0,15,0,0
259834.6,-108.695652173913,4,1,0,15,0,0
259855.2,-101.010101010101,4,1,0,15,0,0
259875.8,-94.3396226415094,4,1,0,15,0,0
259896.4,-88.495575221239,4,1,0,15,0,0
259917,-62.5,4,1,0,15,0,0
259968,-250,4,1,0,15,0,0
260019,-58.8235294117647,4,1,0,15,0,0
260036,-333.333333333333,4,1,0,15,0,0
260053,-58.8235294117647,4,1,0,15,0,0
260070,-333.333333333333,4,1,0,15,0,0
260087,-58.8235294117647,4,1,0,15,0,0
260104,-333.333333333333,4,1,0,15,0,0
260121,-58.8235294117647,4,1,0,15,0,0
260138,-333.333333333333,4,1,0,15,0,0
260155,-58.8235294117647,4,1,0,15,0,0
260172,-333.333333333333,4,1,0,15,0,0
260189,-58.8235294117647,4,1,0,15,0,0
260206,-333.333333333333,4,1,0,15,0,0
260225,-62.5,4,1,0,15,0,0
260276,-250,4,1,0,15,0,0
260328,-62.5,4,1,0,15,0,0
260379,-250,4,1,0,15,0,0
260430,-50,4,1,0,15,0,0
260482,-10000,4,1,0,15,0,0
260533,-58.8235294117647,4,1,0,15,0,0
260584,-333.333333333333,4,1,0,15,0,0
260636,-58.8235294117647,4,1,0,15,0,0
260687,-333.333333333333,4,1,0,15,0,0
260738,-58.8235294117647,4,1,0,15,0,0
260790,-333.333333333333,4,1,0,15,0,0
260841,-52.6315789473684,4,1,0,15,0,0
260893,-1000,4,1,0,15,0,0
260944,-52.6315789473684,4,1,0,15,0,0
260995,-10000,4,1,0,15,0,0
261047,-52.6315789473684,4,1,0,15,0,0
261098,-10000,4,1,0,15,0,0
261149,-52.6315789473684,4,1,0,15,0,0
261201,-10000,4,1,0,15,0,0
261252,-41.6666666666667,4,1,0,15,0,0
261304,-10000,4,1,0,15,0,0
261355,-41.6666666666667,4,1,0,15,0,0
261406,-10000,4,1,0,15,0,0
261458,-41.6666666666667,4,1,0,15,0,0
261509,-10000,4,1,0,15,0,0
261560,-41.6666666666667,4,1,0,15,0,0
261612,-10000,4,1,0,15,0,0
261663,-62.5,4,1,0,15,0,0
261715,-250,4,1,0,15,0,0
261766,-62.5,4,1,0,15,0,0
261817,-250,4,1,0,15,0,0
261869,-62.5,4,1,0,15,0,0
261920,-250,4,1,0,15,0,0
261971,-62.5,4,1,0,15,0,0
262023,-250,4,1,0,15,0,0
262074,-50,4,1,0,15,0,0
262125,-10000,4,1,0,15,0,0
262177,-66.6666666666667,4,1,0,15,0,0
262197.5,-72.463768115942,4,1,0,15,0,0
262218,-79.3650793650794,4,1,0,15,0,0
262238.5,-87.719298245614,4,1,0,15,0,0
262259,-98.0392156862745,4,1,0,15,0,0
262279.5,-111.111111111111,4,1,0,15,0,0
262300,-128.205128205128,4,1,0,15,0,0
262320.5,-151.515151515152,4,1,0,15,0,0
262341,-185.185185185185,4,1,0,15,0,0
262361.5,-238.095238095238,4,1,0,15,0,0
262382,-333.333333333333,4,1,0,15,0,0
262392.3,-238.095238095238,4,1,0,15,0,0
262402.6,-185.185185185185,4,1,0,15,0,0
262412.9,-151.515151515152,4,1,0,15,0,0
262423.2,-128.205128205128,4,1,0,15,0,0
262433.5,-111.111111111111,4,1,0,15,0,0
262443.8,-98.0392156862745,4,1,0,15,0,0
262454.1,-87.719298245614,4,1,0,15,0,0
262464.4,-79.3650793650794,4,1,0,15,0,0
262474.7,-72.463768115942,4,1,0,15,0,0
262485,-52.6315789473684,4,1,0,15,0,0
262536,-1000,4,1,0,15,0,0
262588,-52.6315789473684,4,1,0,15,0,0
262639,-1000,4,1,0,15,0,0
262691,-52.6315789473684,4,1,0,15,0,0
262742,-1000,4,1,0,15,0,0
262793,-52.6315789473684,4,1,0,15,0,0
262845,-1000,4,1,0,15,0,0
262896,-66.6666666666667,4,1,0,15,0,0
262916.5,-69.9300699300699,4,1,0,15,0,0
262937,-73.5294117647059,4,1,0,15,0,0
262957.5,-77.5193798449612,4,1,0,15,0,0
262978,-81.9672131147541,4,1,0,15,0,0
262998.5,-86.9565217391304,4,1,0,15,0,0
263019,-92.5925925925926,4,1,0,15,0,0
263039.5,-99.009900990099,4,1,0,15,0,0
263060,-106.382978723404,4,1,0,15,0,0
263080.5,-114.942528735632,4,1,0,15,0,0
263101,-125,4,1,0,15,0,0
263307,-100,4,1,0,15,0,0
263358,-166.666666666667,4,1,0,15,0,0
263410,-100,4,1,0,15,0,0
263461,-166.666666666667,4,1,0,15,0,0
263512,-100,4,1,0,15,0,0
263564,-166.666666666667,4,1,0,15,0,0
263615,-125,4,1,0,15,0,0
263923,-100,4,1,0,15,0,0
263975,-166.666666666667,4,1,0,15,0,0
264026,-100,4,1,0,15,0,0
264078,-166.666666666667,4,1,0,15,0,0
264129,-66.6666666666667,4,1,0,15,0,0
264232,-200,4,1,0,15,0,0
264334,-125,4,1,0,15,0,0
264354.6,-114.942528735632,4,1,0,15,0,0
264375.2,-106.382978723404,4,1,0,15,0,0
264395.8,-99.009900990099,4,1,0,15,0,0
264416.4,-92.5925925925926,4,1,0,15,0,0
264437,-86.9565217391304,4,1,0,15,0,0
264457.6,-81.9672131147541,4,1,0,15,0,0
264478.2,-77.5193798449612,4,1,0,15,0,0
264498.8,-73.5294117647059,4,1,0,15,0,0
264519.4,-69.9300699300699,4,1,0,15,0,0
264540,-50,4,1,0,15,0,0
264550.3,-53.763440860215,4,1,0,15,0,0
264560.6,-58.1395348837209,4,1,0,15,0,0
264570.9,-63.2911392405063,4,1,0,15,0,0
264581.2,-69.4444444444444,4,1,0,15,0,0
264591.5,-76.9230769230769,4,1,0,15,0,0
264601.8,-86.2068965517241,4,1,0,15,0,0
264612.1,-98.0392156862745,4,1,0,15,0,0
264622.4,-113.636363636364,4,1,0,15,0,0
264632.7,-135.135135135135,4,1,0,15,0,0
264643,-166.666666666667,4,1,0,15,0,0
264745,-125,4,1,0,15,0,0
264858,-114.942528735632,4,1,0,15,0,0
264971,-106.382978723404,4,1,0,15,0,0
265084,-99.009900990099,4,1,0,15,0,0
265197,-92.5925925925926,4,1,0,15,0,0
265310,-86.9565217391304,4,1,0,15,0,0
265423,-81.9672131147541,4,1,0,15,0,0
265536,-77.5193798449612,4,1,0,15,0,0
265649,-73.5294117647059,4,1,0,15,0,0
265762,-69.9300699300699,4,1,0,15,0,0
265875,-66.6666666666667,4,1,0,15,0,0
265885.3,-73.5294117647059,4,1,0,15,0,0
265895.6,-81.9672131147541,4,1,0,15,0,0
265905.9,-92.5925925925926,4,1,0,15,0,0
265916.2,-106.382978723404,4,1,0,15,0,0
265926.5,-125,4,1,0,15,0,0
265936.8,-151.515151515152,4,1,0,15,0,0
265947.1,-192.307692307692,4,1,0,15,0,0
265957.4,-263.157894736842,4,1,0,15,0,0
265967.7,-416.666666666667,4,1,0,15,0,0
265978,-66.6666666666667,4,1,0,15,0,0
265988.3,-73.5294117647059,4,1,0,15,0,0
265998.6,-81.9672131147541,4,1,0,15,0,0
266008.9,-92.5925925925926,4,1,0,15,0,0
266019.2,-106.382978723404,4,1,0,15,0,0
266029.5,-125,4,1,0,15,0,0
266039.8,-151.515151515152,4,1,0,15,0,0
266050.1,-192.307692307692,4,1,0,15,0,0
266060.4,-263.157894736842,4,1,0,15,0,0
266070.7,-416.666666666667,4,1,0,15,0,0
266081,-33.3333333333333,4,1,0,15,0,0
266132,-10000,4,1,0,15,0,0
266184,-1000,4,1,0,15,0,0
266225.1,-384.615384615385,4,1,0,15,0,0
266266.2,-238.095238095238,4,1,0,15,0,0
266307.3,-172.413793103448,4,1,0,15,0,0
266348.4,-135.135135135135,4,1,0,15,0,0
266389.5,-111.111111111111,4,1,0,15,0,0
266430.6,-94.3396226415094,4,1,0,15,0,0
266471.7,-81.9672131147541,4,1,0,15,0,0
266512.8,-72.463768115942,4,1,0,15,0,0
266553.9,-64.9350649350649,4,1,0,15,0,0
266595,-58.8235294117647,4,1,0,15,0,0
266612,-333.333333333333,4,1,0,15,0,0
266629,-58.8235294117647,4,1,0,15,0,0
266646,-333.333333333333,4,1,0,15,0,0
266663,-58.8235294117647,4,1,0,15,0,0
266680,-333.333333333333,4,1,0,15,0,0
266697,-58.8235294117647,4,1,0,15,0,0
266714,-333.333333333333,4,1,0,15,0,0
266731,-58.8235294117647,4,1,0,15,0,0
266748,-333.333333333333,4,1,0,15,0,0
266765,-58.8235294117647,4,1,0,15,0,0
266782,-333.333333333333,4,1,0,15,0,0
266800,-62.5,4,1,0,15,0,0
266851,-250,4,1,0,15,0,0
266903,-62.5,4,1,0,15,0,0
266954,-250,4,1,0,15,0,0
267006,-50,4,1,0,15,0,0
267057,-10000,4,1,0,15,0,0
267108,-58.8235294117647,4,1,0,15,0,0
267160,-333.333333333333,4,1,0,15,0,0
267211,-58.8235294117647,4,1,0,15,0,0
267262,-333.333333333333,4,1,0,15,0,0
267314,-58.8235294117647,4,1,0,15,0,0
267365,-333.333333333333,4,1,0,15,0,0
267417,-52.6315789473684,4,1,0,15,0,0
267468,-1000,4,1,0,15,0,0
267519,-52.6315789473684,4,1,0,15,0,0
267571,-1000,4,1,0,15,0,0
267622,-52.6315789473684,4,1,0,15,0,0
267673,-1000,4,1,0,15,0,0
267725,-52.6315789473684,4,1,0,15,0,0
267776,-1000,4,1,0,15,0,0
267828,-10,4,1,0,15,0,0
267834.16,-10.4166666666667,4,1,0,15,0,0
267840.32,-10.8695652173913,4,1,0,15,0,0
267846.48,-11.3636363636364,4,1,0,15,0,0
267852.64,-11.9047619047619,4,1,0,15,0,0
267858.8,-12.5,4,1,0,15,0,0
267864.96,-13.1578947368421,4,1,0,15,0,0
267871.12,-13.8888888888889,4,1,0,15,0,0
267877.28,-14.7058823529412,4,1,0,15,0,0
267883.44,-15.625,4,1,0,15,0,0
267889.6,-16.6666666666667,4,1,0,15,0,0
267895.76,-17.8571428571429,4,1,0,15,0,0
267901.92,-19.2307692307692,4,1,0,15,0,0
267908.08,-20.7900207900208,4,1,0,15,0,0
267914.24,-22.6757369614512,4,1,0,15,0,0
267920.4,-24.9376558603491,4,1,0,15,0,0
267926.56,-27.7008310249308,4,1,0,15,0,0
267932.72,-31.1526479750779,4,1,0,15,0,0
267938.88,-35.5871886120996,4,1,0,15,0,0
267945.04,-41.49377593361,4,1,0,15,0,0
267951.2,-49.7512437810945,4,1,0,15,0,0
267957.36,-62.111801242236,4,1,0,15,0,0
267963.52,-82.6446280991736,4,1,0,15,0,0
267969.68,-123.456790123457,4,1,0,15,0,0
267975.84,-243.90243902439,4,1,0,15,0,0
267982,-10000,4,1,0,15,0,0
268238,-55.5555555555556,4,1,0,15,0,0
268290,-500,4,1,0,15,0,0
268341,-55.5555555555556,4,1,0,15,0,0
268393,-100,4,1,0,15,0,0
268495,-500,4,1,0,15,0,0
268547,-55.5555555555556,4,1,0,15,0,0
268598,-500,4,1,0,15,0,0
268649,-40,4,1,0,15,0,0
268669.6,-44.2477876106195,4,1,0,15,0,0
268690.2,-49.5049504950495,4,1,0,15,0,0
268710.8,-56.1797752808989,4,1,0,15,0,0
268731.4,-64.9350649350649,4,1,0,15,0,0
268752,-76.9230769230769,4,1,0,15,0,0
268772.6,-94.3396226415094,4,1,0,15,0,0
268793.2,-121.951219512195,4,1,0,15,0,0
268813.8,-172.413793103448,4,1,0,15,0,0
268834.4,-294.117647058824,4,1,0,15,0,0
268855,-1000,4,1,0,15,0,0
268875.5,-416.666666666667,4,1,0,15,0,0
268896,-263.157894736842,4,1,0,15,0,0
268916.5,-192.307692307692,4,1,0,15,0,0
268937,-151.515151515152,4,1,0,15,0,0
268957.5,-125,4,1,0,15,0,0
268978,-106.382978723404,4,1,0,15,0,0
268998.5,-92.5925925925926,4,1,0,15,0,0
269019,-81.9672131147541,4,1,0,15,0,0
269039.5,-73.5294117647059,4,1,0,15,0,0
269060,-52.6315789473684,4,1,0,15,0,0
269112,-1000,4,1,0,15,0,0
269163,-52.6315789473684,4,1,0,15,0,0
269215,-1000,4,1,0,15,0,0
269266,-52.6315789473684,4,1,0,15,0,0
269317,-1000,4,1,0,15,0,0
269369,-52.6315789473684,4,1,0,15,0,0
269420,-1000,4,1,0,15,0,0
269471,-45.4545454545455,4,1,0,15,0,0
269523,-10000,4,1,0,15,0,0
269574,-66.6666666666667,4,1,0,15,0,0
269625,-200,4,1,0,15,0,0
269677,-66.6666666666667,4,1,0,15,0,0
269728,-200,4,1,0,15,0,0
269780,-45.4545454545455,4,1,0,15,0,0
269831,-10000,4,1,0,15,0,0
269882,-66.6666666666667,4,1,0,15,0,0
269934,-200,4,1,0,15,0,0
269985,-66.6666666666667,4,1,0,15,0,0
270036,-200,4,1,0,15,0,0
270088,-66.6666666666667,4,1,0,15,0,0
270139,-200,4,1,0,15,0,0
270191,-55.5555555555556,4,1,0,15,0,0
270242,-500,4,1,0,15,0,0
270293,-45.4545454545455,4,1,0,15,0,0
270345,-10000,4,1,0,15,0,0
270396,-62.5,4,1,0,15,0,0
270447,-250,4,1,0,15,0,0
270499,-62.5,4,1,0,15,0,0
270550,-250,4,1,0,15,0,0
270601,-62.5,4,1,0,15,0,0
270653,-250,4,1,0,15,0,0
270704,-45.4545454545455,4,1,0,15,0,0
270756,-10000,4,1,0,15,0,0
270807,-166.666666666667,4,1,0,15,0,0
270858,-142.857142857143,4,1,0,15,0,0
270910,-125,4,1,0,15,0,0
270961,-111.111111111111,4,1,0,15,0,0
271012,-100,4,1,0,15,0,0
271022.3,-90.9090909090909,4,1,0,15,0,0
271032.6,-83.3333333333333,4,1,0,15,0,0
271042.9,-76.9230769230769,4,1,0,15,0,0
271053.2,-71.4285714285714,4,1,0,15,0,0
271063.5,-66.6666666666667,4,1,0,15,0,0
271073.8,-62.5,4,1,0,15,0,0
271084.1,-58.8235294117647,4,1,0,15,0,0
271094.4,-55.5555555555556,4,1,0,15,0,0
271104.7,-52.6315789473684,4,1,0,15,0,0
271115,-10,4,1,0,15,0,0
271121.16,-10.4166666666667,4,1,0,15,0,0
271127.32,-10.8695652173913,4,1,0,15,0,0
271133.48,-11.3636363636364,4,1,0,15,0,0
271139.64,-11.9047619047619,4,1,0,15,0,0
271145.8,-12.5,4,1,0,15,0,0
271151.96,-13.1578947368421,4,1,0,15,0,0
271158.12,-13.8888888888889,4,1,0,15,0,0
271164.28,-14.7058823529412,4,1,0,15,0,0
271170.44,-15.625,4,1,0,15,0,0
271176.6,-16.6666666666667,4,1,0,15,0,0
271182.76,-17.8571428571429,4,1,0,15,0,0
271188.92,-19.2307692307692,4,1,0,15,0,0
271195.08,-20.7900207900208,4,1,0,15,0,0
271201.24,-22.6757369614512,4,1,0,15,0,0
271207.4,-24.9376558603491,4,1,0,15,0,0
271213.56,-27.7008310249308,4,1,0,15,0,0
271219.72,-31.1526479750779,4,1,0,15,0,0
271225.88,-35.5871886120996,4,1,0,15,0,0
271232.04,-41.49377593361,4,1,0,15,0,0
271238.2,-49.7512437810945,4,1,0,15,0,0
271244.36,-62.111801242236,4,1,0,15,0,0
271250.52,-82.6446280991736,4,1,0,15,0,0
271256.68,-123.456790123457,4,1,0,15,0,0
271262.84,-243.90243902439,4,1,0,15,0,0
271269,-10000,4,1,0,15,0,0
271526,-50,4,1,0,15,0,0
271578,-10000,4,1,0,15,0,0
271629,-50,4,1,0,15,0,0
271680,-10000,4,1,0,15,0,0
271732,-50,4,1,0,15,0,0
271783,-10000,4,1,0,15,0,0
271834,-50,4,1,0,15,0,0
271886,-10000,4,1,0,15,0,0
271937,-30.3030303030303,4,1,0,15,0,0
271988,-10000,4,1,0,15,0,0
272143,-50,4,1,0,15,0,0
272194,-10000,4,1,0,15,0,0
272245,-30.3030303030303,4,1,0,15,0,0
272269,-44.2477876106195,4,1,0,15,0,0
272293,-49.5049504950495,4,1,0,15,0,0
272317,-56.1797752808989,4,1,0,15,0,0
272341,-64.9350649350649,4,1,0,15,0,0
272365,-76.9230769230769,4,1,0,15,0,0
272389,-94.3396226415094,4,1,0,15,0,0
272413,-121.951219512195,4,1,0,15,0,0
272437,-172.413793103448,4,1,0,15,0,0
272461,-294.117647058824,4,1,0,15,0,0
272485,-50,4,1,0,15,0,0
272498.7,-55.2486187845304,4,1,0,15,0,0
272512.4,-61.7283950617284,4,1,0,15,0,0
272526.1,-69.9300699300699,4,1,0,15,0,0
272539.8,-80.6451612903226,4,1,0,15,0,0
272553.5,-95.2380952380952,4,1,0,15,0,0
272567.2,-116.279069767442,4,1,0,15,0,0
272580.9,-149.253731343284,4,1,0,15,0,0
272594.6,-208.333333333333,4,1,0,15,0,0
272608.3,-344.827586206897,4,1,0,15,0,0
272622,-50,4,1,0,15,0,0
272635.7,-55.2486187845304,4,1,0,15,0,0
272649.4,-61.7283950617284,4,1,0,15,0,0
272663.1,-69.9300699300699,4,1,0,15,0,0
272676.8,-80.6451612903226,4,1,0,15,0,0
272690.5,-95.2380952380952,4,1,0,15,0,0
272704.2,-116.279069767442,4,1,0,15,0,0
272717.9,-149.253731343284,4,1,0,15,0,0
272731.6,-208.333333333333,4,1,0,15,0,0
272745.3,-344.827586206897,4,1,0,15,0,0
272759,-50,4,1,0,15,0,0
272810,-1000,4,1,0,15,0,0
272862,-200,4,1,0,15,0,0
272882.5,-175.438596491228,4,1,0,15,0,0
272903,-156.25,4,1,0,15,0,0
272923.5,-140.845070422535,4,1,0,15,0,0
272944,-128.205128205128,4,1,0,15,0,0
272964.5,-117.647058823529,4,1,0,15,0,0
272985,-108.695652173913,4,1,0,15,0,0
273005.5,-101.010101010101,4,1,0,15,0,0
273026,-94.3396226415094,4,1,0,15,0,0
273046.5,-88.495575221239,4,1,0,15,0,0
273067,-62.5,4,1,0,15,0,0
273119,-250,4,1,0,15,0,0
273170,-58.8235294117647,4,1,0,15,0,0
273187,-333.333333333333,4,1,0,15,0,0
273204,-58.8235294117647,4,1,0,15,0,0
273221,-333.333333333333,4,1,0,15,0,0
273238,-58.8235294117647,4,1,0,15,0,0
273255,-333.333333333333,4,1,0,15,0,0
273272,-58.8235294117647,4,1,0,15,0,0
273289,-333.333333333333,4,1,0,15,0,0
273306,-58.8235294117647,4,1,0,15,0,0
273323,-333.333333333333,4,1,0,15,0,0
273340,-58.8235294117647,4,1,0,15,0,0
273357,-333.333333333333,4,1,0,15,0,0
273375,-62.5,4,1,0,15,0,0
273427,-250,4,1,0,15,0,0
273478,-62.5,4,1,0,15,0,0
273530,-250,4,1,0,15,0,0
273581,-50,4,1,0,15,0,0
273632,-10000,4,1,0,15,0,0
273684,-58.8235294117647,4,1,0,15,0,0
273735,-333.333333333333,4,1,0,15,0,0
273786,-58.8235294117647,4,1,0,15,0,0
273838,-333.333333333333,4,1,0,15,0,0
273889,-58.8235294117647,4,1,0,15,0,0
273941,-333.333333333333,4,1,0,15,0,0
273992,-52.6315789473684,4,1,0,15,0,0
274043,-1000,4,1,0,15,0,0
274095,-52.6315789473684,4,1,0,15,0,0
274146,-1000,4,1,0,15,0,0
274197,-52.6315789473684,4,1,0,15,0,0
274249,-1000,4,1,0,15,0,0
274300,-52.6315789473684,4,1,0,15,0,0
274351,-1000,4,1,0,15,0,0
274403,-41.6666666666667,4,1,0,15,0,0
274454,-10000,4,1,0,15,0,0
274506,-41.6666666666667,4,1,0,15,0,0
274557,-10000,4,1,0,15,0,0
274608,-41.6666666666667,4,1,0,15,0,0
274660,-10000,4,1,0,15,0,0
274711,-41.6666666666667,4,1,0,15,0,0
274762,-10000,4,1,0,15,0,0
274814,-62.5,4,1,0,15,0,0
274865,-250,4,1,0,15,0,0
274917,-62.5,4,1,0,15,0,0
274968,-250,4,1,0,15,0,0
275019,-62.5,4,1,0,15,0,0
275071,-250,4,1,0,15,0,0
275122,-62.5,4,1,0,15,0,0
275173,-250,4,1,0,15,0,0
275225,-50,4,1,0,15,0,0
275276,-10000,4,1,0,15,0,0
275328,-66.6666666666667,4,1,0,15,0,0
275348.5,-72.463768115942,4,1,0,15,0,0
275369,-79.3650793650794,4,1,0,15,0,0
275389.5,-87.719298245614,4,1,0,15,0,0
275410,-98.0392156862745,4,1,0,15,0,0
275430.5,-111.111111111111,4,1,0,15,0,0
275451,-128.205128205128,4,1,0,15,0,0
275471.5,-151.515151515152,4,1,0,15,0,0
275492,-185.185185185185,4,1,0,15,0,0
275512.5,-238.095238095238,4,1,0,15,0,0
275533,-333.333333333333,4,1,0,15,0,0
275543.3,-238.095238095238,4,1,0,15,0,0
275553.6,-185.185185185185,4,1,0,15,0,0
275563.9,-151.515151515152,4,1,0,15,0,0
275574.2,-128.205128205128,4,1,0,15,0,0
275584.5,-111.111111111111,4,1,0,15,0,0
275594.8,-98.0392156862745,4,1,0,15,0,0
275605.1,-87.719298245614,4,1,0,15,0,0
275615.4,-79.3650793650794,4,1,0,15,0,0
275625.7,-72.463768115942,4,1,0,15,0,0
275636,-52.6315789473684,4,1,0,15,0,0
275687,-1000,4,1,0,15,0,0
275738,-52.6315789473684,4,1,0,15,0,0
275790,-1000,4,1,0,15,0,0
275841,-52.6315789473684,4,1,0,15,0,0
275893,-1000,4,1,0,15,0,0
275944,-52.6315789473684,4,1,0,15,0,0
275995,-1000,4,1,0,15,0,0
276047,-50,4,1,0,15,0,0
276170.3,-54.6448087431694,4,1,0,15,0,0
276293.6,-60.2409638554217,4,1,0,15,0,0
276416.9,-67.1140939597315,4,1,0,15,0,0
276540.2,-75.7575757575758,4,1,0,15,0,0
276663.5,-86.9565217391304,4,1,0,15,0,0
276786.8,-102.040816326531,4,1,0,15,0,0
276910.1,-123.456790123457,4,1,0,15,0,0
277033.4,-156.25,4,1,0,15,0,0
277156.7,-212.765957446809,4,1,0,15,0,0
277280,-58.8235294117647,4,1,0,15,0,0
277331,-71.4285714285714,4,1,0,15,0,0
277382,-111.111111111111,4,1,0,15,0,0
277434,-166.666666666667,4,1,0,15,0,0
277485,-10000,4,1,0,15,0,0
277505.6,-476.190476190476,4,1,0,15,0,0
277526.2,-243.90243902439,4,1,0,15,0,0
277546.8,-163.934426229508,4,1,0,15,0,0
277567.4,-123.456790123457,4,1,0,15,0,0
277588,-100,4,1,0,15,0,0
277608.6,-83.3333333333333,4,1,0,15,0,0
277629.2,-71.4285714285714,4,1,0,15,0,0
277649.8,-62.5,4,1,0,15,0,0
277670.4,-55.5555555555556,4,1,0,15,0,0
277691,-125,4,1,0,15,0,0
299061,-125,4,1,0,15,0,0
299307.6,-128.205128205128,4,1,0,15,0,0
299554.2,-133.333333333333,4,1,0,15,0,0
299800.8,-136.986301369863,4,1,0,15,0,0
300047.4,-142.857142857143,4,1,0,15,0,0
300294,-147.058823529412,4,1,0,15,0,0
300540.6,-153.846153846154,4,1,0,15,0,0
300787.2,-158.730158730159,4,1,0,15,0,0
301033.8,-166.666666666667,4,1,0,15,0,0
301280.4,-172.413793103448,4,1,0,15,0,0
301527,-181.818181818182,4,1,0,15,0,0
301773.6,-188.679245283019,4,1,0,15,0,0
302020.2,-200,4,1,0,15,0,0
302266.8,-208.333333333333,4,1,0,15,0,0
302513.4,-222.222222222222,4,1,0,15,0,0
302760,-232.558139534884,4,1,0,15,0,0
303006.6,-250,4,1,0,15,0,0
303253.2,-263.157894736842,4,1,0,15,0,0
303499.8,-285.714285714286,4,1,0,15,0,0
303746.4,-303.030303030303,4,1,0,15,0,0
303993,-333.333333333333,4,1,0,15,0,0

[HitObjects]
64,192,1527,128,0,2143:0:0:0:0:
192,192,2143,128,0,2760:0:0:0:0:
448,192,2760,128,0,3993:0:0:0:0:
192,192,4815,128,0,5431:0:0:0:0:
320,192,5431,128,0,6459:0:0:0:0:
64,192,8102,128,0,8719:0:0:0:0:
320,192,8719,128,0,9335:0:0:0:0:
192,192,9335,128,0,10157:0:0:0:0:
64,192,10979,128,0,11390:0:0:0:0:
320,192,11390,128,0,12006:0:0:0:0:
448,192,12006,128,0,12623:0:0:0:0:
192,192,12623,128,0,13445:0:0:0:0:
64,192,14678,128,0,15294:0:0:0:0:
192,192,15294,128,0,15911:0:0:0:0:
448,192,15911,128,0,16527:0:0:0:0:
320,192,16527,128,0,17143:0:0:0:0:
192,192,17965,128,0,18582:0:0:0:0:
448,192,18582,128,0,19198:0:0:0:0:
320,192,19198,128,0,20020:0:0:0:0:
320,192,20842,128,0,21253:0:0:0:0:
448,192,21253,128,0,21869:0:0:0:0:
320,192,21869,128,0,22486:0:0:0:0:
192,192,22486,128,0,23102:0:0:0:0:
64,192,23102,128,0,23719:0:0:0:0:
64,192,24130,128,0,24541:0:0:0:0:
448,192,24541,128,0,25157:0:0:0:0:
192,192,25157,128,0,25774:0:0:0:0:
320,192,25774,128,0,27417:0:0:0:0:
64,192,27828,128,0,29369:0:0:0:0:
320,192,27828,128,0,30089:0:0:0:0:
192,192,29472,128,0,31013:0:0:0:0:
448,192,30089,128,0,31116:0:0:0:0:
320,192,31116,128,0,32760:0:0:0:0:
64,192,31116,128,0,32657:0:0:0:0:
192,192,32760,128,0,34301:0:0:0:0:
448,192,32760,128,0,34404:0:0:0:0:
320,192,34404,128,0,36048:0:0:0:0:
192,192,34404,128,0,35945:0:0:0:0:
192,192,36048,128,0,37691:0:0:0:0:
64,192,36048,128,0,37589:0:0:0:0:
64,192,37691,128,0,39335:0:0:0:0:
448,192,37691,128,0,39232:0:0:0:0:
192,192,39335,128,0,40876:0:0:0:0:
320,192,39335,128,0,40979:0:0:0:0:
192,192,40979,128,0,42623:0:0:0:0:
448,192,40979,1,0,0:0:0:0:
448,192,41082,1,0,0:0:0:0:
448,192,41287,1,0,0:0:0:0:
64,192,41390,1,0,0:0:0:0:
448,192,41493,1,0,0:0:0:0:
64,192,41595,1,0,0:0:0:0:
448,192,41698,1,0,0:0:0:0:
320,192,41801,1,0,0:0:0:0:
448,192,41904,1,0,0:0:0:0:
64,192,42109,1,0,0:0:0:0:
64,192,42315,1,0,0:0:0:0:
64,192,42623,128,0,44267:0:0:0:0:
320,192,42623,1,0,0:0:0:0:
448,192,42726,1,0,0:0:0:0:
320,192,42931,1,0,0:0:0:0:
448,192,43034,1,0,0:0:0:0:
320,192,43137,1,0,0:0:0:0:
192,192,43342,1,0,0:0:0:0:
320,192,43445,1,0,0:0:0:0:
448,192,43650,1,0,0:0:0:0:
320,192,43753,1,0,0:0:0:0:
448,192,43856,1,0,0:0:0:0:
320,192,43959,1,0,0:0:0:0:
192,192,44061,1,0,0:0:0:0:
448,192,44164,1,0,0:0:0:0:
320,192,44267,128,0,45911:0:0:0:0:
192,192,44267,1,0,0:0:0:0:
64,192,44369,1,0,0:0:0:0:
192,192,44472,1,0,0:0:0:0:
64,192,44575,1,0,0:0:0:0:
192,192,44678,1,0,0:0:0:0:
448,192,44780,1,0,0:0:0:0:
192,192,44883,1,0,0:0:0:0:
64,192,44986,1,0,0:0:0:0:
192,192,45089,1,0,0:0:0:0:
192,192,45294,1,0,0:0:0:0:
448,192,45397,1,0,0:0:0:0:
64,192,45602,1,0,0:0:0:0:
64,192,45808,1,0,0:0:0:0:
448,192,45911,128,0,47554:0:0:0:0:
192,192,45911,1,0,0:0:0:0:
64,192,46013,1,0,0:0:0:0:
320,192,46116,1,0,0:0:0:0:
64,192,46219,1,0,0:0:0:0:
64,192,46424,1,0,0:0:0:0:
64,192,46630,1,0,0:0:0:0:
320,192,46732,1,0,0:0:0:0:
320,192,46938,1,0,0:0:0:0:
192,192,47041,1,0,0:0:0:0:
64,192,47143,1,0,0:0:0:0:
192,192,47246,1,0,0:0:0:0:
64,192,47349,1,0,0:0:0:0:
320,192,47452,1,0,0:0:0:0:
192,192,47554,128,0,49198:0:0:0:0:
64,192,47554,1,0,0:0:0:0:
64,192,47657,1,0,0:0:0:0:
320,192,47760,1,0,0:0:0:0:
64,192,47863,1,0,0:0:0:0:
64,192,48068,1,0,0:0:0:0:
320,192,48274,1,0,0:0:0:0:
320,192,48376,1,0,0:0:0:0:
320,192,48582,1,0,0:0:0:0:
448,192,48685,1,0,0:0:0:0:
320,192,48787,1,0,0:0:0:0:
448,192,48890,1,0,0:0:0:0:
320,192,49095,1,0,0:0:0:0:
64,192,49198,128,0,50842:0:0:0:0:
448,192,49198,1,0,0:0:0:0:
320,192,49301,1,0,0:0:0:0:
320,192,49506,1,0,0:0:0:0:
320,192,49712,1,0,0:0:0:0:
320,192,49917,1,0,0:0:0:0:
320,192,50020,1,0,0:0:0:0:
320,192,50226,1,0,0:0:0:0:
320,192,50534,1,0,0:0:0:0:
320,192,50637,1,0,0:0:0:0:
448,192,50739,1,0,0:0:0:0:
320,192,50842,128,0,52486:0:0:0:0:
192,192,50842,1,0,0:0:0:0:
448,192,50945,1,0,0:0:0:0:
64,192,51048,1,0,0:0:0:0:
192,192,51150,1,0,0:0:0:0:
64,192,51253,1,0,0:0:0:0:
448,192,51356,1,0,0:0:0:0:
64,192,51459,1,0,0:0:0:0:
192,192,51561,1,0,0:0:0:0:
448,192,51664,1,0,0:0:0:0:
64,192,51767,1,0,0:0:0:0:
192,192,51869,1,0,0:0:0:0:
448,192,51972,1,0,0:0:0:0:
192,192,52075,1,0,0:0:0:0:
448,192,52178,1,0,0:0:0:0:
192,192,52280,1,0,0:0:0:0:
64,192,52383,1,0,0:0:0:0:
448,192,52486,128,0,54130:0:0:0:0:
192,192,52486,1,0,0:0:0:0:
320,192,52589,1,0,0:0:0:0:
64,192,52691,1,0,0:0:0:0:
320,192,52794,1,0,0:0:0:0:
320,192,53000,1,0,0:0:0:0:
64,192,53102,1,0,0:0:0:0:
320,192,53205,1,0,0:0:0:0:
64,192,53308,1,0,0:0:0:0:
192,192,53411,1,0,0:0:0:0:
64,192,53513,1,0,0:0:0:0:
192,192,53616,1,0,0:0:0:0:
192,192,53822,1,0,0:0:0:0:
64,192,53924,1,0,0:0:0:0:
192,192,54027,1,0,0:0:0:0:
64,192,54130,1,0,0:0:0:0:
320,192,54130,1,0,0:0:0:0:
192,192,54335,1,0,0:0:0:0:
320,192,54438,1,0,0:0:0:0:
448,192,54438,1,0,0:0:0:0:
64,192,54541,1,0,0:0:0:0:
192,192,54541,1,0,0:0:0:0:
448,192,54746,1,0,0:0:0:0:
320,192,54746,1,0,0:0:0:0:
192,192,54849,1,0,0:0:0:0:
64,192,54952,1,0,0:0:0:0:
320,192,54952,1,0,0:0:0:0:
448,192,55054,1,0,0:0:0:0:
192,192,55157,1,0,0:0:0:0:
192,192,55260,1,0,0:0:0:0:
320,192,55363,1,0,0:0:0:0:
448,192,55363,1,0,0:0:0:0:
64,192,55363,1,0,0:0:0:0:
448,192,55568,1,0,0:0:0:0:
64,192,55568,1,0,0:0:0:0:
320,192,55671,1,0,0:0:0:0:
320,192,55774,1,0,0:0:0:0:
448,192,55774,1,0,0:0:0:0:
64,192,55876,1,0,0:0:0:0:
448,192,55979,1,0,0:0:0:0:
192,192,55979,1,0,0:0:0:0:
64,192,56082,1,0,0:0:0:0:
192,192,56185,1,0,0:0:0:0:
320,192,56185,1,0,0:0:0:0:
448,192,56185,1,0,0:0:0:0:
448,192,56390,1,0,0:0:0:0:
64,192,56390,1,0,0:0:0:0:
320,192,56493,1,0,0:0:0:0:
192,192,56595,1,0,0:0:0:0:
448,192,56595,1,0,0:0:0:0:
320,192,56698,1,0,0:0:0:0:
64,192,56801,1,0,0:0:0:0:
320,192,56801,1,0,0:0:0:0:
448,192,56904,1,0,0:0:0:0:
64,192,57006,1,0,0:0:0:0:
192,192,57006,1,0,0:0:0:0:
320,192,57006,1,0,0:0:0:0:
192,192,57212,1,0,0:0:0:0:
448,192,57212,1,0,0:0:0:0:
64,192,57315,1,0,0:0:0:0:
64,192,57417,1,0,0:0:0:0:
320,192,57417,1,0,0:0:0:0:
448,192,57520,1,0,0:0:0:0:
64,192,57623,1,0,0:0:0:0:
320,192,57623,1,0,0:0:0:0:
448,192,57726,1,0,0:0:0:0:
192,192,57828,1,0,0:0:0:0:
320,192,57828,1,0,0:0:0:0:
64,192,57828,1,0,0:0:0:0:
64,192,58034,1,0,0:0:0:0:
448,192,58034,1,0,0:0:0:0:
320,192,58137,1,0,0:0:0:0:
64,192,58239,1,0,0:0:0:0:
192,192,58239,1,0,0:0:0:0:
320,192,58342,1,0,0:0:0:0:
448,192,58445,1,0,0:0:0:0:
320,192,58445,1,0,0:0:0:0:
192,192,58548,1,0,0:0:0:0:
64,192,58650,1,0,0:0:0:0:
448,192,58650,1,0,0:0:0:0:
320,192,58650,1,0,0:0:0:0:
64,192,58856,1,0,0:0:0:0:
192,192,58856,1,0,0:0:0:0:
320,192,58959,1,0,0:0:0:0:
320,192,59061,1,0,0:0:0:0:
448,192,59061,1,0,0:0:0:0:
64,192,59164,1,0,0:0:0:0:
448,192,59267,1,0,0:0:0:0:
192,192,59267,1,0,0:0:0:0:
64,192,59369,1,0,0:0:0:0:
192,192,59472,1,0,0:0:0:0:
320,192,59472,1,0,0:0:0:0:
448,192,59472,1,0,0:0:0:0:
448,192,59678,1,0,0:0:0:0:
320,192,59678,1,0,0:0:0:0:
192,192,59780,1,0,0:0:0:0:
64,192,59883,1,0,0:0:0:0:
320,192,59883,1,0,0:0:0:0:
448,192,59986,1,0,0:0:0:0:
448,192,60089,1,0,0:0:0:0:
192,192,60089,1,0,0:0:0:0:
320,192,60191,1,0,0:0:0:0:
64,192,60294,1,0,0:0:0:0:
192,192,60294,1,0,0:0:0:0:
448,192,60294,1,0,0:0:0:0:
64,192,60500,1,0,0:0:0:0:
448,192,60500,1,0,0:0:0:0:
320,192,60602,1,0,0:0:0:0:
320,192,60705,1,0,0:0:0:0:
192,192,60705,1,0,0:0:0:0:
64,192,60808,1,0,0:0:0:0:
192,192,60911,1,0,0:0:0:0:
448,192,60911,1,0,0:0:0:0:
320,192,61013,1,0,0:0:0:0:
192,192,61116,1,0,0:0:0:0:
64,192,61116,1,0,0:0:0:0:
448,192,61116,1,0,0:0:0:0:
320,192,61322,1,0,0:0:0:0:
64,192,61322,1,0,0:0:0:0:
192,192,61424,1,0,0:0:0:0:
448,192,61527,1,0,0:0:0:0:
64,192,61527,1,0,0:0:0:0:
320,192,61630,1,0,0:0:0:0:
320,192,61732,1,0,0:0:0:0:
192,192,61732,1,0,0:0:0:0:
64,192,61835,1,0,0:0:0:0:
192,192,61938,1,0,0:0:0:0:
320,192,61938,1,0,0:0:0:0:
448,192,61938,1,0,0:0:0:0:
64,192,62143,1,0,0:0:0:0:
448,192,62143,1,0,0:0:0:0:
192,192,62246,1,0,0:0:0:0:
192,192,62349,1,0,0:0:0:0:
320,192,62349,1,0,0:0:0:0:
448,192,62452,1,0,0:0:0:0:
64,192,62554,1,0,0:0:0:0:
192,192,62554,1,0,0:0:0:0:
320,192,62657,1,0,0:0:0:0:
64,192,62760,1,0,0:0:0:0:
192,192,62760,1,0,0:0:0:0:
448,192,62760,1,0,0:0:0:0:
64,192,62965,1,0,0:0:0:0:
192,192,62965,1,0,0:0:0:0:
320,192,63068,1,0,0:0:0:0:
448,192,63171,1,0,0:0:0:0:
192,192,63171,1,0,0:0:0:0:
64,192,63274,1,0,0:0:0:0:
320,192,63376,1,0,0:0:0:0:
192,192,63376,1,0,0:0:0:0:
320,192,63479,1,0,0:0:0:0:
192,192,63582,1,0,0:0:0:0:
64,192,63582,1,0,0:0:0:0:
448,192,63582,1,0,0:0:0:0:
64,192,63787,1,0,0:0:0:0:
448,192,63787,1,0,0:0:0:0:
192,192,63890,1,0,0:0:0:0:
192,192,63993,1,0,0:0:0:0:
64,192,63993,1,0,0:0:0:0:
448,192,64095,1,0,0:0:0:0:
64,192,64198,1,0,0:0:0:0:
320,192,64198,1,0,0:0:0:0:
448,192,64301,1,0,0:0:0:0:
320,192,64404,1,0,0:0:0:0:
192,192,64404,1,0,0:0:0:0:
64,192,64404,1,0,0:0:0:0:
64,192,64609,1,0,0:0:0:0:
448,192,64609,1,0,0:0:0:0:
192,192,64712,1,0,0:0:0:0:
320,192,64815,1,0,0:0:0:0:
64,192,64815,1,0,0:0:0:0:
192,192,64917,1,0,0:0:0:0:
448,192,65020,1,0,0:0:0:0:
192,192,65020,1,0,0:0:0:0:
64,192,65123,1,0,0:0:0:0:
448,192,65226,1,0,0:0:0:0:
320,192,65226,1,0,0:0:0:0:
192,192,65226,1,0,0:0:0:0:
320,192,65431,1,0,0:0:0:0:
64,192,65431,1,0,0:0:0:0:
448,192,65534,1,0,0:0:0:0:
448,192,65637,1,0,0:0:0:0:
192,192,65637,1,0,0:0:0:0:
64,192,65739,1,0,0:0:0:0:
448,192,65842,1,0,0:0:0:0:
192,192,65842,1,0,0:0:0:0:
64,192,65945,1,0,0:0:0:0:
320,192,66048,1,0,0:0:0:0:
192,192,66048,1,0,0:0:0:0:
448,192,66048,1,0,0:0:0:0:
448,192,66253,1,0,0:0:0:0:
64,192,66253,1,0,0:0:0:0:
192,192,66356,1,0,0:0:0:0:
448,192,66459,1,0,0:0:0:0:
320,192,66459,1,0,0:0:0:0:
192,192,66561,1,0,0:0:0:0:
64,192,66664,1,0,0:0:0:0:
192,192,66664,1,0,0:0:0:0:
320,192,66767,1,0,0:0:0:0:
64,192,66869,1,0,0:0:0:0:
192,192,66869,1,0,0:0:0:0:
448,192,66869,128,0,66972:0:0:0:0:
320,192,66972,128,0,67075:0:0:0:0:
448,192,67075,1,0,0:0:0:0:
192,192,67075,128,0,67178:0:0:0:0:
64,192,67178,128,0,67280:0:0:0:0:
192,192,67280,1,0,0:0:0:0:
320,192,67280,1,0,0:0:0:0:
448,192,67383,1,0,0:0:0:0:
64,192,67486,1,0,0:0:0:0:
320,192,67486,1,0,0:0:0:0:
448,192,67589,1,0,0:0:0:0:
320,192,67691,1,0,0:0:0:0:
192,192,67691,1,0,0:0:0:0:
64,192,67691,1,0,0:0:0:0:
64,192,67897,1,0,0:0:0:0:
192,192,67897,1,0,0:0:0:0:
320,192,68000,1,0,0:0:0:0:
448,192,68102,1,0,0:0:0:0:
192,192,68102,1,0,0:0:0:0:
64,192,68205,1,0,0:0:0:0:
64,192,68308,1,0,0:0:0:0:
320,192,68308,1,0,0:0:0:0:
192,192,68411,1,0,0:0:0:0:
448,192,68513,1,0,0:0:0:0:
320,192,68513,1,0,0:0:0:0:
64,192,68513,1,0,0:0:0:0:
448,192,68719,1,0,0:0:0:0:
64,192,68719,1,0,0:0:0:0:
192,192,68822,1,0,0:0:0:0:
192,192,68924,1,0,0:0:0:0:
320,192,68924,1,0,0:0:0:0:
448,192,69027,1,0,0:0:0:0:
320,192,69130,1,0,0:0:0:0:
64,192,69130,1,0,0:0:0:0:
192,192,69232,1,0,0:0:0:0:
320,192,69335,1,0,0:0:0:0:
448,192,69335,1,0,0:0:0:0:
64,192,69335,1,0,0:0:0:0:
192,192,69541,1,0,0:0:0:0:
448,192,69541,1,0,0:0:0:0:
320,192,69643,1,0,0:0:0:0:
64,192,69746,1,0,0:0:0:0:
448,192,69746,1,0,0:0:0:0:
192,192,69849,1,0,0:0:0:0:
192,192,69952,1,0,0:0:0:0:
320,192,69952,1,0,0:0:0:0:
448,192,70054,1,0,0:0:0:0:
320,192,70157,1,0,0:0:0:0:
192,192,70157,1,0,0:0:0:0:
64,192,70157,1,0,0:0:0:0:
448,192,70363,1,0,0:0:0:0:
64,192,70363,1,0,0:0:0:0:
320,192,70465,1,0,0:0:0:0:
320,192,70568,1,0,0:0:0:0:
192,192,70568,1,0,0:0:0:0:
64,192,70671,1,0,0:0:0:0:
448,192,70774,1,0,0:0:0:0:
320,192,70774,1,0,0:0:0:0:
192,192,70876,1,0,0:0:0:0:
448,192,70979,1,0,0:0:0:0:
320,192,70979,1,0,0:0:0:0:
64,192,70979,1,0,0:0:0:0:
320,192,71185,1,0,0:0:0:0:
448,192,71185,1,0,0:0:0:0:
192,192,71287,1,0,0:0:0:0:
320,192,71390,1,0,0:0:0:0:
64,192,71390,1,0,0:0:0:0:
448,192,71493,1,0,0:0:0:0:
192,192,71595,1,0,0:0:0:0:
64,192,71595,1,0,0:0:0:0:
192,192,71698,1,0,0:0:0:0:
64,192,71801,1,0,0:0:0:0:
448,192,71801,1,0,0:0:0:0:
320,192,71801,1,0,0:0:0:0:
64,192,72006,1,0,0:0:0:0:
448,192,72006,1,0,0:0:0:0:
320,192,72109,1,0,0:0:0:0:
448,192,72212,1,0,0:0:0:0:
320,192,72212,1,0,0:0:0:0:
64,192,72315,1,0,0:0:0:0:
192,192,72417,1,0,0:0:0:0:
448,192,72417,1,0,0:0:0:0:
64,192,72520,1,0,0:0:0:0:
448,192,72623,1,0,0:0:0:0:
320,192,72623,1,0,0:0:0:0:
192,192,72623,1,0,0:0:0:0:
64,192,72828,1,0,0:0:0:0:
448,192,72828,1,0,0:0:0:0:
320,192,72931,1,0,0:0:0:0:
448,192,73034,1,0,0:0:0:0:
192,192,73034,1,0,0:0:0:0:
320,192,73137,1,0,0:0:0:0:
320,192,73239,1,0,0:0:0:0:
64,192,73239,1,0,0:0:0:0:
448,192,73342,1,0,0:0:0:0:
320,192,73445,1,0,0:0:0:0:
192,192,73445,1,0,0:0:0:0:
64,192,73445,1,0,0:0:0:0:
448,192,73650,1,0,0:0:0:0:
192,192,73650,1,0,0:0:0:0:
64,192,73753,1,0,0:0:0:0:
320,192,73856,1,0,0:0:0:0:
64,192,73856,1,0,0:0:0:0:
448,192,73959,1,0,0:0:0:0:
320,192,74061,1,0,0:0:0:0:
64,192,74061,1,0,0:0:0:0:
448,192,74164,1,0,0:0:0:0:
64,192,74267,1,0,0:0:0:0:
320,192,74267,1,0,0:0:0:0:
192,192,74267,1,0,0:0:0:0:
448,192,74472,1,0,0:0:0:0:
64,192,74472,1,0,0:0:0:0:
320,192,74575,1,0,0:0:0:0:
192,192,74678,1,0,0:0:0:0:
64,192,74678,1,0,0:0:0:0:
320,192,74780,1,0,0:0:0:0:
320,192,74883,1,0,0:0:0:0:
448,192,74883,1,0,0:0:0:0:
192,192,74986,1,0,0:0:0:0:
320,192,75089,1,0,0:0:0:0:
448,192,75089,1,0,0:0:0:0:
64,192,75089,1,0,0:0:0:0:
192,192,75294,1,0,0:0:0:0:
64,192,75294,1,0,0:0:0:0:
320,192,75397,1,0,0:0:0:0:
448,192,75500,1,0,0:0:0:0:
320,192,75500,1,0,0:0:0:0:
64,192,75602,1,0,0:0:0:0:
192,192,75705,1,0,0:0:0:0:
448,192,75705,1,0,0:0:0:0:
64,192,75808,1,0,0:0:0:0:
448,192,75911,1,0,0:0:0:0:
320,192,75911,1,0,0:0:0:0:
192,192,75911,1,0,0:0:0:0:
320,192,76116,1,0,0:0:0:0:
448,192,76116,1,0,0:0:0:0:
192,192,76219,1,0,0:0:0:0:
320,192,76322,1,0,0:0:0:0:
64,192,76322,1,0,0:0:0:0:
448,192,76424,1,0,0:0:0:0:
192,192,76527,1,0,0:0:0:0:
448,192,76527,1,0,0:0:0:0:
320,192,76630,1,0,0:0:0:0:
448,192,76732,1,0,0:0:0:0:
192,192,76732,1,0,0:0:0:0:
64,192,76732,1,0,0:0:0:0:
448,192,76938,1,0,0:0:0:0:
64,192,76938,1,0,0:0:0:0:
320,192,77041,1,0,0:0:0:0:
192,192,77143,1,0,0:0:0:0:
320,192,77143,1,0,0:0:0:0:
64,192,77246,1,0,0:0:0:0:
448,192,77349,1,0,0:0:0:0:
192,192,77349,1,0,0:0:0:0:
320,192,77452,1,0,0:0:0:0:
448,192,77554,1,0,0:0:0:0:
64,192,77554,1,0,0:0:0:0:
192,192,77554,1,0,0:0:0:0:
64,192,77760,1,0,0:0:0:0:
320,192,77760,1,0,0:0:0:0:
192,192,77863,1,0,0:0:0:0:
64,192,77965,1,0,0:0:0:0:
448,192,77965,1,0,0:0:0:0:
320,192,78068,1,0,0:0:0:0:
192,192,78171,1,0,0:0:0:0:
320,192,78171,1,0,0:0:0:0:
64,192,78274,1,0,0:0:0:0:
448,192,78376,1,0,0:0:0:0:
320,192,78376,1,0,0:0:0:0:
192,192,78376,1,0,0:0:0:0:
448,192,78582,1,0,0:0:0:0:
64,192,78582,1,0,0:0:0:0:
192,192,78685,1,0,0:0:0:0:
320,192,78787,1,0,0:0:0:0:
192,192,78787,1,0,0:0:0:0:
320,192,78993,1,0,0:0:0:0:
320,192,79198,1,0,0:0:0:0:
320,192,79404,1,0,0:0:0:0:
320,192,79609,1,0,0:0:0:0:
320,192,79815,1,0,0:0:0:0:
320,192,80020,1,0,0:0:0:0:
320,192,80226,1,0,0:0:0:0:
64,192,80431,1,0,0:0:0:0:
448,192,80431,1,0,0:0:0:0:
192,192,80431,128,0,82075:0:0:0:0:
64,192,82075,128,0,83719:0:0:0:0:
448,192,83719,128,0,85363:0:0:0:0:
320,192,85363,128,0,87006:0:0:0:0:
192,192,87006,128,0,88650:0:0:0:0:
64,192,88650,128,0,90294:0:0:0:0:
320,192,90294,128,0,91938:0:0:0:0:
448,192,91938,128,0,93582:0:0:0:0:
64,192,93582,1,0,0:0:0:0:
192,192,93582,1,0,0:0:0:0:
320,192,93582,1,0,0:0:0:0:
64,192,94404,1,0,0:0:0:0:
320,192,94404,1,0,0:0:0:0:
448,192,94404,1,0,0:0:0:0:
192,192,94404,1,0,0:0:0:0:
64,192,95226,1,0,0:0:0:0:
192,192,95226,1,0,0:0:0:0:
448,192,95226,1,0,0:0:0:0:
64,192,95637,1,0,0:0:0:0:
192,192,95637,1,0,0:0:0:0:
448,192,95637,1,0,0:0:0:0:
320,192,96048,1,0,0:0:0:0:
448,192,96048,1,0,0:0:0:0:
192,192,96048,1,0,0:0:0:0:
64,192,96048,1,0,0:0:0:0:
448,192,96459,128,0,96869:0:0:0:0:
64,192,96869,1,0,0:0:0:0:
192,192,96869,1,0,0:0:0:0:
320,192,96869,1,0,0:0:0:0:
320,192,97691,1,0,0:0:0:0:
64,192,97691,1,0,0:0:0:0:
448,192,97691,1,0,0:0:0:0:
192,192,97691,1,0,0:0:0:0:
192,192,98308,1,0,0:0:0:0:
320,192,98308,1,0,0:0:0:0:
448,192,98308,1,0,0:0:0:0:
320,192,98513,1,0,0:0:0:0:
192,192,98513,1,0,0:0:0:0:
448,192,98513,1,0,0:0:0:0:
192,192,98924,1,0,0:0:0:0:
320,192,98924,1,0,0:0:0:0:
448,192,98924,1,0,0:0:0:0:
64,192,99335,1,0,0:0:0:0:
192,192,99335,1,0,0:0:0:0:
448,192,99335,1,0,0:0:0:0:
320,192,99335,1,0,0:0:0:0:
320,192,99746,128,0,100157:0:0:0:0:
64,192,100157,1,0,0:0:0:0:
192,192,100157,1,0,0:0:0:0:
448,192,100157,1,0,0:0:0:0:
64,192,100979,1,0,0:0:0:0:
320,192,100979,1,0,0:0:0:0:
448,192,100979,1,0,0:0:0:0:
192,192,100979,1,0,0:0:0:0:
192,192,101801,1,0,0:0:0:0:
320,192,101801,1,0,0:0:0:0:
64,192,101801,1,0,0:0:0:0:
192,192,102212,1,0,0:0:0:0:
320,192,102212,1,0,0:0:0:0:
64,192,102212,1,0,0:0:0:0:
320,192,102623,1,0,0:0:0:0:
448,192,102623,1,0,0:0:0:0:
192,192,102623,1,0,0:0:0:0:
64,192,102623,1,0,0:0:0:0:
192,192,103034,128,0,103445:0:0:0:0:
64,192,103445,1,0,0:0:0:0:
320,192,103445,1,0,0:0:0:0:
448,192,103445,1,0,0:0:0:0:
64,192,104267,1,0,0:0:0:0:
192,192,104267,1,0,0:0:0:0:
320,192,104267,1,0,0:0:0:0:
448,192,104267,1,0,0:0:0:0:
64,192,104883,1,0,0:0:0:0:
192,192,104883,1,0,0:0:0:0:
320,192,104883,1,0,0:0:0:0:
320,192,105089,1,0,0:0:0:0:
192,192,105089,1,0,0:0:0:0:
64,192,105089,1,0,0:0:0:0:
64,192,105500,1,0,0:0:0:0:
192,192,105500,1,0,0:0:0:0:
320,192,105500,1,0,0:0:0:0:
64,192,105911,1,0,0:0:0:0:
192,192,105911,1,0,0:0:0:0:
320,192,105911,1,0,0:0:0:0:
448,192,105911,1,0,0:0:0:0:
320,192,106322,128,0,106732:0:0:0:0:
448,192,106732,1,0,0:0:0:0:
64,192,106732,1,0,0:0:0:0:
192,192,106835,1,0,0:0:0:0:
320,192,106938,1,0,0:0:0:0:
192,192,107041,1,0,0:0:0:0:
448,192,107143,1,0,0:0:0:0:
64,192,107143,1,0,0:0:0:0:
192,192,107246,1,0,0:0:0:0:
320,192,107349,1,0,0:0:0:0:
192,192,107452,1,0,0:0:0:0:
448,192,107554,1,0,0:0:0:0:
64,192,107554,1,0,0:0:0:0:
192,192,107657,1,0,0:0:0:0:
320,192,107760,1,0,0:0:0:0:
192,192,107863,1,0,0:0:0:0:
448,192,107965,1,0,0:0:0:0:
64,192,107965,1,0,0:0:0:0:
448,192,108376,1,0,0:0:0:0:
192,192,108376,1,0,0:0:0:0:
64,192,108479,1,0,0:0:0:0:
320,192,108582,1,0,0:0:0:0:
64,192,108685,1,0,0:0:0:0:
448,192,108787,1,0,0:0:0:0:
192,192,108787,1,0,0:0:0:0:
64,192,108890,1,0,0:0:0:0:
320,192,108993,1,0,0:0:0:0:
64,192,109095,1,0,0:0:0:0:
448,192,109198,1,0,0:0:0:0:
192,192,109198,1,0,0:0:0:0:
320,192,109301,1,0,0:0:0:0:
448,192,109404,1,0,0:0:0:0:
192,192,109404,1,0,0:0:0:0:
64,192,109506,1,0,0:0:0:0:
320,192,109609,1,0,0:0:0:0:
448,192,109712,1,0,0:0:0:0:
192,192,109712,1,0,0:0:0:0:
64,192,109815,1,0,0:0:0:0:
448,192,109917,1,0,0:0:0:0:
192,192,109917,1,0,0:0:0:0:
320,192,110020,1,0,0:0:0:0:
64,192,110020,1,0,0:0:0:0:
192,192,110123,1,0,0:0:0:0:
320,192,110226,1,0,0:0:0:0:
448,192,110328,1,0,0:0:0:0:
320,192,110431,1,0,0:0:0:0:
64,192,110431,1,0,0:0:0:0:
192,192,110534,1,0,0:0:0:0:
320,192,110637,1,0,0:0:0:0:
448,192,110739,1,0,0:0:0:0:
320,192,110842,1,0,0:0:0:0:
64,192,110842,1,0,0:0:0:0:
192,192,110945,1,0,0:0:0:0:
320,192,111048,1,0,0:0:0:0:
448,192,111150,1,0,0:0:0:0:
320,192,111253,1,0,0:0:0:0:
64,192,111253,1,0,0:0:0:0:
320,192,111664,1,0,0:0:0:0:
192,192,111664,1,0,0:0:0:0:
448,192,111767,1,0,0:0:0:0:
64,192,111869,1,0,0:0:0:0:
448,192,111972,1,0,0:0:0:0:
320,192,112075,1,0,0:0:0:0:
192,192,112075,1,0,0:0:0:0:
448,192,112178,1,0,0:0:0:0:
64,192,112280,1,0,0:0:0:0:
320,192,112383,1,0,0:0:0:0:
192,192,112383,1,0,0:0:0:0:
448,192,112486,1,0,0:0:0:0:
64,192,112589,1,0,0:0:0:0:
320,192,112691,1,0,0:0:0:0:
192,192,112691,1,0,0:0:0:0:
448,192,112794,1,0,0:0:0:0:
320,192,112897,1,0,0:0:0:0:
192,192,112897,1,0,0:0:0:0:
448,192,113000,1,0,0:0:0:0:
64,192,113000,1,0,0:0:0:0:
320,192,113102,1,0,0:0:0:0:
192,192,113102,1,0,0:0:0:0:
448,192,113205,1,0,0:0:0:0:
64,192,113205,1,0,0:0:0:0:
64,192,113308,1,0,0:0:0:0:
320,192,113308,1,0,0:0:0:0:
192,192,113308,1,0,0:0:0:0:
320,192,113513,1,0,0:0:0:0:
448,192,113513,1,0,0:0:0:0:
192,192,113616,1,0,0:0:0:0:
320,192,113719,1,0,0:0:0:0:
448,192,113719,1,0,0:0:0:0:
448,192,113924,1,0,0:0:0:0:
320,192,113924,1,0,0:0:0:0:
448,192,114130,1,0,0:0:0:0:
320,192,114130,1,0,0:0:0:0:
448,192,114335,1,0,0:0:0:0:
320,192,114335,1,0,0:0:0:0:
448,192,114541,1,0,0:0:0:0:
320,192,114541,1,0,0:0:0:0:
448,192,114746,1,0,0:0:0:0:
320,192,114746,1,0,0:0:0:0:
192,192,114849,1,0,0:0:0:0:
320,192,114952,1,0,0:0:0:0:
64,192,114952,1,0,0:0:0:0:
320,192,115157,1,0,0:0:0:0:
64,192,115157,1,0,0:0:0:0:
320,192,115363,1,0,0:0:0:0:
64,192,115363,1,0,0:0:0:0:
320,192,115568,1,0,0:0:0:0:
64,192,115568,1,0,0:0:0:0:
320,192,115774,1,0,0:0:0:0:
64,192,115774,1,0,0:0:0:0:
320,192,115979,1,0,0:0:0:0:
64,192,115979,1,0,0:0:0:0:
320,192,116185,1,0,0:0:0:0:
64,192,116185,1,0,0:0:0:0:
448,192,116287,1,0,0:0:0:0:
192,192,116287,1,0,0:0:0:0:
320,192,116390,1,0,0:0:0:0:
64,192,116390,1,0,0:0:0:0:
448,192,116493,1,0,0:0:0:0:
192,192,116493,1,0,0:0:0:0:
320,192,116595,1,0,0:0:0:0:
64,192,116595,1,0,0:0:0:0:
192,192,116595,1,0,0:0:0:0:
448,192,116698,1,0,0:0:0:0:
192,192,116801,1,0,0:0:0:0:
64,192,116801,1,0,0:0:0:0:
448,192,116904,1,0,0:0:0:0:
320,192,117006,1,0,0:0:0:0:
192,192,117006,1,0,0:0:0:0:
64,192,117006,1,0,0:0:0:0:
448,192,117109,5,0,0:0:0:0:
64,192,117212,1,0,0:0:0:0:
192,192,117212,1,0,0:0:0:0:
448,192,117315,1,0,0:0:0:0:
320,192,117417,1,0,0:0:0:0:
64,192,117417,1,0,0:0:0:0:
192,192,117417,1,0,0:0:0:0:
448,192,117520,1,0,0:0:0:0:
64,192,117623,1,0,0:0:0:0:
192,192,117623,1,0,0:0:0:0:
448,192,117726,1,0,0:0:0:0:
320,192,117828,1,0,0:0:0:0:
192,192,117828,1,0,0:0:0:0:
64,192,117828,1,0,0:0:0:0:
448,192,117931,1,0,0:0:0:0:
64,192,118034,1,0,0:0:0:0:
192,192,118034,1,0,0:0:0:0:
448,192,118137,1,0,0:0:0:0:
64,192,118239,1,0,0:0:0:0:
192,192,118239,1,0,0:0:0:0:
320,192,118239,128,0,118445:0:0:0:0:
448,192,118445,1,0,0:0:0:0:
320,192,118548,128,0,118650:0:0:0:0:
64,192,118650,1,0,0:0:0:0:
192,192,118753,128,0,118959:0:0:0:0:
320,192,118959,1,0,0:0:0:0:
64,192,119061,128,0,119267:0:0:0:0:
320,192,119267,1,0,0:0:0:0:
64,192,119369,128,0,119678:0:0:0:0:
192,192,119472,128,0,119678:0:0:0:0:
448,192,119678,128,0,119883:0:0:0:0:
320,192,119678,128,0,119883:0:0:0:0:
192,192,119883,128,0,120294:0:0:0:0:
64,192,119883,128,0,120294:0:0:0:0:
320,192,120294,1,0,0:0:0:0:
448,192,120294,1,0,0:0:0:0:
320,192,120397,1,0,0:0:0:0:
448,192,120397,1,0,0:0:0:0:
192,192,120500,1,0,0:0:0:0:
64,192,120602,1,0,0:0:0:0:
192,192,120705,1,0,0:0:0:0:
320,192,120705,1,0,0:0:0:0:
448,192,120705,1,0,0:0:0:0:
320,192,120911,1,0,0:0:0:0:
192,192,121013,1,0,0:0:0:0:
64,192,121116,128,0,121527:0:0:0:0:
448,192,121253,128,0,121527:0:0:0:0:
192,192,121390,128,0,121527:0:0:0:0:
320,192,121527,1,0,0:0:0:0:
192,192,121630,128,0,121835:0:0:0:0:
320,192,121835,1,0,0:0:0:0:
448,192,121835,1,0,0:0:0:0:
64,192,121938,1,0,0:0:0:0:
192,192,121972,1,0,0:0:0:0:
320,192,122006,1,0,0:0:0:0:
448,192,122041,1,0,0:0:0:0:
64,192,122075,1,0,0:0:0:0:
192,192,122109,1,0,0:0:0:0:
320,192,122143,1,0,0:0:0:0:
448,192,122143,1,0,0:0:0:0:
320,192,122246,1,0,0:0:0:0:
448,192,122246,1,0,0:0:0:0:
192,192,122349,1,0,0:0:0:0:
64,192,122349,1,0,0:0:0:0:
448,192,122349,1,0,0:0:0:0:
320,192,122452,1,0,0:0:0:0:
320,192,122554,1,0,0:0:0:0:
320,192,122657,1,0,0:0:0:0:
64,192,122760,1,0,0:0:0:0:
192,192,122760,1,0,0:0:0:0:
448,192,122863,1,0,0:0:0:0:
320,192,122863,1,0,0:0:0:0:
320,192,122965,1,0,0:0:0:0:
64,192,122965,1,0,0:0:0:0:
192,192,123068,1,0,0:0:0:0:
448,192,123068,1,0,0:0:0:0:
448,192,123171,1,0,0:0:0:0:
64,192,123171,128,0,123582:0:0:0:0:
320,192,123171,128,0,123582:0:0:0:0:
192,192,123582,1,0,0:0:0:0:
448,192,123582,1,0,0:0:0:0:
192,192,123685,128,0,123787:0:0:0:0:
448,192,123685,128,0,123787:0:0:0:0:
192,192,123890,1,0,0:0:0:0:
448,192,123890,1,0,0:0:0:0:
192,192,123993,1,0,0:0:0:0:
64,192,123993,128,0,124198:0:0:0:0:
448,192,123993,1,0,0:0:0:0:
320,192,123993,128,0,124404:0:0:0:0:
448,192,124198,128,0,124404:0:0:0:0:
64,192,124404,1,0,0:0:0:0:
192,192,124404,1,0,0:0:0:0:
320,192,124506,1,0,0:0:0:0:
64,192,124506,1,0,0:0:0:0:
448,192,124609,1,0,0:0:0:0:
192,192,124609,1,0,0:0:0:0:
320,192,124712,1,0,0:0:0:0:
448,192,124712,1,0,0:0:0:0:
192,192,124815,1,0,0:0:0:0:
64,192,124815,1,0,0:0:0:0:
448,192,124815,1,0,0:0:0:0:
192,192,124917,1,0,0:0:0:0:
192,192,125020,1,0,0:0:0:0:
64,192,125123,1,0,0:0:0:0:
448,192,125123,1,0,0:0:0:0:
320,192,125123,1,0,0:0:0:0:
320,192,125226,1,0,0:0:0:0:
192,192,125328,1,0,0:0:0:0:
64,192,125431,1,0,0:0:0:0:
320,192,125534,1,0,0:0:0:0:
192,192,125534,1,0,0:0:0:0:
448,192,125534,1,0,0:0:0:0:
64,192,125637,1,0,0:0:0:0:
448,192,125637,1,0,0:0:0:0:
192,192,125637,1,0,0:0:0:0:
64,192,125739,1,0,0:0:0:0:
192,192,125842,1,0,0:0:0:0:
320,192,125945,1,0,0:0:0:0:
64,192,126048,1,0,0:0:0:0:
320,192,126048,1,0,0:0:0:0:
448,192,126048,1,0,0:0:0:0:
192,192,126150,128,0,126459:0:0:0:0:
448,192,126150,1,0,0:0:0:0:
320,192,126459,128,0,126869:0:0:0:0:
448,192,126459,128,0,126869:0:0:0:0:
64,192,126459,1,0,0:0:0:0:
64,192,126869,1,0,0:0:0:0:
192,192,126869,1,0,0:0:0:0:
64,192,126972,1,0,0:0:0:0:
192,192,126972,1,0,0:0:0:0:
320,192,127075,1,0,0:0:0:0:
448,192,127178,1,0,0:0:0:0:
64,192,127280,1,0,0:0:0:0:
192,192,127280,1,0,0:0:0:0:
320,192,127280,1,0,0:0:0:0:
448,192,127383,1,0,0:0:0:0:
320,192,127435,1,0,0:0:0:0:
192,192,127486,1,0,0:0:0:0:
64,192,127537,1,0,0:0:0:0:
192,192,127589,128,0,127691:0:0:0:0:
320,192,127691,128,0,128102:0:0:0:0:
448,192,127828,128,0,128102:0:0:0:0:
64,192,127965,128,0,128102:0:0:0:0:
192,192,128102,1,0,0:0:0:0:
320,192,128205,128,0,128411:0:0:0:0:
192,192,128411,1,0,0:0:0:0:
64,192,128411,1,0,0:0:0:0:
320,192,128513,1,0,0:0:0:0:
448,192,128548,1,0,0:0:0:0:
64,192,128582,1,0,0:0:0:0:
192,192,128616,1,0,0:0:0:0:
320,192,128650,1,0,0:0:0:0:
448,192,128685,1,0,0:0:0:0:
64,192,128719,1,0,0:0:0:0:
192,192,128719,1,0,0:0:0:0:
64,192,128822,1,0,0:0:0:0:
192,192,128822,1,0,0:0:0:0:
448,192,128924,1,0,0:0:0:0:
320,192,128924,1,0,0:0:0:0:
64,192,128924,1,0,0:0:0:0:
192,192,129027,1,0,0:0:0:0:
192,192,129130,1,0,0:0:0:0:
192,192,129232,1,0,0:0:0:0:
64,192,129335,1,0,0:0:0:0:
448,192,129335,1,0,0:0:0:0:
320,192,129438,1,0,0:0:0:0:
448,192,129438,1,0,0:0:0:0:
64,192,129541,1,0,0:0:0:0:
192,192,129541,1,0,0:0:0:0:
192,192,129643,1,0,0:0:0:0:
448,192,129643,1,0,0:0:0:0:
64,192,129746,1,0,0:0:0:0:
448,192,129746,1,0,0:0:0:0:
320,192,129746,128,0,129798:0:0:0:0:
320,192,129849,128,0,129900:0:0:0:0:
320,192,129952,128,0,130003:0:0:0:0:
320,192,130054,128,0,130106:0:0:0:0:
192,192,130157,1,0,0:0:0:0:
192,192,130260,1,0,0:0:0:0:
192,192,130363,1,0,0:0:0:0:
192,192,130465,1,0,0:0:0:0:
64,192,130568,1,0,0:0:0:0:
320,192,130568,1,0,0:0:0:0:
448,192,130568,1,0,0:0:0:0:
448,192,130671,128,0,130979:0:0:0:0:
192,192,130774,128,0,130979:0:0:0:0:
64,192,130979,1,0,0:0:0:0:
320,192,130979,1,0,0:0:0:0:
64,192,131082,1,0,0:0:0:0:
320,192,131082,1,0,0:0:0:0:
192,192,131185,1,0,0:0:0:0:
448,192,131185,1,0,0:0:0:0:
320,192,131287,1,0,0:0:0:0:
448,192,131287,1,0,0:0:0:0:
64,192,131390,128,0,131801:0:0:0:0:
192,192,131390,1,0,0:0:0:0:
320,192,131390,1,0,0:0:0:0:
192,192,131595,128,0,131801:0:0:0:0:
448,192,131801,1,0,0:0:0:0:
320,192,131904,1,0,0:0:0:0:
192,192,132006,1,0,0:0:0:0:
64,192,132109,128,0,132315:0:0:0:0:
448,192,132109,128,0,132315:0:0:0:0:
320,192,132109,1,0,0:0:0:0:
320,192,132315,1,0,0:0:0:0:
192,192,132417,1,0,0:0:0:0:
192,192,132520,1,0,0:0:0:0:
320,192,132623,1,0,0:0:0:0:
448,192,132623,1,0,0:0:0:0:
64,192,132623,1,0,0:0:0:0:
192,192,132828,128,0,133034:0:0:0:0:
320,192,132931,128,0,133034:0:0:0:0:
448,192,133034,1,0,0:0:0:0:
64,192,133034,1,0,0:0:0:0:
192,192,133239,1,0,0:0:0:0:
192,192,133342,1,0,0:0:0:0:
448,192,133445,1,0,0:0:0:0:
448,192,133548,1,0,0:0:0:0:
320,192,133650,1,0,0:0:0:0:
320,192,133753,1,0,0:0:0:0:
64,192,133856,1,0,0:0:0:0:
448,192,133856,1,0,0:0:0:0:
64,192,133959,1,0,0:0:0:0:
448,192,133959,1,0,0:0:0:0:
192,192,134061,1,0,0:0:0:0:
320,192,134061,1,0,0:0:0:0:
320,192,134164,1,0,0:0:0:0:
192,192,134164,1,0,0:0:0:0:
64,192,134267,1,0,0:0:0:0:
448,192,134267,1,0,0:0:0:0:
320,192,134369,128,0,134575:0:0:0:0:
64,192,134472,128,0,134575:0:0:0:0:
192,192,134575,1,0,0:0:0:0:
448,192,134575,1,0,0:0:0:0:
448,192,134678,128,0,135089:0:0:0:0:
192,192,134678,128,0,135089:0:0:0:0:
64,192,134678,128,0,135089:0:0:0:0:
320,192,135089,1,0,0:0:0:0:
192,192,135123,1,0,0:0:0:0:
64,192,135157,1,0,0:0:0:0:
448,192,135191,1,0,0:0:0:0:
320,192,135226,1,0,0:0:0:0:
192,192,135260,1,0,0:0:0:0:
64,192,135294,1,0,0:0:0:0:
448,192,135294,1,0,0:0:0:0:
448,192,135397,1,0,0:0:0:0:
64,192,135397,1,0,0:0:0:0:
320,192,135500,1,0,0:0:0:0:
448,192,135500,1,0,0:0:0:0:
64,192,135500,1,0,0:0:0:0:
192,192,135602,1,0,0:0:0:0:
192,192,135705,1,0,0:0:0:0:
192,192,135808,1,0,0:0:0:0:
448,192,135911,1,0,0:0:0:0:
320,192,135911,1,0,0:0:0:0:
192,192,136013,1,0,0:0:0:0:
64,192,136013,1,0,0:0:0:0:
448,192,136116,1,0,0:0:0:0:
192,192,136116,1,0,0:0:0:0:
320,192,136219,1,0,0:0:0:0:
64,192,136219,1,0,0:0:0:0:
448,192,136322,128,0,136732:0:0:0:0:
192,192,136322,1,0,0:0:0:0:
320,192,136732,1,0,0:0:0:0:
64,192,136732,1,0,0:0:0:0:
64,192,136835,128,0,136938:0:0:0:0:
320,192,136835,128,0,136938:0:0:0:0:
64,192,137041,1,0,0:0:0:0:
320,192,137041,1,0,0:0:0:0:
448,192,137143,128,0,137554:0:0:0:0:
192,192,137143,128,0,137349:0:0:0:0:
64,192,137143,1,0,0:0:0:0:
320,192,137143,1,0,0:0:0:0:
64,192,137349,128,0,137554:0:0:0:0:
320,192,137554,1,0,0:0:0:0:
192,192,137554,1,0,0:0:0:0:
320,192,137657,1,0,0:0:0:0:
192,192,137657,1,0,0:0:0:0:
64,192,137760,1,0,0:0:0:0:
448,192,137760,1,0,0:0:0:0:
192,192,137863,1,0,0:0:0:0:
448,192,137863,1,0,0:0:0:0:
64,192,137965,1,0,0:0:0:0:
192,192,137965,1,0,0:0:0:0:
320,192,137965,1,0,0:0:0:0:
320,192,138068,1,0,0:0:0:0:
320,192,138171,1,0,0:0:0:0:
64,192,138274,1,0,0:0:0:0:
448,192,138274,1,0,0:0:0:0:
192,192,138274,1,0,0:0:0:0:
64,192,138376,1,0,0:0:0:0:
192,192,138479,1,0,0:0:0:0:
320,192,138582,1,0,0:0:0:0:
448,192,138685,1,0,0:0:0:0:
192,192,138685,1,0,0:0:0:0:
64,192,138685,1,0,0:0:0:0:
64,192,138787,1,0,0:0:0:0:
192,192,138787,1,0,0:0:0:0:
320,192,138787,1,0,0:0:0:0:
448,192,138890,1,0,0:0:0:0:
320,192,138993,1,0,0:0:0:0:
192,192,139095,1,0,0:0:0:0:
64,192,139198,1,0,0:0:0:0:
320,192,139198,1,0,0:0:0:0:
448,192,139198,1,0,0:0:0:0:
192,192,139301,128,0,139609:0:0:0:0:
320,192,139301,128,0,139609:0:0:0:0:
448,192,139301,128,0,139609:0:0:0:0:
64,192,139609,128,0,140020:0:0:0:0:
192,192,140020,1,0,0:0:0:0:
448,192,140020,1,0,0:0:0:0:
192,192,140123,1,0,0:0:0:0:
448,192,140123,1,0,0:0:0:0:
192,192,140226,1,0,0:0:0:0:
320,192,140226,1,0,0:0:0:0:
64,192,140328,1,0,0:0:0:0:
448,192,140328,1,0,0:0:0:0:
192,192,140431,1,0,0:0:0:0:
320,192,140431,1,0,0:0:0:0:
448,192,140431,1,0,0:0:0:0:
64,192,140637,1,0,0:0:0:0:
448,192,140637,1,0,0:0:0:0:
192,192,140739,1,0,0:0:0:0:
320,192,140739,1,0,0:0:0:0:
448,192,140739,1,0,0:0:0:0:
192,192,140979,128,0,141253:0:0:0:0:
320,192,141116,128,0,141253:0:0:0:0:
64,192,141253,1,0,0:0:0:0:
448,192,141253,1,0,0:0:0:0:
320,192,141356,128,0,141561:0:0:0:0:
64,192,141561,1,0,0:0:0:0:
192,192,141561,1,0,0:0:0:0:
448,192,141664,1,0,0:0:0:0:
320,192,141698,1,0,0:0:0:0:
192,192,141732,1,0,0:0:0:0:
64,192,141767,1,0,0:0:0:0:
448,192,141801,1,0,0:0:0:0:
320,192,141835,1,0,0:0:0:0:
192,192,141869,1,0,0:0:0:0:
64,192,141869,1,0,0:0:0:0:
192,192,141972,1,0,0:0:0:0:
64,192,141972,1,0,0:0:0:0:
64,192,142075,1,0,0:0:0:0:
320,192,142075,1,0,0:0:0:0:
448,192,142075,1,0,0:0:0:0:
320,192,142178,1,0,0:0:0:0:
320,192,142280,1,0,0:0:0:0:
320,192,142383,1,0,0:0:0:0:
192,192,142486,1,0,0:0:0:0:
448,192,142486,1,0,0:0:0:0:
448,192,142589,1,0,0:0:0:0:
64,192,142589,1,0,0:0:0:0:
64,192,142691,1,0,0:0:0:0:
320,192,142691,1,0,0:0:0:0:
192,192,142794,1,0,0:0:0:0:
320,192,142794,1,0,0:0:0:0:
64,192,142897,1,0,0:0:0:0:
448,192,142897,1,0,0:0:0:0:
192,192,142897,128,0,142948:0:0:0:0:
192,192,143000,128,0,143051:0:0:0:0:
192,192,143102,128,0,143154:0:0:0:0:
192,192,143205,128,0,143256:0:0:0:0:
320,192,143308,1,0,0:0:0:0:
320,192,143411,1,0,0:0:0:0:
320,192,143513,1,0,0:0:0:0:
320,192,143616,1,0,0:0:0:0:
64,192,143719,1,0,0:0:0:0:
192,192,143719,1,0,0:0:0:0:
448,192,143719,1,0,0:0:0:0:
320,192,143822,128,0,144130:0:0:0:0:
64,192,143924,128,0,144130:0:0:0:0:
192,192,144130,1,0,0:0:0:0:
448,192,144130,1,0,0:0:0:0:
192,192,144232,1,0,0:0:0:0:
320,192,144232,1,0,0:0:0:0:
448,192,144335,1,0,0:0:0:0:
64,192,144335,1,0,0:0:0:0:
64,192,144438,1,0,0:0:0:0:
320,192,144438,1,0,0:0:0:0:
192,192,144541,128,0,145774:0:0:0:0:
448,192,144541,1,0,0:0:0:0:
448,192,144746,1,0,0:0:0:0:
448,192,144952,1,0,0:0:0:0:
448,192,145157,1,0,0:0:0:0:
448,192,145363,1,0,0:0:0:0:
448,192,145568,1,0,0:0:0:0:
448,192,145774,1,0,0:0:0:0:
320,192,145774,1,0,0:0:0:0:
64,192,145774,1,0,0:0:0:0:
192,192,145979,128,0,146185:0:0:0:0:
448,192,146185,1,0,0:0:0:0:
64,192,146185,1,0,0:0:0:0:
320,192,146287,1,0,0:0:0:0:
192,192,146390,1,0,0:0:0:0:
320,192,146493,1,0,0:0:0:0:
448,192,146595,1,0,0:0:0:0:
64,192,146595,1,0,0:0:0:0:
320,192,146698,1,0,0:0:0:0:
192,192,146801,1,0,0:0:0:0:
320,192,146904,1,0,0:0:0:0:
448,192,147006,1,0,0:0:0:0:
64,192,147006,1,0,0:0:0:0:
320,192,147109,1,0,0:0:0:0:
192,192,147212,1,0,0:0:0:0:
320,192,147315,1,0,0:0:0:0:
448,192,147417,1,0,0:0:0:0:
64,192,147417,1,0,0:0:0:0:
320,192,147828,1,0,0:0:0:0:
64,192,147828,1,0,0:0:0:0:
448,192,147931,1,0,0:0:0:0:
192,192,148034,1,0,0:0:0:0:
448,192,148137,1,0,0:0:0:0:
320,192,148239,1,0,0:0:0:0:
64,192,148239,1,0,0:0:0:0:
448,192,148342,1,0,0:0:0:0:
192,192,148445,1,0,0:0:0:0:
448,192,148548,1,0,0:0:0:0:
320,192,148650,1,0,0:0:0:0:
64,192,148650,1,0,0:0:0:0:
192,192,148753,1,0,0:0:0:0:
320,192,148856,1,0,0:0:0:0:
64,192,148856,1,0,0:0:0:0:
448,192,148959,1,0,0:0:0:0:
192,192,149061,1,0,0:0:0:0:
320,192,149164,1,0,0:0:0:0:
64,192,149164,1,0,0:0:0:0:
448,192,149267,1,0,0:0:0:0:
320,192,149369,1,0,0:0:0:0:
64,192,149369,1,0,0:0:0:0:
192,192,149472,1,0,0:0:0:0:
448,192,149472,128,0,149678:0:0:0:0:
320,192,149575,1,0,0:0:0:0:
192,192,149678,1,0,0:0:0:0:
64,192,149780,1,0,0:0:0:0:
192,192,149883,1,0,0:0:0:0:
448,192,149883,128,0,150089:0:0:0:0:
320,192,149986,1,0,0:0:0:0:
192,192,150089,1,0,0:0:0:0:
64,192,150191,1,0,0:0:0:0:
192,192,150294,1,0,0:0:0:0:
448,192,150294,128,0,150500:0:0:0:0:
320,192,150397,1,0,0:0:0:0:
192,192,150500,1,0,0:0:0:0:
64,192,150602,1,0,0:0:0:0:
192,192,150705,1,0,0:0:0:0:
448,192,150705,128,0,150911:0:0:0:0:
192,192,151116,1,0,0:0:0:0:
320,192,151116,128,0,151322:0:0:0:0:
64,192,151219,1,0,0:0:0:0:
448,192,151322,1,0,0:0:0:0:
64,192,151424,1,0,0:0:0:0:
192,192,151527,1,0,0:0:0:0:
320,192,151527,128,0,151732:0:0:0:0:
64,192,151630,1,0,0:0:0:0:
448,192,151732,1,0,0:0:0:0:
192,192,151835,1,0,0:0:0:0:
64,192,151835,1,0,0:0:0:0:
320,192,151938,128,0,152143:0:0:0:0:
448,192,152041,1,0,0:0:0:0:
192,192,152143,1,0,0:0:0:0:
64,192,152143,1,0,0:0:0:0:
448,192,152246,1,0,0:0:0:0:
192,192,152349,1,0,0:0:0:0:
320,192,152349,128,0,152554:0:0:0:0:
448,192,152452,1,0,0:0:0:0:
64,192,152452,1,0,0:0:0:0:
192,192,152554,1,0,0:0:0:0:
448,192,152657,1,0,0:0:0:0:
64,192,152657,1,0,0:0:0:0:
320,192,152760,1,0,0:0:0:0:
448,192,152760,1,0,0:0:0:0:
192,192,152760,128,0,152863:0:0:0:0:
64,192,152965,1,0,0:0:0:0:
192,192,152965,128,0,153068:0:0:0:0:
320,192,153068,1,0,0:0:0:0:
64,192,153171,1,0,0:0:0:0:
192,192,153171,128,0,153274:0:0:0:0:
64,192,153376,1,0,0:0:0:0:
192,192,153376,128,0,153479:0:0:0:0:
64,192,153582,1,0,0:0:0:0:
192,192,153582,128,0,153685:0:0:0:0:
64,192,153787,1,0,0:0:0:0:
192,192,153787,128,0,153890:0:0:0:0:
64,192,153993,1,0,0:0:0:0:
192,192,153993,128,0,154095:0:0:0:0:
64,192,154198,1,0,0:0:0:0:
192,192,154198,128,0,154301:0:0:0:0:
320,192,154301,1,0,0:0:0:0:
192,192,154404,1,0,0:0:0:0:
448,192,154404,128,0,154506:0:0:0:0:
192,192,154609,1,0,0:0:0:0:
448,192,154609,128,0,154712:0:0:0:0:
192,192,154815,1,0,0:0:0:0:
448,192,154815,128,0,154917:0:0:0:0:
192,192,155020,1,0,0:0:0:0:
448,192,155020,128,0,155123:0:0:0:0:
192,192,155226,1,0,0:0:0:0:
448,192,155226,128,0,155328:0:0:0:0:
192,192,155431,1,0,0:0:0:0:
448,192,155431,128,0,155534:0:0:0:0:
192,192,155637,1,0,0:0:0:0:
448,192,155637,128,0,155739:0:0:0:0:
320,192,155739,1,0,0:0:0:0:
64,192,155739,1,0,0:0:0:0:
192,192,155842,1,0,0:0:0:0:
448,192,155842,128,0,155945:0:0:0:0:
320,192,155945,1,0,0:0:0:0:
64,192,155945,1,0,0:0:0:0:
192,192,156048,1,0,0:0:0:0:
448,192,156048,128,0,156150:0:0:0:0:
64,192,156150,128,0,156253:0:0:0:0:
448,192,156253,1,0,0:0:0:0:
320,192,156253,128,0,156356:0:0:0:0:
64,192,156356,128,0,156459:0:0:0:0:
448,192,156459,1,0,0:0:0:0:
192,192,156459,1,0,0:0:0:0:
320,192,156459,128,0,156561:0:0:0:0:
64,192,156561,128,0,156664:0:0:0:0:
448,192,156664,1,0,0:0:0:0:
320,192,156664,128,0,156767:0:0:0:0:
64,192,156767,128,0,156869:0:0:0:0:
448,192,156869,1,0,0:0:0:0:
192,192,156869,1,0,0:0:0:0:
320,192,156869,128,0,156972:0:0:0:0:
64,192,156972,128,0,157075:0:0:0:0:
448,192,157075,1,0,0:0:0:0:
320,192,157075,128,0,157178:0:0:0:0:
64,192,157178,128,0,157280:0:0:0:0:
448,192,157280,1,0,0:0:0:0:
192,192,157280,1,0,0:0:0:0:
320,192,157280,128,0,157383:0:0:0:0:
64,192,157383,128,0,157486:0:0:0:0:
448,192,157486,1,0,0:0:0:0:
320,192,157486,128,0,157589:0:0:0:0:
64,192,157589,128,0,157691:0:0:0:0:
192,192,157691,1,0,0:0:0:0:
448,192,157691,128,0,157794:0:0:0:0:
448,192,157897,128,0,158000:0:0:0:0:
320,192,158102,128,0,158205:0:0:0:0:
320,192,158308,128,0,158411:0:0:0:0:
192,192,158513,128,0,158616:0:0:0:0:
192,192,158719,128,0,158822:0:0:0:0:
64,192,158924,128,0,159335:0:0:0:0:
448,192,158924,128,0,159335:0:0:0:0:
192,192,159335,1,0,0:0:0:0:
320,192,159335,1,0,0:0:0:0:
64,192,159387,1,0,0:0:0:0:
192,192,159438,1,0,0:0:0:0:
320,192,159489,1,0,0:0:0:0:
448,192,159541,1,0,0:0:0:0:
320,192,159592,1,0,0:0:0:0:
192,192,159643,1,0,0:0:0:0:
448,192,159746,1,0,0:0:0:0:
64,192,159746,1,0,0:0:0:0:
320,192,159798,1,0,0:0:0:0:
192,192,159849,1,0,0:0:0:0:
64,192,159900,1,0,0:0:0:0:
192,192,159952,1,0,0:0:0:0:
320,192,160003,1,0,0:0:0:0:
448,192,160054,1,0,0:0:0:0:
64,192,160157,128,0,160363:0:0:0:0:
192,192,160157,128,0,160363:0:0:0:0:
320,192,160363,1,0,0:0:0:0:
448,192,160363,1,0,0:0:0:0:
64,192,160465,1,0,0:0:0:0:
320,192,160465,1,0,0:0:0:0:
448,192,160465,1,0,0:0:0:0:
448,192,160671,1,0,0:0:0:0:
192,192,160671,1,0,0:0:0:0:
192,192,160774,128,0,161185:0:0:0:0:
448,192,160774,128,0,161185:0:0:0:0:
64,192,160774,1,0,0:0:0:0:
64,192,161185,1,0,0:0:0:0:
320,192,161185,1,0,0:0:0:0:
192,192,161236,1,0,0:0:0:0:
320,192,161287,1,0,0:0:0:0:
448,192,161339,1,0,0:0:0:0:
192,192,161493,1,0,0:0:0:0:
64,192,161493,1,0,0:0:0:0:
448,192,161595,1,0,0:0:0:0:
320,192,161647,1,0,0:0:0:0:
192,192,161698,1,0,0:0:0:0:
64,192,161750,1,0,0:0:0:0:
448,192,161801,1,0,0:0:0:0:
320,192,161801,1,0,0:0:0:0:
64,192,161904,1,0,0:0:0:0:
192,192,161955,1,0,0:0:0:0:
448,192,162006,1,0,0:0:0:0:
320,192,162006,1,0,0:0:0:0:
64,192,162058,1,0,0:0:0:0:
320,192,162109,1,0,0:0:0:0:
448,192,162109,1,0,0:0:0:0:
64,192,162212,1,0,0:0:0:0:
192,192,162263,1,0,0:0:0:0:
320,192,162315,1,0,0:0:0:0:
448,192,162366,1,0,0:0:0:0:
192,192,162417,1,0,0:0:0:0:
64,192,162417,1,0,0:0:0:0:
320,192,162469,1,0,0:0:0:0:
448,192,162520,1,0,0:0:0:0:
192,192,162623,1,0,0:0:0:0:
64,192,162623,1,0,0:0:0:0:
448,192,162674,1,0,0:0:0:0:
320,192,162726,1,0,0:0:0:0:
192,192,162777,1,0,0:0:0:0:
64,192,162828,1,0,0:0:0:0:
448,192,162880,1,0,0:0:0:0:
320,192,162931,1,0,0:0:0:0:
64,192,163034,1,0,0:0:0:0:
192,192,163034,1,0,0:0:0:0:
320,192,163085,1,0,0:0:0:0:
448,192,163137,1,0,0:0:0:0:
64,192,163188,1,0,0:0:0:0:
192,192,163239,1,0,0:0:0:0:
320,192,163291,1,0,0:0:0:0:
448,192,163342,1,0,0:0:0:0:
192,192,163445,128,0,163548:0:0:0:0:
64,192,163445,128,0,163548:0:0:0:0:
320,192,163548,1,0,0:0:0:0:
448,192,163548,1,0,0:0:0:0:
448,192,163650,1,0,0:0:0:0:
320,192,163650,1,0,0:0:0:0:
320,192,163753,1,0,0:0:0:0:
448,192,163753,1,0,0:0:0:0:
320,192,163856,1,0,0:0:0:0:
448,192,163856,1,0,0:0:0:0:
320,192,163959,1,0,0:0:0:0:
448,192,163959,1,0,0:0:0:0:
192,192,164061,128,0,164164:0:0:0:0:
64,192,164061,128,0,164164:0:0:0:0:
320,192,164164,1,0,0:0:0:0:
448,192,164164,1,0,0:0:0:0:
320,192,164267,1,0,0:0:0:0:
448,192,164267,1,0,0:0:0:0:
320,192,164369,1,0,0:0:0:0:
448,192,164369,1,0,0:0:0:0:
192,192,164472,1,0,0:0:0:0:
64,192,164472,1,0,0:0:0:0:
320,192,164524,1,0,0:0:0:0:
448,192,164575,1,0,0:0:0:0:
64,192,164678,1,0,0:0:0:0:
192,192,164729,1,0,0:0:0:0:
448,192,164780,1,0,0:0:0:0:
320,192,164780,1,0,0:0:0:0:
64,192,164832,1,0,0:0:0:0:
192,192,164883,1,0,0:0:0:0:
320,192,164935,1,0,0:0:0:0:
448,192,164986,1,0,0:0:0:0:
64,192,165089,1,0,0:0:0:0:
320,192,165089,1,0,0:0:0:0:
192,192,165140,1,0,0:0:0:0:
320,192,165191,1,0,0:0:0:0:
448,192,165243,1,0,0:0:0:0:
192,192,165294,1,0,0:0:0:0:
64,192,165294,1,0,0:0:0:0:
320,192,165345,1,0,0:0:0:0:
192,192,165397,1,0,0:0:0:0:
64,192,165397,1,0,0:0:0:0:
448,192,165500,1,0,0:0:0:0:
320,192,165551,1,0,0:0:0:0:
192,192,165602,1,0,0:0:0:0:
64,192,165654,1,0,0:0:0:0:
448,192,165705,1,0,0:0:0:0:
320,192,165705,1,0,0:0:0:0:
192,192,165756,1,0,0:0:0:0:
64,192,165808,1,0,0:0:0:0:
448,192,165911,1,0,0:0:0:0:
320,192,165911,1,0,0:0:0:0:
192,192,165962,1,0,0:0:0:0:
64,192,166013,1,0,0:0:0:0:
448,192,166065,1,0,0:0:0:0:
320,192,166116,1,0,0:0:0:0:
192,192,166167,1,0,0:0:0:0:
64,192,166219,1,0,0:0:0:0:
448,192,166322,1,0,0:0:0:0:
320,192,166322,1,0,0:0:0:0:
64,192,166373,1,0,0:0:0:0:
192,192,166424,1,0,0:0:0:0:
320,192,166476,1,0,0:0:0:0:
448,192,166527,1,0,0:0:0:0:
64,192,166578,1,0,0:0:0:0:
192,192,166630,1,0,0:0:0:0:
64,192,166732,128,0,167760:0:0:0:0:
448,192,166732,1,0,0:0:0:0:
320,192,166732,1,0,0:0:0:0:
192,192,166938,1,0,0:0:0:0:
320,192,167246,1,0,0:0:0:0:
192,192,167246,1,0,0:0:0:0:
448,192,167349,128,0,167760:0:0:0:0:
320,192,167760,1,0,0:0:0:0:
192,192,167760,1,0,0:0:0:0:
64,192,167811,1,0,0:0:0:0:
192,192,167863,1,0,0:0:0:0:
320,192,167914,1,0,0:0:0:0:
64,192,168068,1,0,0:0:0:0:
192,192,168068,1,0,0:0:0:0:
448,192,168119,1,0,0:0:0:0:
320,192,168171,1,0,0:0:0:0:
192,192,168222,1,0,0:0:0:0:
64,192,168274,1,0,0:0:0:0:
448,192,168376,1,0,0:0:0:0:
192,192,168376,1,0,0:0:0:0:
320,192,168428,1,0,0:0:0:0:
192,192,168479,1,0,0:0:0:0:
64,192,168530,1,0,0:0:0:0:
320,192,168582,1,0,0:0:0:0:
448,192,168582,1,0,0:0:0:0:
192,192,168633,1,0,0:0:0:0:
64,192,168685,1,0,0:0:0:0:
448,192,168685,1,0,0:0:0:0:
64,192,168787,1,0,0:0:0:0:
192,192,168787,1,0,0:0:0:0:
448,192,168839,1,0,0:0:0:0:
320,192,168890,1,0,0:0:0:0:
192,192,168941,1,0,0:0:0:0:
64,192,168993,1,0,0:0:0:0:
448,192,168993,1,0,0:0:0:0:
192,192,169044,1,0,0:0:0:0:
320,192,169095,1,0,0:0:0:0:
448,192,169198,1,0,0:0:0:0:
192,192,169198,1,0,0:0:0:0:
64,192,169250,1,0,0:0:0:0:
192,192,169301,1,0,0:0:0:0:
320,192,169352,1,0,0:0:0:0:
448,192,169404,1,0,0:0:0:0:
320,192,169455,1,0,0:0:0:0:
192,192,169506,1,0,0:0:0:0:
320,192,169609,1,0,0:0:0:0:
64,192,169609,1,0,0:0:0:0:
448,192,169661,1,0,0:0:0:0:
320,192,169712,1,0,0:0:0:0:
192,192,169763,1,0,0:0:0:0:
64,192,169815,1,0,0:0:0:0:
192,192,169866,1,0,0:0:0:0:
320,192,169917,1,0,0:0:0:0:
448,192,170020,1,0,0:0:0:0:
64,192,170020,1,0,0:0:0:0:
192,192,170020,1,0,0:0:0:0:
192,192,170226,1,0,0:0:0:0:
320,192,170226,1,0,0:0:0:0:
192,192,170328,1,0,0:0:0:0:
64,192,170328,1,0,0:0:0:0:
448,192,170328,1,0,0:0:0:0:
192,192,170534,1,0,0:0:0:0:
320,192,170534,1,0,0:0:0:0:
448,192,170637,1,0,0:0:0:0:
64,192,170637,1,0,0:0:0:0:
320,192,170637,128,0,170739:0:0:0:0:
192,192,170739,128,0,170791:0:0:0:0:
192,192,170842,128,0,170893:0:0:0:0:
192,192,170945,128,0,170996:0:0:0:0:
320,192,171048,1,0,0:0:0:0:
64,192,171048,1,0,0:0:0:0:
448,192,171048,1,0,0:0:0:0:
192,192,171099,1,0,0:0:0:0:
320,192,171150,1,0,0:0:0:0:
448,192,171202,1,0,0:0:0:0:
320,192,171253,1,0,0:0:0:0:
192,192,171304,1,0,0:0:0:0:
64,192,171356,1,0,0:0:0:0:
448,192,171356,1,0,0:0:0:0:
320,192,171459,1,0,0:0:0:0:
192,192,171510,1,0,0:0:0:0:
64,192,171561,1,0,0:0:0:0:
192,192,171613,1,0,0:0:0:0:
320,192,171664,1,0,0:0:0:0:
448,192,171664,1,0,0:0:0:0:
64,192,171767,1,0,0:0:0:0:
192,192,171818,1,0,0:0:0:0:
320,192,171869,1,0,0:0:0:0:
448,192,171869,1,0,0:0:0:0:
64,192,171921,1,0,0:0:0:0:
320,192,171972,1,0,0:0:0:0:
448,192,171972,1,0,0:0:0:0:
192,192,172075,1,0,0:0:0:0:
320,192,172126,1,0,0:0:0:0:
448,192,172178,1,0,0:0:0:0:
320,192,172229,1,0,0:0:0:0:
192,192,172280,1,0,0:0:0:0:
64,192,172280,1,0,0:0:0:0:
448,192,172332,1,0,0:0:0:0:
64,192,172383,1,0,0:0:0:0:
192,192,172383,1,0,0:0:0:0:
320,192,172486,1,0,0:0:0:0:
448,192,172486,1,0,0:0:0:0:
192,192,172537,1,0,0:0:0:0:
64,192,172589,1,0,0:0:0:0:
448,192,172640,1,0,0:0:0:0:
320,192,172691,1,0,0:0:0:0:
192,192,172743,1,0,0:0:0:0:
64,192,172794,1,0,0:0:0:0:
320,192,172897,1,0,0:0:0:0:
448,192,172897,1,0,0:0:0:0:
64,192,172948,1,0,0:0:0:0:
192,192,173000,1,0,0:0:0:0:
320,192,173051,1,0,0:0:0:0:
448,192,173102,1,0,0:0:0:0:
64,192,173154,1,0,0:0:0:0:
192,192,173205,1,0,0:0:0:0:
320,192,173308,128,0,173513:0:0:0:0:
448,192,173308,128,0,173513:0:0:0:0:
64,192,173513,1,0,0:0:0:0:
192,192,173513,1,0,0:0:0:0:
64,192,173616,128,0,173822:0:0:0:0:
320,192,173616,128,0,173822:0:0:0:0:
192,192,173822,1,0,0:0:0:0:
448,192,173822,1,0,0:0:0:0:
192,192,173924,128,0,174335:0:0:0:0:
320,192,173924,128,0,174335:0:0:0:0:
64,192,174335,1,0,0:0:0:0:
448,192,174335,1,0,0:0:0:0:
192,192,174387,1,0,0:0:0:0:
320,192,174438,1,0,0:0:0:0:
448,192,174489,1,0,0:0:0:0:
64,192,174541,1,0,0:0:0:0:
448,192,174643,1,0,0:0:0:0:
320,192,174643,1,0,0:0:0:0:
192,192,174695,1,0,0:0:0:0:
64,192,174746,1,0,0:0:0:0:
448,192,174798,1,0,0:0:0:0:
320,192,174849,1,0,0:0:0:0:
64,192,174952,1,0,0:0:0:0:
448,192,174952,1,0,0:0:0:0:
192,192,175003,1,0,0:0:0:0:
320,192,175054,1,0,0:0:0:0:
448,192,175106,1,0,0:0:0:0:
64,192,175157,1,0,0:0:0:0:
192,192,175157,1,0,0:0:0:0:
320,192,175209,1,0,0:0:0:0:
64,192,175260,1,0,0:0:0:0:
192,192,175260,1,0,0:0:0:0:
320,192,175363,1,0,0:0:0:0:
448,192,175363,1,0,0:0:0:0:
192,192,175414,1,0,0:0:0:0:
64,192,175465,1,0,0:0:0:0:
192,192,175517,1,0,0:0:0:0:
320,192,175568,1,0,0:0:0:0:
448,192,175568,1,0,0:0:0:0:
192,192,175619,1,0,0:0:0:0:
64,192,175671,1,0,0:0:0:0:
320,192,175774,1,0,0:0:0:0:
448,192,175774,1,0,0:0:0:0:
192,192,175825,1,0,0:0:0:0:
64,192,175876,1,0,0:0:0:0:
448,192,175928,1,0,0:0:0:0:
320,192,175979,1,0,0:0:0:0:
192,192,176030,1,0,0:0:0:0:
64,192,176082,1,0,0:0:0:0:
320,192,176185,1,0,0:0:0:0:
448,192,176185,1,0,0:0:0:0:
192,192,176236,1,0,0:0:0:0:
64,192,176287,1,0,0:0:0:0:
448,192,176339,1,0,0:0:0:0:
320,192,176390,1,0,0:0:0:0:
192,192,176441,1,0,0:0:0:0:
64,192,176493,1,0,0:0:0:0:
448,192,176595,1,0,0:0:0:0:
320,192,176595,1,0,0:0:0:0:
192,192,176698,1,0,0:0:0:0:
320,192,176698,1,0,0:0:0:0:
64,192,176801,1,0,0:0:0:0:
192,192,176801,1,0,0:0:0:0:
320,192,176904,1,0,0:0:0:0:
448,192,176904,1,0,0:0:0:0:
192,192,177006,1,0,0:0:0:0:
320,192,177006,1,0,0:0:0:0:
64,192,177109,1,0,0:0:0:0:
192,192,177109,1,0,0:0:0:0:
320,192,177212,1,0,0:0:0:0:
448,192,177212,1,0,0:0:0:0:
192,192,177315,1,0,0:0:0:0:
320,192,177315,1,0,0:0:0:0:
64,192,177417,1,0,0:0:0:0:
192,192,177417,1,0,0:0:0:0:
64,192,177520,1,0,0:0:0:0:
192,192,177520,1,0,0:0:0:0:
320,192,177623,1,0,0:0:0:0:
448,192,177623,1,0,0:0:0:0:
192,192,177674,1,0,0:0:0:0:
64,192,177726,1,0,0:0:0:0:
64,192,177931,1,0,0:0:0:0:
448,192,177931,1,0,0:0:0:0:
320,192,178034,1,0,0:0:0:0:
448,192,178085,1,0,0:0:0:0:
64,192,178137,1,0,0:0:0:0:
192,192,178188,1,0,0:0:0:0:
320,192,178239,1,0,0:0:0:0:
448,192,178239,1,0,0:0:0:0:
64,192,178342,1,0,0:0:0:0:
192,192,178393,1,0,0:0:0:0:
320,192,178445,1,0,0:0:0:0:
448,192,178445,1,0,0:0:0:0:
64,192,178496,1,0,0:0:0:0:
320,192,178548,1,0,0:0:0:0:
448,192,178548,1,0,0:0:0:0:
64,192,178650,1,0,0:0:0:0:
192,192,178702,1,0,0:0:0:0:
320,192,178753,1,0,0:0:0:0:
448,192,178804,1,0,0:0:0:0:
192,192,178856,1,0,0:0:0:0:
64,192,178856,1,0,0:0:0:0:
320,192,178907,1,0,0:0:0:0:
448,192,178959,1,0,0:0:0:0:
64,192,179061,1,0,0:0:0:0:
192,192,179061,1,0,0:0:0:0:
448,192,179113,1,0,0:0:0:0:
320,192,179164,1,0,0:0:0:0:
192,192,179215,1,0,0:0:0:0:
64,192,179267,1,0,0:0:0:0:
448,192,179318,1,0,0:0:0:0:
320,192,179369,1,0,0:0:0:0:
64,192,179472,1,0,0:0:0:0:
192,192,179472,1,0,0:0:0:0:
320,192,179524,1,0,0:0:0:0:
448,192,179575,1,0,0:0:0:0:
64,192,179626,1,0,0:0:0:0:
192,192,179678,1,0,0:0:0:0:
320,192,179729,1,0,0:0:0:0:
448,192,179780,1,0,0:0:0:0:
192,192,179883,128,0,180911:0:0:0:0:
64,192,179883,1,0,0:0:0:0:
320,192,179883,1,0,0:0:0:0:
448,192,180089,1,0,0:0:0:0:
64,192,180397,1,0,0:0:0:0:
448,192,180397,1,0,0:0:0:0:
320,192,180500,128,0,180911:0:0:0:0:
64,192,180911,1,0,0:0:0:0:
448,192,180911,1,0,0:0:0:0:
192,192,180962,1,0,0:0:0:0:
320,192,181013,1,0,0:0:0:0:
448,192,181065,1,0,0:0:0:0:
64,192,181219,1,0,0:0:0:0:
192,192,181219,1,0,0:0:0:0:
320,192,181270,1,0,0:0:0:0:
448,192,181322,1,0,0:0:0:0:
64,192,181373,1,0,0:0:0:0:
192,192,181424,1,0,0:0:0:0:
320,192,181527,1,0,0:0:0:0:
448,192,181527,1,0,0:0:0:0:
64,192,181578,1,0,0:0:0:0:
192,192,181630,1,0,0:0:0:0:
320,192,181681,1,0,0:0:0:0:
64,192,181732,1,0,0:0:0:0:
448,192,181732,1,0,0:0:0:0:
192,192,181784,1,0,0:0:0:0:
320,192,181835,1,0,0:0:0:0:
448,192,181835,1,0,0:0:0:0:
64,192,181938,1,0,0:0:0:0:
192,192,181938,1,0,0:0:0:0:
448,192,181989,1,0,0:0:0:0:
320,192,182041,1,0,0:0:0:0:
192,192,182092,1,0,0:0:0:0:
64,192,182143,1,0,0:0:0:0:
448,192,182143,1,0,0:0:0:0:
192,192,182195,1,0,0:0:0:0:
320,192,182246,1,0,0:0:0:0:
448,192,182298,1,0,0:0:0:0:
64,192,182349,1,0,0:0:0:0:
192,192,182349,1,0,0:0:0:0:
320,192,182400,1,0,0:0:0:0:
448,192,182452,1,0,0:0:0:0:
64,192,182503,1,0,0:0:0:0:
192,192,182554,1,0,0:0:0:0:
320,192,182606,1,0,0:0:0:0:
448,192,182657,1,0,0:0:0:0:
64,192,182811,1,0,0:0:0:0:
192,192,182863,1,0,0:0:0:0:
320,192,182914,1,0,0:0:0:0:
448,192,182965,1,0,0:0:0:0:
64,192,183017,1,0,0:0:0:0:
192,192,183068,1,0,0:0:0:0:
320,192,183119,1,0,0:0:0:0:
64,192,183222,1,0,0:0:0:0:
192,192,183274,1,0,0:0:0:0:
320,192,183325,1,0,0:0:0:0:
448,192,183376,1,0,0:0:0:0:
64,192,183428,1,0,0:0:0:0:
192,192,183479,1,0,0:0:0:0:
320,192,183530,1,0,0:0:0:0:
64,192,183633,1,0,0:0:0:0:
192,192,183685,1,0,0:0:0:0:
320,192,183736,1,0,0:0:0:0:
448,192,183787,1,0,0:0:0:0:
64,192,183839,1,0,0:0:0:0:
192,192,183890,1,0,0:0:0:0:
320,192,183941,1,0,0:0:0:0:
64,192,184044,1,0,0:0:0:0:
192,192,184095,1,0,0:0:0:0:
320,192,184147,1,0,0:0:0:0:
448,192,184198,1,0,0:0:0:0:
64,192,184198,1,0,0:0:0:0:
192,192,184250,1,0,0:0:0:0:
320,192,184301,1,0,0:0:0:0:
448,192,184352,1,0,0:0:0:0:
64,192,184404,1,0,0:0:0:0:
192,192,184455,1,0,0:0:0:0:
320,192,184506,1,0,0:0:0:0:
448,192,184506,1,0,0:0:0:0:
64,192,184609,1,0,0:0:0:0:
192,192,184661,1,0,0:0:0:0:
320,192,184712,1,0,0:0:0:0:
448,192,184763,1,0,0:0:0:0:
64,192,184815,1,0,0:0:0:0:
192,192,184815,1,0,0:0:0:0:
448,192,184917,1,0,0:0:0:0:
320,192,184969,1,0,0:0:0:0:
64,192,185020,1,0,0:0:0:0:
192,192,185020,1,0,0:0:0:0:
448,192,185072,1,0,0:0:0:0:
64,192,185123,1,0,0:0:0:0:
192,192,185123,1,0,0:0:0:0:
192,192,185277,1,0,0:0:0:0:
320,192,185328,1,0,0:0:0:0:
448,192,185380,1,0,0:0:0:0:
64,192,185431,1,0,0:0:0:0:
320,192,185431,1,0,0:0:0:0:
192,192,185482,1,0,0:0:0:0:
448,192,185534,1,0,0:0:0:0:
64,192,185534,1,0,0:0:0:0:
320,192,185637,1,0,0:0:0:0:
192,192,185637,1,0,0:0:0:0:
64,192,185739,1,0,0:0:0:0:
192,192,185791,1,0,0:0:0:0:
320,192,185842,1,0,0:0:0:0:
448,192,185893,1,0,0:0:0:0:
64,192,185945,1,0,0:0:0:0:
192,192,185996,1,0,0:0:0:0:
320,192,186048,1,0,0:0:0:0:
448,192,186048,1,0,0:0:0:0:
192,192,186150,1,0,0:0:0:0:
64,192,186202,1,0,0:0:0:0:
448,192,186253,1,0,0:0:0:0:
320,192,186304,1,0,0:0:0:0:
192,192,186356,1,0,0:0:0:0:
64,192,186407,1,0,0:0:0:0:
192,192,186459,1,0,0:0:0:0:
448,192,186459,1,0,0:0:0:0:
320,192,186459,1,0,0:0:0:0:
64,192,186561,1,0,0:0:0:0:
320,192,186613,1,0,0:0:0:0:
192,192,186664,1,0,0:0:0:0:
448,192,186715,1,0,0:0:0:0:
64,192,186767,1,0,0:0:0:0:
320,192,186818,1,0,0:0:0:0:
192,192,186869,1,0,0:0:0:0:
64,192,186869,1,0,0:0:0:0:
448,192,186972,1,0,0:0:0:0:
192,192,187024,1,0,0:0:0:0:
320,192,187075,1,0,0:0:0:0:
64,192,187126,1,0,0:0:0:0:
448,192,187178,1,0,0:0:0:0:
192,192,187229,1,0,0:0:0:0:
320,192,187280,1,0,0:0:0:0:
448,192,187280,1,0,0:0:0:0:
64,192,187383,1,0,0:0:0:0:
448,192,187435,1,0,0:0:0:0:
192,192,187486,1,0,0:0:0:0:
320,192,187537,1,0,0:0:0:0:
64,192,187589,1,0,0:0:0:0:
448,192,187640,1,0,0:0:0:0:
64,192,187691,1,0,0:0:0:0:
320,192,187691,1,0,0:0:0:0:
192,192,187794,1,0,0:0:0:0:
448,192,187845,1,0,0:0:0:0:
64,192,187897,1,0,0:0:0:0:
448,192,187948,1,0,0:0:0:0:
192,192,188000,1,0,0:0:0:0:
64,192,188051,1,0,0:0:0:0:
320,192,188102,1,0,0:0:0:0:
448,192,188102,1,0,0:0:0:0:
192,192,188102,1,0,0:0:0:0:
64,192,188205,1,0,0:0:0:0:
192,192,188256,1,0,0:0:0:0:
320,192,188308,1,0,0:0:0:0:
448,192,188359,1,0,0:0:0:0:
192,192,188411,1,0,0:0:0:0:
320,192,188462,1,0,0:0:0:0:
64,192,188513,1,0,0:0:0:0:
448,192,188513,1,0,0:0:0:0:
192,192,188616,1,0,0:0:0:0:
320,192,188667,1,0,0:0:0:0:
64,192,188719,1,0,0:0:0:0:
192,192,188770,1,0,0:0:0:0:
320,192,188822,1,0,0:0:0:0:
448,192,188873,1,0,0:0:0:0:
64,192,188924,1,0,0:0:0:0:
192,192,188924,1,0,0:0:0:0:
448,192,189027,1,0,0:0:0:0:
320,192,189078,1,0,0:0:0:0:
64,192,189130,1,0,0:0:0:0:
448,192,189181,1,0,0:0:0:0:
192,192,189232,1,0,0:0:0:0:
320,192,189284,1,0,0:0:0:0:
448,192,189335,1,0,0:0:0:0:
64,192,189335,1,0,0:0:0:0:
192,192,189438,1,0,0:0:0:0:
64,192,189489,1,0,0:0:0:0:
192,192,189541,1,0,0:0:0:0:
320,192,189592,1,0,0:0:0:0:
448,192,189643,1,0,0:0:0:0:
320,192,189695,1,0,0:0:0:0:
64,192,189746,1,0,0:0:0:0:
448,192,189746,1,0,0:0:0:0:
192,192,189746,1,0,0:0:0:0:
320,192,189849,1,0,0:0:0:0:
448,192,189900,1,0,0:0:0:0:
64,192,189952,1,0,0:0:0:0:
192,192,190003,1,0,0:0:0:0:
320,192,190054,1,0,0:0:0:0:
448,192,190106,1,0,0:0:0:0:
192,192,190157,1,0,0:0:0:0:
64,192,190157,1,0,0:0:0:0:
320,192,190260,1,0,0:0:0:0:
192,192,190311,1,0,0:0:0:0:
64,192,190363,1,0,0:0:0:0:
192,192,190414,1,0,0:0:0:0:
320,192,190465,1,0,0:0:0:0:
448,192,190517,1,0,0:0:0:0:
64,192,190568,1,0,0:0:0:0:
192,192,190568,1,0,0:0:0:0:
320,192,190671,1,0,0:0:0:0:
64,192,190722,1,0,0:0:0:0:
448,192,190774,1,0,0:0:0:0:
192,192,190825,1,0,0:0:0:0:
320,192,190876,1,0,0:0:0:0:
64,192,190928,1,0,0:0:0:0:
448,192,190979,1,0,0:0:0:0:
320,192,190979,1,0,0:0:0:0:
64,192,191082,1,0,0:0:0:0:
192,192,191133,1,0,0:0:0:0:
320,192,191185,1,0,0:0:0:0:
448,192,191236,1,0,0:0:0:0:
64,192,191287,1,0,0:0:0:0:
192,192,191339,1,0,0:0:0:0:
320,192,191390,1,0,0:0:0:0:
64,192,191390,1,0,0:0:0:0:
448,192,191390,1,0,0:0:0:0:
192,192,191493,1,0,0:0:0:0:
448,192,191544,1,0,0:0:0:0:
320,192,191595,1,0,0:0:0:0:
64,192,191647,1,0,0:0:0:0:
192,192,191698,1,0,0:0:0:0:
320,192,191750,1,0,0:0:0:0:
448,192,191801,1,0,0:0:0:0:
192,192,191801,1,0,0:0:0:0:
64,192,191904,1,0,0:0:0:0:
192,192,191955,1,0,0:0:0:0:
448,192,192006,1,0,0:0:0:0:
320,192,192058,1,0,0:0:0:0:
64,192,192109,1,0,0:0:0:0:
192,192,192161,1,0,0:0:0:0:
64,192,192212,1,0,0:0:0:0:
320,192,192212,1,0,0:0:0:0:
448,192,192315,1,0,0:0:0:0:
320,192,192366,1,0,0:0:0:0:
192,192,192417,1,0,0:0:0:0:
64,192,192469,1,0,0:0:0:0:
448,192,192520,1,0,0:0:0:0:
320,192,192572,1,0,0:0:0:0:
192,192,192623,1,0,0:0:0:0:
448,192,192623,1,0,0:0:0:0:
64,192,192726,1,0,0:0:0:0:
192,192,192777,1,0,0:0:0:0:
320,192,192828,1,0,0:0:0:0:
448,192,192880,1,0,0:0:0:0:
64,192,192931,1,0,0:0:0:0:
192,192,192982,1,0,0:0:0:0:
320,192,193034,1,0,0:0:0:0:
448,192,193034,1,0,0:0:0:0:
64,192,193034,1,0,0:0:0:0:
192,192,193137,1,0,0:0:0:0:
320,192,193188,1,0,0:0:0:0:
64,192,193239,1,0,0:0:0:0:
448,192,193291,1,0,0:0:0:0:
192,192,193342,1,0,0:0:0:0:
64,192,193393,1,0,0:0:0:0:
320,192,193445,1,0,0:0:0:0:
448,192,193445,1,0,0:0:0:0:
64,192,193548,1,0,0:0:0:0:
320,192,193599,1,0,0:0:0:0:
192,192,193650,1,0,0:0:0:0:
448,192,193702,1,0,0:0:0:0:
64,192,193753,1,0,0:0:0:0:
320,192,193804,1,0,0:0:0:0:
64,192,193856,1,0,0:0:0:0:
448,192,193856,1,0,0:0:0:0:
192,192,193959,1,0,0:0:0:0:
320,192,194010,1,0,0:0:0:0:
448,192,194061,1,0,0:0:0:0:
320,192,194113,1,0,0:0:0:0:
192,192,194164,1,0,0:0:0:0:
448,192,194215,1,0,0:0:0:0:
320,192,194267,1,0,0:0:0:0:
64,192,194267,1,0,0:0:0:0:
192,192,194369,1,0,0:0:0:0:
320,192,194421,1,0,0:0:0:0:
64,192,194472,1,0,0:0:0:0:
192,192,194524,1,0,0:0:0:0:
448,192,194575,1,0,0:0:0:0:
320,192,194626,1,0,0:0:0:0:
64,192,194678,1,0,0:0:0:0:
192,192,194678,1,0,0:0:0:0:
448,192,194678,1,0,0:0:0:0:
320,192,194780,1,0,0:0:0:0:
192,192,194832,1,0,0:0:0:0:
448,192,194883,1,0,0:0:0:0:
64,192,194935,1,0,0:0:0:0:
320,192,194986,1,0,0:0:0:0:
192,192,195037,1,0,0:0:0:0:
64,192,195089,1,0,0:0:0:0:
448,192,195089,1,0,0:0:0:0:
192,192,195191,1,0,0:0:0:0:
320,192,195243,1,0,0:0:0:0:
448,192,195294,1,0,0:0:0:0:
64,192,195345,1,0,0:0:0:0:
192,192,195397,1,0,0:0:0:0:
320,192,195448,1,0,0:0:0:0:
448,192,195500,1,0,0:0:0:0:
192,192,195500,1,0,0:0:0:0:
64,192,195602,1,0,0:0:0:0:
320,192,195654,1,0,0:0:0:0:
448,192,195705,1,0,0:0:0:0:
320,192,195756,1,0,0:0:0:0:
192,192,195808,1,0,0:0:0:0:
64,192,195859,1,0,0:0:0:0:
320,192,195911,1,0,0:0:0:0:
448,192,195911,1,0,0:0:0:0:
192,192,196013,1,0,0:0:0:0:
320,192,196065,1,0,0:0:0:0:
448,192,196116,1,0,0:0:0:0:
64,192,196167,1,0,0:0:0:0:
192,192,196219,1,0,0:0:0:0:
320,192,196270,1,0,0:0:0:0:
64,192,196322,1,0,0:0:0:0:
448,192,196322,1,0,0:0:0:0:
192,192,196322,1,0,0:0:0:0:
320,192,196424,1,0,0:0:0:0:
192,192,196476,1,0,0:0:0:0:
64,192,196527,1,0,0:0:0:0:
448,192,196578,1,0,0:0:0:0:
192,192,196630,1,0,0:0:0:0:
320,192,196681,1,0,0:0:0:0:
64,192,196732,1,0,0:0:0:0:
192,192,196732,1,0,0:0:0:0:
448,192,196835,1,0,0:0:0:0:
320,192,196887,1,0,0:0:0:0:
64,192,196938,1,0,0:0:0:0:
320,192,196989,1,0,0:0:0:0:
192,192,197041,1,0,0:0:0:0:
448,192,197092,1,0,0:0:0:0:
64,192,197143,1,0,0:0:0:0:
192,192,197143,1,0,0:0:0:0:
320,192,197246,1,0,0:0:0:0:
448,192,197298,1,0,0:0:0:0:
64,192,197349,1,0,0:0:0:0:
320,192,197400,1,0,0:0:0:0:
448,192,197452,1,0,0:0:0:0:
192,192,197503,1,0,0:0:0:0:
64,192,197554,1,0,0:0:0:0:
448,192,197554,1,0,0:0:0:0:
320,192,197657,1,0,0:0:0:0:
192,192,197709,1,0,0:0:0:0:
320,192,197760,1,0,0:0:0:0:
64,192,197811,1,0,0:0:0:0:
192,192,197863,1,0,0:0:0:0:
320,192,197914,1,0,0:0:0:0:
64,192,197965,1,0,0:0:0:0:
192,192,197965,1,0,0:0:0:0:
448,192,197965,1,0,0:0:0:0:
320,192,198068,1,0,0:0:0:0:
192,192,198119,1,0,0:0:0:0:
64,192,198171,1,0,0:0:0:0:
448,192,198222,1,0,0:0:0:0:
320,192,198274,1,0,0:0:0:0:
192,192,198325,1,0,0:0:0:0:
64,192,198376,1,0,0:0:0:0:
320,192,198376,1,0,0:0:0:0:
448,192,198479,1,0,0:0:0:0:
320,192,198530,1,0,0:0:0:0:
64,192,198582,1,0,0:0:0:0:
192,192,198633,1,0,0:0:0:0:
320,192,198685,1,0,0:0:0:0:
192,192,198736,1,0,0:0:0:0:
64,192,198787,1,0,0:0:0:0:
448,192,198787,1,0,0:0:0:0:
320,192,198890,1,0,0:0:0:0:
192,192,198941,1,0,0:0:0:0:
64,192,198993,1,0,0:0:0:0:
448,192,199044,1,0,0:0:0:0:
320,192,199095,1,0,0:0:0:0:
192,192,199147,1,0,0:0:0:0:
64,192,199198,1,0,0:0:0:0:
448,192,199198,1,0,0:0:0:0:
192,192,199301,1,0,0:0:0:0:
320,192,199352,1,0,0:0:0:0:
448,192,199404,1,0,0:0:0:0:
64,192,199455,1,0,0:0:0:0:
192,192,199506,1,0,0:0:0:0:
320,192,199558,1,0,0:0:0:0:
64,192,199609,1,0,0:0:0:0:
192,192,199609,1,0,0:0:0:0:
448,192,199609,1,0,0:0:0:0:
320,192,199712,1,0,0:0:0:0:
448,192,199763,1,0,0:0:0:0:
320,192,199815,1,0,0:0:0:0:
64,192,199866,1,0,0:0:0:0:
192,192,199917,1,0,0:0:0:0:
320,192,199969,1,0,0:0:0:0:
192,192,200020,1,0,0:0:0:0:
448,192,200020,1,0,0:0:0:0:
320,192,200123,1,0,0:0:0:0:
64,192,200174,1,0,0:0:0:0:
320,192,200226,1,0,0:0:0:0:
192,192,200277,1,0,0:0:0:0:
448,192,200328,1,0,0:0:0:0:
192,192,200380,1,0,0:0:0:0:
64,192,200431,1,0,0:0:0:0:
448,192,200431,1,0,0:0:0:0:
192,192,200534,1,0,0:0:0:0:
448,192,200585,1,0,0:0:0:0:
192,192,200637,1,0,0:0:0:0:
64,192,200688,1,0,0:0:0:0:
192,192,200739,1,0,0:0:0:0:
448,192,200791,1,0,0:0:0:0:
64,192,200842,1,0,0:0:0:0:
320,192,200842,1,0,0:0:0:0:
192,192,200945,1,0,0:0:0:0:
320,192,200996,1,0,0:0:0:0:
448,192,201048,1,0,0:0:0:0:
320,192,201099,1,0,0:0:0:0:
192,192,201150,1,0,0:0:0:0:
448,192,201202,1,0,0:0:0:0:
320,192,201253,1,0,0:0:0:0:
192,192,201253,1,0,0:0:0:0:
64,192,201253,1,0,0:0:0:0:
448,192,201356,1,0,0:0:0:0:
320,192,201407,1,0,0:0:0:0:
192,192,201459,1,0,0:0:0:0:
64,192,201510,1,0,0:0:0:0:
320,192,201561,1,0,0:0:0:0:
192,192,201613,1,0,0:0:0:0:
320,192,201664,1,0,0:0:0:0:
448,192,201664,1,0,0:0:0:0:
64,192,201767,1,0,0:0:0:0:
192,192,201818,1,0,0:0:0:0:
320,192,201869,1,0,0:0:0:0:
64,192,201921,1,0,0:0:0:0:
192,192,201972,1,0,0:0:0:0:
320,192,202024,1,0,0:0:0:0:
192,192,202075,1,0,0:0:0:0:
448,192,202075,1,0,0:0:0:0:
320,192,202178,1,0,0:0:0:0:
192,192,202229,1,0,0:0:0:0:
64,192,202280,1,0,0:0:0:0:
320,192,202332,1,0,0:0:0:0:
192,192,202383,1,0,0:0:0:0:
64,192,202435,1,0,0:0:0:0:
448,192,202486,1,0,0:0:0:0:
320,192,202486,1,0,0:0:0:0:
64,192,202589,1,0,0:0:0:0:
192,192,202640,1,0,0:0:0:0:
320,192,202691,1,0,0:0:0:0:
192,192,202743,1,0,0:0:0:0:
320,192,202794,1,0,0:0:0:0:
448,192,202845,1,0,0:0:0:0:
64,192,202897,1,0,0:0:0:0:
192,192,202897,1,0,0:0:0:0:
320,192,202897,1,0,0:0:0:0:
448,192,203000,1,0,0:0:0:0:
320,192,203051,1,0,0:0:0:0:
192,192,203102,1,0,0:0:0:0:
320,192,203154,1,0,0:0:0:0:
192,192,203205,1,0,0:0:0:0:
64,192,203256,1,0,0:0:0:0:
320,192,203308,1,0,0:0:0:0:
448,192,203308,1,0,0:0:0:0:
64,192,203411,1,0,0:0:0:0:
192,192,203462,1,0,0:0:0:0:
320,192,203513,1,0,0:0:0:0:
448,192,203565,1,0,0:0:0:0:
192,192,203616,1,0,0:0:0:0:
320,192,203667,1,0,0:0:0:0:
64,192,203719,1,0,0:0:0:0:
192,192,203719,1,0,0:0:0:0:
320,192,203822,1,0,0:0:0:0:
448,192,203873,1,0,0:0:0:0:
192,192,203924,1,0,0:0:0:0:
448,192,203976,1,0,0:0:0:0:
320,192,204027,1,0,0:0:0:0:
192,192,204078,1,0,0:0:0:0:
64,192,204130,1,0,0:0:0:0:
320,192,204130,1,0,0:0:0:0:
448,192,204232,1,0,0:0:0:0:
64,192,204284,1,0,0:0:0:0:
448,192,204335,1,0,0:0:0:0:
192,192,204387,1,0,0:0:0:0:
320,192,204438,1,0,0:0:0:0:
192,192,204489,1,0,0:0:0:0:
320,192,204541,1,0,0:0:0:0:
448,192,204541,1,0,0:0:0:0:
64,192,204541,1,0,0:0:0:0:
192,192,204643,1,0,0:0:0:0:
448,192,204695,1,0,0:0:0:0:
64,192,204746,1,0,0:0:0:0:
192,192,204798,1,0,0:0:0:0:
320,192,204849,1,0,0:0:0:0:
448,192,204900,1,0,0:0:0:0:
64,192,204952,1,0,0:0:0:0:
192,192,204952,1,0,0:0:0:0:
448,192,205054,1,0,0:0:0:0:
320,192,205106,1,0,0:0:0:0:
192,192,205157,1,0,0:0:0:0:
448,192,205209,1,0,0:0:0:0:
64,192,205260,1,0,0:0:0:0:
448,192,205311,1,0,0:0:0:0:
192,192,205363,1,0,0:0:0:0:
320,192,205363,1,0,0:0:0:0:
64,192,205465,1,0,0:0:0:0:
320,192,205517,1,0,0:0:0:0:
448,192,205568,1,0,0:0:0:0:
64,192,205619,1,0,0:0:0:0:
192,192,205671,1,0,0:0:0:0:
320,192,205722,1,0,0:0:0:0:
64,192,205774,1,0,0:0:0:0:
192,192,205774,1,0,0:0:0:0:
448,192,205876,1,0,0:0:0:0:
192,192,205928,1,0,0:0:0:0:
320,192,205979,1,0,0:0:0:0:
448,192,206030,1,0,0:0:0:0:
192,192,206082,1,0,0:0:0:0:
64,192,206133,1,0,0:0:0:0:
192,192,206185,1,0,0:0:0:0:
320,192,206185,1,0,0:0:0:0:
448,192,206185,1,0,0:0:0:0:
64,192,206287,1,0,0:0:0:0:
192,192,206339,1,0,0:0:0:0:
448,192,206390,1,0,0:0:0:0:
192,192,206441,1,0,0:0:0:0:
320,192,206493,1,0,0:0:0:0:
448,192,206544,1,0,0:0:0:0:
64,192,206595,1,0,0:0:0:0:
192,192,206595,1,0,0:0:0:0:
320,192,206698,1,0,0:0:0:0:
192,192,206750,1,0,0:0:0:0:
448,192,206801,1,0,0:0:0:0:
320,192,206852,1,0,0:0:0:0:
192,192,206904,1,0,0:0:0:0:
64,192,206955,1,0,0:0:0:0:
320,192,207006,1,0,0:0:0:0:
448,192,207006,1,0,0:0:0:0:
320,192,207109,1,0,0:0:0:0:
192,192,207161,1,0,0:0:0:0:
64,192,207212,1,0,0:0:0:0:
320,192,207263,1,0,0:0:0:0:
192,192,207315,1,0,0:0:0:0:
64,192,207366,1,0,0:0:0:0:
320,192,207417,1,0,0:0:0:0:
448,192,207417,1,0,0:0:0:0:
64,192,207520,1,0,0:0:0:0:
320,192,207572,1,0,0:0:0:0:
448,192,207623,1,0,0:0:0:0:
192,192,207674,1,0,0:0:0:0:
64,192,207726,1,0,0:0:0:0:
320,192,207777,1,0,0:0:0:0:
448,192,207828,1,0,0:0:0:0:
192,192,207828,1,0,0:0:0:0:
64,192,207828,1,0,0:0:0:0:
320,192,207931,1,0,0:0:0:0:
64,192,207982,1,0,0:0:0:0:
192,192,208034,1,0,0:0:0:0:
448,192,208085,1,0,0:0:0:0:
320,192,208137,1,0,0:0:0:0:
64,192,208188,1,0,0:0:0:0:
192,192,208239,1,0,0:0:0:0:
320,192,208239,1,0,0:0:0:0:
64,192,208342,1,0,0:0:0:0:
192,192,208393,1,0,0:0:0:0:
320,192,208445,1,0,0:0:0:0:
448,192,208496,1,0,0:0:0:0:
320,192,208548,1,0,0:0:0:0:
192,192,208599,1,0,0:0:0:0:
64,192,208650,1,0,0:0:0:0:
320,192,208650,1,0,0:0:0:0:
448,192,208753,1,0,0:0:0:0:
320,192,208804,1,0,0:0:0:0:
192,192,208856,1,0,0:0:0:0:
64,192,208907,1,0,0:0:0:0:
192,192,208959,1,0,0:0:0:0:
320,192,209010,1,0,0:0:0:0:
192,192,209061,1,0,0:0:0:0:
448,192,209061,1,0,0:0:0:0:
320,192,209164,1,0,0:0:0:0:
192,192,209215,1,0,0:0:0:0:
64,192,209267,1,0,0:0:0:0:
192,192,209318,1,0,0:0:0:0:
320,192,209369,1,0,0:0:0:0:
448,192,209421,1,0,0:0:0:0:
64,192,209472,1,0,0:0:0:0:
320,192,209472,1,0,0:0:0:0:
192,192,209472,1,0,0:0:0:0:
320,192,209575,1,0,0:0:0:0:
192,192,209626,1,0,0:0:0:0:
64,192,209678,1,0,0:0:0:0:
448,192,209729,1,0,0:0:0:0:
320,192,209780,1,0,0:0:0:0:
192,192,209832,1,0,0:0:0:0:
320,192,209883,1,0,0:0:0:0:
448,192,209883,1,0,0:0:0:0:
192,192,209986,1,0,0:0:0:0:
448,192,210037,1,0,0:0:0:0:
64,192,210089,1,0,0:0:0:0:
320,192,210140,1,0,0:0:0:0:
192,192,210191,1,0,0:0:0:0:
448,192,210243,1,0,0:0:0:0:
64,192,210294,128,0,210397:0:0:0:0:
320,192,210294,1,0,0:0:0:0:
192,192,210294,1,0,0:0:0:0:
448,192,210345,1,0,0:0:0:0:
320,192,210397,1,0,0:0:0:0:
192,192,210448,1,0,0:0:0:0:
64,192,210500,1,0,0:0:0:0:
448,192,210551,1,0,0:0:0:0:
320,192,210602,1,0,0:0:0:0:
192,192,210654,1,0,0:0:0:0:
64,192,210808,1,0,0:0:0:0:
192,192,210859,1,0,0:0:0:0:
320,192,210911,1,0,0:0:0:0:
448,192,210962,1,0,0:0:0:0:
64,192,211013,1,0,0:0:0:0:
192,192,211065,1,0,0:0:0:0:
320,192,211116,1,0,0:0:0:0:
448,192,211219,1,0,0:0:0:0:
320,192,211270,1,0,0:0:0:0:
192,192,211322,1,0,0:0:0:0:
64,192,211373,1,0,0:0:0:0:
448,192,211424,1,0,0:0:0:0:
320,192,211476,1,0,0:0:0:0:
192,192,211527,1,0,0:0:0:0:
64,192,211630,1,0,0:0:0:0:
192,192,211681,1,0,0:0:0:0:
320,192,211732,1,0,0:0:0:0:
448,192,211784,1,0,0:0:0:0:
64,192,211835,1,0,0:0:0:0:
192,192,211887,1,0,0:0:0:0:
320,192,211938,128,0,213582:0:0:0:0:
192,192,213582,128,0,215226:0:0:0:0:
448,192,215226,128,0,216869:0:0:0:0:
64,192,216869,128,0,218513:0:0:0:0:
320,192,218513,128,0,220157:0:0:0:0:
192,192,220157,128,0,221801:0:0:0:0:
448,192,221801,128,0,223445:0:0:0:0:
192,192,223445,128,0,225089:0:0:0:0:
64,192,225089,1,0,0:0:0:0:
320,192,225089,1,0,0:0:0:0:
448,192,225089,1,0,0:0:0:0:
448,192,225911,1,0,0:0:0:0:
320,192,225911,1,0,0:0:0:0:
192,192,225911,1,0,0:0:0:0:
64,192,225911,1,0,0:0:0:0:
192,192,226732,1,0,0:0:0:0:
320,192,226732,1,0,0:0:0:0:
64,192,226732,1,0,0:0:0:0:
192,192,227143,1,0,0:0:0:0:
320,192,227143,1,0,0:0:0:0:
448,192,227143,1,0,0:0:0:0:
64,192,227554,1,0,0:0:0:0:
192,192,227554,1,0,0:0:0:0:
320,192,227554,1,0,0:0:0:0:
448,192,227554,1,0,0:0:0:0:
64,192,227965,128,0,228376:0:0:0:0:
320,192,227965,128,0,228376:0:0:0:0:
192,192,228376,1,0,0:0:0:0:
448,192,228376,1,0,0:0:0:0:
64,192,229198,1,0,0:0:0:0:
192,192,229198,1,0,0:0:0:0:
320,192,229198,1,0,0:0:0:0:
448,192,229198,1,0,0:0:0:0:
64,192,229815,1,0,0:0:0:0:
320,192,229815,1,0,0:0:0:0:
448,192,229815,1,0,0:0:0:0:
192,192,230020,1,0,0:0:0:0:
64,192,230020,1,0,0:0:0:0:
448,192,230020,1,0,0:0:0:0:
192,192,230431,1,0,0:0:0:0:
64,192,230431,1,0,0:0:0:0:
320,192,230431,1,0,0:0:0:0:
64,192,230842,1,0,0:0:0:0:
192,192,230842,1,0,0:0:0:0:
320,192,230842,1,0,0:0:0:0:
448,192,230842,1,0,0:0:0:0:
320,192,231253,128,0,231664:0:0:0:0:
192,192,231253,128,0,231664:0:0:0:0:
448,192,231664,1,0,0:0:0:0:
64,192,231664,1,0,0:0:0:0:
64,192,232486,1,0,0:0:0:0:
192,192,232486,1,0,0:0:0:0:
448,192,232486,1,0,0:0:0:0:
320,192,232486,1,0,0:0:0:0:
192,192,233308,1,0,0:0:0:0:
320,192,233308,1,0,0:0:0:0:
448,192,233308,1,0,0:0:0:0:
64,192,233719,1,0,0:0:0:0:
192,192,233719,1,0,0:0:0:0:
448,192,233719,1,0,0:0:0:0:
64,192,234130,1,0,0:0:0:0:
192,192,234130,1,0,0:0:0:0:
320,192,234130,1,0,0:0:0:0:
448,192,234130,1,0,0:0:0:0:
448,192,234541,128,0,234952:0:0:0:0:
320,192,234541,128,0,234952:0:0:0:0:
64,192,234952,1,0,0:0:0:0:
192,192,234952,1,0,0:0:0:0:
64,192,235774,1,0,0:0:0:0:
192,192,235774,1,0,0:0:0:0:
320,192,235774,1,0,0:0:0:0:
448,192,235774,1,0,0:0:0:0:
192,192,236390,1,0,0:0:0:0:
320,192,236390,1,0,0:0:0:0:
448,192,236390,1,0,0:0:0:0:
64,192,236595,1,0,0:0:0:0:
192,192,236595,1,0,0:0:0:0:
448,192,236595,1,0,0:0:0:0:
64,192,237006,1,0,0:0:0:0:
320,192,237006,1,0,0:0:0:0:
448,192,237006,1,0,0:0:0:0:
64,192,237417,1,0,0:0:0:0:
192,192,237417,1,0,0:0:0:0:
320,192,237417,1,0,0:0:0:0:
448,192,237417,1,0,0:0:0:0:
64,192,237828,128,0,238239:0:0:0:0:
192,192,237828,128,0,238239:0:0:0:0:
320,192,238239,1,0,0:0:0:0:
448,192,238239,1,0,0:0:0:0:
192,192,238342,1,0,0:0:0:0:
64,192,238445,1,0,0:0:0:0:
192,192,238548,1,0,0:0:0:0:
320,192,238650,1,0,0:0:0:0:
448,192,238650,1,0,0:0:0:0:
192,192,238753,1,0,0:0:0:0:
64,192,238856,1,0,0:0:0:0:
192,192,238959,1,0,0:0:0:0:
320,192,239061,1,0,0:0:0:0:
448,192,239061,1,0,0:0:0:0:
192,192,239164,1,0,0:0:0:0:
64,192,239267,1,0,0:0:0:0:
192,192,239369,1,0,0:0:0:0:
320,192,239472,1,0,0:0:0:0:
448,192,239472,1,0,0:0:0:0:
64,192,239883,1,0,0:0:0:0:
448,192,239883,1,0,0:0:0:0:
192,192,239986,1,0,0:0:0:0:
320,192,240089,1,0,0:0:0:0:
192,192,240191,1,0,0:0:0:0:
64,192,240294,1,0,0:0:0:0:
448,192,240294,1,0,0:0:0:0:
192,192,240397,1,0,0:0:0:0:
320,192,240500,1,0,0:0:0:0:
192,192,240602,1,0,0:0:0:0:
64,192,240705,1,0,0:0:0:0:
448,192,240705,1,0,0:0:0:0:
192,192,240808,1,0,0:0:0:0:
64,192,240911,1,0,0:0:0:0:
448,192,240911,1,0,0:0:0:0:
192,192,241013,1,0,0:0:0:0:
320,192,241116,1,0,0:0:0:0:
64,192,241219,1,0,0:0:0:0:
448,192,241219,1,0,0:0:0:0:
192,192,241322,1,0,0:0:0:0:
64,192,241424,1,0,0:0:0:0:
448,192,241424,1,0,0:0:0:0:
192,192,241527,1,0,0:0:0:0:
320,192,241527,1,0,0:0:0:0:
448,192,241630,1,0,0:0:0:0:
320,192,241732,1,0,0:0:0:0:
64,192,241835,1,0,0:0:0:0:
192,192,241938,1,0,0:0:0:0:
320,192,241938,1,0,0:0:0:0:
448,192,242041,1,0,0:0:0:0:
320,192,242143,1,0,0:0:0:0:
64,192,242246,1,0,0:0:0:0:
192,192,242349,1,0,0:0:0:0:
320,192,242349,1,0,0:0:0:0:
448,192,242452,1,0,0:0:0:0:
320,192,242554,1,0,0:0:0:0:
64,192,242657,1,0,0:0:0:0:
192,192,242760,1,0,0:0:0:0:
320,192,242760,1,0,0:0:0:0:
320,192,243171,1,0,0:0:0:0:
192,192,243171,1,0,0:0:0:0:
64,192,243274,1,0,0:0:0:0:
192,192,243376,1,0,0:0:0:0:
448,192,243479,1,0,0:0:0:0:
320,192,243582,1,0,0:0:0:0:
192,192,243582,1,0,0:0:0:0:
64,192,243685,1,0,0:0:0:0:
192,192,243787,1,0,0:0:0:0:
448,192,243890,1,0,0:0:0:0:
64,192,243890,1,0,0:0:0:0:
192,192,243993,1,0,0:0:0:0:
448,192,244095,1,0,0:0:0:0:
192,192,244198,1,0,0:0:0:0:
320,192,244198,1,0,0:0:0:0:
64,192,244301,1,0,0:0:0:0:
192,192,244404,1,0,0:0:0:0:
320,192,244404,1,0,0:0:0:0:
448,192,244506,1,0,0:0:0:0:
64,192,244506,1,0,0:0:0:0:
192,192,244609,1,0,0:0:0:0:
320,192,244609,1,0,0:0:0:0:
64,192,244712,1,0,0:0:0:0:
448,192,244712,1,0,0:0:0:0:
192,192,244815,1,0,0:0:0:0:
320,192,244815,1,0,0:0:0:0:
448,192,244815,1,0,0:0:0:0:
64,192,245020,1,0,0:0:0:0:
448,192,245020,1,0,0:0:0:0:
192,192,245123,1,0,0:0:0:0:
64,192,245226,1,0,0:0:0:0:
448,192,245226,1,0,0:0:0:0:
448,192,245431,1,0,0:0:0:0:
64,192,245431,1,0,0:0:0:0:
448,192,245637,1,0,0:0:0:0:
64,192,245637,1,0,0:0:0:0:
64,192,245842,1,0,0:0:0:0:
448,192,245842,1,0,0:0:0:0:
64,192,246048,1,0,0:0:0:0:
448,192,246048,1,0,0:0:0:0:
64,192,246253,1,0,0:0:0:0:
448,192,246253,1,0,0:0:0:0:
320,192,246356,1,0,0:0:0:0:
448,192,246459,1,0,0:0:0:0:
192,192,246459,1,0,0:0:0:0:
192,192,246664,1,0,0:0:0:0:
448,192,246664,1,0,0:0:0:0:
192,192,246869,1,0,0:0:0:0:
448,192,246869,1,0,0:0:0:0:
192,192,247075,1,0,0:0:0:0:
448,192,247075,1,0,0:0:0:0:
448,192,247280,1,0,0:0:0:0:
192,192,247280,1,0,0:0:0:0:
192,192,247486,1,0,0:0:0:0:
448,192,247486,1,0,0:0:0:0:
192,192,247691,1,0,0:0:0:0:
448,192,247691,1,0,0:0:0:0:
320,192,247794,1,0,0:0:0:0:
64,192,247794,1,0,0:0:0:0:
192,192,247897,1,0,0:0:0:0:
448,192,247897,1,0,0:0:0:0:
64,192,248000,1,0,0:0:0:0:
320,192,248000,1,0,0:0:0:0:
448,192,248102,1,0,0:0:0:0:
192,192,248102,1,0,0:0:0:0:
64,192,248102,1,0,0:0:0:0:
320,192,248205,1,0,0:0:0:0:
192,192,248308,1,0,0:0:0:0:
448,192,248308,1,0,0:0:0:0:
320,192,248411,1,0,0:0:0:0:
192,192,248513,1,0,0:0:0:0:
448,192,248513,1,0,0:0:0:0:
64,192,248513,1,0,0:0:0:0:
320,192,248616,1,0,0:0:0:0:
192,192,248719,1,0,0:0:0:0:
448,192,248719,1,0,0:0:0:0:
320,192,248822,1,0,0:0:0:0:
192,192,248924,1,0,0:0:0:0:
64,192,248924,1,0,0:0:0:0:
448,192,248924,1,0,0:0:0:0:
320,192,249027,1,0,0:0:0:0:
192,192,249130,1,0,0:0:0:0:
448,192,249130,1,0,0:0:0:0:
320,192,249232,1,0,0:0:0:0:
64,192,249335,1,0,0:0:0:0:
192,192,249335,1,0,0:0:0:0:
448,192,249335,1,0,0:0:0:0:
320,192,249438,1,0,0:0:0:0:
192,192,249541,1,0,0:0:0:0:
448,192,249541,1,0,0:0:0:0:
320,192,249643,1,0,0:0:0:0:
448,192,249746,1,0,0:0:0:0:
192,192,249746,128,0,249952:0:0:0:0:
64,192,249746,128,0,249952:0:0:0:0:
448,192,249952,1,0,0:0:0:0:
192,192,250054,128,0,250157:0:0:0:0:
320,192,250054,128,0,250157:0:0:0:0:
448,192,250157,1,0,0:0:0:0:
64,192,250260,128,0,250465:0:0:0:0:
320,192,250260,128,0,250465:0:0:0:0:
448,192,250465,1,0,0:0:0:0:
320,192,250568,128,0,250774:0:0:0:0:
448,192,250568,128,0,250774:0:0:0:0:
192,192,250774,1,0,0:0:0:0:
448,192,250876,128,0,251185:0:0:0:0:
192,192,250979,128,0,251185:0:0:0:0:
64,192,251185,128,0,251390:0:0:0:0:
320,192,251185,128,0,251390:0:0:0:0:
448,192,251390,1,0,0:0:0:0:
192,192,251390,1,0,0:0:0:0:
320,192,251801,1,0,0:0:0:0:
64,192,251801,1,0,0:0:0:0:
192,192,251801,1,0,0:0:0:0:
64,192,251904,1,0,0:0:0:0:
320,192,251904,1,0,0:0:0:0:
192,192,251904,1,0,0:0:0:0:
448,192,252006,1,0,0:0:0:0:
320,192,252006,1,0,0:0:0:0:
64,192,252109,1,0,0:0:0:0:
192,192,252109,1,0,0:0:0:0:
320,192,252212,1,0,0:0:0:0:
192,192,252212,1,0,0:0:0:0:
448,192,252212,1,0,0:0:0:0:
64,192,252417,1,0,0:0:0:0:
320,192,252520,1,0,0:0:0:0:
448,192,252623,128,0,253034:0:0:0:0:
64,192,252760,128,0,253034:0:0:0:0:
320,192,252897,128,0,253034:0:0:0:0:
192,192,253034,1,0,0:0:0:0:
320,192,253137,128,0,253342:0:0:0:0:
192,192,253342,1,0,0:0:0:0:
64,192,253342,1,0,0:0:0:0:
448,192,253445,1,0,0:0:0:0:
320,192,253479,1,0,0:0:0:0:
64,192,253513,1,0,0:0:0:0:
192,192,253548,1,0,0:0:0:0:
448,192,253582,1,0,0:0:0:0:
320,192,253616,1,0,0:0:0:0:
192,192,253650,1,0,0:0:0:0:
64,192,253650,1,0,0:0:0:0:
192,192,253753,1,0,0:0:0:0:
64,192,253753,1,0,0:0:0:0:
320,192,253856,1,0,0:0:0:0:
448,192,253856,1,0,0:0:0:0:
64,192,253856,1,0,0:0:0:0:
192,192,253959,1,0,0:0:0:0:
192,192,254061,1,0,0:0:0:0:
192,192,254164,1,0,0:0:0:0:
448,192,254267,1,0,0:0:0:0:
320,192,254267,1,0,0:0:0:0:
64,192,254369,1,0,0:0:0:0:
192,192,254369,1,0,0:0:0:0:
192,192,254472,1,0,0:0:0:0:
448,192,254472,1,0,0:0:0:0:
320,192,254575,1,0,0:0:0:0:
64,192,254575,1,0,0:0:0:0:
64,192,254678,1,0,0:0:0:0:
192,192,254678,1,0,0:0:0:0:
448,192,254678,1,0,0:0:0:0:
320,192,255089,1,0,0:0:0:0:
64,192,255089,1,0,0:0:0:0:
448,192,255089,1,0,0:0:0:0:
320,192,255191,128,0,255294:0:0:0:0:
64,192,255191,128,0,255294:0:0:0:0:
448,192,255191,128,0,255294:0:0:0:0:
320,192,255397,1,0,0:0:0:0:
64,192,255397,1,0,0:0:0:0:
448,192,255397,1,0,0:0:0:0:
320,192,255500,1,0,0:0:0:0:
448,192,255500,128,0,255705:0:0:0:0:
64,192,255500,1,0,0:0:0:0:
192,192,255500,128,0,255911:0:0:0:0:
320,192,255705,128,0,255911:0:0:0:0:
448,192,255911,1,0,0:0:0:0:
64,192,255911,1,0,0:0:0:0:
448,192,256013,1,0,0:0:0:0:
64,192,256013,1,0,0:0:0:0:
320,192,256116,1,0,0:0:0:0:
192,192,256116,1,0,0:0:0:0:
448,192,256219,1,0,0:0:0:0:
192,192,256219,1,0,0:0:0:0:
448,192,256322,1,0,0:0:0:0:
64,192,256322,1,0,0:0:0:0:
320,192,256322,1,0,0:0:0:0:
192,192,256424,1,0,0:0:0:0:
320,192,256424,1,0,0:0:0:0:
64,192,256527,1,0,0:0:0:0:
192,192,256527,1,0,0:0:0:0:
448,192,256630,1,0,0:0:0:0:
192,192,256630,1,0,0:0:0:0:
320,192,256630,1,0,0:0:0:0:
320,192,256732,1,0,0:0:0:0:
448,192,256732,1,0,0:0:0:0:
192,192,256835,1,0,0:0:0:0:
320,192,256835,1,0,0:0:0:0:
64,192,256938,1,0,0:0:0:0:
192,192,256938,1,0,0:0:0:0:
192,192,257041,1,0,0:0:0:0:
320,192,257041,1,0,0:0:0:0:
448,192,257041,1,0,0:0:0:0:
448,192,257143,1,0,0:0:0:0:
64,192,257143,1,0,0:0:0:0:
320,192,257143,1,0,0:0:0:0:
192,192,257246,1,0,0:0:0:0:
64,192,257246,1,0,0:0:0:0:
320,192,257349,1,0,0:0:0:0:
192,192,257349,1,0,0:0:0:0:
448,192,257452,1,0,0:0:0:0:
320,192,257452,1,0,0:0:0:0:
448,192,257554,1,0,0:0:0:0:
192,192,257554,1,0,0:0:0:0:
64,192,257554,1,0,0:0:0:0:
320,192,257657,128,0,257965:0:0:0:0:
64,192,257657,1,0,0:0:0:0:
448,192,257965,1,0,0:0:0:0:
192,192,257965,1,0,0:0:0:0:
64,192,257965,1,0,0:0:0:0:
448,192,258376,1,0,0:0:0:0:
64,192,258376,1,0,0:0:0:0:
192,192,258376,1,0,0:0:0:0:
448,192,258479,1,0,0:0:0:0:
64,192,258479,1,0,0:0:0:0:
192,192,258479,1,0,0:0:0:0:
192,192,258582,1,0,0:0:0:0:
320,192,258582,1,0,0:0:0:0:
64,192,258685,1,0,0:0:0:0:
448,192,258685,1,0,0:0:0:0:
320,192,258787,1,0,0:0:0:0:
192,192,258787,1,0,0:0:0:0:
448,192,258787,1,0,0:0:0:0:
64,192,258890,1,0,0:0:0:0:
192,192,258941,1,0,0:0:0:0:
320,192,258993,1,0,0:0:0:0:
448,192,259044,1,0,0:0:0:0:
320,192,259095,128,0,259198:0:0:0:0:
64,192,259198,128,0,259609:0:0:0:0:
192,192,259335,128,0,259609:0:0:0:0:
320,192,259472,128,0,259609:0:0:0:0:
448,192,259609,1,0,0:0:0:0:
192,192,259712,128,0,259917:0:0:0:0:
64,192,259917,1,0,0:0:0:0:
448,192,259917,1,0,0:0:0:0:
192,192,260020,1,0,0:0:0:0:
64,192,260054,1,0,0:0:0:0:
320,192,260089,1,0,0:0:0:0:
448,192,260123,1,0,0:0:0:0:
192,192,260157,1,0,0:0:0:0:
64,192,260191,1,0,0:0:0:0:
448,192,260226,1,0,0:0:0:0:
320,192,260226,1,0,0:0:0:0:
448,192,260328,1,0,0:0:0:0:
320,192,260328,1,0,0:0:0:0:
64,192,260431,1,0,0:0:0:0:
192,192,260431,1,0,0:0:0:0:
448,192,260431,1,0,0:0:0:0:
320,192,260534,1,0,0:0:0:0:
320,192,260637,1,0,0:0:0:0:
320,192,260739,1,0,0:0:0:0:
448,192,260842,1,0,0:0:0:0:
64,192,260842,1,0,0:0:0:0:
192,192,260945,1,0,0:0:0:0:
64,192,260945,1,0,0:0:0:0:
448,192,261048,1,0,0:0:0:0:
320,192,261048,1,0,0:0:0:0:
320,192,261150,1,0,0:0:0:0:
64,192,261150,1,0,0:0:0:0:
192,192,261253,128,0,261304:0:0:0:0:
64,192,261253,128,0,261304:0:0:0:0:
448,192,261253,1,0,0:0:0:0:
192,192,261356,128,0,261407:0:0:0:0:
64,192,261356,128,0,261407:0:0:0:0:
192,192,261459,128,0,261510:0:0:0:0:
64,192,261459,128,0,261510:0:0:0:0:
192,192,261561,128,0,261613:0:0:0:0:
64,192,261561,128,0,261613:0:0:0:0:
320,192,261664,1,0,0:0:0:0:
448,192,261664,1,0,0:0:0:0:
320,192,261767,1,0,0:0:0:0:
448,192,261767,1,0,0:0:0:0:
320,192,261869,1,0,0:0:0:0:
448,192,261869,1,0,0:0:0:0:
320,192,261972,1,0,0:0:0:0:
448,192,261972,1,0,0:0:0:0:
448,192,262075,1,0,0:0:0:0:
192,192,262075,1,0,0:0:0:0:
64,192,262075,1,0,0:0:0:0:
192,192,262178,128,0,262486:0:0:0:0:
320,192,262280,128,0,262486:0:0:0:0:
448,192,262486,1,0,0:0:0:0:
64,192,262486,1,0,0:0:0:0:
448,192,262589,1,0,0:0:0:0:
64,192,262589,1,0,0:0:0:0:
448,192,262691,1,0,0:0:0:0:
192,192,262691,1,0,0:0:0:0:
64,192,262794,1,0,0:0:0:0:
320,192,262794,1,0,0:0:0:0:
448,192,262897,128,0,263308:0:0:0:0:
192,192,262897,1,0,0:0:0:0:
320,192,262897,1,0,0:0:0:0:
192,192,263102,128,0,263308:0:0:0:0:
64,192,263308,1,0,0:0:0:0:
320,192,263308,1,0,0:0:0:0:
192,192,263411,1,0,0:0:0:0:
320,192,263513,1,0,0:0:0:0:
448,192,263616,128,0,263822:0:0:0:0:
192,192,263616,128,0,263822:0:0:0:0:
64,192,263616,1,0,0:0:0:0:
64,192,263822,1,0,0:0:0:0:
320,192,263924,1,0,0:0:0:0:
320,192,264027,1,0,0:0:0:0:
192,192,264130,1,0,0:0:0:0:
64,192,264130,1,0,0:0:0:0:
448,192,264130,1,0,0:0:0:0:
64,192,264335,128,0,264541:0:0:0:0:
320,192,264438,128,0,264541:0:0:0:0:
192,192,264541,1,0,0:0:0:0:
448,192,264541,1,0,0:0:0:0:
192,192,264746,1,0,0:0:0:0:
320,192,264746,1,0,0:0:0:0:
192,192,264849,1,0,0:0:0:0:
320,192,264849,1,0,0:0:0:0:
64,192,264952,1,0,0:0:0:0:
448,192,264952,1,0,0:0:0:0:
448,192,265054,1,0,0:0:0:0:
64,192,265054,1,0,0:0:0:0:
192,192,265157,1,0,0:0:0:0:
448,192,265157,1,0,0:0:0:0:
448,192,265260,1,0,0:0:0:0:
192,192,265260,1,0,0:0:0:0:
192,192,265363,1,0,0:0:0:0:
64,192,265363,1,0,0:0:0:0:
192,192,265465,1,0,0:0:0:0:
64,192,265465,1,0,0:0:0:0:
320,192,265568,1,0,0:0:0:0:
448,192,265568,1,0,0:0:0:0:
448,192,265671,1,0,0:0:0:0:
320,192,265671,1,0,0:0:0:0:
448,192,265774,1,0,0:0:0:0:
64,192,265774,1,0,0:0:0:0:
192,192,265876,128,0,266082:0:0:0:0:
64,192,265979,128,0,266082:0:0:0:0:
320,192,266082,1,0,0:0:0:0:
448,192,266082,1,0,0:0:0:0:
320,192,266185,128,0,266595:0:0:0:0:
192,192,266185,128,0,266595:0:0:0:0:
448,192,266185,128,0,266595:0:0:0:0:
64,192,266595,1,0,0:0:0:0:
192,192,266630,1,0,0:0:0:0:
448,192,266664,1,0,0:0:0:0:
320,192,266698,1,0,0:0:0:0:
64,192,266732,1,0,0:0:0:0:
192,192,266767,1,0,0:0:0:0:
448,192,266801,1,0,0:0:0:0:
320,192,266801,1,0,0:0:0:0:
320,192,266904,1,0,0:0:0:0:
448,192,266904,1,0,0:0:0:0:
192,192,267006,1,0,0:0:0:0:
64,192,267006,1,0,0:0:0:0:
448,192,267006,1,0,0:0:0:0:
320,192,267109,1,0,0:0:0:0:
320,192,267212,1,0,0:0:0:0:
320,192,267315,1,0,0:0:0:0:
64,192,267417,1,0,0:0:0:0:
192,192,267417,1,0,0:0:0:0:
320,192,267520,1,0,0:0:0:0:
448,192,267520,1,0,0:0:0:0:
64,192,267623,1,0,0:0:0:0:
320,192,267623,1,0,0:0:0:0:
192,192,267726,1,0,0:0:0:0:
448,192,267726,1,0,0:0:0:0:
64,192,267828,1,0,0:0:0:0:
320,192,267828,1,0,0:0:0:0:
448,192,267828,1,0,0:0:0:0:
192,192,268239,1,0,0:0:0:0:
448,192,268239,1,0,0:0:0:0:
320,192,268239,1,0,0:0:0:0:
448,192,268342,128,0,268445:0:0:0:0:
192,192,268342,128,0,268445:0:0:0:0:
320,192,268342,128,0,268445:0:0:0:0:
448,192,268548,1,0,0:0:0:0:
192,192,268548,1,0,0:0:0:0:
320,192,268548,1,0,0:0:0:0:
64,192,268650,128,0,269061:0:0:0:0:
320,192,268650,128,0,268856:0:0:0:0:
448,192,268650,1,0,0:0:0:0:
192,192,268650,1,0,0:0:0:0:
192,192,268856,128,0,269061:0:0:0:0:
448,192,269061,1,0,0:0:0:0:
320,192,269061,1,0,0:0:0:0:
448,192,269164,1,0,0:0:0:0:
320,192,269164,1,0,0:0:0:0:
192,192,269267,1,0,0:0:0:0:
64,192,269267,1,0,0:0:0:0:
320,192,269369,1,0,0:0:0:0:
192,192,269369,1,0,0:0:0:0:
448,192,269472,1,0,0:0:0:0:
320,192,269472,1,0,0:0:0:0:
64,192,269472,1,0,0:0:0:0:
192,192,269575,1,0,0:0:0:0:
320,192,269575,1,0,0:0:0:0:
192,192,269678,1,0,0:0:0:0:
64,192,269678,1,0,0:0:0:0:
448,192,269780,1,0,0:0:0:0:
64,192,269780,1,0,0:0:0:0:
320,192,269780,1,0,0:0:0:0:
192,192,269883,1,0,0:0:0:0:
64,192,269883,1,0,0:0:0:0:
192,192,269986,1,0,0:0:0:0:
320,192,269986,1,0,0:0:0:0:
448,192,270089,1,0,0:0:0:0:
320,192,270089,1,0,0:0:0:0:
64,192,270191,1,0,0:0:0:0:
192,192,270191,1,0,0:0:0:0:
320,192,270191,1,0,0:0:0:0:
448,192,270294,1,0,0:0:0:0:
320,192,270294,1,0,0:0:0:0:
192,192,270294,1,0,0:0:0:0:
320,192,270397,1,0,0:0:0:0:
448,192,270397,1,0,0:0:0:0:
192,192,270500,1,0,0:0:0:0:
320,192,270500,1,0,0:0:0:0:
192,192,270602,1,0,0:0:0:0:
64,192,270602,1,0,0:0:0:0:
448,192,270705,1,0,0:0:0:0:
192,192,270705,1,0,0:0:0:0:
320,192,270705,1,0,0:0:0:0:
320,192,270808,128,0,271116:0:0:0:0:
192,192,270808,128,0,271116:0:0:0:0:
64,192,270808,128,0,271116:0:0:0:0:
448,192,271116,1,0,0:0:0:0:
320,192,271527,1,0,0:0:0:0:
64,192,271527,1,0,0:0:0:0:
448,192,271527,1,0,0:0:0:0:
320,192,271630,1,0,0:0:0:0:
64,192,271630,1,0,0:0:0:0:
448,192,271630,1,0,0:0:0:0:
320,192,271732,1,0,0:0:0:0:
192,192,271732,1,0,0:0:0:0:
448,192,271835,1,0,0:0:0:0:
64,192,271835,1,0,0:0:0:0:
320,192,271938,1,0,0:0:0:0:
192,192,271938,1,0,0:0:0:0:
64,192,271938,1,0,0:0:0:0:
448,192,272143,1,0,0:0:0:0:
64,192,272143,1,0,0:0:0:0:
320,192,272246,1,0,0:0:0:0:
192,192,272246,1,0,0:0:0:0:
64,192,272246,1,0,0:0:0:0:
320,192,272486,128,0,272760:0:0:0:0:
192,192,272623,128,0,272760:0:0:0:0:
448,192,272760,1,0,0:0:0:0:
64,192,272760,1,0,0:0:0:0:
320,192,272863,128,0,273068:0:0:0:0:
448,192,273068,1,0,0:0:0:0:
64,192,273068,1,0,0:0:0:0:
192,192,273171,1,0,0:0:0:0:
64,192,273205,1,0,0:0:0:0:
320,192,273239,1,0,0:0:0:0:
448,192,273274,1,0,0:0:0:0:
192,192,273308,1,0,0:0:0:0:
64,192,273342,1,0,0:0:0:0:
320,192,273376,1,0,0:0:0:0:
448,192,273376,1,0,0:0:0:0:
320,192,273479,1,0,0:0:0:0:
448,192,273479,1,0,0:0:0:0:
448,192,273582,1,0,0:0:0:0:
192,192,273582,1,0,0:0:0:0:
64,192,273582,1,0,0:0:0:0:
192,192,273685,1,0,0:0:0:0:
192,192,273787,1,0,0:0:0:0:
192,192,273890,1,0,0:0:0:0:
320,192,273993,1,0,0:0:0:0:
64,192,273993,1,0,0:0:0:0:
64,192,274095,1,0,0:0:0:0:
448,192,274095,1,0,0:0:0:0:
448,192,274198,1,0,0:0:0:0:
192,192,274198,1,0,0:0:0:0:
320,192,274301,1,0,0:0:0:0:
64,192,274301,1,0,0:0:0:0:
320,192,274404,1,0,0:0:0:0:
448,192,274404,128,0,274455:0:0:0:0:
192,192,274404,128,0,274455:0:0:0:0:
448,192,274506,128,0,274558:0:0:0:0:
192,192,274506,128,0,274558:0:0:0:0:
448,192,274609,128,0,274661:0:0:0:0:
192,192,274609,128,0,274661:0:0:0:0:
448,192,274712,128,0,274763:0:0:0:0:
192,192,274712,128,0,274763:0:0:0:0:
64,192,274815,1,0,0:0:0:0:
320,192,274815,1,0,0:0:0:0:
64,192,274917,1,0,0:0:0:0:
320,192,274917,1,0,0:0:0:0:
64,192,275020,1,0,0:0:0:0:
320,192,275020,1,0,0:0:0:0:
64,192,275123,1,0,0:0:0:0:
320,192,275123,1,0,0:0:0:0:
448,192,275226,1,0,0:0:0:0:
320,192,275226,1,0,0:0:0:0:
192,192,275226,1,0,0:0:0:0:
192,192,275328,128,0,275637:0:0:0:0:
448,192,275431,128,0,275637:0:0:0:0:
320,192,275637,1,0,0:0:0:0:
64,192,275637,1,0,0:0:0:0:
320,192,275739,1,0,0:0:0:0:
64,192,275739,1,0,0:0:0:0:
192,192,275842,1,0,0:0:0:0:
448,192,275842,1,0,0:0:0:0:
448,192,275945,1,0,0:0:0:0:
320,192,275945,1,0,0:0:0:0:
320,192,276048,128,0,277280:0:0:0:0:
192,192,276048,1,0,0:0:0:0:
64,192,276048,1,0,0:0:0:0:
192,192,276253,1,0,0:0:0:0:
192,192,276459,1,0,0:0:0:0:
192,192,276664,1,0,0:0:0:0:
192,192,276869,1,0,0:0:0:0:
192,192,277075,1,0,0:0:0:0:
64,192,277280,1,0,0:0:0:0:
192,192,277280,1,0,0:0:0:0:
448,192,277280,1,0,0:0:0:0:
320,192,277486,128,0,277691:0:0:0:0:
192,192,277691,128,0,279335:0:0:0:0:
64,192,277691,1,0,0:0:0:0:
448,192,277691,1,0,0:0:0:0:
64,192,279335,128,0,280979:0:0:0:0:
448,192,280979,128,0,282623:0:0:0:0:
192,192,282623,128,0,284267:0:0:0:0:
320,192,284267,128,0,285911:0:0:0:0:
64,192,285911,128,0,287554:0:0:0:0:
192,192,287554,128,0,289198:0:0:0:0:
320,192,289198,128,0,290842:0:0:0:0:
64,192,290842,128,0,292486:0:0:0:0:
448,192,292486,128,0,294130:0:0:0:0:
320,192,294130,128,0,295774:0:0:0:0:
192,192,295774,128,0,297417:0:0:0:0:
448,192,297417,128,0,299061:0:0:0:0:
320,192,299061,128,0,300705:0:0:0:0:
192,192,300705,128,0,302349:0:0:0:0:
64,192,302349,128,0,303993:0:0:0:0:
