osu file format v14

[General]
AudioFilename: audio.mp3
AudioLeadIn: 0
PreviewTime: 5565
Countdown: 0
SampleSet: Soft
StackLeniency: 0.7
Mode: 0
LetterboxInBreaks: 0
WidescreenStoryboard: 1

[Editor]
DistanceSpacing: 1
BeatDivisor: 4
GridSize: 4
TimelineZoom: 2.4

[Metadata]
Title:Raise Your Hands feat. Such
TitleUnicode:Raise Your Hands feat. Such
Artist:PSYQUI
ArtistUnicode:PSYQUI
Creator:UberFazz
Version:Normal
Source:
Tags:japanese electronic future core bass epoqc 2021
BeatmapID:2907115
BeatmapSetID:1334632

[Difficulty]
HPDrainRate:4
CircleSize:3
OverallDifficulty:4
ApproachRate:5
SliderMultiplier:1.2
SliderTickRate:1

[Events]
//Background and Video events
0,0,"raise your hands bg.png",0,0
//Break Periods
2,84951,94714
2,110067,117039
//Storyboard Layer 0 (Background)
//Storyboard Layer 1 (Fail)
//Storyboard Layer 2 (Pass)
//Storyboard Layer 3 (Foreground)
//Storyboard Layer 4 (Overlay)
//Storyboard Sound Samples

[TimingPoints]
6612,348.837209302326,4,2,1,50,1,0
17774,-125,4,2,1,50,0,0
28937,-100,4,2,2,60,0,0
37309,-100,4,2,2,70,0,0
39577,-100,4,2,1,50,0,0
40100,-100,4,2,1,60,0,0
41495,-111.111111111111,4,2,1,65,0,0
48472,-100,4,2,1,60,0,0
51263,-100,4,2,1,65,0,0
62425,-100,4,2,1,70,0,0
63821,-90.9090909090909,4,2,1,70,0,1
70798,-100,4,2,1,70,0,0
73588,-90.9090909090909,4,2,1,70,0,1
81960,-95.2380952380952,4,2,1,70,0,0
95914,-125,4,2,1,60,0,0
105681,-99.9999999999999,4,2,1,65,0,0
109518,-95.2380952380952,4,2,1,50,0,0
118239,-125,4,2,2,60,0,0
123821,-100,4,2,2,65,0,0
129053,-95.2380952380952,4,2,1,65,0,0
129228,-95.2380952380952,4,2,1,70,0,0
129402,-90.9090909090909,4,2,3,75,0,1
151030,-100,4,2,2,65,0,0
151728,-90.9090909090909,4,2,3,75,0,1
172658,-90.9090909090909,4,2,1,75,0,1
174053,-100,4,2,1,75,0,0
174141,-90.9090909090909,4,2,1,60,0,0

[Colours]
Combo1 : 111,176,230
Combo2 : 217,134,217
Combo3 : 83,155,227
Combo4 : 198,113,213

[HitObjects]
42,20,17774,6,0,L|50:128,1,96,2|2,1:2|1:2,0:0:0:0:
55,211,18472,2,0,L|152:206,1,96,8|2,0:1|1:2,0:0:0:0:
198,202,18995,5,2,0:0:0:0:
203,110,19344,1,0,0:0:0:0:
203,110,19518,2,0,L|133:108,2,48,2|0|8,1:2|0:0|0:1,0:0:0:0:
275,46,20216,1,0,1:0:0:0:
370,32,20565,5,2,1:2:0:0:
448,87,20914,1,2,1:2:0:0:
464,181,21263,1,8,0:1:0:0:
496,276,21612,1,2,1:2:0:0:
496,276,21786,2,0,L|379:272,1,96,2|2,0:0|0:0,0:0:0:0:
364,304,22309,1,2,1:2:0:0:
268,316,22658,2,0,L|274:384,2,48,8|2|2,0:1|0:0|1:2,0:0:0:0:
128,354,23530,6,0,L|121:246,1,96,2|2,0:0|0:0,0:0:0:0:
168,243,24053,2,0,L|160:135,1,96,8|2,0:1|1:2,0:0:0:0:
143,102,24577,1,2,0:0:0:0:
52,93,24925,1,2,0:0:0:0:
52,93,25100,2,0,L|58:202,1,96,2|8,1:2|0:1,0:0:0:0:
63,241,25623,1,2,0:0:0:0:
63,241,25798,1,2,1:2:0:0:
94,331,26146,6,0,L|-14:337,2,96,2|2|8,1:2|1:2|0:1,0:0:0:0:
196,361,27193,1,2,1:2:0:0:
196,361,27367,1,2,0:0:0:0:
196,361,27542,6,0,L|291:367,1,96,6|6,0:0|0:0,0:0:0:0:
379,327,28239,2,0,L|381:212,1,96,6|6,0:0|0:0,0:0:0:0:
376,187,28763,1,0,1:0:0:0:
376,187,28937,5,6,1:2:0:0:
256,192,29112,12,8,31729,0:0:0:0:
133,12,32774,5,10,0:0:0:0:
133,12,32949,2,0,L|142:145,1,120,10|2,0:0|1:2,0:0:0:0:
187,170,33472,2,0,L|178:303,1,120,10|10,0:0|0:0,0:0:0:0:
211,340,33995,1,2,0:0:0:0:
211,340,34170,1,10,0:0:0:0:
327,310,34518,6,0,P|326:252|337:182,1,120,6|2,1:2|1:2,0:0:0:0:
445,142,35216,2,0,P|446:84|435:14,1,120,2|2,1:2|1:2,0:0:0:0:
379,5,35739,1,0,1:0:0:0:
379,5,35914,1,2,1:2:0:0:
268,52,36263,1,2,1:2:0:0:
152,17,36612,1,2,1:2:0:0:
39,56,36960,1,2,1:2:0:0:
15,173,37309,6,0,L|20:245,1,60,8|8,0:2|0:0,0:0:0:0:
65,271,37658,2,0,L|70:343,1,60,8|8,0:0|0:0,0:0:0:0:
114,370,38007,1,8,0:0:0:0:
234,367,38356,2,0,L|306:362,1,60,10|10,0:0|0:0,0:0:0:0:
353,357,38705,5,12,0:0:0:0:
259,136,39577,6,0,L|263:73,2,60,8|0|2,0:0|1:0|1:2,0:0:0:0:
256,192,40100,1,4,1:0:0:0:
256,192,40274,12,4,41495,0:0:0:0:
392,74,42193,6,0,L|407:193,1,107.999996704102,10|2,0:0|1:2,0:0:0:0:
419,238,42716,1,2,0:2:0:0:
419,238,42891,1,2,1:2:0:0:
354,324,43239,1,0,1:0:0:0:
247,339,43588,1,8,0:0:0:0:
147,296,43937,1,0,1:0:0:0:
108,195,44286,5,0,1:0:0:0:
124,88,44635,2,0,L|294:80,1,161.999995056153,2|2,1:0|0:1,0:0:0:0:
382,128,45507,1,2,0:1:0:0:
435,123,45681,5,4,1:2:0:0:
443,230,46030,2,0,P|392:247|274:233,1,161.999995056153,6|2,1:2|0:2,0:0:0:0:
234,219,46728,1,0,1:0:0:0:
180,228,46902,1,2,0:0:0:0:
9,376,47949,5,2,0:0:0:0:
68,374,48123,2,0,L|146:369,1,53.9999983520508,2|2,1:2|0:0,0:0:0:0:
181,366,48472,1,2,1:0:0:0:
256,192,48646,12,8,50565,0:0:0:0:
481,90,51263,6,0,L|474:228,1,120,0|10,1:0|0:2,0:0:0:0:
471,269,51786,1,2,0:0:0:0:
361,317,52135,2,0,B|274:314,2,60,2|10|2,0:0|0:0|0:0,0:0:0:0:
364,256,52658,2,0,L|372:114,1,120,2|8,1:2|0:0,0:0:0:0:
312,120,53181,2,0,L|192:113,1,120,2|2,0:0|0:2,0:0:0:0:
163,168,53705,1,10,0:2:0:0:
163,168,53879,1,2,0:2:0:0:
50,127,54228,5,2,0:0:0:0:
26,244,54577,2,0,P|34:313|60:371,1,120,2|2,0:0|0:0,0:0:0:0:
112,371,55100,1,10,0:0:0:0:
171,367,55274,2,0,L|294:360,1,120,2|2,0:0|0:0,0:0:0:0:
292,299,55798,1,8,0:0:0:0:
295,239,55972,5,2,0:0:0:0:
175,223,56321,1,2,0:0:0:0:
77,152,56670,2,0,L|73:27,1,120,2|2,0:0|0:0,0:0:0:0:
191,7,57367,6,0,L|322:13,1,120,2|2,0:0|0:0,0:0:0:0:
374,24,57891,1,10,0:0:0:0:
375,143,58239,2,0,L|374:253,2,90,2|2|2,1:2|0:0|0:0,0:0:0:0:
476,226,59112,1,2,0:0:0:0:
476,226,59286,1,10,0:0:0:0:
476,226,59460,1,2,0:0:0:0:
428,336,59809,6,0,L|292:336,1,120,2|2,0:0|0:0,0:0:0:0:
188,333,60507,1,2,0:0:0:0:
155,284,60681,2,0,L|148:224,1,60,10|2,0:0|0:0,0:0:0:0:
141,164,61030,5,4,1:0:0:0:
256,192,61117,12,10,62425,0:0:0:0:
266,14,63123,6,0,L|259:97,1,60,0|8,1:0|0:0,0:0:0:0:
251,133,63472,1,0,1:0:0:0:
251,133,63646,1,2,1:2:0:0:
251,133,63821,5,4,1:0:0:0:
288,259,64170,1,2,1:2:0:0:
226,375,64518,2,0,L|109:366,2,99.0000030212403,2|2|2,1:2|1:2|1:2,0:0:0:0:
292,377,65216,5,2,1:2:0:0:
418,337,65565,1,2,1:2:0:0:
454,209,65914,2,0,L|463:91,2,99.0000030212403,2|2|2,1:2|1:2|1:2,0:0:0:0:
328,237,66786,1,2,1:2:0:0:
328,237,66960,1,2,1:2:0:0:
202,277,67309,2,0,P|152:287|87:281,2,99.0000030212403,2|2|2,1:2|1:2|1:2,0:0:0:0:
193,211,68007,5,2,1:2:0:0:
152,85,68356,1,2,1:2:0:0:
263,14,68705,2,0,P|317:8|386:15,2,99.0000030212403,2|2|2,1:2|1:2|1:2,0:0:0:0:
270,150,69577,1,2,1:2:0:0:
270,150,69751,1,2,1:2:0:0:
401,145,70100,2,0,L|514:140,2,99.0000030212403,2|2|2,1:2|1:2|1:2,0:0:0:0:
363,191,70798,6,0,P|363:255|381:335,1,120,4|2,1:2|1:2,0:0:0:0:
254,327,71495,2,0,P|254:263|236:183,1,120,8|2,1:0|1:2,0:0:0:0:
224,150,72018,1,2,1:2:0:0:
224,150,72193,1,0,1:0:0:0:
107,177,72542,1,2,1:2:0:0:
33,271,72891,2,0,P|39:328|51:375,2,90,8|0|0,1:0|1:0|1:0,0:0:0:0:
7,210,73588,6,0,L|12:69,1,132.00000402832,6|10,1:0|0:1,0:0:0:0:
126,18,74286,1,2,1:2:0:0:
225,21,74548,1,2,1:2:0:0:
324,24,74809,1,2,1:2:0:0:
433,97,75158,2,0,L|432:174,1,66.0000020141602,2|10,1:0|0:1,0:0:0:0:
459,290,75681,2,0,L|342:298,1,99.0000030212403,2|2,1:2|1:2,0:0:0:0:
260,303,76205,1,2,1:2:0:0:
225,247,76379,6,0,L|220:105,1,132.00000402832,2|10,1:0|0:1,0:0:0:0:
87,111,77077,1,2,1:2:0:0:
74,208,77338,1,2,1:2:0:0:
62,306,77600,2,0,L|132:313,1,66.0000020141602,2|0,1:2|1:0,0:0:0:0:
169,364,77949,1,2,1:0:0:0:
169,364,78123,1,10,0:1:0:0:
301,364,78472,2,0,L|305:260,2,99.0000030212403,2|2|2,1:2|1:2|1:2,0:0:0:0:
365,380,79170,6,0,P|413:341|430:258,1,132.00000402832,2|10,1:0|0:1,0:0:0:0:
418,138,79867,1,2,1:2:0:0:
320,120,80129,1,2,1:2:0:0:
222,102,80391,1,2,1:2:0:0:
112,175,80739,2,0,L|102:248,1,66.0000020141602,2|10,1:0|0:1,0:0:0:0:
183,342,81263,1,2,1:2:0:0:
281,333,81524,1,2,1:2:0:0:
379,324,81786,2,0,L|371:246,1,66.0000020141602,2|6,1:2|1:2,0:0:0:0:
256,192,82135,12,8,84053,1:0:0:0:
256,192,84751,5,4,1:0:0:0:
479,23,95914,6,0,L|473:132,1,96,2|2,1:2|1:2,0:0:0:0:
466,214,96612,1,8,0:1:0:0:
475,309,96960,1,2,1:2:0:0:
475,309,97135,2,0,L|377:313,1,96,2|0,0:0|0:0,0:0:0:0:
331,316,97658,2,0,L|328:257,2,48,2|0|8,1:2|0:0|0:1,0:0:0:0:
234,321,98356,1,0,1:0:0:0:
148,277,98705,6,0,L|143:161,2,96,2|2|8,1:2|1:2|0:1,0:0:0:0:
56,289,99751,1,2,1:2:0:0:
56,289,99925,2,0,P|48:228|55:181,1,96,2|2,0:0|0:0,0:0:0:0:
64,147,100449,2,0,P|71:89|64:39,1,96,2|8,1:2|0:1,0:0:0:0:
101,18,100972,1,2,0:0:0:0:
101,18,101146,1,2,1:2:0:0:
245,23,101670,6,0,L|353:29,1,96,2|2,0:0|0:0,0:0:0:0:
379,57,102193,1,8,0:1:0:0:
370,156,102542,1,2,1:2:0:0:
370,156,102716,1,2,0:0:0:0:
304,226,103065,1,2,0:0:0:0:
304,226,103239,2,0,L|196:222,1,96,2|8,1:2|0:1,0:0:0:0:
173,255,103763,1,2,0:0:0:0:
173,255,103937,1,2,1:2:0:0:
169,350,104286,6,0,L|58:348,2,96,2|2|8,1:2|1:2|0:1,0:0:0:0:
273,354,105332,1,2,1:2:0:0:
273,354,105507,1,2,0:0:0:0:
273,354,105681,6,0,P|341:360|418:347,1,120,6|6,0:0|0:0,0:0:0:0:
391,233,106379,2,0,P|323:227|246:240,1,120,6|6,0:0|0:0,0:0:0:0:
332,129,107077,1,4,1:0:0:0:
256,192,107251,12,2,109867,0:0:0:0:
391,76,118239,5,6,1:2:0:0:
256,192,118414,12,8,121030,0:0:0:0:
106,52,122077,5,10,0:2:0:0:
106,52,122251,2,0,L|112:165,1,96,10|2,0:0|1:2,0:0:0:0:
144,183,122774,2,0,L|136:293,1,96,10|10,0:0|0:0,0:0:0:0:
162,326,123298,1,2,0:0:0:0:
162,326,123472,1,10,0:0:0:0:
277,359,123821,6,0,L|267:225,1,120,6|2,1:2|1:2,0:0:0:0:
387,230,124518,2,0,L|377:96,1,120,2|2,1:2|1:2,0:0:0:0:
291,26,125216,1,2,1:2:0:0:
174,53,125565,1,2,1:2:0:0:
126,163,125914,1,2,1:2:0:0:
200,257,126263,1,2,1:2:0:0:
258,362,126612,6,0,L|326:369,1,60,8|8,0:0|0:0,0:0:0:0:
367,334,126960,2,0,L|429:327,1,60,8|8,0:0|0:0,0:0:0:0:
486,334,127309,1,8,0:0:0:0:
478,214,127658,2,0,L|471:144,1,60,10|10,0:0|0:0,0:0:0:0:
478,94,128007,5,12,0:0:0:0:
383,22,129402,6,0,L|375:167,2,132.00000402832,6|14|6,1:0|0:1|1:0,0:1:0:0:
250,13,130449,1,10,0:2:0:0:
231,76,130623,2,0,L|78:93,1,132.00000402832,2|2,0:2|0:0,0:0:0:0:
34,81,131146,2,0,L|25:4,2,66.0000020141602,10|2|2,0:0|0:0|1:2,0:0:0:0:
20,149,131670,1,2,1:2:0:0:
20,149,131844,1,10,0:0:0:0:
50,279,132193,6,0,L|198:288,1,132.00000402832,6|14,1:0|0:1,0:1:0:0:
313,298,132891,1,6,1:0:0:0:
437,255,133239,1,10,0:0:0:0:
462,194,133414,2,0,L|304:183,1,132.00000402832,2|2,0:0|0:0,0:0:0:0:
301,125,133937,2,0,L|217:132,1,66.0000020141602,10|2,0:0|0:0,0:0:0:0:
176,99,134286,2,0,L|102:92,2,66.0000020141602,2|2|10,1:2|1:2|0:2,0:0:0:0:
106,211,134984,5,2,1:0:0:0:
164,329,135332,1,10,0:1:0:0:
295,343,135681,1,2,1:0:0:0:
429,368,136030,1,10,0:0:0:0:
429,368,136205,2,0,L|419:222,1,132.00000402832,2|2,0:0|1:2,0:0:0:0:
419,170,136728,2,0,L|339:165,1,66.0000020141602,10|2,0:2|0:0,0:0:0:0:
304,121,137077,1,2,1:2:0:0:
173,103,137425,1,10,0:0:0:0:
45,138,137774,6,0,L|60:286,2,132.00000402832,2|10|2,1:0|0:1|1:0,0:0:0:0:
43,12,138821,1,10,0:0:0:0:
43,12,138995,2,0,L|191:8,1,132.00000402832,2|2,0:0|0:0,0:0:0:0:
239,21,139518,2,0,L|310:22,2,66.0000020141602,10|2|2,0:0|0:0|1:2,0:0:0:0:
246,153,140216,1,8,0:0:0:0:
247,285,140565,6,0,P|166:288|96:268,2,132.00000402832,6|14|6,1:1|0:1|1:0,0:1:0:0:
381,266,141612,1,10,0:0:0:0:
381,266,141786,2,0,L|369:111,1,132.00000402832,2|2,0:0|0:0,0:0:0:0:
416,86,142309,2,0,L|492:80,2,66.0000020141602,10|2|2,0:0|0:0|1:2,0:0:0:0:
391,30,142832,1,2,0:0:0:0:
391,30,143007,1,10,0:0:0:0:
257,34,143356,6,0,P|250:103|255:189,1,132.00000402832,6|14,1:0|0:1,0:1:0:0:
284,303,144053,1,6,1:0:0:0:
158,316,144402,1,10,0:0:0:0:
158,316,144577,2,0,L|148:159,1,132.00000402832,2|2,0:0|0:0,0:0:0:0:
95,146,145100,2,0,L|89:51,2,66.0000020141602,10|2|2,0:0|1:2|1:2,0:0:0:0:
38,177,145623,1,2,0:0:0:0:
38,177,145798,1,10,0:0:0:0:
41,308,146146,5,2,1:0:0:0:
155,374,146495,1,10,0:1:0:0:
287,374,146844,1,2,1:0:0:0:
333,253,147193,1,10,0:0:0:0:
333,253,147367,2,0,L|496:261,1,132.00000402832,2|2,1:2|0:0,0:0:0:0:
475,193,147891,2,0,L|479:102,1,66.0000020141602,10|2,0:0|0:0,0:0:0:0:
480,61,148239,1,2,1:2:0:0:
347,53,148588,1,10,0:0:0:0:
219,16,148937,6,0,L|68:24,1,132.00000402832,2|10,1:0|0:1,0:0:0:0:
53,150,149635,1,2,1:0:0:0:
167,227,149984,1,10,0:0:0:0:
167,227,150158,2,0,L|162:389,1,132.00000402832,2|2,0:0|1:2,0:0:0:0:
230,380,150681,1,8,0:0:0:0:
230,380,150856,1,2,0:0:0:0:
512,291,151728,5,6,1:0:0:0:
369,308,152077,1,14,0:1:0:0:
230,231,152425,1,6,1:0:0:0:
164,109,152774,1,10,0:2:0:0:
164,109,152949,2,0,L|9:114,1,132.00000402832,2|2,0:2|1:2,0:0:0:0:
26,179,153472,2,0,L|26:257,1,66.0000020141602,10|2,0:0|0:0,0:0:0:0:
27,311,153821,1,2,1:2:0:0:
152,350,154170,1,10,0:0:0:0:
283,360,154518,5,6,1:0:0:0:
289,220,154867,1,12,0:1:0:0:
278,61,155216,1,6,1:0:0:0:
420,26,155565,1,10,0:0:0:0:
420,26,155739,2,0,L|430:172,1,132.00000402832,2|2,0:0|0:0,0:0:0:0:
467,212,156263,2,0,L|463:303,1,66.0000020141602,10|2,0:0|0:0,0:0:0:0:
460,344,156612,2,0,L|367:340,2,66.0000020141602,2|2|10,1:2|1:2|0:2,0:0:0:0:
362,247,157309,5,2,1:0:0:0:
261,338,157658,1,10,0:1:0:0:
117,331,158007,1,2,1:0:0:0:
71,199,158356,1,10,0:0:0:0:
71,199,158530,2,0,P|64:127|76:56,1,132.00000402832,2|2,0:0|1:2,0:0:0:0:
123,26,159053,2,0,L|208:29,1,66.0000020141602,10|2,0:2|0:0,0:0:0:0:
255,32,159402,1,2,1:2:0:0:
387,35,159751,1,10,0:0:0:0:
464,142,160100,6,0,P|396:159|314:154,1,132.00000402832,2|10,1:0|0:1,0:0:0:0:
204,132,160798,1,2,1:0:0:0:
188,266,161146,1,10,0:0:0:0:
188,266,161321,2,0,P|259:276|330:267,1,132.00000402832,2|2,0:0|0:0,0:0:0:0:
384,260,161844,2,0,L|391:354,1,66.0000020141602,10|2,0:0|0:0,0:0:0:0:
435,370,162193,2,0,L|513:367,2,66.0000020141602,2|0|8,1:2|1:0|0:0,0:0:0:0:
295,383,162891,5,6,1:1:0:0:
158,337,163239,1,14,0:1:0:0:
59,212,163588,1,6,1:0:0:0:
59,67,163937,1,10,0:0:0:0:
59,67,164112,2,0,L|212:73,1,132.00000402832,2|2,0:0|0:0,0:0:0:0:
242,114,164635,2,0,L|333:117,1,66.0000020141602,10|2,0:0|0:0,0:0:0:0:
370,93,164984,1,2,1:2:0:0:
464,204,165332,1,10,0:0:0:0:
498,343,165681,5,6,1:0:0:0:
354,358,166030,1,14,0:1:0:0:
204,304,166379,1,6,1:0:0:0:
63,335,166728,1,10,0:0:0:0:
63,335,166902,2,0,L|56:184,1,132.00000402832,2|2,0:0|1:2,0:0:0:0:
113,168,167425,2,0,L|116:83,1,66.0000020141602,10|2,0:0|1:2,0:0:0:0:
173,66,167774,1,2,1:1:0:0:
173,66,167949,1,2,0:1:0:0:
173,66,168123,1,10,0:1:0:0:
387,6,168646,6,0,L|384:166,1,132.00000402832,2|2,1:2|0:0,0:0:0:0:
336,184,169170,2,0,L|338:344,1,132.00000402832,2|10,1:2|0:0,0:0:0:0:
362,377,169693,1,2,0:2:0:0:
211,375,170042,1,2,0:0:0:0:
211,375,170216,2,0,L|130:371,1,66.0000020141602,10|2,0:0|0:0,0:0:0:0:
92,331,170565,2,0,L|11:327,2,66.0000020141602,2|2|10,1:2|1:2|0:0,0:0:0:0:
106,176,171263,5,2,1:0:0:0:
234,111,171612,1,10,0:1:0:0:
369,158,171960,1,2,1:0:0:0:
498,91,172309,1,10,0:0:0:0:
498,91,172484,2,0,L|513:247,2,132.00000402832,2|2|2,0:0|1:2|1:2,0:0:0:0:
443,55,173356,2,0,L|349:47,2,66.0000020141602,8|0|0,0:1|1:0|1:0,0:0:0:0:
485,6,173879,1,0,1:0:0:0:
485,6,174053,5,4,1:0:0:0:
256,192,174228,12,2,176844,0:0:0:0:
