osu file format v14

[General]
AudioFilename: audio.mp3
AudioLeadIn: 0
PreviewTime: 5565
Countdown: 0
SampleSet: Soft
StackLeniency: 0.7
Mode: 0
LetterboxInBreaks: 0
WidescreenStoryboard: 1

[Editor]
DistanceSpacing: 1
BeatDivisor: 4
GridSize: 4
TimelineZoom: 2.4

[Metadata]
Title:Raise Your Hands feat. Such
TitleUnicode:Raise Your Hands feat. Such
Artist:PSYQUI
ArtistUnicode:PSYQUI
Creator:UberFazz
Version:Insane
Source:
Tags:japanese electronic future core bass epoqc 2021
BeatmapID:2767825
BeatmapSetID:1334632

[Difficulty]
HPDrainRate:5
CircleSize:3.8
OverallDifficulty:7.5
ApproachRate:9
SliderMultiplier:1.8
SliderTickRate:1

[Events]
//Background and Video events
0,0,"raise your hands bg.png",0,0
//Break Periods
2,84951,95314
//Storyboard Layer 0 (Background)
//Storyboard Layer 1 (Fail)
//Storyboard Layer 2 (Pass)
//Storyboard Layer 3 (Foreground)
//Storyboard Layer 4 (Overlay)
//Storyboard Sound Samples

[TimingPoints]
6612,348.837209302326,4,2,1,50,1,0
6612,-166.666666666667,4,2,1,50,0,0
17774,-125,4,2,1,50,0,0
27542,-100,4,2,1,50,0,0
28937,-125,4,2,2,60,0,0
34518,-100,4,2,2,60,0,0
37309,-83.3333333333333,4,2,2,70,0,0
39577,-62.5,4,2,1,50,0,0
40100,-500,4,2,1,60,0,0
40972,-166.666666666667,4,2,1,60,0,0
41495,-83.3333333333333,4,2,1,65,0,0
48472,-125,4,2,1,60,0,0
50565,-83.3333333333333,4,2,1,60,0,0
51263,-71.4285714285714,4,2,1,65,0,0
62425,-62.5,4,2,1,70,0,0
63821,-62.5,4,2,1,70,0,1
70798,-100,4,2,1,70,0,0
73588,-62.5,4,2,1,70,0,1
81960,-83.3333333333333,4,2,1,70,0,0
84751,-166.666666666667,4,2,1,70,0,0
95914,-125,4,2,1,60,0,0
105681,-100,4,2,1,65,0,0
109518,-250.000000000001,4,2,1,50,0,0
118239,-125,4,2,2,60,0,0
123821,-100,4,2,2,65,0,0
126612,-83.3333333333333,4,2,2,65,0,0
129053,-71.4285714285714,4,2,1,65,0,0
129228,-62.5,4,2,1,70,0,0
129402,-55.5555555555556,4,2,3,75,0,1
129751,-50,4,2,3,75,0,1
130100,-42.5531914893617,4,2,3,75,0,1
130449,-55.5555555555556,4,2,3,75,0,1
132193,-55.5555555555556,4,2,3,75,0,1
132542,-50,4,2,3,75,0,1
132891,-42.5531914893617,4,2,3,75,0,1
133239,-55.5555555555556,4,2,3,75,0,1
134984,-71.4285714285714,4,2,3,75,0,1
135332,-62.5,4,2,3,75,0,1
135681,-55.5555555555556,4,2,3,75,0,1
137774,-71.4285714285714,4,2,3,75,0,1
138122,-62.5,4,2,3,75,0,1
138471,-55.5555555555556,4,2,3,75,0,1
140565,-55.5555555555556,4,2,3,75,0,1
140914,-50,4,2,3,75,0,1
141263,-42.5531914893617,4,2,3,75,0,1
141612,-55.5555555555556,4,2,3,75,0,1
143356,-55.5555555555556,4,2,3,75,0,1
143705,-50,4,2,3,75,0,1
144053,-42.5531914893617,4,2,3,75,0,1
144402,-55.5555555555556,4,2,3,75,0,1
146146,-71.4285714285714,4,2,3,75,0,1
146494,-62.5,4,2,3,75,0,1
146843,-55.5555555555556,4,2,3,75,0,1
148937,-71.4285714285714,4,2,3,75,0,1
149285,-62.5,4,2,3,75,0,1
149634,-55.5555555555556,4,2,3,75,0,1
150332,-71.4285714285714,4,2,3,75,0,1
151030,-100,4,2,2,65,0,0
151728,-55.5555555555556,4,2,3,75,0,1
152077,-52.6315789473684,4,2,3,75,0,1
152425,-45.4545454545455,4,2,3,75,0,1
152774,-55.5555555555556,4,2,3,75,0,1
154518,-55.5555555555556,4,2,3,75,0,1
154867,-52.6315789473684,4,2,3,75,0,1
155216,-45.4545454545455,4,2,3,75,0,1
155565,-55.5555555555556,4,2,3,75,0,1
157309,-62.5,4,2,3,75,0,1
157658,-58.8235294117647,4,2,3,75,0,1
158007,-55.5555555555556,4,2,3,75,0,1
160100,-62.5,4,2,3,75,0,1
160449,-58.8235294117647,4,2,3,75,0,1
160798,-55.5555555555556,4,2,3,75,0,1
162891,-55.5555555555556,4,2,3,75,0,1
163239,-52.6315789473684,4,2,3,75,0,1
163588,-45.4545454545455,4,2,3,75,0,1
163937,-55.5555555555556,4,2,3,75,0,1
165681,-55.5555555555556,4,2,3,75,0,1
166029,-52.6315789473684,4,2,3,75,0,1
166378,-45.4545454545455,4,2,3,75,0,1
166727,-55.5555555555556,4,2,3,75,0,1
172658,-83.3333333333333,4,2,1,75,0,1
174053,-71.4285714285714,4,2,1,75,0,0
174141,-71.4285714285714,4,2,1,60,0,0

[Colours]
Combo1 : 111,176,230
Combo2 : 217,134,217
Combo3 : 83,155,227
Combo4 : 198,113,213

[HitObjects]
80,64,6612,6,0,L|75:190,2,107.999996704102,4|2|10,1:0|0:2|0:0,0:0:0:0:
80,64,7658,1,2,0:0:0:0:
186,63,7832,2,0,L|298:58,1,107.999996704102,2|2,0:0|0:0,0:0:0:0:
392,28,8356,2,0,L|467:31,1,53.9999983520508,2|0,0:0|0:0,0:0:0:0:
447,119,8705,2,0,L|444:245,1,107.999996704102,10|2,0:0|0:0,0:0:0:0:
214,198,9402,6,0,P|237:248|245:317,2,107.999996704102,2|2|10,1:2|0:0|0:0,0:0:0:0:
214,198,10449,1,2,0:0:0:0:
125,201,10623,2,0,L|124:74,1,107.999996704102,2|2,0:0|0:0,0:0:0:0:
21,92,11146,2,0,L|21:167,1,53.9999983520508,2|0,0:0|0:0,0:0:0:0:
21,250,11495,2,0,P|39:271|61:307,2,53.9999983520508,10|2|2,0:0|0:0|0:0,0:0:0:0:
210,373,12193,6,0,L|330:369,1,107.999996704102,2|2,1:2|0:0,0:0:0:0:
317,369,12891,1,10,0:0:0:0:
463,372,13239,1,2,0:0:0:0:
463,372,13414,2,0,P|447:311|442:257,1,107.999996704102,2|2,0:0|0:0,0:0:0:0:
491,181,13937,2,0,L|493:118,1,53.9999983520508,2|2,0:0|0:0,0:0:0:0:
502,23,14286,1,10,0:0:0:0:
502,23,14635,1,2,0:0:0:0:
502,23,14984,6,0,P|450:33|383:35,1,107.999996704102,2|2,1:2|0:0,0:0:0:0:
274,28,15681,1,10,0:0:0:0:
145,20,16030,1,2,0:0:0:0:
145,20,16205,2,0,L|149:146,1,107.999996704102,2|2,0:0|0:0,0:0:0:0:
94,199,16728,2,0,L|91:274,1,53.9999983520508,2|2,0:0|0:0,0:0:0:0:
97,371,17077,1,10,0:0:0:0:
97,371,17251,1,2,0:0:0:0:
97,371,17425,1,2,0:0:0:0:
394,335,17774,6,0,P|356:326|307:323,1,72,2|0,1:2|0:0,0:0:0:0:
220,330,18123,1,2,1:2:0:0:
282,234,18298,1,0,0:0:0:0:
282,234,18385,1,2,0:0:0:0:
282,234,18472,2,0,L|280:146,1,72,8|0,0:1|0:0,0:0:0:0:
296,20,18821,1,2,1:2:0:0:
296,20,18908,1,2,0:0:0:0:
296,20,18995,1,2,0:0:0:0:
296,20,19082,1,2,0:0:0:0:
296,20,19170,6,0,L|380:24,1,72,0|0,1:0|0:0,0:0:0:0:
481,22,19518,1,2,1:2:0:0:
428,113,19693,1,0,0:0:0:0:
428,113,19780,1,2,0:0:0:0:
428,113,19867,2,0,L|429:208,1,72,8|0,0:1|0:0,0:0:0:0:
434,287,20216,2,0,L|382:288,1,36,0|0,1:0|0:0,0:0:0:0:
363,315,20391,2,0,L|311:316,1,36
253,360,20565,6,0,P|195:328|101:305,1,144,2|2,1:2|1:2,0:0:0:0:
4,309,21088,1,0,0:0:0:0:
4,309,21175,1,2,0:0:0:0:
4,309,21263,2,0,L|12:216,1,72,8|0,0:1|0:0,0:0:0:0:
18,109,21612,2,0,L|16:70,3,36,2|2|2|2,1:2|0:0|0:0|0:0,0:0:0:0:
110,87,21960,6,0,L|197:86,1,72,0|2,1:0|0:0,0:0:0:0:
259,48,22309,2,0,L|330:48,1,72,2|2,1:2|0:0,0:0:0:0:
434,51,22658,1,8,0:1:0:0:
445,162,22832,1,2,0:0:0:0:
448,44,23007,2,0,L|450:5,3,36,2|2|0|2,1:2|0:0|0:0|0:0,0:0:0:0:
457,149,23356,5,0,1:2:0:0:
468,274,23530,2,0,L|385:270,1,72,2|0,0:0|1:2,0:0:0:0:
293,276,23879,1,2,0:0:0:0:
293,276,23966,1,2,0:0:0:0:
293,276,24053,2,0,L|290:190,1,72,8|0,0:1|0:0,0:0:0:0:
289,84,24402,2,0,L|239:87,1,36,2|0,1:2|0:0,0:0:0:0:
213,65,24577,2,0,L|177:62,1,36,2|0,0:0|0:0,0:0:0:0:
87,41,24751,6,0,P|96:78|98:136,2,72,0|2|2,1:0|0:0|1:2,0:0:0:0:
188,156,25274,1,2,0:0:0:0:
188,156,25362,1,2,0:0:0:0:
188,156,25449,2,0,L|184:248,1,72,8|2,0:1|0:0,0:0:0:0:
121,328,25798,2,0,L|82:324,3,36,2|2|0|2,1:2|0:0|0:0|0:0,0:0:0:0:
207,368,26146,6,0,P|250:356|288:355,1,72,2|0,1:2|0:0,0:0:0:0:
384,352,26495,2,0,P|427:364|465:365,1,72,2|0,1:2|0:0,0:0:0:0:
485,345,26757,1,2,0:0:0:0:
485,345,26844,2,0,L|479:248,1,72,8|0,0:1|0:0,0:0:0:0:
475,93,27193,1,2,1:2:0:0:
455,86,27280,1,2,0:0:0:0:
436,84,27367,1,2,0:0:0:0:
417,86,27455,1,2,0:0:0:0:
402,92,27542,6,0,L|395:293,2,180,6|6|6,0:0|0:0|0:0,0:0:0:0:
334,15,28414,1,2,0:0:0:0:
215,19,28588,2,0,L|120:21,1,90,6|0,0:0|1:0,0:0:0:0:
38,25,28850,1,0,1:0:0:0:
38,25,28937,6,0,L|42:157,1,108,14|8,0:0|0:0,0:0:0:0:
48,262,29460,1,8,0:0:0:0:
48,262,29635,2,0,L|104:264,1,36,8|8,0:0|0:0,0:0:0:0:
224,224,29984,2,0,L|221:315,1,72,8|8,0:0|0:0,0:0:0:0:
219,384,30332,5,8,0:0:0:0:
335,342,30507,2,0,L|334:312,4,18,0|0|0|0|8,1:0|1:0|1:0|1:0|0:0,0:0:0:0:
463,371,30856,1,8,0:0:0:0:
463,371,31030,2,0,L|461:327,1,36,8|8,0:0|0:0,0:0:0:0:
501,201,31379,2,0,L|424:197,1,72,8|8,0:0|0:0,0:0:0:0:
339,195,31728,6,0,P|334:129|313:70,1,108,8|8,0:0|0:0,0:0:0:0:
185,17,32251,1,8,0:0:0:0:
185,17,32425,2,0,L|187:68,1,36,8|8,0:0|0:0,0:0:0:0:
22,70,32774,1,8,0:0:0:0:
44,165,32949,1,8,0:0:0:0:
17,268,33123,5,8,0:0:0:0:
55,350,33298,2,0,L|56:381,4,18,0|0|0|0|8,1:0|1:0|1:0|1:0|0:0,0:0:0:0:
169,380,33646,1,8,0:0:0:0:
169,380,33821,2,0,L|167:333,1,36,8|8,0:0|0:0,0:0:0:0:
326,376,34170,1,8,0:0:0:0:
303,266,34344,1,8,0:0:0:0:
310,134,34518,6,0,L|428:139,1,90,6|8,1:2|0:0,0:0:0:0:
399,137,34780,1,8,0:0:0:0:
399,137,34867,1,2,1:2:0:0:
212,137,35042,1,8,0:0:0:0:
164,31,35216,2,0,L|46:36,1,90,2|8,1:2|0:0,0:0:0:0:
74,34,35478,1,8,0:0:0:0:
74,34,35565,1,2,1:2:0:0:
262,34,35740,1,8,0:0:0:0:
449,42,35914,5,2,1:2:0:0:
454,60,36001,1,8,0:0:0:0:
457,82,36088,1,8,0:0:0:0:
458,104,36175,1,8,0:0:0:0:
458,124,36263,2,0,L|398:129,3,45,2|8|8|8,1:2|0:0|0:0|0:0,0:0:0:0:
347,203,36612,1,2,1:2:0:0:
340,226,36699,1,8,0:0:0:0:
336,255,36786,1,8,0:0:0:0:
335,283,36873,1,8,0:0:0:0:
335,309,36961,2,0,L|413:315,3,45,2|8|8|8,1:2|0:0|0:0|0:0,0:0:0:0:
481,261,37309,6,0,L|434:260,1,26.9999991760254,8|8,0:0|0:0,0:0:0:0:
347,203,37484,2,0,L|300:204,1,26.9999991760254,8|8,0:0|0:0,0:0:0:0:
231,311,37658,2,0,L|184:310,1,26.9999991760254,8|8,0:0|0:0,0:0:0:0:
127,202,37833,2,0,L|80:203,1,26.9999991760254,8|8,0:0|0:0,0:0:0:0:
98,369,38007,1,8,0:0:0:0:
121,336,38094,1,8,0:0:0:0:
132,297,38181,1,8,0:0:0:0:
130,257,38268,1,8,0:0:0:0:
115,219,38355,1,10,0:0:0:0:
92,186,38444,1,10,0:0:0:0:
81,147,38531,1,10,0:0:0:0:
83,107,38618,1,10,0:0:0:0:
98,69,38705,5,12,0:0:0:0:
98,69,39489,1,0,1:0:0:0:
114,59,39577,2,0,P|148:106|82:99,1,144,8|0,0:0|1:0,0:0:0:0:
1,76,39838,1,0,1:0:0:0:
1,76,39925,2,0,L|4:153,1,72,2|0,1:2|1:0,0:0:0:0:
6,252,40100,6,0,L|84:256,1,72,4|8,1:0|0:0,0:0:0:0:
77,255,40972,2,0,L|80:311,2,53.9999983520508,2|2|2,1:2|1:2|1:2,0:0:0:0:
186,273,41495,2,0,P|243:292|293:328,1,107.999996704102,4|2,0:0|0:0,0:0:0:0:
295,89,41844,2,0,P|307:147|300:209,1,107.999996704102,2|2,1:2|0:0,0:0:0:0:
301,227,42106,1,2,0:0:0:0:
301,227,42193,2,0,L|415:235,1,107.999996704102,10|0,0:0|0:0,0:0:0:0:
489,156,42542,1,2,1:2:0:0:
497,315,42716,1,2,0:2:0:0:
500,145,42891,6,0,L|375:139,1,107.999996704102,2|2,1:2|0:0,0:0:0:0:
207,139,43239,1,0,1:0:0:0:
207,139,43414,2,0,P|208:202|196:256,1,107.999996704102,2|8,0:0|0:0,0:0:0:0:
134,374,43763,1,2,0:2:0:0:
123,370,43850,1,2,0:2:0:0:
123,359,43937,1,0,1:0:0:0:
134,356,44024,1,2,0:0:0:0:
140,365,44112,1,2,0:0:0:0:
13,311,44286,5,0,1:0:0:0:
27,202,44460,1,2,0:0:0:0:
40,95,44635,2,0,L|104:98,1,53.9999983520508,2|0,1:0|0:0,0:0:0:0:
213,105,44810,1,2,0:0:0:0:
213,105,44984,1,10,0:2:0:0:
305,201,45158,2,0,L|241:204,1,53.9999983520508,2|0,0:1|0:0,0:0:0:0:
132,211,45333,1,2,1:2:0:0:
132,211,45507,2,0,L|129:264,1,53.9999983520508,2|0,0:1|0:0,0:0:0:0:
213,105,45681,5,4,1:2:0:0:
213,105,46030,2,0,P|269:84|338:80,1,107.999996704102,6|0,1:2|0:0,0:0:0:0:
408,82,46292,1,2,0:0:0:0:
408,82,46379,1,10,0:0:0:0:
451,220,46553,1,2,0:2:0:0:
416,365,46728,1,0,1:0:0:0:
416,365,46815,1,2,0:0:0:0:
416,365,46902,1,2,0:0:0:0:
468,214,47077,5,0,1:0:0:0:
468,214,47251,1,2,0:0:0:0:
468,214,47425,2,0,L|351:210,1,107.999996704102,2|2,1:2|0:0,0:0:0:0:
263,212,47687,1,2,0:0:0:0:
263,212,47774,1,10,0:0:0:0:
171,251,47949,1,2,0:0:0:0:
253,311,48123,1,2,1:2:0:0:
158,349,48298,1,2,0:0:0:0:
75,289,48472,6,0,P|74:245|52:136,1,144,2|2,1:0|1:2,0:0:0:0:
55,146,48995,1,2,0:0:0:0:
24,59,49170,2,0,L|108:61,2,72,10|2|2,0:0|0:0|1:2,0:0:0:0:
24,59,49693,1,2,0:0:0:0:
177,1,49867,2,0,P|178:48|207:156,1,144,2|0,1:0|1:0,0:0:0:0:
200,141,50565,6,0,L|320:144,1,107.999996704102,8|8,0:0|0:0,0:0:0:0:
443,151,50914,1,0,1:0:0:0:
447,169,51001,1,0,1:0:0:0:
437,186,51088,1,8,0:0:0:0:
433,204,51175,1,8,0:0:0:0:
439,220,51263,6,0,P|359:231|221:339,1,251.999992309571,0|10,1:0|0:2,0:0:0:0:
225,332,51786,2,0,L|90:328,1,125.999996154785,2|0,0:0|1:0,0:0:0:0:
1,325,52135,1,2,0:0:0:0:
1,325,52222,1,0,0:0:0:0:
1,325,52309,1,10,0:0:0:0:
76,233,52484,1,2,0:0:0:0:
166,384,52658,6,0,L|171:253,1,125.999996154785,2|2,1:2|0:2,0:0:0:0:
177,127,53007,1,8,0:0:0:0:
177,127,53181,2,0,P|236:150|205:31,1,251.999992309571,2|2,0:0|0:2,0:0:0:0:
223,27,53705,2,0,L|354:30,1,125.999996154785,10|2,0:2|0:2,0:0:0:0:
477,37,54053,5,0,1:0:0:0:
477,37,54228,2,0,L|474:167,1,125.999996154785,2|8,0:0|0:0,0:0:0:0:
381,253,54577,2,0,L|378:127,1,125.999996154785,2|0,0:0|1:0,0:0:0:0:
485,255,54925,1,2,0:0:0:0:
485,255,55013,1,2,0:0:0:0:
485,255,55100,1,10,0:0:0:0:
512,362,55274,6,0,P|415:349|247:360,1,251.999992309571,2|2,0:0|0:0,0:0:0:0:
101,381,55798,1,8,0:0:0:0:
101,381,55972,2,0,L|96:252,1,125.999996154785,2|0,0:0|0:0,0:0:0:0:
8,186,56321,2,0,L|13:57,1,125.999996154785,2|8,0:0|0:0,0:0:0:0:
149,7,56670,1,2,0:0:0:0:
149,7,56757,1,0,0:0:0:0:
149,7,56844,5,0,1:0:0:0:
280,11,57018,2,0,P|270:74|275:145,1,125.999996154785,2|10,0:0|0:0,0:0:0:0:
427,143,57367,2,0,P|437:80|432:9,1,125.999996154785,2|0,0:0|1:0,0:0:0:0:
500,241,57716,1,2,0:0:0:0:
500,241,57803,1,2,0:0:0:0:
500,241,57891,2,0,L|373:243,1,125.999996154785,10|2,0:0|0:0,0:0:0:0:
252,244,58239,6,0,L|250:309,3,62.9999980773926,2|2|0|2,1:2|0:0|0:0|0:0,0:0:0:0:
24,302,58763,1,2,0:0:0:0:
24,302,58850,1,0,0:0:0:0:
24,302,58937,1,0,1:0:0:0:
44,186,59112,1,2,0:0:0:0:
144,148,59286,1,10,0:0:0:0:
243,215,59460,1,2,0:0:0:0:
243,215,59635,6,0,P|247:164|263:88,2,125.999996154785,0|2|8,1:0|0:0|0:0,0:0:0:0:
246,360,60158,2,0,L|402:365,1,125.999996154785,2|0,0:0|1:0,0:0:0:0:
500,366,60507,1,2,0:0:0:0:
489,370,60594,1,0,0:0:0:0:
489,381,60681,1,10,0:0:0:0:
500,384,60768,1,0,0:0:0:0:
506,375,60856,1,2,0:0:0:0:
502,258,61030,5,4,1:0:0:0:
256,192,61117,12,8,61728,0:0:0:0:
139,94,61902,5,0,1:0:0:0:
139,94,62077,1,0,1:0:0:0:
139,94,62251,1,0,1:0:0:0:
302,27,62425,6,0,L|300:190,2,144,10|10|10,0:0|0:0|0:0,0:0:0:0:
302,27,62949,1,10,0:0:0:0:
419,48,63123,1,0,1:0:0:0:
467,157,63298,2,0,P|479:224|462:310,1,144,8|0,0:0|1:0,0:0:0:0:
449,313,63559,1,0,1:0:0:0:
418,323,63646,1,2,1:2:0:0:
386,319,63734,1,0,1:0:0:0:
357,330,63821,5,4,1:0:0:0:
136,334,63995,1,2,0:0:0:0:
222,169,64170,2,0,P|225:244|262:322,1,144,2|0,1:2|0:0,0:0:0:0:
136,75,64518,2,0,L|296:68,1,144,2|2,1:2|1:2,0:0:0:0:
388,65,64780,1,2,1:2:0:0:
364,217,64955,1,2,1:2:0:0:
356,202,65042,1,2,1:2:0:0:
453,350,65216,6,0,L|451:188,1,144,2|0,1:2|0:0,0:0:0:0:
371,50,65565,2,0,L|369:193,1,144,2|0,1:2|0:0,0:0:0:0:
188,315,65914,2,0,P|279:301|347:309,1,144,2|0,1:2|0:0,0:0:0:0:
442,338,66175,1,2,1:2:0:0:
264,186,66350,1,2,1:2:0:0:
278,195,66437,2,0,L|276:342,1,144,2|0,1:2|1:0,0:0:0:0:
286,352,66699,1,2,1:2:0:0:
299,361,66786,1,2,1:2:0:0:
142,382,66960,6,0,P|150:347|159:226,1,144,2|0,1:2|0:0,0:0:0:0:
76,114,67309,2,0,L|228:108,1,144,2|2,1:2|1:2,0:0:0:0:
329,104,67571,1,2,1:2:0:0:
480,188,67745,1,2,1:2:0:0:
472,173,67832,1,2,1:2:0:0:
445,14,68007,6,0,P|441:108|488:312,1,288,2|2,1:2|1:2,0:0:0:0:
481,296,68705,2,0,L|327:302,1,144,2|2,1:2|1:2,0:0:0:0:
223,306,68966,1,2,1:2:0:0:
88,227,69141,1,2,1:2:0:0:
101,242,69228,2,0,P|117:319|118:385,1,144,2|2,1:2|1:2,0:0:0:0:
118,384,69577,5,2,1:2:0:0:
179,140,69751,2,0,L|18:138,1,144,2|0,1:2|1:0,0:0:0:0:
19,124,70013,1,0,1:0:0:0:
11,109,70100,1,2,1:2:0:0:
195,54,70274,2,0,L|190:132,1,72,2|2,1:2|1:2,0:0:0:0:
396,83,70536,2,0,L|391:11,1,72,2|2,1:2|1:2,0:0:0:0:
444,256,70798,6,0,L|333:250,2,90,4|0|2,1:2|1:0|1:2,0:0:0:0:
444,256,71321,1,0,1:0:0:0:
271,377,71495,2,0,P|269:313|255:259,1,90,8|0,1:0|1:0,0:0:0:0:
256,277,71757,1,0,1:0:0:0:
248,271,71844,1,2,1:2:0:0:
240,265,71931,1,0,1:0:0:0:
232,259,72019,1,2,1:2:0:0:
57,215,72193,5,0,1:0:0:0:
57,215,72280,1,0,1:0:0:0:
57,215,72367,1,2,1:2:0:0:
141,345,72542,2,0,L|142:241,1,90,2|2,1:2|1:2,0:0:0:0:
140,170,72803,1,0,1:0:0:0:
140,170,72891,2,0,P|204:169|288:145,2,135,8|0|0,1:0|1:0|1:0,0:0:0:0:
387,70,73588,6,0,L|383:236,1,144,6|0,1:0|0:0,0:0:0:0:
229,335,73937,2,0,L|225:191,1,144,10|0,0:1|0:0,0:0:0:0:
220,30,74286,1,2,1:2:0:0:
188,25,74373,1,2,1:2:0:0:
156,20,74460,1,2,1:2:0:0:
124,15,74548,1,2,1:2:0:0:
16,133,74722,1,2,1:2:0:0:
19,163,74809,1,2,1:2:0:0:
128,123,74984,5,0,1:0:0:0:
128,123,75158,1,2,1:0:0:0:
125,304,75332,2,0,P|202:314|278:330,1,144,10|0,0:1|0:0,0:0:0:0:
495,374,75681,2,0,L|485:230,1,144,2|2,1:2|1:2,0:0:0:0:
505,143,75943,1,2,1:2:0:0:
440,6,76117,1,2,1:2:0:0:
410,1,76205,1,2,1:2:0:0:
274,23,76379,6,0,P|288:69|294:170,1,144,2|0,1:0|0:0,0:0:0:0:
149,183,76728,2,0,P|135:137|129:36,1,144,10|0,0:1|0:0,0:0:0:0:
229,218,77077,2,0,L|69:238,1,144,2|2,1:2|1:2,0:0:0:0:
4,248,77338,1,2,1:2:0:0:
141,372,77513,1,2,1:2:0:0:
156,361,77600,2,0,P|220:351|322:362,1,144,2|0,1:2|1:0,0:0:0:0:
379,376,77862,1,2,1:2:0:0:
394,384,77949,1,2,1:0:0:0:
492,279,78123,6,0,L|344:275,1,144,10|0,0:1|0:0,0:0:0:0:
323,111,78472,1,2,1:2:0:0:
449,44,78646,1,2,1:2:0:0:
453,59,78734,1,2,1:2:0:0:
275,15,78908,1,2,1:2:0:0:
258,17,78995,1,2,1:2:0:0:
241,19,79082,1,0,1:0:0:0:
224,21,79170,6,0,L|220:189,1,144,2|0,1:0|0:0,0:0:0:0:
56,165,79518,2,0,L|59:21,1,144,10|0,0:1|0:0,0:0:0:0:
140,213,79867,2,0,L|143:296,3,72,2|0|2|2,1:2|1:0|1:2|1:2,0:0:0:0:
262,330,80303,1,2,1:2:0:0:
278,336,80391,1,2,1:2:0:0:
431,368,80565,5,2,1:2:0:0:
431,368,80739,1,2,1:0:0:0:
500,222,80914,2,0,L|351:226,1,144,10|0,0:1|0:0,0:0:0:0:
378,45,81263,2,0,P|404:126|410:210,1,144,2|2,1:2|1:2,0:0:0:0:
411,270,81524,1,2,1:2:0:0:
270,364,81699,1,2,1:2:0:0:
266,347,81786,1,2,1:2:0:0:
262,330,81873,1,0,1:0:0:0:
258,313,81960,6,0,L|133:308,2,107.999996704102,6|0|2,1:2|1:0|1:2,0:0:0:0:
2,165,82658,2,0,P|69:159|126:141,1,107.999996704102,8|2,1:0|1:2,0:0:0:0:
116,137,82920,1,0,1:0:0:0:
116,137,83007,2,0,L|120:64,2,53.9999983520508,2|0|2,1:2|1:0|1:2,0:0:0:0:
122,6,83356,6,0,L|53:4,2,53.9999983520508,0|0|2,1:0|1:0|1:2,0:0:0:0:
234,10,83705,1,2,1:2:0:0:
344,50,83879,1,0,1:0:0:0:
344,50,83966,1,0,1:0:0:0:
344,50,84053,2,0,L|340:160,1,107.999996704102,8|0,1:0|1:0,0:0:0:0:
329,252,84402,2,0,L|332:359,1,107.999996704102,0|0,1:0|1:0,0:0:0:0:
256,192,84751,5,4,1:0:0:0:
404,110,95914,6,0,L|401:208,1,72,2|0,1:2|0:0,0:0:0:0:
399,295,96263,1,2,1:2:0:0:
320,219,96437,1,0,0:0:0:0:
320,219,96524,1,0,0:0:0:0:
320,219,96612,2,0,L|237:224,1,72,8|0,0:1|0:0,0:0:0:0:
138,227,96960,2,0,L|135:286,3,36,2|0|2|0,1:2|0:0|0:0|0:0,0:0:0:0:
86,153,97309,6,0,P|81:108|67:60,1,72,0|0,1:0|0:0,0:0:0:0:
50,0,97658,1,2,1:2:0:0:
151,34,97832,1,0,0:0:0:0:
151,34,97920,1,0,0:0:0:0:
151,34,98007,2,0,L|232:30,1,72,8|0,0:1|0:0,0:0:0:0:
341,28,98356,2,0,L|339:77,1,36,0|0,1:0|0:0,0:0:0:0:
363,103,98530,2,0,L|365:152,1,36
373,227,98705,6,0,L|225:223,1,144,2|2,1:2|1:2,0:0:0:0:
124,232,99228,1,0,0:0:0:0:
124,232,99315,1,0,0:0:0:0:
124,232,99402,2,0,P|131:280|132:319,1,72,8|0,0:1|0:0,0:0:0:0:
237,371,99751,2,0,L|198:374,3,36,2|0|2|0,1:2|0:0|0:0|0:0,0:0:0:0:
318,355,100100,6,0,L|411:357,2,72,0|2|2,1:0|0:0|1:2,0:0:0:0:
486,332,100623,1,2,0:0:0:0:
486,332,100710,1,2,0:0:0:0:
486,332,100798,2,0,L|479:239,1,72,8|2,0:1|0:0,0:0:0:0:
491,155,101146,1,2,1:2:0:0:
491,155,101234,1,0,0:0:0:0:
491,155,101321,1,0,0:0:0:0:
491,155,101408,1,0,0:0:0:0:
491,155,101495,6,0,P|455:155|403:151,2,72,0|2|0,1:2|0:0|1:2,0:0:0:0:
490,23,102018,1,2,0:0:0:0:
490,23,102106,1,0,0:0:0:0:
490,23,102193,2,0,P|431:34|340:31,1,144,8|2,0:1|1:2,0:0:0:0:
328,22,102629,1,0,0:0:0:0:
328,22,102716,2,0,L|277:24,1,36,2|0,0:0|0:0,0:0:0:0:
201,17,102891,6,0,P|209:62|211:107,1,72,0|2,1:0|0:0,0:0:0:0:
109,101,103239,2,0,P|101:56|99:11,1,72,2|2,1:2|0:0,0:0:0:0:
9,4,103588,1,8,0:1:0:0:
18,113,103763,1,2,0:0:0:0:
18,113,103850,1,2,0:0:0:0:
18,113,103937,2,0,L|19:192,1,72,2|0,1:2|0:0,0:0:0:0:
24,308,104286,6,0,P|91:313|183:357,2,144,2|2|8,1:2|1:2|0:1,0:0:0:0:
269,354,105332,1,2,1:2:0:0:
271,334,105420,1,0,0:0:0:0:
273,314,105507,1,2,0:0:0:0:
275,294,105594,1,0,0:0:0:0:
277,274,105681,6,0,L|462:269,1,180,6|6,0:0|0:0,0:0:0:0:
453,64,106379,2,0,L|268:59,1,180,6|6,0:0|0:0,0:0:0:0:
133,67,106902,1,0,1:0:0:0:
133,67,106989,1,0,1:0:0:0:
133,67,107077,5,4,1:0:0:0:
256,192,107164,12,2,109518,0:0:0:0:
69,32,109867,6,0,B|31:74|31:74|68:269,1,252,2|0,0:0|0:0,0:0:0:0:
67,265,111263,2,0,P|119:243|172:237,1,108,2|0,0:0|0:0,0:0:0:0:
169,236,111960,2,0,P|221:258|274:264,1,108,2|0,0:0|0:0,0:0:0:0:
381,197,112658,6,0,P|373:232|483:190,1,252,2|0,0:0|0:0,0:0:0:0:
489,201,114053,2,0,L|479:89,1,108,2|0,0:0|0:0,0:0:0:0:
479,94,114751,2,0,L|370:90,1,108,2|0,0:0|0:0,0:0:0:0:
259,18,115449,6,0,P|274:76|238:264,1,252,2|0,0:0|0:0,0:0:0:0:
239,261,116844,2,0,P|186:243|130:243,1,108,2|0,0:0|0:0,0:0:0:0:
135,242,117542,2,0,P|81:260|25:260,1,108,2|0,0:0|0:0,0:0:0:0:
5,110,118239,6,0,L|130:116,1,108,14|8,0:0|0:0,0:0:0:0:
112,115,118763,1,8,0:0:0:0:
217,186,118937,2,0,L|226:243,1,36,8|8,0:0|0:0,0:0:0:0:
209,40,119286,2,0,L|303:37,1,72,8|8,0:0|0:0,0:0:0:0:
431,32,119635,5,8,0:0:0:0:
459,138,119809,2,0,L|428:137,4,18,0|0|0|0|8,1:0|1:0|1:0|1:0|0:0,0:0:0:0:
451,253,120158,1,8,0:0:0:0:
451,253,120332,2,0,L|405:252,1,36,8|8,0:0|0:0,0:0:0:0:
312,308,120681,2,0,L|315:379,1,72,8|8,0:0|0:0,0:0:0:0:
179,340,121030,6,0,P|195:299|194:221,1,108,8|8,0:0|0:0,0:0:0:0:
177,105,121553,1,8,0:0:0:0:
177,105,121728,2,0,L|221:106,1,36,8|8,0:0|0:0,0:0:0:0:
55,65,122077,2,0,L|59:147,1,72,8|8,0:0|0:0,0:0:0:0:
19,251,122425,5,8,0:0:0:0:
21,371,122600,2,0,L|47:372,4,18,0|0|0|0|8,1:0|1:0|1:0|1:0|0:0,0:0:0:0:
31,241,122949,1,8,0:0:0:0:
140,202,123123,2,0,L|146:259,1,36,8|8,0:0|0:0,0:0:0:0:
140,202,123472,1,8,0:0:0:0:
270,240,123646,1,8,0:0:0:0:
443,211,123821,6,0,L|437:106,1,90,6|8,1:2|0:0,0:0:0:0:
434,32,124082,1,8,0:0:0:0:
434,32,124170,2,0,P|388:33|330:25,1,90,2|8,1:2|0:0,0:0:0:0:
225,10,124518,1,2,1:2:0:0:
131,86,124693,1,8,0:0:0:0:
131,86,124780,1,8,0:0:0:0:
131,86,124867,2,0,L|134:193,1,90,2|8,1:2|0:0,0:0:0:0:
139,329,125216,5,2,1:2:0:0:
160,321,125303,1,8,0:0:0:0:
182,318,125391,1,8,0:0:0:0:
198,316,125478,1,8,0:0:0:0:
214,315,125565,2,0,L|212:369,3,45,2|8|8|8,1:2|0:0|0:0|0:0,0:0:0:0:
323,349,125914,1,2,1:2:0:0:
353,346,126001,1,8,0:0:0:0:
383,336,126089,1,8,0:0:0:0:
404,329,126176,1,8,0:0:0:0:
425,320,126263,2,0,L|421:250,3,45,2|8|8|8,1:2|0:0|0:0|0:0,0:0:0:0:
418,163,126612,6,0,L|374:162,1,26.9999991760254,8|8,0:0|0:0,0:0:0:0:
338,73,126786,2,0,L|311:73,1,26.9999991760254,8|8,0:0|0:0,0:0:0:0:
265,196,126960,2,0,L|221:195,1,26.9999991760254,8|8,0:0|0:0,0:0:0:0:
188,74,127134,2,0,L|161:74,1,26.9999991760254,8|8,0:0|0:0,0:0:0:0:
82,186,127309,1,8,0:0:0:0:
113,211,127396,1,8,0:0:0:0:
150,226,127483,1,8,0:0:0:0:
190,227,127570,1,8,0:0:0:0:
230,216,127657,1,10,0:0:0:0:
265,196,127746,1,10,0:0:0:0:
304,188,127833,1,10,0:0:0:0:
344,193,127920,1,10,0:0:0:0:
381,212,128007,5,12,0:0:0:0:
430,149,128356,1,8,0:0:0:0:
430,149,128443,2,0,P|480:158|450:202,1,107.999996704102,0|8,1:0|0:0,0:0:0:0:
385,265,128705,2,0,L|380:207,1,53.9999983520508,8|0,0:0|1:0,0:0:0:0:
297,320,128879,2,0,L|302:262,1,53.9999983520508,8|0,0:0|1:0,0:0:0:0:
212,368,129053,2,0,L|206:304,3,62.9999980773926,0|0|0|0,1:0|1:0|1:0|1:0,0:0:0:0:
56,383,129402,6,2,L|62:212,1,161.999995056153,6|0,1:0|0:0,0:1:0:0:
150,44,129751,2,2,L|156:223,1,180,14|0,0:1|0:0,0:1:0:0:
306,355,130100,2,2,L|317:16,1,317.249995159149,6|0,1:0|0:0,0:1:0:0:
324,0,130449,5,10,0:2:0:0:
324,0,130623,2,0,L|497:3,1,161.999995056153,2|0,0:2|1:0,0:0:0:0:
500,129,130972,1,2,0:0:0:0:
498,255,131146,1,10,0:0:0:0:
445,353,131321,1,2,0:0:0:0:
307,349,131495,1,2,1:2:0:0:
271,200,131670,1,2,1:2:0:0:
271,200,131757,1,0,1:0:0:0:
271,200,131844,2,0,L|107:203,1,161.999995056153,10|0,0:0|0:0,0:0:0:0:
18,18,132193,6,2,P|98:27|87:103,1,161.999995056153,6|0,1:0|0:0,0:1:0:0:
42,251,132542,2,2,P|9:177|67:102,1,180,14|0,0:1|0:0,0:1:0:0:
286,181,132891,2,2,P|253:260|52:374,1,317.249995159149,6|0,1:0|1:0,0:1:0:0:
30,376,133239,5,10,0:0:0:0:
30,376,133414,2,0,L|196:379,1,161.999995056153,2|0,0:0|1:0,0:0:0:0:
386,380,133763,1,2,0:0:0:0:
386,380,133937,2,0,L|391:214,1,161.999995056153,10|2,0:0|0:0,0:0:0:0:
483,72,134286,2,0,P|418:75|315:45,1,161.999995056153,2|2,1:2|1:2,0:0:0:0:
242,14,134548,1,0,1:2:0:0:
242,14,134635,2,0,L|237:186,1,161.999995056153,10|2,0:2|0:0,0:0:0:0:
113,331,134984,6,0,P|125:286|210:287,1,125.999996154785,2|0,1:0|0:0,0:0:0:0:
282,335,135332,2,0,P|237:347|195:272,1,144,10|0,0:1|0:0,0:0:0:0:
196,150,135681,2,0,P|235:189|183:277,1,161.999995056153,2|0,1:0|0:0,0:0:0:0:
181,280,135943,1,0,1:0:0:0:
181,280,136030,1,10,0:0:0:0:
26,299,136205,6,0,P|36:221|26:131,1,161.999995056153,2|0,0:0|1:2,0:0:0:0:
0,44,136553,1,2,0:0:0:0:
117,45,136728,2,0,L|278:47,1,161.999995056153,10|2,0:2|0:0,0:0:0:0:
469,48,137077,1,2,1:2:0:0:
384,240,137251,1,0,1:0:0:0:
384,240,137338,1,0,1:0:0:0:
384,240,137425,2,0,P|367:151|373:76,1,161.999995056153,10|0,0:0|0:0,0:0:0:0:
460,336,137774,6,0,L|318:341,1,125.999996154785,2|0,1:0|0:0,0:0:0:0:
146,248,138123,2,0,L|302:253,1,144,10|0,0:1|0:0,0:0:0:0:
460,139,138472,2,0,L|289:145,1,161.999995056153,2|0,1:0|0:0,0:0:0:0:
266,147,138734,1,0,1:0:0:0:
266,147,138821,1,10,0:0:0:0:
123,68,138995,6,0,P|136:153|115:238,1,161.999995056153,2|0,0:0|1:0,0:0:0:0:
28,314,139344,1,2,0:0:0:0:
156,380,139518,1,10,0:0:0:0:
280,328,139693,1,2,0:0:0:0:
408,384,139867,2,0,L|394:207,1,161.999995056153,2|0,1:2|0:0,0:0:0:0:
500,218,140129,1,0,1:0:0:0:
500,218,140216,2,0,L|512:379,1,161.999995056153,8|0,0:0|0:0,0:0:0:0:
507,88,140565,6,2,P|426:79|399:11,1,161.999995056153,6|0,1:1|0:0,0:1:0:0:
307,160,140914,2,2,P|256:96|313:24,1,180,14|0,0:1|0:0,0:1:0:0:
88,149,141263,2,2,P|97:67|209:78,1,211.499996772766,6|0,1:0|1:0,0:1:0:0:
235,84,141524,1,0,1:0:0:0:
235,84,141612,1,10,0:0:0:0:
235,243,141786,6,0,L|59:248,1,161.999995056153,2|0,0:0|1:0,0:0:0:0:
0,369,142135,1,2,0:0:0:0:
106,347,142309,1,10,0:0:0:0:
209,352,142484,1,2,0:0:0:0:
312,373,142658,1,2,1:2:0:0:
416,377,142832,1,2,0:0:0:0:
510,337,143007,2,0,L|495:172,1,161.999995056153,10|0,0:0|0:0,0:0:0:0:
189,15,143356,6,2,B|235:37|235:37|307:20|307:20|361:41,1,161.999995056153,6|0,1:0|0:0,0:1:0:0:
350,198,143705,2,2,B|308:181|308:181|222:202|222:202|166:175,1,180,14|0,0:1|0:0,0:1:0:0:
162,351,144053,2,2,B|215:376|215:376|325:350|325:350|378:371,1,211.499996772766,6|0,1:0|1:0,0:1:0:0:
393,370,144315,1,0,1:0:0:0:
393,370,144402,1,10,0:0:0:0:
145,358,144577,6,0,L|142:188,1,161.999995056153,2|0,0:0|1:0,0:0:0:0:
128,90,144925,1,2,0:0:0:0:
49,138,145100,1,10,0:0:0:0:
217,111,145274,1,2,1:2:0:0:
128,90,145449,1,2,1:2:0:0:
266,189,145623,1,2,0:0:0:0:
217,111,145798,2,0,P|303:104|381:89,1,161.999995056153,10|0,0:0|0:0,0:0:0:0:
480,242,146146,6,0,P|470:174|480:111,1,125.999996154785,2|0,1:0|0:0,0:0:0:0:
379,343,146495,2,0,P|404:279|470:232,1,144,10|0,0:1|0:0,0:0:0:0:
228,384,146844,2,0,P|281:341|380:335,1,161.999995056153,2|0,1:0|0:0,0:0:0:0:
400,342,147106,1,0,1:0:0:0:
400,342,147193,1,10,0:0:0:0:
283,155,147367,6,0,L|291:323,1,161.999995056153,2|0,0:2|1:0,0:0:0:0:
290,316,147716,1,2,0:0:0:0:
166,288,147891,1,10,0:0:0:0:
134,176,148065,1,2,0:0:0:0:
218,41,148239,2,0,L|381:47,1,161.999995056153,2|0,1:2|1:0,0:0:0:0:
482,51,148501,1,0,1:0:0:0:
482,51,148588,2,0,L|476:214,1,161.999995056153,10|0,0:0|0:0,0:0:0:0:
365,384,148937,6,0,P|422:332|410:264,1,125.999996154785,2|0,1:0|0:0,0:0:0:0:
392,206,149286,2,0,P|375:130|323:83,1,144,10|0,0:1|0:0,0:0:0:0:
236,76,149635,2,0,P|154:48|72:41,1,161.999995056153,2|0,1:0|1:0,0:0:0:0:
49,50,149896,1,0,1:0:0:0:
49,50,149984,1,10,0:0:0:0:
116,188,150158,1,2,0:0:0:0:
56,332,150332,6,0,L|188:327,1,125.999996154785,4|2,1:0|1:2,0:0:0:0:
283,362,150681,2,0,L|408:366,1,125.999996154785,8|2,0:0|0:0,0:0:0:0:
503,247,151030,6,0,L|499:139,1,90,0|8,1:0|0:0,0:0:0:0:
501,68,151379,2,0,L|450:65,1,45,8|8,0:0|0:0,0:0:0:0:
417,91,151553,2,0,L|372:93,1,45,8|0,0:0|1:0,0:0:0:0:
250,23,151728,6,2,P|277:99|270:189,1,161.999995056153,6|0,1:0|0:0,0:1:0:0:
191,353,152077,2,2,P|164:277|184:172,1,170.999995433807,14|0,0:1|0:0,0:1:0:0:
17,32,152425,2,2,P|67:105|11:305,1,297.000009063721,6|0,1:0|0:0,0:1:0:0:
4,323,152774,1,10,0:2:0:0:
179,343,152949,1,2,0:2:0:0:
356,382,153123,6,0,L|344:212,1,161.999995056153,0|2,1:0|1:2,0:0:0:0:
461,215,153385,1,0,1:0:0:0:
461,215,153472,1,10,0:0:0:0:
472,376,153646,1,2,0:0:0:0:
312,119,153821,2,0,P|395:130|488:107,1,161.999995056153,2|2,1:2|1:2,0:0:0:0:
464,7,154082,1,0,1:0:0:0:
464,7,154170,2,0,P|381:-4|288:19,1,161.999995056153,10|0,0:0|0:0,0:0:0:0:
80,21,154518,6,2,P|97:104|170:66,1,161.999995056153,6|0,1:0|0:0,0:1:0:0:
32,273,154867,2,2,P|112:280|143:202,1,170.999995433807,12|0,0:1|0:0,0:1:0:0:
294,384,155216,2,2,P|356:332|231:221,1,297.000009063721,6|0,1:0|0:0,0:1:0:0:
232,184,155565,1,10,0:0:0:0:
466,203,155739,6,0,L|474:377,1,161.999995056153,2|0,0:0|1:0,0:0:0:0:
378,149,156088,1,2,1:2:0:0:
378,149,156175,1,0,1:2:0:0:
378,149,156263,1,10,1:2:0:0:
490,80,156437,1,2,0:0:0:0:
261,73,156612,2,0,L|92:67,2,161.999995056153,2|2|10,1:2|1:2|0:2,0:0:0:0:
177,321,157135,1,2,1:2:0:0:
177,321,157222,1,0,1:2:0:0:
177,321,157309,6,0,L|173:152,1,144,2|0,1:0|0:0,0:0:0:0:
342,162,157658,2,0,L|338:320,1,153.000002918243,10|0,0:1|0:0,0:0:0:0:
500,318,158007,2,0,L|496:156,1,161.999995056153,2|0,1:0|0:0,0:0:0:0:
497,123,158268,1,0,1:0:0:0:
497,123,158356,1,10,0:0:0:0:
414,25,158530,1,2,0:0:0:0:
243,23,158705,6,0,P|154:24|70:37,1,161.999995056153,0|2,1:0|1:2,0:0:0:0:
91,190,159053,2,0,P|180:189|264:176,1,161.999995056153,10|2,0:2|0:0,0:0:0:0:
329,100,159402,1,2,1:2:0:0:
379,217,159577,1,0,1:0:0:0:
379,217,159664,1,0,1:0:0:0:
379,217,159751,2,0,L|373:380,1,161.999995056153,10|0,0:0|0:0,0:0:0:0:
113,358,160100,6,0,P|104:290|65:205,1,144,2|0,1:0|0:0,0:0:0:0:
206,266,160449,2,0,P|215:198|256:100,1,153.000002918243,10|0,0:1|0:0,0:0:0:0:
136,155,160798,2,0,P|127:87|84:-15,1,161.999995056153,2|0,1:0|0:0,0:0:0:0:
58,0,161059,1,0,1:0:0:0:
58,0,161146,1,10,0:0:0:0:
221,7,161321,2,0,L|389:20,1,161.999995056153,2|0,0:0|1:0,0:0:0:0:
491,13,161670,5,2,0:0:0:0:
468,132,161844,1,10,0:0:0:0:
493,242,162018,1,2,0:0:0:0:
479,348,162193,2,0,L|301:339,1,161.999995056153,2|2,1:2|1:2,0:0:0:0:
236,376,162455,1,0,1:0:0:0:
236,376,162542,2,0,L|74:384,1,161.999995056153,8|0,0:0|0:0,0:0:0:0:
24,141,162891,6,2,P|95:147|98:64,1,161.999995056153,6|0,1:1|0:0,0:1:0:0:
211,190,163239,2,2,P|246:115|193:50,1,170.999995433807,14|0,0:1|0:0,0:1:0:0:
483,149,163588,2,2,P|489:78|308:38,1,297.000009063721,6|0,1:0|1:0,0:1:0:0:
320,66,163937,1,10,0:0:0:0:
352,209,164112,1,2,0:0:0:0:
341,353,164286,6,0,L|508:343,1,161.999995056153,0|2,1:0|1:2,0:0:0:0:
276,277,164548,1,0,1:0:0:0:
276,277,164635,2,0,L|109:267,1,161.999995056153,10|2,0:0|0:0,0:0:0:0:
0,263,164984,5,2,1:2:0:0:
100,159,165158,1,2,1:2:0:0:
100,159,165245,1,0,1:0:0:0:
100,159,165332,1,10,0:0:0:0:
86,380,165507,1,0,1:0:0:0:
253,304,165681,6,2,B|246:124,1,161.999995056153,6|0,1:0|0:0,0:1:0:0:
378,22,166030,2,2,B|371:200,1,170.999995433807,14|0,0:1|0:0,0:1:0:0:
494,363,166379,2,2,B|485:152,1,198.000006042481,6|0,1:0|1:2,0:1:0:0:
483,131,166641,1,0,1:2:0:0:
483,131,166728,1,10,0:0:0:0:
267,113,166902,2,0,P|181:121|94:143,1,161.999995056153,2|0,1:2|1:0,0:0:0:0:
30,340,167251,1,2,1:2:0:0:
17,225,167425,2,0,L|-1:56,1,161.999995056153,10|2,0:0|1:2,0:0:0:0:
183,22,167774,5,2,1:1:0:0:
212,221,167949,1,2,0:1:0:0:
375,92,168123,2,2,P|294:93|198:126,1,161.999995056153,10|0,0:1|0:0,0:1:0:0:
115,177,168472,5,0,1:0:0:0:
115,177,168646,2,0,L|130:345,1,161.999995056153,2|8,1:2|0:0,0:0:0:0:
283,333,168995,1,2,0:0:0:0:
283,333,169170,2,0,L|451:318,1,161.999995056153,2|0,1:2|1:0,0:0:0:0:
473,336,169431,1,0,1:0:0:0:
473,336,169518,1,10,0:0:0:0:
493,169,169693,6,0,P|482:85|446:2,1,161.999995056153,2|0,0:2|1:0,0:0:0:0:
313,51,170042,1,2,0:0:0:0:
313,51,170216,2,0,P|324:135|360:218,1,161.999995056153,10|2,0:0|0:0,0:0:0:0:
165,189,170565,1,2,1:2:0:0:
212,76,170739,1,2,1:2:0:0:
212,76,170827,1,0,1:0:0:0:
212,76,170914,1,10,0:0:0:0:
259,251,171088,1,0,0:0:0:0:
92,128,171263,6,0,P|125:197|139:291,1,161.999995056153,2|0,1:0|0:0,0:0:0:0:
192,36,171612,2,0,P|115:30|27:-4,1,161.999995056153,10|0,0:1|0:0,0:0:0:0:
221,168,171960,2,0,P|264:104|338:45,1,161.999995056153,2|0,1:0|1:0,0:0:0:0:
359,37,172222,1,0,1:0:0:0:
359,37,172309,1,10,0:0:0:0:
444,140,172484,1,2,0:0:0:0:
393,285,172658,6,0,L|505:289,2,107.999996704102,6|2|2,1:2|1:2|1:2,0:0:0:0:
393,285,173181,1,2,1:2:0:0:
272,240,173356,2,0,L|281:373,1,107.999996704102,8|0,0:1|1:0,0:0:0:0:
112,348,173705,2,0,L|119:240,1,107.999996704102,0|0,1:0|1:0,0:0:0:0:
198,384,174053,5,4,1:0:0:0:
256,192,174141,12,2,176844,0:0:0:0:
