osu file format v14

[General]
AudioFilename: audio.mp3
AudioLeadIn: 0
PreviewTime: 5565
Countdown: 0
SampleSet: Soft
StackLeniency: 0.7
Mode: 0
LetterboxInBreaks: 0
WidescreenStoryboard: 1

[Editor]
Bookmarks: 152077
DistanceSpacing: 1
BeatDivisor: 4
GridSize: 4
TimelineZoom: 2.200001

[Metadata]
Title:Raise Your Hands feat. Such
TitleUnicode:Raise Your Hands feat. Such
Artist:PSYQUI
ArtistUnicode:PSYQUI
Creator:UberFazz
Version:Hard
Source:
Tags:japanese electronic future core bass epoqc 2021
BeatmapID:2907259
BeatmapSetID:1334632

[Difficulty]
HPDrainRate:5
CircleSize:3.6
OverallDifficulty:6
ApproachRate:8
SliderMultiplier:1.6
SliderTickRate:1

[Events]
//Background and Video events
0,0,"raise your hands bg.png",0,0
//Break Periods
2,84951,95164
2,110067,117489
//Storyboard Layer 0 (Background)
//Storyboard Layer 1 (Fail)
//Storyboard Layer 2 (Pass)
//Storyboard Layer 3 (Foreground)
//Storyboard Layer 4 (Overlay)
//Storyboard Sound Samples

[TimingPoints]
6612,348.837209302326,4,2,1,50,1,0
6612,-166.666666666667,4,2,1,50,0,0
17774,-125,4,2,1,50,0,0
27542,-100,4,2,1,50,0,0
28937,-125,4,2,2,60,0,0
34518,-100,4,2,2,60,0,0
37309,-83.3333333333333,4,2,2,70,0,0
39577,-62.5,4,2,1,50,0,0
40100,-250,4,2,1,60,0,0
40972,-166.666666666667,4,2,1,60,0,0
41495,-90.9090909090909,4,2,1,65,0,0
48472,-125,4,2,1,60,0,0
50565,-83.3333333333333,4,2,1,60,0,0
51263,-83.3333333333333,4,2,1,65,0,0
61030,-142.857142857143,4,2,1,65,0,0
62425,-62.5,4,2,1,70,0,0
63821,-76.9230769230769,4,2,1,70,0,1
70798,-100,4,2,1,70,0,0
73588,-71.4285714285714,4,2,1,70,0,1
81960,-83.3333333333333,4,2,1,70,0,0
84751,-166.666666666667,4,2,1,70,0,0
95914,-125,4,2,1,60,0,0
105681,-100,4,2,1,65,0,0
109518,-250.000000000001,4,2,1,50,0,0
118239,-125,4,2,2,60,0,0
123821,-100,4,2,2,65,0,0
126612,-83.3333333333333,4,2,2,65,0,0
129402,-66.6666666666667,4,2,3,75,0,1
129751,-62.5,4,2,3,75,0,1
130100,-57.1428571428571,4,2,3,75,0,1
130449,-66.6666666666667,4,2,3,75,0,1
132193,-66.6666666666667,4,2,3,75,0,1
132542,-62.5,4,2,3,75,0,1
132891,-57.1428571428571,4,2,3,75,0,1
133239,-66.6666666666667,4,2,3,75,0,1
134984,-76.9230769230769,4,2,3,75,0,1
135332,-71.4285714285714,4,2,3,75,0,1
135681,-66.6666666666667,4,2,3,75,0,1
137774,-76.9230769230769,4,2,3,75,0,1
138123,-71.4285714285714,4,2,3,75,0,1
138472,-66.6666666666667,4,2,3,75,0,1
138821,-66.6666666666667,4,2,3,75,0,1
140565,-66.6666666666667,4,2,3,75,0,1
140914,-62.5,4,2,3,75,0,1
141263,-57.1428571428571,4,2,3,75,0,1
141612,-66.6666666666667,4,2,3,75,0,1
143356,-66.6666666666667,4,2,3,75,0,1
143705,-62.5,4,2,3,75,0,1
144053,-57.1428571428571,4,2,3,75,0,1
144403,-66.6666666666667,4,2,3,75,0,1
146146,-76.9230769230769,4,2,3,75,0,1
146495,-71.4285714285714,4,2,3,75,0,1
146844,-66.6666666666667,4,2,3,75,0,1
147193,-66.6666666666667,4,2,3,75,0,1
148937,-76.9230769230769,4,2,3,75,0,1
149286,-71.4285714285714,4,2,3,75,0,1
149635,-66.6666666666667,4,2,3,75,0,1
149984,-66.6666666666667,4,2,3,75,0,1
150332,-76.9230769230769,4,2,3,75,0,1
151030,-100,4,2,2,65,0,0
151728,-62.5,4,2,3,75,0,1
152077,-58.8235294117647,4,2,3,75,0,1
152425,-54.054054054054,4,2,3,75,0,1
152775,-62.5,4,2,3,75,0,1
154519,-62.5,4,2,3,75,0,1
154867,-58.8235294117647,4,2,3,75,0,1
155216,-54.054054054054,4,2,3,75,0,1
155565,-62.5,4,2,3,75,0,1
157309,-71.4285714285714,4,2,3,75,0,1
157658,-66.6666666666667,4,2,3,75,0,1
158007,-62.5,4,2,3,75,0,1
160100,-71.4285714285714,4,2,3,75,0,1
160449,-66.6666666666667,4,2,3,75,0,1
160798,-62.5,4,2,3,75,0,1
161147,-62.5,4,2,3,75,0,1
162891,-62.5,4,2,3,75,0,1
163239,-58.8235294117647,4,2,3,75,0,1
163588,-54.054054054054,4,2,3,75,0,1
163938,-62.5,4,2,3,75,0,1
165682,-62.5,4,2,3,75,0,1
166030,-58.8235294117647,4,2,3,75,0,1
166379,-54.054054054054,4,2,3,75,0,1
166727,-62.5,4,2,3,75,0,1
172310,-62.5,4,2,3,75,0,1
172658,-83.3333333333333,4,2,1,75,0,1
174053,-71.4285714285714,4,2,1,75,0,0
174141,-71.4285714285714,4,2,1,60,0,0

[Colours]
Combo1 : 111,176,230
Combo2 : 217,134,217
Combo3 : 83,155,227
Combo4 : 198,113,213

[HitObjects]
65,19,17774,6,0,L|71:99,1,64,2|0,1:2|0:0,0:0:0:0:
78,175,18123,1,2,1:2:0:0:
162,110,18298,1,0,1:0:0:0:
162,110,18472,2,0,L|235:107,1,64,8|0,0:1|0:0,0:0:0:0:
321,97,18821,2,0,L|326:147,3,32,2|2|2|2,1:2|0:0|0:0|0:0,0:0:0:0:
356,106,19170,6,0,L|432:110,1,64,0|0,1:0|0:0,0:0:0:0:
427,217,19518,2,0,L|351:221,1,64,2|0,1:2|0:0,0:0:0:0:
332,223,19780,1,2,0:0:0:0:
332,223,19867,2,0,L|339:365,1,128,8|0,0:1|1:0,0:0:0:0:
219,377,20565,6,0,P|182:362|83:358,1,128,2|2,1:2|1:2,0:0:0:0:
1,372,21088,1,0,1:0:0:0:
1,372,21263,2,0,L|4:283,1,64,8|0,0:1|0:0,0:0:0:0:
1,216,21612,2,0,L|41:218,3,32,2|2|2|2,1:2|0:0|0:0|0:0,0:0:0:0:
24,190,21960,6,0,L|19:100,1,64,0|2,1:0|0:0,0:0:0:0:
107,97,22309,2,0,L|112:7,1,64,2|2,1:2|0:0,0:0:0:0:
139,12,22571,1,2,0:0:0:0:
139,12,22658,1,8,0:1:0:0:
229,44,22832,1,2,0:0:0:0:
315,14,23007,2,0,L|444:19,1,128,2|0,1:2|1:2,0:0:0:0:
396,114,23530,6,0,L|393:246,1,128,2|2,0:0|0:0,0:0:0:0:
394,276,23966,1,2,0:0:0:0:
394,276,24053,2,0,P|336:262|265:266,1,128,8|2,0:1|1:2,0:0:0:0:
161,295,24577,2,0,L|157:164,1,128,2|2,0:0|0:0,0:0:0:0:
46,159,25100,2,0,L|43:235,1,64,2|2,1:2|0:0,0:0:0:0:
35,311,25449,1,8,0:1:0:0:
114,371,25623,1,2,0:0:0:0:
205,373,25798,2,0,L|284:376,1,64,2|0,1:2|0:0,0:0:0:0:
381,368,26146,6,0,P|371:325|382:223,1,128,2|2,1:2|1:2,0:0:0:0:
497,219,26670,1,0,0:0:0:0:
497,219,26844,2,0,P|507:176|496:74,1,128,8|2,0:1|1:2,0:0:0:0:
482,63,27280,1,2,0:0:0:0:
482,63,27367,2,0,L|427:67,1,32,2|0,0:0|0:0,0:0:0:0:
366,71,27542,5,6,0:0:0:0:
126,86,27891,1,6,0:0:0:0:
141,326,28239,1,6,0:0:0:0:
381,311,28588,1,6,0:0:0:0:
304,374,28763,1,0,1:0:0:0:
304,374,28850,1,0,1:0:0:0:
304,374,28937,5,6,1:2:0:0:
256,192,29112,12,8,31728,0:0:0:0:
388,86,32251,6,0,L|395:171,1,64,8|8,0:0|0:0,0:0:0:0:
417,172,32513,1,8,0:0:0:0:
488,295,32774,2,0,L|491:211,1,64,8|8,0:0|0:0,0:0:0:0:
384,277,33123,6,0,L|386:340,1,64,8|0,0:0|1:0,0:0:0:0:
366,364,33385,1,0,1:0:0:0:
370,368,33472,1,8,0:0:0:0:
266,361,33646,1,8,0:0:0:0:
175,383,33821,2,0,L|172:329,1,32,8|8,0:0|0:0,0:0:0:0:
14,329,34170,1,8,0:0:0:0:
61,244,34344,1,8,0:0:0:0:
63,155,34518,6,0,L|61:61,1,80,6|8,1:2|0:0,0:0:0:0:
43,45,34780,1,8,0:0:0:0:
43,45,34867,2,0,L|129:42,1,80,2|8,1:2|0:0,0:0:0:0:
263,35,35216,2,0,L|267:130,1,80,2|8,1:2|0:0,0:0:0:0:
282,142,35478,1,8,0:0:0:0:
282,142,35565,2,0,L|370:148,1,80,2|8,1:2|0:0,0:0:0:0:
483,158,35914,6,0,L|486:208,3,40,2|8|8|8,1:2|0:0|0:0|0:0,0:0:0:0:
467,206,36263,2,0,L|464:256,3,40,2|8|8|8,1:2|0:0|0:0|0:0,0:0:0:0:
387,247,36612,2,0,L|384:297,3,40,2|8|8|8,1:2|0:0|0:0|0:0,0:0:0:0:
403,295,36961,2,0,L|406:345,3,40,2|8|8|8,1:2|0:0|0:0|0:0,0:0:0:0:
317,333,37309,5,8,0:0:0:0:
317,333,37396,1,8,0:0:0:0:
317,333,37484,2,0,L|247:338,5,47.9999985351563,8|8|8|8|8|8,0:0|0:0|0:0|0:0|0:0|0:0,0:0:0:0:
265,257,38007,2,0,L|259:194,1,47.9999985351563,8|8,0:0|0:0,0:0:0:0:
299,175,38181,2,0,L|305:112,1,47.9999985351563,8|8,0:0|0:0,0:0:0:0:
284,51,38356,5,8,0:0:0:0:
277,42,38443,1,8,0:0:0:0:
268,31,38530,1,8,0:0:0:0:
257,21,38617,1,8,0:0:0:0:
248,9,38705,5,12,0:2:0:0:
299,175,39577,2,0,L|148:170,1,128,8|0,0:0|1:0,0:0:0:0:
137,173,39838,1,0,1:0:0:0:
137,173,39925,2,0,L|141:242,1,64,2|0,1:2|1:0,0:0:0:0:
116,269,40100,6,0,L|108:140,1,128,4|8,1:0|0:0,0:0:0:0:
110,35,40972,1,2,1:2:0:0:
110,35,41146,2,0,L|174:34,1,47.9999985351563,2|2,1:2|1:2,0:0:0:0:
276,19,41495,6,0,P|271:74|282:124,1,88.000002685547,4|2,0:0|0:0,0:0:0:0:
391,105,41844,2,0,P|396:50|385:0,1,88.000002685547,2|2,1:2|0:0,0:0:0:0:
424,4,42106,1,2,0:0:0:0:
424,4,42193,2,0,L|530:8,1,88.000002685547,10|0,0:0|0:0,0:0:0:0:
481,174,42542,2,0,L|477:73,2,88.000002685547,2|2|2,1:2|0:2|1:2,0:0:0:0:
498,291,43065,6,0,L|387:300,1,88.000002685547,2|0,0:0|1:0,0:0:0:0:
334,369,43414,2,0,L|238:361,1,88.000002685547,2|8,0:0|0:0,0:0:0:0:
128,355,43763,1,2,0:2:0:0:
128,355,43850,1,2,0:2:0:0:
128,355,43937,2,0,L|125:255,2,88.000002685547,0|2|0,1:0|0:0|1:0,0:0:0:0:
17,298,44460,1,2,0:0:0:0:
17,298,44635,2,0,L|22:244,1,44.0000013427735,2|0,1:0|0:0,0:0:0:0:
171,129,45158,2,0,L|166:75,1,44.0000013427735,2|0,0:1|0:0,0:0:0:0:
311,89,45507,2,0,L|316:35,1,44.0000013427735,2|0,0:1|0:0,0:0:0:0:
344,14,45681,5,4,1:2:0:0:
502,168,46030,2,0,L|380:183,1,88.000002685547,6|0,1:2|0:0,0:0:0:0:
382,188,46292,1,2,0:0:0:0:
382,188,46379,1,10,0:0:0:0:
397,303,46553,2,0,P|448:289|498:292,1,88.000002685547,2|0,0:2|1:0,0:0:0:0:
512,319,46815,1,2,0:0:0:0:
512,319,46902,1,2,0:0:0:0:
288,331,47251,6,0,L|176:335,1,88.000002685547,2|2,0:0|1:2,0:0:0:0:
86,342,47600,1,2,0:0:0:0:
86,342,47687,1,2,0:0:0:0:
86,342,47774,2,0,L|90:230,2,88.000002685547,10|2|2,0:0|0:0|1:2,0:0:0:0:
188,252,48298,1,2,0:0:0:0:
188,252,48472,6,0,P|190:193|261:185,1,128,2|2,1:0|1:2,0:0:0:0:
356,212,48995,1,2,0:0:0:0:
356,212,49170,2,0,L|348:98,2,96,10|2|2,0:0|0:0|0:0,0:0:0:0:
475,213,49867,2,0,L|481:350,2,128,2|0|8,1:0|1:0|0:0,0:0:0:0:
474,118,50739,1,8,0:0:0:0:
474,118,50914,2,0,L|476:56,3,47.9999985351563,0|0|8|8,1:0|1:0|0:0|0:0,0:0:0:0:
447,93,51263,5,0,1:0:0:0:
273,95,51612,1,10,0:2:0:0:
273,95,51786,2,0,L|151:91,1,95.9999970703126,2|0,0:0|1:0,0:0:0:0:
74,154,52135,1,2,0:0:0:0:
74,154,52309,2,0,P|70:218|44:273,1,95.9999970703126,10|2,0:0|0:0,0:0:0:0:
168,255,52658,2,0,P|172:319|198:374,1,95.9999970703126,2|2,1:2|0:2,0:0:0:0:
287,365,53007,1,8,0:0:0:0:
287,365,53181,2,0,L|521:365,1,191.999994140625,2|2,0:0|0:2,0:0:0:0:
507,278,53705,1,10,0:2:0:0:
507,278,53879,1,2,0:2:0:0:
506,91,54228,6,0,L|385:94,1,95.9999970703126,2|8,0:0|0:0,0:0:0:0:
310,142,54577,2,0,L|74:136,1,191.999994140625,2|2,0:0|0:0,0:0:0:0:
106,253,55100,1,10,0:0:0:0:
106,253,55274,2,0,P|184:245|322:262,1,191.999994140625,2|2,0:0|0:0,0:0:0:0:
469,319,55972,2,0,L|475:256,1,47.9999985351563,2|0,0:0|0:0,0:0:0:0:
402,153,56321,2,0,L|396:90,1,47.9999985351563,2|0,0:0|0:0,0:0:0:0:
245,59,56670,2,0,L|251:-4,1,47.9999985351563,2|0,0:0|0:0,0:0:0:0:
47,34,57018,6,0,L|169:30,1,95.9999970703126,2|10,0:0|0:0,0:0:0:0:
101,139,57367,2,0,L|116:368,1,191.999994140625,2|2,0:0|0:0,0:0:0:0:
138,355,57803,1,2,0:0:0:0:
138,355,57891,1,10,0:0:0:0:
242,362,58065,1,2,0:0:0:0:
344,377,58239,2,0,L|340:314,3,47.9999985351563,2|2|0|2,1:2|0:0|0:0|0:0,0:0:0:0:
492,338,58763,5,2,0:0:0:0:
492,338,58850,1,0,0:0:0:0:
492,338,58937,2,0,L|483:216,1,95.9999970703126,0|2,1:0|0:0,0:0:0:0:
478,135,59286,1,10,0:0:0:0:
414,61,59460,2,0,L|287:58,1,95.9999970703126,2|0,0:0|1:0,0:0:0:0:
174,118,59809,6,0,P|179:58|165:4,1,95.9999970703126,2|8,0:0|0:0,0:0:0:0:
54,31,60158,2,0,P|49:91|63:145,1,95.9999970703126,2|0,0:0|1:0,0:0:0:0:
132,221,60507,1,2,0:0:0:0:
132,221,60594,1,0,0:0:0:0:
132,221,60681,2,0,L|190:224,2,47.9999985351563,10|0|2,0:0|0:0|0:0,0:0:0:0:
216,310,61030,6,0,P|248:343|269:243,1,223.999993164063,4|8,1:0|0:0,0:0:0:0:
267,242,61902,2,0,L|269:167,2,55.9999982910157,0|0|0,1:0|1:0|1:0,0:0:0:0:
317,91,62425,6,0,L|175:97,1,128,10|10,0:0|0:0,0:0:0:0:
139,183,62774,2,0,L|11:177,1,128,10|10,0:0|0:0,0:0:0:0:
31,8,63821,6,0,L|177:22,1,103.999995239258,4|2,1:0|0:0,0:0:0:0:
247,21,64170,2,0,L|374:8,1,103.999995239258,2|0,1:2|0:0,0:0:0:0:
468,31,64518,2,0,L|453:171,1,103.999995239258,2|2,1:2|1:2,0:0:0:0:
471,162,64780,1,2,1:2:0:0:
462,350,65042,2,0,L|451:272,1,51.999997619629,2|0,1:2|0:0,0:0:0:0:
429,274,65216,6,0,L|188:278,1,207.999990478516,2|2,1:2|1:2,0:0:0:0:
221,277,65914,1,2,1:2:0:0:
120,271,66088,1,0,1:2:0:0:
111,261,66175,1,2,1:2:0:0:
35,193,66350,1,2,1:2:0:0:
24,183,66437,6,0,L|20:50,1,103.999995239258,2|0,1:2|1:0,0:0:0:0:
143,81,66786,1,2,1:2:0:0:
143,81,66960,1,2,1:2:0:0:
344,8,67309,6,0,P|334:67|349:136,1,103.999995239258,2|2,1:2|1:2,0:0:0:0:
353,142,67571,1,2,1:2:0:0:
477,241,67832,2,0,L|409:244,1,51.999997619629,2|0,1:2|0:0,0:0:0:0:
407,271,68007,6,0,P|297:253|176:271,1,207.999990478516,2|2,1:2|1:2,0:0:0:0:
201,263,68705,1,2,1:2:0:0:
97,273,68879,1,2,1:2:0:0:
82,280,68966,2,0,L|77:147,1,103.999995239258,2|2,1:2|1:2,0:0:0:0:
94,148,69228,1,2,1:2:0:0:
229,3,69577,5,2,1:2:0:0:
229,3,69751,2,0,L|236:145,1,103.999995239258,2|0,1:2|1:0,0:0:0:0:
239,206,70100,2,0,P|304:217|367:194,1,103.999995239258,2|2,1:2|1:2,0:0:0:0:
370,194,70362,1,2,1:2:0:0:
448,79,70623,2,0,L|373:86,1,51.999997619629,2|0,1:2|0:0,0:0:0:0:
366,72,70798,5,4,1:2:0:0:
256,192,70972,12,8,72891,1:0:0:0:
436,73,73588,6,0,L|285:84,1,111.999996582031,6|0,1:0|0:0,0:0:0:0:
238,143,73937,2,0,L|110:133,1,111.999996582031,10|0,0:1|0:0,0:0:0:0:
23,174,74286,2,0,L|28:239,2,55.9999982910157,2|2|2,1:2|1:2|1:2,0:0:0:0:
0,144,74548,1,2,1:2:0:0:
18,35,74722,1,2,1:2:0:0:
33,42,74809,2,0,L|181:32,1,111.999996582031,2|0,1:2|1:0,0:0:0:0:
272,29,75158,5,2,1:0:0:0:
272,29,75332,2,0,P|265:90|296:154,1,111.999996582031,10|0,0:1|0:0,0:0:0:0:
388,176,75681,2,0,L|385:243,2,55.9999982910157,2|0|2,1:2|1:0|1:2,0:0:0:0:
415,159,75943,1,2,1:2:0:0:
498,298,76205,2,0,L|418:303,1,55.9999982910157,2|0,1:2|0:0,0:0:0:0:
416,323,76379,6,0,P|344:317|272:339,1,111.999996582031,2|0,1:0|0:0,0:0:0:0:
208,368,76728,2,0,P|145:382|82:375,1,111.999996582031,10|0,0:1|0:0,0:0:0:0:
29,299,77077,2,0,L|102:293,2,55.9999982910157,2|0|2,1:2|1:0|1:2,0:0:0:0:
9,272,77338,1,2,1:2:0:0:
0,169,77513,1,2,1:2:0:0:
16,172,77600,1,2,1:2:0:0:
106,118,77774,6,0,L|103:47,2,55.9999982910157,0|2|2,1:0|1:2|1:0,0:0:0:0:
223,118,78123,1,10,0:1:0:0:
223,118,78472,2,0,L|360:114,1,111.999996582031,2|2,1:2|1:2,0:0:0:0:
365,131,78734,1,2,1:2:0:0:
500,211,78995,2,0,L|495:276,1,55.9999982910157,2|0,1:2|1:0,0:0:0:0:
507,302,79170,6,0,L|365:310,1,111.999996582031,2|0,1:0|0:0,0:0:0:0:
287,279,79518,2,0,L|159:271,1,111.999996582031,10|0,0:1|0:0,0:0:0:0:
60,267,79867,2,0,L|56:193,2,55.9999982910157,2|0|2,1:2|1:0|1:2,0:0:0:0:
33,291,80129,1,2,1:2:0:0:
113,354,80303,1,2,1:2:0:0:
124,368,80391,2,0,L|252:375,1,111.999996582031,2|2,1:2|1:2,0:0:0:0:
349,373,80739,5,2,1:0:0:0:
396,285,80914,2,0,P|403:218|389:149,1,111.999996582031,10|0,0:1|0:0,0:0:0:0:
368,74,81263,2,0,L|440:64,2,55.9999982910157,2|0|2,1:2|1:0|1:2,0:0:0:0:
339,55,81524,1,2,1:2:0:0:
200,24,81786,2,0,L|207:97,1,55.9999982910157,2|0,1:2|1:0,0:0:0:0:
196,113,81960,5,6,1:2:0:0:
256,192,82135,12,4,84751,1:0:0:0:
8,110,95914,6,0,L|93:114,1,64,2|0,1:2|0:0,0:0:0:0:
162,117,96263,1,2,1:2:0:0:
151,215,96437,1,0,1:0:0:0:
151,215,96525,1,0,1:0:0:0:
151,215,96612,2,0,L|63:219,1,64,8|0,0:1|0:0,0:0:0:0:
13,257,96960,1,2,1:2:0:0:
13,257,97135,2,0,L|17:388,1,128,2|0,0:0|0:0,0:0:0:0:
113,383,97658,2,0,L|110:291,1,64,2|0,1:2|0:0,0:0:0:0:
111,238,98007,1,8,0:1:0:0:
111,238,98356,1,0,1:0:0:0:
111,238,98705,6,0,L|250:243,1,128,2|2,1:2|1:2,0:0:0:0:
341,248,99228,1,0,1:0:0:0:
341,248,99315,1,0,1:0:0:0:
341,248,99402,2,0,L|345:160,1,64,8|0,0:1|0:0,0:0:0:0:
342,93,99751,2,0,L|294:89,3,32,2|0|2|0,1:2|0:0|0:2|0:0,0:0:0:0:
370,72,100100,6,0,L|447:67,1,64,0|2,1:0|0:0,0:0:0:0:
451,165,100449,2,0,L|387:169,1,64,2|2,1:2|0:0,0:0:0:0:
494,253,100798,1,8,0:1:0:0:
485,343,100972,1,2,0:0:0:0:
485,343,101059,1,2,0:0:0:0:
485,343,101146,2,0,L|330:336,1,128,2|0,1:2|1:2,0:0:0:0:
255,363,101670,6,0,P|262:327|255:275,1,64,2|0,0:0|1:2,0:0:0:0:
226,218,102018,1,2,0:0:0:0:
226,218,102193,2,0,P|218:158|235:84,1,128,8|2,0:1|1:2,0:0:0:0:
296,4,102716,6,0,L|152:9,1,128,2|2,0:0|0:0,0:0:0:0:
62,12,103239,1,2,1:2:0:0:
27,95,103414,1,2,0:0:0:0:
27,95,103501,1,0,0:0:0:0:
27,95,103588,2,0,L|30:172,1,64,8|2,0:1|0:0,0:0:0:0:
33,256,103937,2,0,L|79:254,3,32,2|0|0|0,1:2|0:0|0:0|0:0,0:0:0:0:
21,285,104286,6,0,P|75:328|150:323,1,128,2|2,1:2|1:2,0:0:0:0:
264,312,104984,2,0,P|326:315|374:356,1,128,8|2,0:1|1:2,0:0:0:0:
374,356,105507,1,2,0:0:0:0:
387,249,105681,6,0,L|392:157,1,80,6|0,0:0|0:0,0:0:0:0:
472,121,106030,2,0,L|467:29,1,80,6|0,0:0|0:0,0:0:0:0:
377,14,106379,1,6,0:0:0:0:
289,28,106553,1,0,0:0:0:0:
202,19,106728,2,0,L|103:23,1,80,6|0,0:0|1:0,0:0:0:0:
99,53,106989,1,0,1:0:0:0:
99,53,107077,5,4,1:0:0:0:
256,192,107251,12,2,109867,0:0:0:0:
376,19,118239,6,0,L|368:138,1,96,14|8,0:0|0:0,0:0:0:0:
361,240,118763,1,8,0:0:0:0:
297,167,118937,2,0,L|249:164,1,32,8|8,0:0|0:0,0:0:0:0:
129,157,119286,2,0,L|125:244,1,64,8|8,0:0|0:0,0:0:0:0:
85,322,119635,6,0,L|162:324,1,64,8|0,0:0|1:0,0:0:0:0:
180,316,119896,1,0,1:0:0:0:
180,316,119984,1,8,0:0:0:0:
280,333,120158,1,8,0:0:0:0:
373,311,120332,2,0,L|410:312,1,32,8|8,0:0|0:0,0:0:0:0:
500,228,120681,1,8,0:0:0:0:
469,142,120856,1,8,0:0:0:0:
475,52,121030,6,0,L|356:47,1,96,8|8,0:0|0:0,0:0:0:0:
250,45,121553,1,8,0:0:0:0:
161,42,121728,2,0,L|114:42,1,32,8|8,0:0|0:0,0:0:0:0:
0,84,122077,2,0,L|7:164,1,64,8|8,0:0|0:0,0:0:0:0:
20,239,122425,6,0,L|95:235,1,64,8|0,0:0|1:0,0:0:0:0:
114,245,122687,1,0,1:0:0:0:
114,245,122774,2,0,L|123:323,1,64,8|8,0:0|0:0,0:0:0:0:
204,357,123123,2,0,L|244:357,1,32,8|8,0:0|0:0,0:0:0:0:
380,329,123472,2,0,L|386:248,1,64,8|8,0:0|0:0,0:0:0:0:
435,159,123821,6,0,P|392:162|345:152,1,80,6|8,1:2|0:0,0:0:0:0:
328,141,124082,1,8,0:0:0:0:
328,141,124170,2,0,P|288:134|248:137,1,80,2|8,1:2|0:0,0:0:0:0:
137,173,124518,2,0,L|133:91,1,80,2|8,1:2|0:0,0:0:0:0:
110,70,124780,1,8,0:0:0:0:
110,70,124867,2,0,L|28:74,1,80,2|8,1:2|0:0,0:0:0:0:
9,176,125216,6,0,L|13:226,3,40,2|8|8|8,1:2|0:0|0:0|0:0,0:0:0:0:
36,233,125565,2,0,L|40:283,3,40,2|8|8|8,1:2|0:0|0:0|0:0,0:0:0:0:
117,288,125914,2,0,L|113:338,3,40,2|8|8|8,1:2|0:0|0:0|0:0,0:0:0:0:
90,345,126263,2,0,L|86:395,3,40,2|8|8|8,1:2|0:0|0:0|0:0,0:0:0:0:
185,384,126612,5,8,0:0:0:0:
185,384,126699,1,8,0:0:0:0:
185,384,126786,2,0,L|240:377,5,47.9999985351563,8|8|8|8|8|8,0:0|0:0|0:0|0:0|0:0|0:0,0:0:0:0:
261,294,127309,2,0,L|251:222,1,47.9999985351563,8|8,0:0|0:0,0:0:0:0:
220,210,127484,2,0,L|230:138,1,47.9999985351563,8|8,0:0|0:0,0:0:0:0:
141,172,127658,5,8,0:0:0:0:
126,169,127745,1,8,0:0:0:0:
108,167,127832,1,8,0:0:0:0:
93,164,127920,1,8,0:0:0:0:
80,162,128007,5,12,0:0:0:0:
112,0,128356,2,0,L|112:52,1,47.9999985351563,8|0,0:0|1:0,0:0:0:0:
226,53,128617,1,8,0:0:0:0:
239,61,128705,2,0,L|292:57,3,47.9999985351563,8|0|8|0,0:0|1:0|0:0|1:0,0:0:0:0:
308,35,129053,2,0,L|355:38,3,47.9999985351563,0|0|0|0,1:0|1:0|1:0|1:0,0:0:0:0:
438,61,129402,6,2,L|450:212,1,120.000004577637,6|0,1:0|0:0,0:1:0:0:
351,279,129751,2,2,L|338:119,1,128,14|0,0:1|0:0,0:1:0:0:
226,114,130100,2,2,L|240:301,1,140.000001335144,6|0,1:0|0:0,0:1:0:0:
241,358,130449,5,10,0:2:0:0:
160,313,130623,2,0,P|124:292|12:285,1,120.000004577637,2|0,0:2|1:0,0:0:0:0:
47,278,130972,1,2,0:0:0:0:
55,176,131146,2,0,L|64:27,2,120.000004577637,10|2|2,0:0|0:0|1:2,0:0:0:0:
55,176,131670,1,2,1:2:0:0:
146,155,131844,2,0,P|193:152|295:164,1,120.000004577637,10|0,0:0|0:0,0:0:0:0:
352,39,132193,6,2,P|342:105|408:137,1,120.000004577637,6|0,1:0|0:0,0:1:0:0:
512,139,132542,2,2,P|457:103|385:145,1,128,14|0,0:1|0:0,0:1:0:0:
341,248,132891,2,2,P|402:207|372:135,1,140.000001335144,6|0,1:0|0:0,0:1:0:0:
327,70,133239,5,10,0:0:0:0:
327,70,133414,2,0,L|172:63,1,120.000004577637,2|0,0:0|1:0,0:0:0:0:
111,103,133763,2,0,L|97:258,2,120.000004577637,2|10|2,0:0|0:0|0:0,0:0:0:0:
111,103,134286,1,2,1:2:0:0:
192,182,134460,1,2,1:2:0:0:
192,182,134635,2,0,L|335:188,1,120.000004577637,10|2,0:2|0:0,0:0:0:0:
436,193,134984,6,0,P|428:249|433:314,1,103.999995239258,2|0,1:0|0:0,0:0:0:0:
338,106,135332,2,0,P|346:162|336:240,1,111.999996582031,10|0,0:1|0:0,0:0:0:0:
448,37,135681,2,0,P|440:93|453:182,1,120.000004577637,2|0,1:0|0:0,0:0:0:0:
361,18,136030,5,10,0:0:0:0:
361,18,136205,2,0,L|91:27,1,240.000009155274,2|2,0:0|1:2,0:0:0:0:
22,31,136728,2,0,L|29:184,2,120.000004577637,10|2|2,0:2|0:0|1:2,0:0:0:0:
22,31,137425,1,10,0:0:0:0:
18,284,137774,6,0,L|143:291,1,103.999995239258,2|0,1:0|0:0,0:0:0:0:
199,349,138123,2,0,L|333:341,1,111.999996582031,10|0,0:1|0:0,0:0:0:0:
367,262,138472,2,0,L|533:271,1,120.000004577637,2|0,1:0|0:0,0:0:0:0:
493,154,138821,1,10,0:0:0:0:
493,154,138995,2,0,P|489:87|452:15,1,120.000004577637,2|0,0:0|1:0,0:0:0:0:
364,61,139344,2,0,P|367:127|404:199,2,120.000004577637,2|10|2,0:0|0:0|0:0,0:0:0:0:
273,31,139867,2,0,L|108:25,1,120.000004577637,2|0,1:2|0:0,0:0:0:0:
146,137,140216,2,0,L|289:142,1,120.000004577637,8|0,0:0|0:0,0:0:0:0:
315,240,140565,6,2,P|329:311|307:377,1,120.000004577637,6|0,1:1|0:0,0:1:0:0:
400,189,140914,2,2,P|414:260|368:331,1,128,14|0,0:1|0:0,0:1:0:0:
506,127,141263,2,2,P|503:205|425:262,1,140.000001335144,6|0,1:0|1:0,0:1:0:0:
326,228,141612,1,10,0:0:0:0:
326,228,141786,2,0,L|171:236,1,120.000004577637,2|0,0:0|1:0,0:0:0:0:
95,241,142135,2,0,L|101:386,2,120.000004577637,2|10|2,0:0|0:0|0:0,0:0:0:0:
91,145,142658,2,0,L|85:1,2,120.000004577637,2|2|10,1:2|0:0|0:0,0:0:0:0:
91,145,143356,6,2,P|149:126|236:139,1,120.000004577637,6|0,1:0|0:0,0:1:0:0:
290,72,143705,2,2,P|352:103|391:181,1,128,14|0,0:1|0:0,0:1:0:0:
470,198,144053,2,2,P|475:279|440:355,1,140.000001335144,6|0,1:0|1:0,0:1:0:0:
349,373,144402,5,10,0:0:0:0:
349,373,144577,2,0,L|190:370,1,120.000004577637,2|0,0:0|1:0,0:0:0:0:
119,371,144925,1,2,0:0:0:0:
119,371,145100,2,0,L|130:226,2,120.000004577637,10|2|2,0:0|1:2|1:2,0:0:0:0:
223,283,145623,1,2,1:2:0:0:
223,283,145710,1,0,1:0:0:0:
223,283,145798,2,0,L|229:125,1,120.000004577637,10|0,0:0|0:0,0:0:0:0:
233,61,146146,6,0,L|360:56,1,103.999995239258,2|0,1:0|0:0,0:0:0:0:
316,149,146495,2,0,L|443:144,1,111.999996582031,10|0,0:1|0:0,0:0:0:0:
377,237,146844,2,0,L|529:231,1,120.000004577637,2|0,1:0|0:0,0:0:0:0:
500,345,147193,5,10,0:0:0:0:
401,328,147367,2,0,P|320:336|252:356,1,120.000004577637,2|0,0:2|1:0,0:0:0:0:
185,384,147716,1,2,0:0:0:0:
185,384,147891,2,0,L|177:232,1,120.000004577637,10|2,0:0|0:0,0:0:0:0:
78,231,148239,2,0,L|86:79,1,120.000004577637,2|0,1:2|1:0,0:0:0:0:
61,89,148501,1,0,1:0:0:0:
61,89,148588,2,0,L|219:80,1,120.000004577637,10|0,0:0|0:0,0:0:0:0:
307,20,148937,6,0,P|299:75|316:143,1,103.999995239258,2|0,1:0|0:0,0:0:0:0:
442,117,149286,2,0,P|451:61|437:7,1,111.999996582031,10|0,0:1|0:0,0:0:0:0:
381,202,149635,2,0,P|372:280|388:346,1,120.000004577637,2|0,1:0|1:0,0:0:0:0:
379,320,149984,1,10,0:0:0:0:
301,362,150158,1,2,0:0:0:0:
208,366,150332,6,0,L|203:251,2,103.999995239258,4|2|8,1:0|1:2|0:0,0:0:0:0:
208,366,150856,1,2,0:0:0:0:
7,264,151728,6,2,P|75:240|137:296,1,128,6|0,1:0|0:0,0:1:0:0:
253,154,152077,2,2,P|185:178|90:146,1,136.000002593994,14|0,0:1|0:0,0:1:0:0:
221,276,152425,2,2,P|289:252|366:254,1,147.999999435425,6|0,1:0|0:0,0:1:0:0:
490,283,152774,5,10,0:2:0:0:
490,283,152949,2,0,L|479:136,1,128,2|0,0:2|1:0,0:0:0:0:
476,49,153298,1,2,1:2:0:0:
476,49,153385,1,0,1:0:0:0:
476,49,153472,2,0,L|312:61,1,128,10|2,0:0|0:0,0:0:0:0:
242,69,153821,2,0,P|266:137|266:215,1,128,2|2,1:2|1:2,0:0:0:0:
243,226,154082,1,0,1:0:0:0:
243,226,154170,2,0,P|171:227|103:251,1,128,10|0,0:0|0:0,0:0:0:0:
25,323,154518,6,2,L|18:158,1,128,6|0,1:0|0:0,0:1:0:0:
153,143,154867,2,2,L|159:301,1,136.000002593994,12|0,0:1|0:0,0:1:0:0:
289,334,155216,2,2,L|281:150,1,147.999999435425,6|0,1:0|1:0,0:1:0:0:
290,166,155478,1,0,1:0:0:0:
290,166,155565,1,10,0:0:0:0:
371,93,155739,6,0,P|446:76|513:84,1,128,2|0,0:0|1:0,0:0:0:0:
505,200,156088,1,2,1:2:0:0:
505,200,156263,2,0,P|430:217|363:209,1,128,10|2,1:2|0:0,0:0:0:0:
292,155,156612,1,2,1:2:0:0:
192,174,156786,1,2,1:2:0:0:
192,174,156873,1,0,1:0:0:0:
192,174,156960,2,0,L|42:169,1,128,10|2,0:2|1:2,0:0:0:0:
40,293,157309,6,0,P|35:224|11:152,1,111.999996582031,2|0,1:0|0:0,0:0:0:0:
153,268,157658,2,0,P|158:199|185:116,1,120.000004577637,10|0,0:1|0:0,0:0:0:0:
282,141,158007,2,0,P|302:210|308:282,1,128,2|0,1:0|0:0,0:0:0:0:
310,299,158268,1,0,1:0:0:0:
310,299,158356,1,10,0:0:0:0:
402,322,158530,1,2,0:0:0:0:
494,295,158705,6,0,L|484:151,1,128,0|2,1:0|1:2,0:0:0:0:
469,143,158966,1,0,1:0:0:0:
469,143,159053,2,0,L|459:-1,1,128,10|2,0:2|0:0,0:0:0:0:
460,15,159402,1,2,1:2:0:0:
237,12,159751,1,10,0:0:0:0:
31,19,160100,6,0,L|37:164,1,111.999996582031,2|0,1:0|0:0,0:0:0:0:
130,116,160449,2,0,L|124:261,1,120.000004577637,10|0,0:1|0:0,0:0:0:0:
228,216,160798,2,0,L|234:375,1,128,2|0,1:0|0:0,0:0:0:0:
253,373,161059,1,0,1:0:0:0:
253,373,161146,1,10,0:0:0:0:
370,348,161321,6,0,P|358:280|375:198,2,128,2|0|2,0:0|1:0|0:0,0:0:0:0:
509,336,161844,2,0,L|503:192,1,128,10|2,0:0|0:0,0:0:0:0:
499,106,162193,1,2,1:2:0:0:
499,12,162367,1,0,1:0:0:0:
499,12,162455,1,0,1:0:0:0:
499,12,162542,2,0,L|334:5,1,128,8|0,0:0|0:0,0:0:0:0:
234,15,162891,6,2,P|260:81|259:166,1,128,6|0,1:1|0:0,0:1:0:0:
267,283,163239,2,2,P|315:221|373:192,1,136.000002593994,14|0,0:1|0:0,0:1:0:0:
476,119,163588,2,2,P|405:108|343:61,1,147.999999435425,6|0,1:0|0:0,0:1:0:0:
345,30,163850,1,0,1:0:0:0:
345,30,163937,1,10,0:0:0:0:
244,12,164112,6,0,L|65:17,2,128,2|0|2,0:0|1:0|1:2,0:0:0:0:
245,116,164635,2,0,L|247:286,1,128,10|2,0:0|0:0,0:0:0:0:
189,339,164984,1,2,1:2:0:0:
86,340,165158,1,2,1:2:0:0:
86,340,165245,1,0,1:0:0:0:
86,340,165332,2,0,P|93:272|83:196,1,128,10|0,0:0|0:0,0:0:0:0:
20,122,165681,6,2,L|176:115,1,128,6|0,1:0|0:0,0:1:0:0:
252,144,166030,2,2,L|424:151,1,136.000002593994,14|0,0:1|0:0,0:1:0:0:
404,263,166379,2,2,L|216:271,1,147.999999435425,6|0,1:0|1:2,0:1:0:0:
244,302,166641,1,0,1:2:0:0:
244,302,166728,1,10,0:0:0:0:
146,265,166902,6,0,P|117:188|180:0,1,256,2|2,1:2|1:2,0:0:0:0:
251,2,167425,2,0,L|414:4,1,128,10|2,0:0|1:2,0:0:0:0:
488,31,167774,1,2,1:1:0:0:
463,134,167949,1,2,0:1:0:0:
501,232,168123,2,2,L|498:378,1,128,10|0,0:1|0:0,0:1:0:0:
267,372,168646,6,0,L|256:223,1,128,2|8,1:2|0:0,0:0:0:0:
308,162,168995,1,2,0:0:0:0:
308,162,169170,2,0,L|319:13,1,128,2|0,1:2|1:0,0:0:0:0:
295,15,169431,1,0,1:0:0:0:
295,15,169518,1,10,0:0:0:0:
190,24,169693,6,0,P|138:100|161:271,1,256,2|2,0:2|0:0,0:0:0:0:
245,296,170216,2,0,L|398:302,1,128,10|2,0:0|0:0,0:0:0:0:
472,302,170565,1,2,1:2:0:0:
465,195,170739,1,2,1:2:0:0:
468,94,170914,2,0,L|304:87,1,128,10|0,0:0|0:0,0:0:0:0:
254,6,171263,6,0,P|248:76|203:153,1,128,2|0,1:0|0:0,0:0:0:0:
195,252,171612,2,0,P|258:222|347:222,1,128,10|0,0:1|0:0,0:0:0:0:
438,181,171960,2,0,P|380:140|336:63,1,128,2|0,1:0|0:0,0:0:0:0:
341,66,172222,1,0,1:0:0:0:
341,66,172309,1,10,0:0:0:0:
227,92,172484,1,2,0:0:0:0:
114,78,172658,6,0,L|108:176,2,95.9999970703126,6|2|2,1:2|1:2|1:2,0:0:0:0:
114,78,173181,1,2,1:2:0:0:
15,143,173356,2,0,L|21:248,1,95.9999970703126,8|0,0:1|1:0,0:0:0:0:
111,262,173705,2,0,L|105:367,1,95.9999970703126,0|0,1:0|1:0,0:0:0:0:
17,380,174053,5,4,1:0:0:0:
256,192,174228,12,2,176844,0:0:0:0:
