osu file format v14

[General]
AudioFilename: audio.mp3
AudioLeadIn: 0
PreviewTime: 6511
Countdown: 0
SampleSet: None
StackLeniency: 0.7
Mode: 1
LetterboxInBreaks: 0
WidescreenStoryboard: 0

[Editor]
Bookmarks: 6555,17717,28880,40043,51206,62368,95857,107020,118182,127950,128211,129345,162836
DistanceSpacing: 1.2
BeatDivisor: 1
GridSize: 32
TimelineZoom: 0.6999999

[Metadata]
Title:Raise Your Hands feat. Such
TitleUnicode:Raise Your Hands feat. Such
Artist:PSYQUI
ArtistUnicode:PSYQUI
Creator:SKSalt
Version:JuDa's Kantan
Source:
Tags:JUDYDANNY
BeatmapID:1920529
BeatmapSetID:910078

[Difficulty]
HPDrainRate:8
CircleSize:5
OverallDifficulty:3
ApproachRate:6
SliderMultiplier:1.4
SliderTickRate:1

[Events]
//Background and Video events
0,0,"goodbg.jpg",0,-50
//Break Periods
//Storyboard Layer 0 (Background)
//Storyboard Layer 1 (Fail)
//Storyboard Layer 2 (Pass)
//Storyboard Layer 3 (Foreground)
//Storyboard Sound Samples

[TimingPoints]
280,348.837209302326,4,1,0,10,1,8
977,348.837209302326,4,1,0,10,1,0
977,-100,4,1,0,10,0,0
6558,348.837209302326,4,1,0,80,1,0
6558,-100,4,1,0,80,0,0
17677,-100,4,1,0,80,0,0
63767,-100,4,1,0,80,0,1
70744,-100,4,1,0,80,0,0
73534,-100,4,1,0,80,0,1
84697,-100,4,1,0,80,0,0
95816,-100,4,1,0,80,0,0
108374,-100,4,1,0,80,0,0
118142,-100,4,1,0,80,0,0
129348,-100,4,1,0,80,0,1
150278,-100,4,1,0,80,0,0
151674,-100,4,1,0,80,0,1
173956,-100,4,1,0,70,0,1
173999,-100,4,1,0,70,0,0
196281,-100,4,1,0,50,0,0

[HitObjects]
161,196,6558,5,4,0:0:0:0:
161,195,7255,1,8,0:0:0:0:
161,195,8651,1,8,0:0:0:0:
161,195,10046,1,8,0:0:0:0:
161,195,11441,1,8,0:0:0:0:
161,195,12837,1,8,0:0:0:0:
161,195,14232,1,8,0:0:0:0:
161,195,15627,1,8,0:0:0:0:
161,195,17023,1,8,0:0:0:0:
161,195,17720,1,0,0:0:0:0:
161,195,18418,1,8,0:0:0:0:
161,195,19813,1,8,0:0:0:0:
161,195,20511,1,0,0:0:0:0:
161,195,21209,1,8,0:0:0:0:
161,195,22604,1,8,0:0:0:0:
161,195,23302,1,0,0:0:0:0:
161,195,23999,1,8,0:0:0:0:
161,195,25395,1,8,0:0:0:0:
161,195,26092,1,0,0:0:0:0:
161,195,26790,1,8,0:0:0:0:
183,39,27488,1,0,0:0:0:0:
180,37,27837,1,0,0:0:0:0:
161,195,28185,1,0,0:0:0:0:
161,195,28883,1,4,0:0:0:0:
161,195,30278,1,0,0:0:0:0:
161,195,31674,1,0,0:0:0:0:
168,62,32720,1,0,0:0:0:0:
161,195,33069,1,0,0:0:0:0:
181,10,33767,1,8,0:0:0:0:
161,195,34464,1,0,0:0:0:0:
161,195,35162,1,0,0:0:0:0:
161,195,35860,1,0,0:0:0:0:
161,195,36209,1,0,0:0:0:0:
161,195,36558,1,0,0:0:0:0:
161,195,37255,1,0,0:0:0:0:
161,195,37604,1,0,0:0:0:0:
161,195,37953,1,0,0:0:0:0:
161,195,38302,1,0,0:0:0:0:
161,195,38651,1,0,0:0:0:0:
199,7,39348,1,8,0:0:0:0:
161,195,40046,1,4,0:0:0:0:
161,195,41441,1,0,0:0:0:0:
161,22,41790,1,0,0:0:0:0:
160,31,42139,1,8,0:0:0:0:
161,195,42837,1,0,0:0:0:0:
161,195,43534,1,8,0:0:0:0:
161,195,44232,1,0,0:0:0:0:
185,6,44581,1,8,0:0:0:0:
166,13,44930,1,0,0:0:0:0:
174,16,45627,1,0,0:0:0:0:
161,195,45976,1,12,0:0:0:0:
161,195,47023,1,0,0:0:0:0:
168,76,47371,1,8,0:0:0:0:
161,195,47720,1,0,0:0:0:0:
161,195,48418,1,0,0:0:0:0:
161,195,49116,1,8,0:0:0:0:
161,195,49813,1,0,0:0:0:0:
181,12,50162,1,0,0:0:0:0:
161,195,50511,1,8,0:0:0:0:
161,195,51209,1,0,0:0:0:0:
181,5,51906,1,8,0:0:0:0:
166,37,52604,1,0,0:0:0:0:
188,4,52953,1,0,0:0:0:0:
188,4,53302,1,0,0:0:0:0:
165,27,53999,1,0,0:0:0:0:
182,40,54697,1,8,0:0:0:0:
166,36,55395,1,8,0:0:0:0:
161,195,55744,1,8,0:0:0:0:
166,0,56092,1,8,0:0:0:0:
166,36,56790,1,0,0:0:0:0:
186,24,57488,1,8,0:0:0:0:
166,36,58185,1,0,0:0:0:0:
161,195,58534,1,0,0:0:0:0:
174,11,58883,1,0,0:0:0:0:
166,36,59581,1,8,0:0:0:0:
168,24,60278,1,0,0:0:0:0:
161,195,60627,1,8,0:0:0:0:
167,195,60976,1,4,0:0:0:0:
167,195,62371,5,4,0:0:0:0:
167,195,63767,1,4,0:0:0:0:
167,195,64464,1,0,0:0:0:0:
167,195,64813,1,0,0:0:0:0:
167,195,65162,1,8,0:0:0:0:
167,195,65860,1,8,0:0:0:0:
167,195,66558,1,0,0:0:0:0:
167,195,67255,1,8,0:0:0:0:
185,31,67604,1,8,0:0:0:0:
167,195,67953,1,0,0:0:0:0:
167,195,68651,1,0,0:0:0:0:
167,195,69348,1,0,0:0:0:0:
188,16,70046,1,0,0:0:0:0:
167,195,70395,1,0,0:0:0:0:
167,195,70744,1,4,0:0:0:0:
166,195,72139,1,0,0:0:0:0:
166,195,72837,1,8,0:0:0:0:
166,195,73534,1,4,0:0:0:0:
166,195,74232,1,0,0:0:0:0:
166,195,74930,1,0,0:0:0:0:
183,56,75278,1,8,0:0:0:0:
166,195,75627,1,0,0:0:0:0:
166,195,76325,1,8,0:0:0:0:
166,195,77023,1,8,0:0:0:0:
166,195,77720,1,8,0:0:0:0:
166,195,78069,1,0,0:0:0:0:
166,195,78418,1,8,0:0:0:0:
166,195,79116,1,0,0:0:0:0:
166,195,79813,1,0,0:0:0:0:
166,195,80511,1,0,0:0:0:0:
171,45,80860,1,8,0:0:0:0:
166,195,81209,1,0,0:0:0:0:
171,45,81906,1,4,0:0:0:0:
166,195,83302,1,0,0:0:0:0:
166,195,83999,1,8,0:0:0:0:
166,195,84697,1,4,0:0:0:0:
155,171,85395,1,8,0:0:0:0:
166,195,86790,1,8,0:0:0:0:
166,195,88185,1,8,0:0:0:0:
166,195,89581,1,8,0:0:0:0:
166,195,90976,1,8,0:0:0:0:
166,195,92371,1,8,0:0:0:0:
166,195,93767,1,8,0:0:0:0:
166,195,95162,1,8,0:0:0:0:
166,195,95860,1,0,0:0:0:0:
166,195,96558,1,8,0:0:0:0:
166,195,97953,1,8,0:0:0:0:
166,195,98651,1,0,0:0:0:0:
166,195,99348,1,8,0:0:0:0:
166,195,100744,1,8,0:0:0:0:
166,195,101441,1,0,0:0:0:0:
166,195,102139,1,8,0:0:0:0:
166,195,103534,1,8,0:0:0:0:
166,195,104232,1,0,0:0:0:0:
166,195,104930,1,8,0:0:0:0:
166,195,105627,1,0,0:0:0:0:
166,195,105976,1,0,0:0:0:0:
166,195,106325,1,0,0:0:0:0:
166,195,107023,5,4,0:0:0:0:
166,195,109813,1,8,0:0:0:0:
166,195,112604,1,0,0:0:0:0:
166,195,115395,1,8,0:0:0:0:
166,195,116790,1,0,0:0:0:0:
166,195,118185,1,4,0:0:0:0:
187,34,119581,1,0,0:0:0:0:
166,195,120976,1,0,0:0:0:0:
166,195,122023,1,0,0:0:0:0:
188,31,122371,1,0,0:0:0:0:
179,43,123069,1,8,0:0:0:0:
166,195,123767,1,0,0:0:0:0:
166,195,124464,1,0,0:0:0:0:
166,195,125162,1,0,0:0:0:0:
166,195,125511,1,0,0:0:0:0:
166,195,125860,1,0,0:0:0:0:
166,195,126558,1,0,0:0:0:0:
166,195,126906,1,0,0:0:0:0:
166,195,127255,1,0,0:0:0:0:
166,195,127604,1,0,0:0:0:0:
166,195,127953,1,0,0:0:0:0:
166,195,129348,5,4,0:0:0:0:
166,195,130046,1,8,0:0:0:0:
186,14,130744,1,0,0:0:0:0:
163,46,131092,1,8,0:0:0:0:
166,195,131441,1,0,0:0:0:0:
166,195,132139,1,0,0:0:0:0:
166,195,132837,1,8,0:0:0:0:
189,30,133534,1,0,0:0:0:0:
174,28,133883,1,8,0:0:0:0:
166,195,134232,1,0,0:0:0:0:
166,195,134930,1,0,0:0:0:0:
166,195,135627,1,8,0:0:0:0:
176,43,136325,1,0,0:0:0:0:
165,40,136674,1,8,0:0:0:0:
166,195,137023,1,0,0:0:0:0:
166,195,137720,1,0,0:0:0:0:
166,195,138418,1,8,0:0:0:0:
185,34,139116,1,0,0:0:0:0:
185,34,139464,1,8,0:0:0:0:
181,7,139813,1,8,0:0:0:0:
166,195,140511,1,0,0:0:0:0:
166,195,141209,1,8,0:0:0:0:
166,195,141906,1,0,0:0:0:0:
166,195,142255,1,8,0:0:0:0:
166,195,142604,1,0,0:0:0:0:
166,195,143302,1,0,0:0:0:0:
166,195,143999,1,8,0:0:0:0:
166,195,144697,1,0,0:0:0:0:
166,195,145046,1,8,0:0:0:0:
166,195,145395,1,0,0:0:0:0:
166,195,146092,1,0,0:0:0:0:
166,195,146790,1,8,0:0:0:0:
166,195,147488,1,0,0:0:0:0:
166,195,147837,1,8,0:0:0:0:
166,195,148883,1,0,0:0:0:0:
166,195,149581,1,8,0:0:0:0:
166,195,150278,1,0,0:0:0:0:
166,195,151674,1,4,0:0:0:0:
166,195,152371,1,12,0:0:0:0:
186,3,153069,1,0,0:0:0:0:
166,195,153418,1,8,0:0:0:0:
166,195,153767,1,0,0:0:0:0:
166,195,154116,1,8,0:0:0:0:
166,195,154464,1,0,0:0:0:0:
166,195,155162,1,8,0:0:0:0:
166,195,155860,1,0,0:0:0:0:
166,195,156209,1,8,0:0:0:0:
166,195,156558,1,0,0:0:0:0:
166,195,156906,1,0,0:0:0:0:
166,195,157255,1,0,0:0:0:0:
166,195,157953,1,8,0:0:0:0:
166,195,158651,1,0,0:0:0:0:
166,195,158999,1,8,0:0:0:0:
166,195,159348,1,0,0:0:0:0:
166,195,160046,1,0,0:0:0:0:
166,195,160744,1,8,0:0:0:0:
175,68,161092,1,8,0:0:0:0:
166,195,161441,1,0,0:0:0:0:
166,195,162139,1,8,0:0:0:0:
166,195,162837,1,4,0:0:0:0:
166,195,163534,1,8,0:0:0:0:
166,195,164232,1,0,0:0:0:0:
166,195,164581,1,8,0:0:0:0:
166,195,164930,1,8,0:0:0:0:
174,40,165278,1,8,0:0:0:0:
166,195,165627,1,0,0:0:0:0:
166,195,166325,1,8,0:0:0:0:
166,195,167023,1,0,0:0:0:0:
166,195,167371,1,8,0:0:0:0:
166,195,167720,1,0,0:0:0:0:
166,195,168069,1,8,0:0:0:0:
166,195,168418,1,0,0:0:0:0:
166,195,169116,1,8,0:0:0:0:
156,62,169464,1,8,0:0:0:0:
166,195,169813,1,0,0:0:0:0:
166,195,170511,1,0,0:0:0:0:
166,195,171209,1,8,0:0:0:0:
166,195,171906,1,8,0:0:0:0:
166,195,172255,1,8,0:0:0:0:
179,27,172604,1,0,0:0:0:0:
166,195,173302,1,8,0:0:0:0:
157,47,173999,1,4,0:0:0:0:
193,59,174697,1,8,0:0:0:0:
193,59,176092,1,8,0:0:0:0:
193,59,177488,1,8,0:0:0:0:
193,59,178883,1,8,0:0:0:0:
175,34,179581,1,0,0:0:0:0:
193,59,180278,1,8,0:0:0:0:
193,59,181674,1,8,0:0:0:0:
193,59,183069,1,8,0:0:0:0:
193,59,184464,1,8,0:0:0:0:
186,39,185162,1,0,0:0:0:0:
193,59,185860,1,8,0:0:0:0:
193,59,187255,1,8,0:0:0:0:
186,39,187953,1,0,0:0:0:0:
193,59,188651,1,8,0:0:0:0:
193,59,190046,1,8,0:0:0:0:
183,39,190744,1,0,0:0:0:0:
183,39,191441,1,8,0:0:0:0:
183,39,192837,1,8,0:0:0:0:
169,42,193534,1,0,0:0:0:0:
168,37,194232,1,8,0:0:0:0:
168,36,195627,1,8,0:0:0:0:
167,37,196325,1,4,0:0:0:0:
