osu file format v14

[General]
AudioFilename: audio.mp3
AudioLeadIn: 0
PreviewTime: 129335
Countdown: 0
SampleSet: None
StackLeniency: 0.7
Mode: 1
LetterboxInBreaks: 0
WidescreenStoryboard: 0

[Editor]
DistanceSpacing: 0.5
BeatDivisor: 4
GridSize: 32
TimelineZoom: 3.399999

[Metadata]
Title:Raise Your Hand feat. Such
TitleUnicode:Raise Your Hand feat. Such
Artist:PSYQUI
ArtistUnicode:PSYQUI
Creator:Kunieda
Version:nerf
Source:
Tags:
BeatmapID:1857646
BeatmapSetID:888743

[Difficulty]
HPDrainRate:8
CircleSize:3
OverallDifficulty:7
ApproachRate:6
SliderMultiplier:1.4
SliderTickRate:1

[Events]
//Background and Video events
0,0,"50588058_p0.jpg",0,0
//Break Periods
//Storyboard Layer 0 (Background)
//Storyboard Layer 1 (Fail)
//Storyboard Layer 2 (Pass)
//Storyboard Layer 3 (Foreground)
//Storyboard Sound Samples

[TimingPoints]
6543,348.837209302326,4,1,0,80,1,8
6543,-133.333333333333,4,1,0,80,0,0
17705,-105.263157894737,4,1,0,80,0,0
27473,-104.166666666667,4,1,0,80,0,0
27823,-103.092783505155,4,1,0,80,0,0
28171,-102.040816326531,4,1,0,80,0,0
28520,-101.010101010101,4,1,0,80,0,0
28869,-100,4,1,0,80,0,0
34450,-99.009900990099,4,1,0,80,0,0
34799,-98.0392156862745,4,1,0,80,0,0
35148,-97.0873786407767,4,1,0,80,0,0
35497,-96.1538461538461,4,1,0,80,0,0
35846,-95.2380952380952,4,1,0,80,0,0
35933,-94.3396226415094,4,1,0,80,0,0
36020,-93.4579439252336,4,1,0,80,0,0
36107,-92.5925925925926,4,1,0,80,0,0
36195,-91.743119266055,4,1,0,80,0,0
36282,-90.9090909090909,4,1,0,80,0,0
36369,-90.0900900900901,4,1,0,80,0,0
36456,-89.2857142857143,4,1,0,80,0,0
36544,-88.4955752212389,4,1,0,80,0,0
36631,-87.719298245614,4,1,0,80,0,0
36718,-86.9565217391304,4,1,0,80,0,0
36805,-86.2068965517241,4,1,0,80,0,0
36892,-85.4700854700855,4,1,0,80,0,0
36979,-84.7457627118644,4,1,0,80,0,0
37066,-84.0336134453781,4,1,0,80,0,0
37153,-83.3333333333333,4,1,0,80,0,0
38637,-86.9565217391304,4,1,0,80,0,0
39333,-90.9090909090909,4,1,0,80,0,0
39420,-95.2380952380952,4,1,0,80,0,0
39508,-94.3396226415094,4,1,0,80,0,0
39595,-95.2380952380952,4,1,0,80,0,0
39682,-94.3396226415094,4,1,0,80,0,0
39769,-95.2380952380952,4,1,0,80,0,0
39856,-94.3396226415094,4,1,0,80,0,0
39944,-95.2380952380952,4,1,0,80,0,0
40031,-100,4,1,0,80,0,0
40118,-95.2380952380952,4,1,0,80,0,0
40205,-94.3396226415094,4,1,0,80,0,0
40293,-93.4579439252336,4,1,0,80,0,0
40380,-92.5925925925926,4,1,0,80,0,0
40467,-91.743119266055,4,1,0,80,0,0
40554,-83.3333333333333,4,1,0,80,0,0
40641,-82.6446280991736,4,1,0,80,0,0
40729,-81.9672131147541,4,1,0,80,0,0
40816,-81.3008130081301,4,1,0,80,0,0
40903,-80.6451612903226,4,1,0,80,0,0
40990,-79.3650793650794,4,1,0,80,0,0
41077,-83.3333333333333,4,1,0,80,0,0
41165,-82.6446280991736,4,1,0,80,0,0
41252,-81.9672131147541,4,1,0,80,0,0
41339,-81.3008130081301,4,1,0,80,0,0
41426,-95.2380952380952,4,1,0,80,0,0
45612,-83.3333333333333,4,1,0,80,0,0
45961,-33.3333333333333,4,1,0,80,0,0
46048,-100,4,1,0,80,0,0
61659,-125,4,1,0,80,0,0
61833,-117.647058823529,4,1,0,80,0,0
62008,-105.263157894737,4,1,0,80,0,0
62356,-100,4,1,0,80,0,0
63752,-86.9565217391304,4,1,0,80,0,1
70730,-100,4,1,0,80,0,0
72822,-125,4,1,0,80,0,0
73083,-117.647058823529,4,1,0,80,0,0
73345,-111.111111111111,4,1,0,80,0,0
73520,-86.9565217391304,4,1,0,80,0,1
84072,-87.719298245614,4,1,0,80,0,1
84159,-88.4955752212389,4,1,0,80,0,1
84246,-89.2857142857143,4,1,0,80,0,1
84333,-90.0900900900901,4,1,0,80,0,1
84420,-90.9090909090909,4,1,0,80,0,1
84508,-95.2380952380952,4,1,0,80,0,1
84595,-100,4,1,0,80,0,1
84683,-117.647058823529,4,1,0,80,0,0
95845,-111.111111111111,4,1,0,80,0,0
104217,-100,4,1,0,80,0,0
107008,-125,4,2,0,80,0,0
116949,-117.647058823529,4,2,0,80,0,0
117124,-111.111111111111,4,2,0,80,0,0
117298,-105.263157894737,4,2,0,80,0,0
118170,-100,4,1,0,85,0,0
129334,-86.9565217391304,4,1,0,85,0,1
150264,-100,4,1,0,85,0,0
151660,-86.9565217391304,4,1,0,85,0,1
173985,-133.333333333333,4,2,0,80,0,0
185147,-117.647058823529,4,2,0,80,0,0

[HitObjects]
256,188,6541,5,4,0:0:0:0:
256,188,6890,1,0,0:0:0:0:
256,188,7239,1,8,0:0:0:0:
256,188,7588,1,8,0:0:0:0:
256,188,7762,1,0,0:0:0:0:
261,191,8111,1,0,0:0:0:0:
261,191,8286,1,8,0:0:0:0:
261,191,8460,1,8,0:0:0:0:
261,191,8635,1,0,0:0:0:0:
261,191,8809,1,8,0:0:0:0:
253,197,8983,1,0,0:0:0:0:
261,191,9332,1,0,0:0:0:0:
261,191,9681,1,0,0:0:0:0:
261,191,10030,1,8,0:0:0:0:
261,191,10379,1,8,0:0:0:0:
261,191,10553,1,0,0:0:0:0:
261,191,10902,1,0,0:0:0:0:
261,191,11076,1,8,0:0:0:0:
261,191,11251,1,8,0:0:0:0:
261,191,11425,1,0,0:0:0:0:
261,191,11600,1,0,0:0:0:0:
261,191,11774,1,8,0:0:0:0:
261,191,12123,1,8,0:0:0:0:
261,191,12472,1,0,0:0:0:0:
261,191,12821,1,0,0:0:0:0:
261,191,13169,1,8,0:0:0:0:
261,191,13344,1,0,0:0:0:0:
261,191,13693,1,0,0:0:0:0:
261,191,13868,1,8,0:0:0:0:
261,191,14042,1,8,0:0:0:0:
273,194,14216,1,0,0:0:0:0:
271,193,14565,1,8,0:0:0:0:
263,203,14914,1,0,0:0:0:0:
263,203,15262,1,0,0:0:0:0:
263,203,15611,1,8,0:0:0:0:
263,203,15960,1,8,0:0:0:0:
263,203,16135,1,0,0:0:0:0:
263,203,16483,1,0,0:0:0:0:
263,203,16658,1,0,0:0:0:0:
263,203,16832,1,8,0:0:0:0:
263,203,17007,1,0,0:0:0:0:
263,203,17181,1,8,0:0:0:0:
263,203,17355,1,8,0:0:0:0:
263,203,17704,1,12,0:0:0:0:
251,203,17880,1,0,0:0:0:0:
251,203,18053,1,8,0:0:0:0:
251,203,18315,1,8,0:0:0:0:
251,203,18402,1,0,0:0:0:0:
251,203,18751,1,8,0:0:0:0:
251,203,18925,1,0,0:0:0:0:
251,203,19100,1,8,0:0:0:0:
251,203,19187,1,0,0:0:0:0:
251,203,19274,1,8,0:0:0:0:
251,203,19448,1,0,0:0:0:0:
251,203,19623,1,8,0:0:0:0:
251,203,19797,1,0,0:0:0:0:
251,203,20147,1,8,0:0:0:0:
241,200,20409,1,8,0:0:0:0:
241,200,20496,1,0,0:0:0:0:
241,200,20670,1,0,0:0:0:0:
241,200,20845,1,8,0:0:0:0:
241,200,21019,1,0,0:0:0:0:
241,200,21194,1,8,0:0:0:0:
241,200,21368,1,8,0:0:0:0:
241,200,21455,1,0,0:0:0:0:
241,200,21543,1,8,0:0:0:0:
246,188,21717,1,0,0:0:0:0:
241,200,21891,1,0,0:0:0:0:
220,201,22066,1,0,0:0:0:0:
241,200,22240,1,8,0:0:0:0:
231,204,22327,1,0,0:0:0:0:
241,200,22415,1,8,0:0:0:0:
231,204,22589,1,8,0:0:0:0:
231,203,22676,1,8,0:0:0:0:
231,203,22763,1,0,0:0:0:0:
231,203,22851,1,0,0:0:0:0:
231,204,22938,1,8,0:0:0:0:
230,203,23112,1,0,0:0:0:0:
231,204,23287,1,8,0:0:0:0:
245,193,23461,1,0,0:0:0:0:
247,195,23548,1,8,0:0:0:0:
246,196,23636,1,0,0:0:0:0:
246,196,23810,1,8,0:0:0:0:
246,196,23984,1,0,0:0:0:0:
246,196,24072,1,0,0:0:0:0:
230,198,24159,1,8,0:0:0:0:
230,198,24333,1,8,0:0:0:0:
230,198,24508,1,0,0:0:0:0:
259,201,24682,1,8,0:0:0:0:
259,201,24856,1,0,0:0:0:0:
259,201,25031,1,0,0:0:0:0:
259,201,25118,1,0,0:0:0:0:
259,201,25205,1,8,0:0:0:0:
259,201,25380,1,0,0:0:0:0:
259,201,25554,1,8,0:0:0:0:
251,190,25641,1,0,0:0:0:0:
251,190,25729,1,8,0:0:0:0:
251,190,26077,1,0,0:0:0:0:
250,201,26252,1,0,0:0:0:0:
250,201,26339,1,0,0:0:0:0:
251,190,26426,1,8,0:0:0:0:
250,201,26601,1,0,0:0:0:0:
250,201,26775,1,8,0:0:0:0:
250,201,26862,1,8,0:0:0:0:
250,201,26949,1,0,0:0:0:0:
250,201,27124,1,8,0:0:0:0:
250,201,27298,1,0,0:0:0:0:
250,201,27386,1,0,0:0:0:0:
250,201,27473,1,0,0:0:0:0:
250,201,27647,1,0,0:0:0:0:
250,201,27822,1,8,0:0:0:0:
250,201,27996,1,0,0:0:0:0:
250,201,28170,1,0,0:0:0:0:
250,201,28258,1,0,0:0:0:0:
250,201,28345,1,8,0:0:0:0:
250,201,28432,1,0,0:0:0:0:
250,201,28519,1,8,0:0:0:0:
250,201,28868,1,4,0:0:0:0:
253,192,29130,1,0,0:0:0:0:
253,192,29217,1,0,0:0:0:0:
253,192,29391,1,0,0:0:0:0:
253,192,29566,1,8,0:0:0:0:
253,192,29653,1,0,0:0:0:0:
256,173,29827,1,0,0:0:0:0:
256,173,29915,1,8,0:0:0:0:
256,173,30089,1,0,0:0:0:0:
258,174,30263,1,8,0:0:0:0:
258,174,30322,1,8,0:0:0:0:
258,174,30380,1,8,0:0:0:0:
256,173,30438,1,0,0:0:0:0:
216,183,30525,1,0,0:0:0:0:
256,173,30612,1,8,0:0:0:0:
250,201,30787,1,0,0:0:0:0:
250,197,30961,1,8,0:0:0:0:
250,197,31048,1,0,0:0:0:0:
250,197,31223,1,0,0:0:0:0:
250,197,31310,1,8,0:0:0:0:
251,192,31484,1,8,0:0:0:0:
251,192,31659,1,0,0:0:0:0:
253,192,31920,1,0,0:0:0:0:
253,192,32007,1,0,0:0:0:0:
253,192,32181,1,0,0:0:0:0:
253,192,32356,1,8,0:0:0:0:
253,192,32443,1,0,0:0:0:0:
256,173,32617,1,0,0:0:0:0:
256,173,32705,1,8,0:0:0:0:
256,173,32879,1,0,0:0:0:0:
232,203,33054,1,0,0:0:0:0:
247,183,33229,1,8,0:0:0:0:
232,203,33287,1,8,0:0:0:0:
232,203,33345,1,8,0:0:0:0:
232,203,33403,1,0,0:0:0:0:
249,188,33577,1,8,0:0:0:0:
249,188,33665,1,0,0:0:0:0:
249,188,33752,1,8,0:0:0:0:
249,188,33839,1,8,0:0:0:0:
249,188,33926,1,0,0:0:0:0:
249,188,34013,1,0,0:0:0:0:
249,188,34101,1,8,0:0:0:0:
249,188,34275,1,0,0:0:0:0:
249,188,34449,1,4,0:0:0:0:
242,198,34711,1,8,0:0:0:0:
243,198,34798,1,0,0:0:0:0:
244,198,34973,1,8,0:0:0:0:
244,198,35147,1,0,0:0:0:0:
244,198,35234,1,8,0:0:0:0:
244,198,35409,1,8,0:0:0:0:
242,198,35496,1,0,0:0:0:0:
244,190,35670,1,0,0:0:0:0:
244,190,35845,1,0,0:0:0:0:
246,193,35932,1,8,0:0:0:0:
244,190,36019,1,0,0:0:0:0:
246,193,36106,1,8,0:0:0:0:
246,193,36194,1,0,0:0:0:0:
246,192,36281,1,8,0:0:0:0:
246,192,36368,1,8,0:0:0:0:
246,192,36455,1,8,0:0:0:0:
244,190,36543,1,0,0:0:0:0:
239,193,36630,1,0,0:0:0:0:
240,193,36717,1,8,0:0:0:0:
240,193,36804,1,8,0:0:0:0:
240,193,36891,1,0,0:0:0:0:
240,193,36979,1,8,0:0:0:0:
240,193,37066,1,0,0:0:0:0:
240,193,37153,1,8,0:0:0:0:
240,193,37240,1,0,0:0:0:0:
239,190,37298,1,0,0:0:0:0:
239,190,37356,1,0,0:0:0:0:
239,190,37415,1,8,0:0:0:0:
236,193,37502,1,8,0:0:0:0:
239,193,37589,1,0,0:0:0:0:
245,174,37647,1,0,0:0:0:0:
245,174,37705,1,0,0:0:0:0:
245,174,37763,1,8,0:0:0:0:
255,196,37851,1,8,0:0:0:0:
255,196,37938,1,0,0:0:0:0:
255,196,37996,1,0,0:0:0:0:
255,196,38054,1,8,0:0:0:0:
255,196,38112,1,0,0:0:0:0:
253,189,38170,1,0,0:0:0:0:
252,193,38229,1,8,0:0:0:0:
255,196,38287,1,0,0:0:0:0:
267,183,38345,1,0,0:0:0:0:
265,185,38403,1,8,0:0:0:0:
265,185,38461,1,8,0:0:0:0:
265,185,38548,1,8,0:0:0:0:
265,185,38636,1,0,0:0:0:0:
261,187,39333,1,8,0:0:0:0:
265,185,39391,1,0,0:0:0:0:
265,185,39449,1,0,0:0:0:0:
265,185,39508,1,8,0:0:0:0:
261,187,39595,1,8,0:0:0:0:
235,176,39682,1,8,0:0:0:0:
261,187,39769,1,0,0:0:0:0:
261,187,39856,1,0,0:0:0:0:
262,204,39944,1,0,0:0:0:0:
254,194,40031,1,0,0:0:0:0:
265,194,40205,1,8,0:0:0:0:
265,194,40729,1,8,0:0:0:0:
254,207,40903,1,0,0:0:0:0:
254,205,41077,1,8,0:0:0:0:
254,205,41252,1,8,0:0:0:0:
265,194,41426,1,0,0:0:0:0:
258,200,41601,1,8,0:0:0:0:
258,200,41775,1,0,0:0:0:0:
258,200,41949,1,8,0:0:0:0:
258,200,42037,1,0,0:0:0:0:
258,200,42124,1,0,0:0:0:0:
271,227,42211,1,0,0:0:0:0:
258,200,42298,1,8,0:0:0:0:
258,200,42473,1,8,0:0:0:0:
258,200,42647,1,0,0:0:0:0:
262,198,42996,1,8,0:0:0:0:
251,203,43345,1,0,0:0:0:0:
251,203,43519,1,8,0:0:0:0:
251,203,43694,1,8,0:0:0:0:
273,201,43781,1,0,0:0:0:0:
273,201,43868,1,8,0:0:0:0:
273,201,43955,1,8,0:0:0:0:
273,201,44043,1,0,0:0:0:0:
273,201,44217,1,0,0:0:0:0:
262,197,44391,1,8,0:0:0:0:
262,197,44566,1,0,0:0:0:0:
262,197,44740,1,8,0:0:0:0:
262,197,44915,1,8,0:0:0:0:
262,197,45089,1,8,0:0:0:0:
262,197,45176,1,8,0:0:0:0:
262,197,45263,1,0,0:0:0:0:
252,186,45351,1,8,0:0:0:0:
262,197,45438,1,0,0:0:0:0:
262,197,45612,1,4,0:0:0:0:
245,210,45961,1,12,0:0:0:0:
250,208,46136,1,0,0:0:0:0:
250,208,46223,1,0,0:0:0:0:
250,208,46310,1,8,0:0:0:0:
251,208,46484,1,8,0:0:0:0:
251,208,46659,1,8,0:0:0:0:
251,208,46746,1,0,0:0:0:0:
251,208,46833,1,8,0:0:0:0:
250,208,47008,1,8,0:0:0:0:
255,203,47182,1,0,0:0:0:0:
256,184,47356,1,8,0:0:0:0:
256,184,47531,1,0,0:0:0:0:
256,184,47618,1,8,0:0:0:0:
256,184,47705,1,0,0:0:0:0:
240,185,47880,1,0,0:0:0:0:
240,185,48054,1,8,0:0:0:0:
240,185,48229,1,8,0:0:0:0:
240,185,48403,1,0,0:0:0:0:
231,181,48577,1,0,0:0:0:0:
231,181,48665,1,0,0:0:0:0:
231,181,48752,1,8,0:0:0:0:
231,181,48926,1,0,0:0:0:0:
231,181,49101,1,8,0:0:0:0:
231,181,49275,1,8,0:0:0:0:
231,181,49362,1,0,0:0:0:0:
231,181,49537,1,0,0:0:0:0:
231,181,49624,1,0,0:0:0:0:
231,181,49798,1,8,0:0:0:0:
231,181,49973,1,8,0:0:0:0:
238,186,50060,1,0,0:0:0:0:
231,181,50147,1,8,0:0:0:0:
226,177,50234,1,8,0:0:0:0:
226,177,50322,1,0,0:0:0:0:
231,181,50496,1,8,0:0:0:0:
231,181,50670,1,0,0:0:0:0:
231,181,50845,1,8,0:0:0:0:
231,181,50903,1,0,0:0:0:0:
246,186,50961,1,0,0:0:0:0:
231,181,51019,1,0,0:0:0:0:
231,181,51106,1,0,0:0:0:0:
231,181,51194,1,8,0:0:0:0:
226,178,51368,1,0,0:0:0:0:
226,178,51543,1,0,0:0:0:0:
226,178,51630,1,0,0:0:0:0:
226,178,51717,1,8,0:0:0:0:
226,178,51891,1,0,0:0:0:0:
226,178,52066,1,8,0:0:0:0:
226,178,52240,1,0,0:0:0:0:
226,178,52415,1,8,0:0:0:0:
226,178,52502,1,0,0:0:0:0:
226,178,52589,1,8,0:0:0:0:
226,178,52763,1,8,0:0:0:0:
226,178,52851,1,8,0:0:0:0:
226,178,52938,1,8,0:0:0:0:
226,178,53112,1,0,0:0:0:0:
226,178,53287,1,0,0:0:0:0:
226,178,53374,1,0,0:0:0:0:
226,178,53461,1,8,0:0:0:0:
226,178,53636,1,0,0:0:0:0:
226,178,53810,1,0,0:0:0:0:
226,178,53897,1,0,0:0:0:0:
226,178,53984,1,8,0:0:0:0:
226,178,54072,1,0,0:0:0:0:
226,178,54159,1,8,0:0:0:0:
226,178,54333,1,8,0:0:0:0:
226,178,54508,1,0,0:0:0:0:
230,191,54682,1,0,0:0:0:0:
231,192,54856,1,0,0:0:0:0:
231,192,54944,1,0,0:0:0:0:
231,192,55031,1,8,0:0:0:0:
231,192,55205,1,8,0:0:0:0:
231,192,55380,1,0,0:0:0:0:
226,177,55554,1,8,0:0:0:0:
226,177,55641,1,0,0:0:0:0:
226,177,55729,1,8,0:0:0:0:
226,177,55903,1,8,0:0:0:0:
226,177,56077,1,8,0:0:0:0:
226,177,56252,1,0,0:0:0:0:
241,180,56339,1,0,0:0:0:0:
241,180,56426,1,8,0:0:0:0:
241,180,56513,1,0,0:0:0:0:
241,180,56601,1,8,0:0:0:0:
241,180,56775,1,0,0:0:0:0:
236,175,56949,1,0,0:0:0:0:
236,175,57124,1,0,0:0:0:0:
236,175,57211,1,0,0:0:0:0:
236,175,57298,1,8,0:0:0:0:
236,175,57473,1,8,0:0:0:0:
236,175,57647,1,0,0:0:0:0:
236,175,57734,1,8,0:0:0:0:
236,175,57822,1,0,0:0:0:0:
236,175,57909,1,0,0:0:0:0:
236,175,57996,1,8,0:0:0:0:
236,175,58170,1,8,0:0:0:0:
247,192,58258,1,8,0:0:0:0:
247,192,58345,1,0,0:0:0:0:
247,192,58432,1,8,0:0:0:0:
247,192,58519,1,0,0:0:0:0:
247,192,58694,1,8,0:0:0:0:
247,192,58868,1,0,0:0:0:0:
247,192,59043,1,0,0:0:0:0:
247,192,59130,1,0,0:0:0:0:
247,192,59217,1,8,0:0:0:0:
247,192,59391,1,0,0:0:0:0:
247,192,59566,1,8,0:0:0:0:
229,183,59653,1,0,0:0:0:0:
229,183,59740,1,0,0:0:0:0:
229,183,59915,1,8,0:0:0:0:
229,183,60089,1,0,0:0:0:0:
229,183,60176,1,8,0:0:0:0:
229,183,60263,1,0,0:0:0:0:
229,183,60438,1,8,0:0:0:0:
229,183,60612,1,0,0:0:0:0:
238,175,60699,1,0,0:0:0:0:
229,183,60787,1,0,0:0:0:0:
229,183,60961,1,4,0:0:0:0:
229,183,61659,1,8,0:0:0:0:
248,182,61833,1,0,0:0:0:0:
248,182,62008,1,0,0:0:0:0:
248,182,62182,1,8,0:0:0:0:
248,182,62356,1,4,0:0:0:0:
262,196,62531,1,0,0:0:0:0:
262,196,62705,1,0,0:0:0:0:
262,196,62880,1,0,0:0:0:0:
251,197,63054,1,0,0:0:0:0:
264,201,63112,1,0,0:0:0:0:
256,197,63170,1,8,0:0:0:0:
256,197,63229,1,0,0:0:0:0:
256,197,63316,1,0,0:0:0:0:
256,197,63403,1,8,0:0:0:0:
261,196,63490,1,8,0:0:0:0:
261,196,63577,1,8,0:0:0:0:
261,196,63665,1,8,0:0:0:0:
261,196,63752,1,0,0:0:0:0:
257,181,63925,1,0,0:0:0:0:
257,181,64012,1,8,0:0:0:0:
257,181,64100,1,8,0:0:0:0:
257,181,64274,1,8,0:0:0:0:
257,181,64448,1,8,0:0:0:0:
261,196,64536,1,0,0:0:0:0:
261,196,64710,1,0,0:0:0:0:
256,194,64797,1,8,0:0:0:0:
256,194,64972,1,8,0:0:0:0:
256,194,65146,1,0,0:0:0:0:
251,173,65495,1,8,0:0:0:0:
251,173,65844,1,0,0:0:0:0:
251,173,65931,1,8,0:0:0:0:
251,173,66105,1,8,0:0:0:0:
251,173,66193,1,0,0:0:0:0:
251,173,66280,1,8,0:0:0:0:
251,173,66367,1,0,0:0:0:0:
251,173,66542,1,0,0:0:0:0:
251,173,66629,1,0,0:0:0:0:
251,173,66716,1,8,0:0:0:0:
251,173,66803,1,0,0:0:0:0:
251,173,66890,1,8,0:0:0:0:
251,173,67065,1,8,0:0:0:0:
251,173,67239,1,0,0:0:0:0:
251,173,67326,1,0,0:0:0:0:
251,173,67501,1,0,0:0:0:0:
251,173,67588,1,8,0:0:0:0:
251,173,67762,1,8,0:0:0:0:
251,173,67937,1,0,0:0:0:0:
254,190,68286,1,8,0:0:0:0:
251,173,68635,1,0,0:0:0:0:
251,173,68722,1,8,0:0:0:0:
251,173,68896,1,8,0:0:0:0:
251,173,68984,1,0,0:0:0:0:
251,173,69071,1,8,0:0:0:0:
251,173,69158,1,0,0:0:0:0:
251,173,69333,1,0,0:0:0:0:
251,173,69420,1,0,0:0:0:0:
251,173,69507,1,8,0:0:0:0:
251,173,69594,1,0,0:0:0:0:
251,173,69681,1,8,0:0:0:0:
251,173,69856,1,8,0:0:0:0:
251,173,70030,1,0,0:0:0:0:
251,173,70117,1,0,0:0:0:0:
251,173,70292,1,0,0:0:0:0:
251,173,70379,1,8,0:0:0:0:
251,173,70553,1,8,0:0:0:0:
251,173,70728,1,0,0:0:0:0:
249,204,71076,1,0,0:0:0:0:
249,204,71251,1,0,0:0:0:0:
249,204,71338,1,8,0:0:0:0:
249,204,71425,1,0,0:0:0:0:
230,171,71600,1,8,0:0:0:0:
249,204,71775,1,0,0:0:0:0:
246,198,71862,1,8,0:0:0:0:
249,204,71949,1,8,0:0:0:0:
251,191,72036,1,8,0:0:0:0:
251,191,72123,1,0,0:0:0:0:
251,188,72297,1,0,0:0:0:0:
236,201,72385,1,8,0:0:0:0:
251,188,72472,1,0,0:0:0:0:
251,188,72559,1,0,0:0:0:0:
251,188,72646,1,8,0:0:0:0:
255,190,72821,1,8,0:0:0:0:
255,181,73082,1,0,0:0:0:0:
255,181,73344,1,0,0:0:0:0:
251,188,73518,1,12,0:0:0:0:
246,194,73868,1,8,0:0:0:0:
251,173,74217,1,0,0:0:0:0:
251,173,74304,1,8,0:0:0:0:
251,173,74478,1,8,0:0:0:0:
251,173,74566,1,0,0:0:0:0:
251,173,74653,1,8,0:0:0:0:
251,173,74740,1,0,0:0:0:0:
251,173,74915,1,0,0:0:0:0:
251,173,75002,1,0,0:0:0:0:
251,173,75089,1,8,0:0:0:0:
251,173,75176,1,0,0:0:0:0:
251,173,75263,1,8,0:0:0:0:
251,173,75438,1,8,0:0:0:0:
251,173,75612,1,0,0:0:0:0:
251,173,75699,1,0,0:0:0:0:
251,173,75874,1,0,0:0:0:0:
251,173,75961,1,8,0:0:0:0:
251,173,76135,1,8,0:0:0:0:
251,173,76310,1,0,0:0:0:0:
263,195,76659,1,8,0:0:0:0:
251,173,77008,1,0,0:0:0:0:
251,173,77095,1,8,0:0:0:0:
251,173,77269,1,8,0:0:0:0:
251,173,77355,1,0,0:0:0:0:
251,173,77443,1,8,0:0:0:0:
251,173,77530,1,0,0:0:0:0:
251,173,77705,1,0,0:0:0:0:
251,173,77792,1,0,0:0:0:0:
251,173,77879,1,8,0:0:0:0:
251,173,77966,1,0,0:0:0:0:
251,173,78053,1,8,0:0:0:0:
251,173,78229,1,8,0:0:0:0:
251,173,78403,1,0,0:0:0:0:
251,173,78490,1,0,0:0:0:0:
251,173,78665,1,0,0:0:0:0:
251,173,78752,1,8,0:0:0:0:
251,173,78926,1,8,0:0:0:0:
251,173,79101,1,0,0:0:0:0:
266,198,79449,1,8,0:0:0:0:
251,173,79798,1,0,0:0:0:0:
251,173,79885,1,8,0:0:0:0:
251,173,80059,1,8,0:0:0:0:
251,173,80147,1,0,0:0:0:0:
251,173,80234,1,8,0:0:0:0:
251,173,80321,1,0,0:0:0:0:
251,173,80496,1,0,0:0:0:0:
251,173,80583,1,0,0:0:0:0:
251,173,80670,1,8,0:0:0:0:
251,173,80757,1,0,0:0:0:0:
251,173,80844,1,8,0:0:0:0:
251,173,81019,1,8,0:0:0:0:
251,173,81193,1,0,0:0:0:0:
251,173,81280,1,0,0:0:0:0:
251,173,81455,1,0,0:0:0:0:
251,173,81542,1,8,0:0:0:0:
251,173,81716,1,8,0:0:0:0:
251,173,81891,1,0,0:0:0:0:
260,198,82240,1,8,0:0:0:0:
251,173,82589,1,0,0:0:0:0:
251,173,82676,1,8,0:0:0:0:
251,173,82850,1,8,0:0:0:0:
251,173,82938,1,0,0:0:0:0:
251,173,83025,1,8,0:0:0:0:
251,173,83112,1,0,0:0:0:0:
251,173,83287,1,0,0:0:0:0:
251,173,83374,1,0,0:0:0:0:
251,173,83461,1,8,0:0:0:0:
251,173,83548,1,0,0:0:0:0:
251,173,83635,1,8,0:0:0:0:
251,173,83810,1,8,0:0:0:0:
251,173,83984,1,0,0:0:0:0:
251,173,84071,1,0,0:0:0:0:
253,165,84159,1,8,0:0:0:0:
251,173,84246,1,0,0:0:0:0:
251,173,84333,1,8,0:0:0:0:
253,165,84420,1,8,0:0:0:0:
253,165,84508,1,0,0:0:0:0:
251,173,84595,1,0,0:0:0:0:
256,188,84682,1,4,0:0:0:0:
256,188,85031,1,0,0:0:0:0:
256,188,85380,1,8,0:0:0:0:
256,188,85729,1,8,0:0:0:0:
256,188,85903,1,0,0:0:0:0:
261,191,86252,1,0,0:0:0:0:
261,191,86425,1,8,0:0:0:0:
261,191,86600,1,8,0:0:0:0:
261,191,86774,1,0,0:0:0:0:
261,191,86948,1,8,0:0:0:0:
253,197,87123,1,0,0:0:0:0:
261,191,87473,1,0,0:0:0:0:
261,191,87822,1,0,0:0:0:0:
261,191,88169,1,8,0:0:0:0:
261,191,88519,1,8,0:0:0:0:
261,191,88693,1,0,0:0:0:0:
261,191,89043,1,0,0:0:0:0:
261,191,89217,1,8,0:0:0:0:
261,191,89390,1,8,0:0:0:0:
261,191,89565,1,0,0:0:0:0:
261,191,89740,1,0,0:0:0:0:
261,191,89914,1,8,0:0:0:0:
261,191,90263,1,8,0:0:0:0:
261,191,90612,1,0,0:0:0:0:
261,191,90961,1,0,0:0:0:0:
261,191,91310,1,8,0:0:0:0:
261,191,91485,1,0,0:0:0:0:
261,191,91834,1,0,0:0:0:0:
261,191,92009,1,8,0:0:0:0:
261,191,92183,1,8,0:0:0:0:
273,194,92357,1,0,0:0:0:0:
271,193,92706,1,8,0:0:0:0:
263,203,93055,1,0,0:0:0:0:
263,203,93403,1,0,0:0:0:0:
263,203,93752,1,8,0:0:0:0:
263,203,94101,1,8,0:0:0:0:
263,203,94276,1,0,0:0:0:0:
263,203,94624,1,0,0:0:0:0:
263,203,94799,1,0,0:0:0:0:
263,203,94973,1,8,0:0:0:0:
263,203,95148,1,0,0:0:0:0:
263,203,95322,1,8,0:0:0:0:
263,203,95496,1,8,0:0:0:0:
263,203,95845,1,12,0:0:0:0:
251,203,96019,1,0,0:0:0:0:
251,203,96194,1,8,0:0:0:0:
251,203,96454,1,8,0:0:0:0:
251,203,96542,1,0,0:0:0:0:
251,203,96891,1,8,0:0:0:0:
251,203,97065,1,0,0:0:0:0:
251,203,97240,1,8,0:0:0:0:
251,203,97327,1,0,0:0:0:0:
251,203,97414,1,8,0:0:0:0:
251,203,97588,1,0,0:0:0:0:
251,203,97763,1,8,0:0:0:0:
251,203,97939,1,0,0:0:0:0:
251,203,98288,1,8,0:0:0:0:
241,200,98548,1,8,0:0:0:0:
241,200,98636,1,0,0:0:0:0:
241,200,98809,1,0,0:0:0:0:
241,200,98984,1,8,0:0:0:0:
241,200,99158,1,0,0:0:0:0:
241,200,99333,1,8,0:0:0:0:
241,200,99508,1,8,0:0:0:0:
241,200,99595,1,0,0:0:0:0:
241,200,99682,1,8,0:0:0:0:
246,188,99856,1,0,0:0:0:0:
241,200,100031,1,0,0:0:0:0:
220,201,100205,1,0,0:0:0:0:
241,200,100380,1,8,0:0:0:0:
231,204,100467,1,0,0:0:0:0:
241,200,100554,1,8,0:0:0:0:
231,204,100729,1,8,0:0:0:0:
231,203,100816,1,8,0:0:0:0:
231,203,100903,1,0,0:0:0:0:
231,203,100990,1,0,0:0:0:0:
231,204,101077,1,8,0:0:0:0:
230,203,101252,1,0,0:0:0:0:
231,204,101425,1,8,0:0:0:0:
245,193,101601,1,0,0:0:0:0:
247,195,101688,1,8,0:0:0:0:
246,196,101774,1,0,0:0:0:0:
246,196,101949,1,8,0:0:0:0:
246,196,102123,1,0,0:0:0:0:
246,196,102211,1,0,0:0:0:0:
230,198,102298,1,8,0:0:0:0:
230,198,102472,1,8,0:0:0:0:
230,198,102647,1,0,0:0:0:0:
259,201,102821,1,8,0:0:0:0:
259,201,102996,1,0,0:0:0:0:
259,201,103170,1,0,0:0:0:0:
259,201,103258,1,0,0:0:0:0:
259,201,103344,1,8,0:0:0:0:
259,201,103519,1,0,0:0:0:0:
259,201,103693,1,8,0:0:0:0:
251,190,103780,1,0,0:0:0:0:
251,190,103868,1,8,0:0:0:0:
251,190,104216,1,0,0:0:0:0:
250,201,104391,1,0,0:0:0:0:
250,201,104478,1,0,0:0:0:0:
251,190,104565,1,8,0:0:0:0:
250,201,104740,1,0,0:0:0:0:
250,201,104914,1,8,0:0:0:0:
250,201,105001,1,8,0:0:0:0:
250,201,105088,1,0,0:0:0:0:
250,201,105263,1,8,0:0:0:0:
250,201,105437,1,0,0:0:0:0:
250,201,105525,1,0,0:0:0:0:
250,201,105612,1,0,0:0:0:0:
250,201,105786,1,0,0:0:0:0:
250,201,105961,1,8,0:0:0:0:
250,201,106135,1,0,0:0:0:0:
250,201,106309,1,0,0:0:0:0:
250,201,106397,1,0,0:0:0:0:
250,201,106484,1,8,0:0:0:0:
250,201,106571,1,0,0:0:0:0:
250,201,106658,1,8,0:0:0:0:
250,201,107007,1,4,0:0:0:0:
254,189,108402,1,8,0:0:0:0:
254,189,109101,1,8,0:0:0:0:
254,189,109798,1,0,0:0:0:0:
236,178,110147,1,0,0:0:0:0:
242,188,110496,1,8,0:0:0:0:
242,188,110845,1,8,0:0:0:0:
242,188,111019,1,0,0:0:0:0:
250,189,111368,1,8,0:0:0:0:
250,189,111543,1,8,0:0:0:0:
250,189,111717,1,8,0:0:0:0:
250,189,111891,1,0,0:0:0:0:
250,189,112066,1,8,0:0:0:0:
250,189,112240,1,0,0:0:0:0:
250,189,112589,1,0,0:0:0:0:
250,189,112763,1,8,0:0:0:0:
250,189,113112,1,8,0:0:0:0:
250,189,113287,1,0,0:0:0:0:
313,222,113461,1,0,0:0:0:0:
250,189,113636,1,8,0:0:0:0:
254,177,113810,1,0,0:0:0:0:
250,189,114159,1,8,0:0:0:0:
250,189,114333,1,0,0:0:0:0:
250,189,114508,1,0,0:0:0:0:
246,191,114682,1,8,0:0:0:0:
250,189,114856,1,0,0:0:0:0:
250,189,115031,1,8,0:0:0:0:
250,189,115380,1,0,0:0:0:0:
256,188,115729,1,0,0:0:0:0:
256,188,116077,1,8,0:0:0:0:
256,188,116426,1,8,0:0:0:0:
256,188,116601,1,0,0:0:0:0:
262,188,116949,1,8,0:0:0:0:
262,188,117124,1,0,0:0:0:0:
262,188,117298,1,0,0:0:0:0:
262,188,117473,1,8,0:0:0:0:
262,188,117647,1,0,0:0:0:0:
262,188,117822,1,8,0:0:0:0:
250,201,118170,1,4,0:0:0:0:
253,192,118432,1,0,0:0:0:0:
253,192,118519,1,0,0:0:0:0:
253,192,118693,1,0,0:0:0:0:
253,192,118868,1,8,0:0:0:0:
253,192,118955,1,0,0:0:0:0:
256,173,119129,1,0,0:0:0:0:
256,173,119217,1,8,0:0:0:0:
256,173,119391,1,0,0:0:0:0:
258,174,119565,1,8,0:0:0:0:
258,174,119624,1,8,0:0:0:0:
258,174,119682,1,8,0:0:0:0:
256,173,119740,1,0,0:0:0:0:
216,183,119827,1,0,0:0:0:0:
256,173,119914,1,8,0:0:0:0:
250,201,120089,1,0,0:0:0:0:
250,197,120263,1,8,0:0:0:0:
250,197,120350,1,0,0:0:0:0:
250,197,120525,1,0,0:0:0:0:
250,197,120612,1,8,0:0:0:0:
251,192,120786,1,8,0:0:0:0:
251,192,120961,1,0,0:0:0:0:
253,192,121222,1,0,0:0:0:0:
253,192,121309,1,0,0:0:0:0:
253,192,121483,1,0,0:0:0:0:
253,192,121658,1,8,0:0:0:0:
253,192,121745,1,0,0:0:0:0:
256,173,121919,1,0,0:0:0:0:
256,173,122007,1,8,0:0:0:0:
256,173,122181,1,0,0:0:0:0:
232,203,122356,1,0,0:0:0:0:
247,183,122531,1,8,0:0:0:0:
232,203,122589,1,8,0:0:0:0:
232,203,122647,1,8,0:0:0:0:
232,203,122705,1,0,0:0:0:0:
249,188,122879,1,8,0:0:0:0:
249,188,122967,1,0,0:0:0:0:
249,188,123054,1,8,0:0:0:0:
249,188,123141,1,8,0:0:0:0:
249,188,123228,1,0,0:0:0:0:
249,188,123315,1,0,0:0:0:0:
249,188,123403,1,8,0:0:0:0:
249,188,123577,1,0,0:0:0:0:
249,188,123751,1,4,0:0:0:0:
242,198,124013,1,8,0:0:0:0:
243,198,124100,1,0,0:0:0:0:
244,198,124275,1,8,0:0:0:0:
244,198,124449,1,0,0:0:0:0:
244,198,124536,1,8,0:0:0:0:
244,198,124711,1,8,0:0:0:0:
242,198,124798,1,0,0:0:0:0:
244,190,124972,1,0,0:0:0:0:
244,190,125147,1,0,0:0:0:0:
246,193,125234,1,8,0:0:0:0:
244,190,125321,1,0,0:0:0:0:
246,193,125408,1,8,0:0:0:0:
246,193,125496,1,0,0:0:0:0:
246,192,125583,1,8,0:0:0:0:
246,192,125670,1,8,0:0:0:0:
246,192,125757,1,8,0:0:0:0:
244,190,125845,1,0,0:0:0:0:
239,193,125932,1,0,0:0:0:0:
240,193,126019,1,8,0:0:0:0:
240,193,126106,1,8,0:0:0:0:
240,193,126193,1,0,0:0:0:0:
240,193,126281,1,8,0:0:0:0:
240,193,126368,1,0,0:0:0:0:
240,193,126455,1,8,0:0:0:0:
240,193,126542,1,0,0:0:0:0:
239,190,126600,1,0,0:0:0:0:
239,190,126658,1,0,0:0:0:0:
239,190,126717,1,8,0:0:0:0:
236,193,126804,1,8,0:0:0:0:
239,193,126891,1,0,0:0:0:0:
245,174,126949,1,0,0:0:0:0:
245,174,127007,1,0,0:0:0:0:
245,174,127065,1,8,0:0:0:0:
255,196,127153,1,8,0:0:0:0:
255,196,127240,1,0,0:0:0:0:
255,196,127298,1,0,0:0:0:0:
255,196,127356,1,8,0:0:0:0:
255,196,127414,1,0,0:0:0:0:
253,189,127472,1,0,0:0:0:0:
252,193,127531,1,8,0:0:0:0:
255,196,127589,1,0,0:0:0:0:
267,183,127647,1,0,0:0:0:0:
265,185,127705,1,8,0:0:0:0:
265,185,127763,1,8,0:0:0:0:
265,185,127850,1,8,0:0:0:0:
265,185,127938,1,0,0:0:0:0:
266,182,128287,1,8,0:0:0:0:
266,182,128345,1,8,0:0:0:0:
266,182,128403,1,0,0:0:0:0:
266,182,128461,1,0,0:0:0:0:
279,178,128548,1,0,0:0:0:0:
278,178,128636,1,8,0:0:0:0:
278,178,128723,1,8,0:0:0:0:
278,178,128810,1,0,0:0:0:0:
287,187,128897,1,0,0:0:0:0:
287,187,128984,1,0,0:0:0:0:
278,178,129333,1,4,0:0:0:0:
268,179,129508,1,0,0:0:0:0:
268,179,129595,1,0,0:0:0:0:
268,179,129682,1,8,0:0:0:0:
268,179,129856,1,0,0:0:0:0:
285,174,129944,1,0,0:0:0:0:
268,179,130031,1,8,0:0:0:0:
268,179,130205,1,0,0:0:0:0:
236,180,130293,1,0,0:0:0:0:
241,195,130380,1,8,0:0:0:0:
246,198,130467,1,0,0:0:0:0:
246,193,130554,1,8,0:0:0:0:
246,193,130729,1,0,0:0:0:0:
246,193,130903,1,0,0:0:0:0:
246,193,130990,1,0,0:0:0:0:
246,193,131077,1,8,0:0:0:0:
306,185,131252,1,0,0:0:0:0:
245,187,131426,1,8,0:0:0:0:
245,187,131513,1,8,0:0:0:0:
245,187,131601,1,0,0:0:0:0:
246,193,131688,1,0,0:0:0:0:
246,193,131775,1,8,0:0:0:0:
245,187,131949,1,8,0:0:0:0:
245,187,132124,1,0,0:0:0:0:
236,180,132298,1,0,0:0:0:0:
236,180,132386,1,0,0:0:0:0:
236,180,132473,1,8,0:0:0:0:
236,180,132647,1,0,0:0:0:0:
236,180,132734,1,0,0:0:0:0:
236,180,132822,1,8,0:0:0:0:
236,180,132996,1,0,0:0:0:0:
236,180,133170,1,8,0:0:0:0:
236,180,133258,1,0,0:0:0:0:
236,180,133345,1,8,0:0:0:0:
236,180,133432,1,8,0:0:0:0:
236,180,133519,1,0,0:0:0:0:
237,198,133694,1,8,0:0:0:0:
238,198,133781,1,0,0:0:0:0:
238,198,133868,1,8,0:0:0:0:
238,198,134043,1,8,0:0:0:0:
238,198,134217,1,0,0:0:0:0:
246,190,134304,1,8,0:0:0:0:
238,198,134391,1,0,0:0:0:0:
238,198,134479,1,0,0:0:0:0:
237,198,134566,1,8,0:0:0:0:
238,198,134740,1,0,0:0:0:0:
238,198,134915,1,8,0:0:0:0:
244,185,135089,1,0,0:0:0:0:
244,185,135176,1,0,0:0:0:0:
244,185,135263,1,8,0:0:0:0:
244,185,135438,1,0,0:0:0:0:
244,185,135525,1,0,0:0:0:0:
244,185,135612,1,8,0:0:0:0:
244,185,135787,1,0,0:0:0:0:
244,185,135961,1,8,0:0:0:0:
244,185,136048,1,0,0:0:0:0:
244,185,136136,1,8,0:0:0:0:
244,185,136223,1,8,0:0:0:0:
244,185,136310,1,0,0:0:0:0:
248,175,136484,1,8,0:0:0:0:
248,175,136572,1,0,0:0:0:0:
248,175,136659,1,8,0:0:0:0:
248,175,136833,1,8,0:0:0:0:
248,175,137008,1,0,0:0:0:0:
248,175,137182,1,0,0:0:0:0:
248,175,137269,1,0,0:0:0:0:
248,175,137356,1,8,0:0:0:0:
248,175,137531,1,8,0:0:0:0:
248,175,137705,1,0,0:0:0:0:
248,175,137880,1,0,0:0:0:0:
248,175,137967,1,0,0:0:0:0:
248,175,138054,1,8,0:0:0:0:
248,175,138229,1,0,0:0:0:0:
248,175,138316,1,0,0:0:0:0:
248,175,138403,1,8,0:0:0:0:
248,175,138577,1,0,0:0:0:0:
248,175,138752,1,8,0:0:0:0:
248,175,138839,1,0,0:0:0:0:
248,175,138926,1,8,0:0:0:0:
248,175,139013,1,8,0:0:0:0:
248,175,139101,1,0,0:0:0:0:
248,175,139275,1,0,0:0:0:0:
248,175,139449,1,0,0:0:0:0:
248,175,139537,1,0,0:0:0:0:
248,175,139624,1,8,0:0:0:0:
248,175,139711,1,0,0:0:0:0:
248,175,139798,1,8,0:0:0:0:
220,165,139973,1,0,0:0:0:0:
248,175,140147,1,8,0:0:0:0:
248,175,140322,1,0,0:0:0:0:
248,175,140496,1,12,0:0:0:0:
268,179,140670,1,0,0:0:0:0:
268,179,140757,1,0,0:0:0:0:
268,179,140844,1,8,0:0:0:0:
268,179,141018,1,0,0:0:0:0:
285,174,141106,1,0,0:0:0:0:
268,179,141193,1,8,0:0:0:0:
268,179,141367,1,0,0:0:0:0:
236,180,141455,1,0,0:0:0:0:
241,195,141542,1,8,0:0:0:0:
246,198,141629,1,0,0:0:0:0:
246,193,141716,1,8,0:0:0:0:
246,193,141891,1,0,0:0:0:0:
246,193,142065,1,0,0:0:0:0:
246,193,142152,1,0,0:0:0:0:
246,193,142239,1,8,0:0:0:0:
306,185,142414,1,0,0:0:0:0:
245,187,142588,1,0,0:0:0:0:
245,187,142675,1,0,0:0:0:0:
242,186,142763,1,8,0:0:0:0:
245,187,142851,1,0,0:0:0:0:
245,187,142937,1,8,0:0:0:0:
245,187,143111,1,8,0:0:0:0:
245,187,143286,1,0,0:0:0:0:
236,180,143460,1,0,0:0:0:0:
236,180,143548,1,0,0:0:0:0:
236,180,143635,1,8,0:0:0:0:
236,180,143809,1,0,0:0:0:0:
236,180,143896,1,0,0:0:0:0:
236,180,143984,1,8,0:0:0:0:
236,180,144158,1,0,0:0:0:0:
236,180,144332,1,8,0:0:0:0:
236,180,144420,1,0,0:0:0:0:
236,180,144507,1,8,0:0:0:0:
236,180,144594,1,8,0:0:0:0:
236,180,144681,1,0,0:0:0:0:
237,198,144856,1,8,0:0:0:0:
238,198,144943,1,0,0:0:0:0:
238,198,145030,1,8,0:0:0:0:
238,198,145205,1,8,0:0:0:0:
238,198,145379,1,0,0:0:0:0:
217,196,145467,1,8,0:0:0:0:
238,198,145553,1,0,0:0:0:0:
238,198,145641,1,0,0:0:0:0:
237,198,145728,1,8,0:0:0:0:
238,198,145902,1,0,0:0:0:0:
238,198,146077,1,8,0:0:0:0:
244,185,146251,1,0,0:0:0:0:
244,185,146338,1,0,0:0:0:0:
244,185,146425,1,8,0:0:0:0:
244,185,146600,1,0,0:0:0:0:
244,185,146687,1,0,0:0:0:0:
244,185,146774,1,8,0:0:0:0:
244,185,146949,1,0,0:0:0:0:
244,185,147123,1,8,0:0:0:0:
244,185,147210,1,0,0:0:0:0:
244,185,147298,1,8,0:0:0:0:
244,185,147385,1,8,0:0:0:0:
244,185,147472,1,0,0:0:0:0:
248,175,147646,1,8,0:0:0:0:
248,175,147734,1,0,0:0:0:0:
248,175,147821,1,8,0:0:0:0:
248,175,147995,1,8,0:0:0:0:
248,175,148170,1,0,0:0:0:0:
248,175,148344,1,0,0:0:0:0:
248,175,148431,1,0,0:0:0:0:
248,175,148518,1,8,0:0:0:0:
248,175,148693,1,8,0:0:0:0:
248,175,148867,1,0,0:0:0:0:
248,175,149042,1,0,0:0:0:0:
248,175,149129,1,0,0:0:0:0:
248,175,149216,1,8,0:0:0:0:
248,175,149391,1,0,0:0:0:0:
248,175,149478,1,0,0:0:0:0:
248,175,149565,1,8,0:0:0:0:
248,175,149739,1,0,0:0:0:0:
248,175,149914,1,8,0:0:0:0:
248,175,150001,1,0,0:0:0:0:
248,175,150088,1,8,0:0:0:0:
248,175,150175,1,8,0:0:0:0:
248,175,150263,1,0,0:0:0:0:
248,175,150437,1,0,0:0:0:0:
248,175,150611,1,8,0:0:0:0:
248,175,150699,1,0,0:0:0:0:
248,175,150786,1,8,0:0:0:0:
248,175,150960,1,8,0:0:0:0:
220,165,151048,1,0,0:0:0:0:
220,165,151135,1,0,0:0:0:0:
239,183,151194,1,0,0:0:0:0:
239,183,151252,1,0,0:0:0:0:
248,175,151309,1,8,0:0:0:0:
248,175,151397,1,8,0:0:0:0:
248,175,151484,1,0,0:0:0:0:
248,175,151572,1,0,0:0:0:0:
248,175,151659,1,12,0:0:0:0:
268,179,151833,1,0,0:0:0:0:
268,179,151920,1,0,0:0:0:0:
268,179,152007,1,8,0:0:0:0:
268,179,152181,1,0,0:0:0:0:
285,174,152269,1,0,0:0:0:0:
268,179,152356,1,8,0:0:0:0:
268,179,152530,1,0,0:0:0:0:
236,180,152618,1,0,0:0:0:0:
241,195,152705,1,8,0:0:0:0:
246,198,152792,1,0,0:0:0:0:
246,193,152879,1,8,0:0:0:0:
246,193,153054,1,0,0:0:0:0:
246,193,153228,1,0,0:0:0:0:
246,193,153315,1,0,0:0:0:0:
246,193,153402,1,8,0:0:0:0:
306,185,153577,1,0,0:0:0:0:
245,187,153751,1,8,0:0:0:0:
245,187,153838,1,8,0:0:0:0:
245,187,153926,1,0,0:0:0:0:
245,187,154100,1,0,0:0:0:0:
245,187,154274,1,8,0:0:0:0:
245,187,154449,1,0,0:0:0:0:
236,180,154623,1,0,0:0:0:0:
236,180,154711,1,0,0:0:0:0:
236,180,154798,1,8,0:0:0:0:
236,180,154972,1,0,0:0:0:0:
236,180,155059,1,0,0:0:0:0:
236,180,155147,1,8,0:0:0:0:
236,180,155321,1,0,0:0:0:0:
236,180,155495,1,8,0:0:0:0:
236,180,155583,1,0,0:0:0:0:
236,180,155670,1,8,0:0:0:0:
236,180,155757,1,8,0:0:0:0:
236,180,155844,1,0,0:0:0:0:
237,198,156019,1,8,0:0:0:0:
238,198,156106,1,0,0:0:0:0:
238,198,156193,1,8,0:0:0:0:
238,198,156368,1,8,0:0:0:0:
238,198,156542,1,0,0:0:0:0:
238,198,156716,1,0,0:0:0:0:
238,198,156804,1,0,0:0:0:0:
237,198,156891,1,8,0:0:0:0:
238,198,157065,1,0,0:0:0:0:
238,198,157240,1,8,0:0:0:0:
244,185,157414,1,0,0:0:0:0:
244,185,157501,1,0,0:0:0:0:
244,185,157588,1,8,0:0:0:0:
244,185,157763,1,0,0:0:0:0:
244,185,157850,1,0,0:0:0:0:
244,185,157937,1,8,0:0:0:0:
244,185,158112,1,0,0:0:0:0:
244,185,158286,1,8,0:0:0:0:
244,185,158373,1,0,0:0:0:0:
244,185,158461,1,8,0:0:0:0:
244,185,158548,1,8,0:0:0:0:
244,185,158635,1,0,0:0:0:0:
248,175,158809,1,8,0:0:0:0:
248,175,158897,1,0,0:0:0:0:
248,175,158984,1,8,0:0:0:0:
248,175,159158,1,8,0:0:0:0:
248,175,159333,1,0,0:0:0:0:
248,175,159507,1,0,0:0:0:0:
248,175,159594,1,0,0:0:0:0:
248,175,159681,1,8,0:0:0:0:
248,175,159856,1,8,0:0:0:0:
248,175,160030,1,0,0:0:0:0:
248,175,160205,1,0,0:0:0:0:
248,175,160292,1,0,0:0:0:0:
248,175,160379,1,8,0:0:0:0:
248,175,160554,1,0,0:0:0:0:
248,175,160641,1,0,0:0:0:0:
248,175,160728,1,8,0:0:0:0:
248,175,160902,1,0,0:0:0:0:
248,175,161077,1,8,0:0:0:0:
248,175,161164,1,0,0:0:0:0:
248,175,161251,1,8,0:0:0:0:
248,175,161338,1,8,0:0:0:0:
248,175,161426,1,0,0:0:0:0:
248,175,161600,1,0,0:0:0:0:
248,175,161774,1,0,0:0:0:0:
248,175,161862,1,0,0:0:0:0:
248,175,161949,1,8,0:0:0:0:
246,181,162124,1,0,0:0:0:0:
246,181,162298,1,8,0:0:0:0:
248,175,162386,1,0,0:0:0:0:
248,175,162472,1,8,0:0:0:0:
248,175,162647,1,0,0:0:0:0:
247,182,162822,1,12,0:0:0:0:
268,179,162996,1,0,0:0:0:0:
268,179,163083,1,0,0:0:0:0:
268,179,163170,1,8,0:0:0:0:
268,179,163344,1,0,0:0:0:0:
285,174,163432,1,0,0:0:0:0:
268,179,163519,1,8,0:0:0:0:
268,179,163693,1,0,0:0:0:0:
236,180,163781,1,0,0:0:0:0:
241,195,163868,1,8,0:0:0:0:
246,198,163955,1,0,0:0:0:0:
246,193,164042,1,8,0:0:0:0:
246,193,164217,1,0,0:0:0:0:
246,193,164391,1,0,0:0:0:0:
246,193,164478,1,0,0:0:0:0:
246,193,164565,1,8,0:0:0:0:
306,185,164740,1,0,0:0:0:0:
245,187,164914,1,8,0:0:0:0:
245,187,165001,1,8,0:0:0:0:
245,187,165089,1,0,0:0:0:0:
245,187,165263,1,0,0:0:0:0:
245,187,165437,1,8,0:0:0:0:
245,187,165612,1,0,0:0:0:0:
236,180,165786,1,0,0:0:0:0:
236,180,165874,1,0,0:0:0:0:
236,180,165961,1,8,0:0:0:0:
236,180,166135,1,0,0:0:0:0:
236,180,166222,1,0,0:0:0:0:
236,180,166310,1,8,0:0:0:0:
236,180,166484,1,0,0:0:0:0:
236,180,166658,1,8,0:0:0:0:
236,180,166746,1,0,0:0:0:0:
236,180,166833,1,8,0:0:0:0:
236,180,166920,1,8,0:0:0:0:
236,180,167007,1,0,0:0:0:0:
237,198,167182,1,8,0:0:0:0:
238,198,167269,1,0,0:0:0:0:
238,198,167356,1,8,0:0:0:0:
238,198,167531,1,8,0:0:0:0:
238,198,167705,1,0,0:0:0:0:
238,198,167879,1,0,0:0:0:0:
238,198,167967,1,0,0:0:0:0:
237,198,168054,1,8,0:0:0:0:
238,198,168228,1,0,0:0:0:0:
238,198,168403,1,8,0:0:0:0:
244,185,168577,1,8,0:0:0:0:
244,185,168664,1,0,0:0:0:0:
244,185,168751,1,8,0:0:0:0:
271,209,168926,1,0,0:0:0:0:
255,190,169013,1,0,0:0:0:0:
255,190,169101,1,8,0:0:0:0:
255,190,169188,1,0,0:0:0:0:
255,190,169275,1,8,0:0:0:0:
255,190,169449,1,8,0:0:0:0:
255,190,169624,1,8,0:0:0:0:
255,190,169711,1,8,0:0:0:0:
255,190,169798,1,0,0:0:0:0:
255,190,169973,1,0,0:0:0:0:
255,190,170147,1,0,0:0:0:0:
255,190,170234,1,0,0:0:0:0:
255,190,170322,1,8,0:0:0:0:
255,190,170409,1,0,0:0:0:0:
255,190,170496,1,8,0:0:0:0:
255,190,170670,1,0,0:0:0:0:
255,190,170758,1,0,0:0:0:0:
255,190,170845,1,8,0:0:0:0:
265,184,171194,1,8,0:0:0:0:
251,198,171368,1,0,0:0:0:0:
251,198,171543,1,8,0:0:0:0:
251,198,171630,1,8,0:0:0:0:
251,198,171717,1,0,0:0:0:0:
251,198,171891,1,0,0:0:0:0:
251,198,172066,1,0,0:0:0:0:
251,198,172153,1,0,0:0:0:0:
251,198,172240,1,8,0:0:0:0:
251,198,172327,1,0,0:0:0:0:
251,198,172415,1,8,0:0:0:0:
251,198,172589,1,8,0:0:0:0:
251,198,172763,1,8,0:0:0:0:
251,198,172851,1,8,0:0:0:0:
251,198,172938,1,0,0:0:0:0:
251,198,173025,1,0,0:0:0:0:
251,198,173112,1,8,0:0:0:0:
263,188,173287,1,4,0:0:0:0:
251,198,173461,1,8,0:0:0:0:
251,198,173519,1,8,0:0:0:0:
251,198,173577,1,8,0:0:0:0:
251,198,173636,1,0,0:0:0:0:
235,197,173723,1,0,0:0:0:0:
258,201,173810,1,0,0:0:0:0:
251,198,173984,1,12,0:0:0:0:
271,194,175380,1,0,0:0:0:0:
276,193,176775,1,0,0:0:0:0:
276,193,178170,1,0,0:0:0:0:
276,193,178868,1,8,0:0:0:0:
276,193,179566,1,0,0:0:0:0:
257,197,180961,1,0,0:0:0:0:
257,197,181659,1,8,0:0:0:0:
257,197,182356,1,0,0:0:0:0:
257,197,183752,1,0,0:0:0:0:
257,197,185147,1,0,0:0:0:0:
257,197,185496,1,0,0:0:0:0:
246,204,185845,1,8,0:0:0:0:
256,188,186194,1,8,0:0:0:0:
256,188,186368,1,0,0:0:0:0:
261,191,186717,1,0,0:0:0:0:
261,191,186891,1,8,0:0:0:0:
261,191,187065,1,8,0:0:0:0:
261,191,187240,1,0,0:0:0:0:
261,191,187414,1,8,0:0:0:0:
253,197,187588,1,0,0:0:0:0:
261,191,187937,1,0,0:0:0:0:
261,191,188286,1,0,0:0:0:0:
261,191,188635,1,8,0:0:0:0:
261,191,188984,1,8,0:0:0:0:
261,191,189158,1,0,0:0:0:0:
261,191,189507,1,0,0:0:0:0:
261,191,189681,1,8,0:0:0:0:
261,191,189856,1,8,0:0:0:0:
261,191,190030,1,0,0:0:0:0:
261,191,190205,1,0,0:0:0:0:
261,191,190379,1,8,0:0:0:0:
261,191,190728,1,8,0:0:0:0:
261,191,190902,1,0,0:0:0:0:
247,185,191251,1,0,0:0:0:0:
261,191,191426,1,0,0:0:0:0:
262,186,191600,1,0,0:0:0:0:
261,191,191774,1,8,0:0:0:0:
261,191,191949,1,0,0:0:0:0:
261,191,192298,1,0,0:0:0:0:
261,191,192473,1,8,0:0:0:0:
261,191,192647,1,8,0:0:0:0:
273,194,192821,1,0,0:0:0:0:
261,210,192995,1,0,0:0:0:0:
271,193,193170,1,8,0:0:0:0:
263,203,193519,1,0,0:0:0:0:
263,203,193867,1,0,0:0:0:0:
263,203,194216,1,8,0:0:0:0:
263,203,194565,1,8,0:0:0:0:
263,203,194740,1,0,0:0:0:0:
263,203,195088,1,0,0:0:0:0:
263,203,195262,1,0,0:0:0:0:
263,203,195437,1,8,0:0:0:0:
263,203,195611,1,0,0:0:0:0:
263,203,195787,1,8,0:0:0:0:
263,203,195961,1,8,0:0:0:0:
254,192,196310,1,6,0:0:0:0:
256,192,196397,12,0,198926,0:0:0:0:
