osu file format v14

[General]
AudioFilename: audio.mp3
AudioLeadIn: 0
PreviewTime: 12842
Countdown: 0
SampleSet: Normal
StackLeniency: 0.2
Mode: 1
LetterboxInBreaks: 0
WidescreenStoryboard: 0

[Editor]
DistanceSpacing: 1.5
BeatDivisor: 4
GridSize: 32
TimelineZoom: 2.699999

[Metadata]
Title:Multitalents
TitleUnicode:Multitalents
Artist:PSYQUI
ArtistUnicode:PSYQUI
Creator:Genjuro
Version:Muzukashii
Source:
Tags:funky gabber megarex mrx-051 lapix jazz
BeatmapID:2121712
BeatmapSetID:1013224

[Difficulty]
HPDrainRate:6
CircleSize:2
OverallDifficulty:5
ApproachRate:9
SliderMultiplier:1.4
SliderTickRate:1

[Events]
//Background and Video events
0,0,"bg.jpg",0,50
//Break Periods
//Storyboard Layer 0 (Background)
//Storyboard Layer 1 (Fail)
//Storyboard Layer 2 (Pass)
//Storyboard Layer 3 (Foreground)
//Storyboard Layer 4 (Overlay)
//Storyboard Sound Samples

[TimingPoints]
1030,375,4,1,0,40,1,0
1030,-100,4,1,0,40,0,0
7030,-100,4,1,0,60,0,0
13030,-100,4,1,0,80,0,0
37030,-100,4,1,0,60,0,0
43030,-100,4,1,0,70,0,0
46030,-100,4,1,0,80,0,0
47530,-100,4,1,0,60,0,0
49030,-100,4,1,0,80,0,0
61780,-100,4,1,0,100,0,1
66280,-100,4,1,0,100,0,0
66467,-100,4,1,0,80,0,0
67405,-100,4,1,0,100,0,1
72280,-100,4,1,0,80,0,0
73405,-100,4,1,0,100,0,1
78655,-100,4,1,0,80,0,0
79030,-100,4,1,0,100,0,1
84280,-100,4,1,0,80,0,0
85030,-100,4,1,0,100,0,1
90280,-100,4,1,0,100,0,0
90467,-100,4,1,0,80,0,0
91405,-100,4,1,0,100,0,1
94030,-100,4,1,0,100,0,0
95530,-100,4,1,0,80,0,0
96280,-100,4,1,0,60,0,0
97030,-100,4,1,0,40,0,0
103030,-100,4,1,0,60,0,0
109030,-100,4,1,0,80,0,0
133030,-100,4,1,0,60,0,0
139030,-100,4,1,0,70,0,0
142030,-100,4,1,0,80,0,0
143530,-100,4,1,0,60,0,0
145030,-100,4,1,0,80,0,0
157780,-100,4,1,0,100,0,1
162280,-100,4,1,0,100,0,0
162467,-100,4,1,0,80,0,0
163405,-100,4,1,0,100,0,1
168280,-100,4,1,0,80,0,0
169405,-100,4,1,0,100,0,1
174655,-100,4,1,0,80,0,0
175030,-100,4,1,0,100,0,1
180280,-100,4,1,0,80,0,0
181030,-100,4,1,0,100,0,1
186280,-100,4,1,0,100,0,0
186467,-100,4,1,0,80,0,0
187405,-100,4,1,0,100,0,1
190030,-100,4,1,0,100,0,0
191530,-100,4,1,0,80,0,0
192280,-100,4,1,0,60,0,0
193030,-100,4,1,0,80,0,0
205030,-100,4,1,0,70,0,0
214030,-100,4,1,0,60,0,0

[HitObjects]
256,192,1030,5,0,0:0:0:0:
256,192,1780,1,0,0:0:0:0:
256,192,2530,1,0,0:0:0:0:
256,192,2905,1,0,0:0:0:0:
256,192,3280,1,0,0:0:0:0:
256,192,3655,1,0,0:0:0:0:
256,192,4030,1,0,0:0:0:0:
256,192,4780,1,0,0:0:0:0:
256,192,5530,1,0,0:0:0:0:
256,192,5905,1,0,0:0:0:0:
256,192,6280,1,0,0:0:0:0:
256,192,7030,1,0,0:0:0:0:
256,192,7405,1,8,0:0:0:0:
256,192,8155,1,8,0:0:0:0:
256,192,8905,1,0,0:0:0:0:
256,192,9280,1,8,0:0:0:0:
256,192,9655,1,8,0:0:0:0:
256,192,10030,1,0,0:0:0:0:
256,192,10405,1,8,0:0:0:0:
256,192,11155,1,8,0:0:0:0:
256,192,11530,8,0,12655,0:0:0:0:
256,192,13030,5,4,0:0:0:0:
256,192,13405,1,0,0:0:0:0:
256,192,13592,1,8,0:0:0:0:
256,192,13780,1,0,0:0:0:0:
256,192,14155,1,8,0:0:0:0:
256,192,14530,1,0,0:0:0:0:
256,192,14717,1,8,0:0:0:0:
256,192,14905,1,8,0:0:0:0:
256,192,15280,1,0,0:0:0:0:
256,192,15467,1,8,0:0:0:0:
256,192,15561,1,8,0:0:0:0:
256,192,15655,1,8,0:0:0:0:
256,192,15842,1,8,0:0:0:0:
256,192,16030,1,0,0:0:0:0:
256,192,16592,1,8,0:0:0:0:
256,192,16780,1,0,0:0:0:0:
256,192,16967,1,0,0:0:0:0:
256,192,17155,1,8,0:0:0:0:
256,192,17530,1,0,0:0:0:0:
256,192,17717,1,8,0:0:0:0:
256,192,17905,1,8,0:0:0:0:
256,192,18092,1,0,0:0:0:0:
256,192,18186,1,0,0:0:0:0:
256,192,18280,1,0,0:0:0:0:
256,192,18467,1,8,0:0:0:0:
256,192,18655,1,0,0:0:0:0:
256,192,19030,1,0,0:0:0:0:
256,192,19405,1,0,0:0:0:0:
256,192,19592,1,8,0:0:0:0:
256,192,19780,1,0,0:0:0:0:
256,192,20155,1,8,0:0:0:0:
256,192,20530,1,0,0:0:0:0:
256,192,20717,1,8,0:0:0:0:
256,192,20905,1,8,0:0:0:0:
256,192,21280,1,0,0:0:0:0:
256,192,21467,1,8,0:0:0:0:
256,192,21561,1,8,0:0:0:0:
256,192,21655,1,8,0:0:0:0:
256,192,21842,1,8,0:0:0:0:
256,192,22030,1,0,0:0:0:0:
256,192,22592,1,8,0:0:0:0:
256,192,22780,1,0,0:0:0:0:
256,192,22967,1,0,0:0:0:0:
256,192,23155,1,8,0:0:0:0:
256,192,23530,1,0,0:0:0:0:
256,192,23717,1,8,0:0:0:0:
256,192,23905,1,8,0:0:0:0:
256,192,24092,1,0,0:0:0:0:
256,192,24186,1,0,0:0:0:0:
256,192,24280,1,0,0:0:0:0:
256,192,24467,1,8,0:0:0:0:
256,192,24655,1,0,0:0:0:0:
256,192,25030,1,4,0:0:0:0:
256,192,25405,1,0,0:0:0:0:
256,192,25592,1,8,0:0:0:0:
256,192,25780,1,0,0:0:0:0:
256,192,26155,1,8,0:0:0:0:
256,192,26530,1,0,0:0:0:0:
256,192,26717,1,8,0:0:0:0:
256,192,26905,1,8,0:0:0:0:
256,192,27280,1,0,0:0:0:0:
256,192,27467,1,8,0:0:0:0:
256,192,27561,1,8,0:0:0:0:
256,192,27655,1,8,0:0:0:0:
256,192,27842,1,8,0:0:0:0:
256,192,28030,1,0,0:0:0:0:
256,192,28592,1,8,0:0:0:0:
256,192,28780,1,0,0:0:0:0:
256,192,28967,1,0,0:0:0:0:
256,192,29155,1,8,0:0:0:0:
256,192,29530,1,0,0:0:0:0:
256,192,29717,1,8,0:0:0:0:
256,192,29905,1,8,0:0:0:0:
256,192,30092,1,0,0:0:0:0:
256,192,30186,1,0,0:0:0:0:
256,192,30280,1,0,0:0:0:0:
256,192,30467,1,8,0:0:0:0:
256,192,30655,1,0,0:0:0:0:
256,192,31030,1,0,0:0:0:0:
256,192,31405,1,0,0:0:0:0:
256,192,31592,1,8,0:0:0:0:
256,192,31780,1,0,0:0:0:0:
256,192,32155,1,8,0:0:0:0:
256,192,32530,1,0,0:0:0:0:
256,192,32717,1,8,0:0:0:0:
256,192,32905,1,8,0:0:0:0:
256,192,33280,1,0,0:0:0:0:
256,192,33467,1,8,0:0:0:0:
256,192,33561,1,8,0:0:0:0:
256,192,33655,1,8,0:0:0:0:
256,192,33842,1,8,0:0:0:0:
256,192,34030,1,0,0:0:0:0:
256,192,34592,1,8,0:0:0:0:
256,192,34780,1,0,0:0:0:0:
256,192,34967,1,0,0:0:0:0:
256,192,35155,1,8,0:0:0:0:
256,192,35530,1,4,0:0:0:0:
256,192,35905,1,8,0:0:0:0:
256,192,36280,1,0,0:0:0:0:
256,192,36373,1,0,0:0:0:0:
256,192,36467,1,0,0:0:0:0:
256,192,36655,1,8,0:0:0:0:
256,192,36842,1,0,0:0:0:0:
256,192,37030,1,12,0:0:0:0:
256,192,37780,1,0,0:0:0:0:
256,192,37967,1,8,0:0:0:0:
256,192,38155,1,8,0:0:0:0:
256,192,38342,1,0,0:0:0:0:
256,192,38530,1,8,0:0:0:0:
256,192,39280,1,0,0:0:0:0:
256,192,39467,1,0,0:0:0:0:
256,192,39655,1,8,0:0:0:0:
256,192,39842,1,0,0:0:0:0:
256,192,40030,1,8,0:0:0:0:
256,192,40780,1,0,0:0:0:0:
256,192,40967,1,8,0:0:0:0:
256,192,41061,1,8,0:0:0:0:
256,192,41155,1,8,0:0:0:0:
256,192,41342,1,0,0:0:0:0:
256,192,41530,1,8,0:0:0:0:
256,192,42280,1,0,0:0:0:0:
256,192,42373,1,0,0:0:0:0:
256,192,42467,1,0,0:0:0:0:
256,192,42655,1,8,0:0:0:0:
256,192,43030,1,0,0:0:0:0:
256,192,43405,1,0,0:0:0:0:
256,192,43592,1,8,0:0:0:0:
256,192,43780,1,0,0:0:0:0:
256,192,44155,1,8,0:0:0:0:
256,192,44342,1,8,0:0:0:0:
256,192,44530,1,0,0:0:0:0:
256,192,44905,1,0,0:0:0:0:
256,192,45092,1,8,0:0:0:0:
256,192,45280,1,0,0:0:0:0:
256,192,45467,1,0,0:0:0:0:
256,192,45655,1,8,0:0:0:0:
256,192,46030,1,8,0:0:0:0:
256,192,46217,1,8,0:0:0:0:
256,192,46405,1,0,0:0:0:0:
256,192,46592,1,0,0:0:0:0:
256,192,46780,1,8,0:0:0:0:
256,192,46873,1,8,0:0:0:0:
256,192,46967,1,8,0:0:0:0:
256,192,47155,1,0,0:0:0:0:
256,192,47248,1,0,0:0:0:0:
256,192,47342,1,0,0:0:0:0:
256,192,47530,1,8,0:0:0:0:
256,192,47905,1,0,0:0:0:0:
256,192,48186,1,8,0:0:0:0:
256,192,48467,1,0,0:0:0:0:
256,192,48655,1,8,0:0:0:0:
256,192,49030,1,4,0:0:0:0:
256,192,49780,1,0,0:0:0:0:
256,192,49873,1,0,0:0:0:0:
256,192,49967,1,0,0:0:0:0:
256,192,50155,1,8,0:0:0:0:
256,192,50530,1,0,0:0:0:0:
256,192,50905,1,8,0:0:0:0:
256,192,51280,1,0,0:0:0:0:
256,192,51373,1,0,0:0:0:0:
256,192,51561,1,8,0:0:0:0:
256,192,51655,1,8,0:0:0:0:
256,192,51842,1,8,0:0:0:0:
256,192,52030,1,0,0:0:0:0:
256,192,52405,1,8,0:0:0:0:
256,192,52780,1,0,0:0:0:0:
256,192,52873,1,0,0:0:0:0:
256,192,52967,1,0,0:0:0:0:
256,192,53155,1,8,0:0:0:0:
256,192,53342,1,8,0:0:0:0:
256,192,53530,1,0,0:0:0:0:
256,192,53905,1,8,0:0:0:0:
256,192,54280,1,0,0:0:0:0:
256,192,55030,1,0,0:0:0:0:
256,192,55217,1,0,0:0:0:0:
256,192,55405,1,12,0:0:0:0:
256,192,55780,1,8,0:0:0:0:
256,192,55873,1,8,0:0:0:0:
256,192,55967,1,8,0:0:0:0:
256,192,56155,1,0,0:0:0:0:
256,192,56342,1,0,0:0:0:0:
256,192,56530,1,8,0:0:0:0:
256,192,56905,1,0,0:0:0:0:
256,192,57280,1,0,0:0:0:0:
256,192,57373,1,0,0:0:0:0:
256,192,57467,1,0,0:0:0:0:
256,192,57655,1,8,0:0:0:0:
256,192,58030,1,4,0:0:0:0:
256,192,58405,1,0,0:0:0:0:
256,192,58592,1,8,0:0:0:0:
256,192,58780,1,0,0:0:0:0:
256,192,58873,1,0,0:0:0:0:
256,192,59061,1,8,0:0:0:0:
256,192,59155,1,8,0:0:0:0:
256,192,59342,1,8,0:0:0:0:
256,192,59530,1,0,0:0:0:0:
256,192,59717,1,0,0:0:0:0:
256,192,59905,1,8,0:0:0:0:
256,192,60280,1,0,0:0:0:0:
256,192,60373,1,0,0:0:0:0:
256,192,60467,1,0,0:0:0:0:
256,192,60655,1,8,0:0:0:0:
256,192,61030,1,4,0:0:0:0:
256,192,61780,1,8,0:0:0:0:
256,192,61967,1,0,0:0:0:0:
256,192,62061,1,0,0:0:0:0:
256,192,62155,1,0,0:0:0:0:
256,192,62342,1,8,0:0:0:0:
256,192,62530,1,0,0:0:0:0:
256,192,62717,1,0,0:0:0:0:
256,192,62905,1,8,0:0:0:0:
256,192,63092,1,0,0:0:0:0:
256,192,63280,1,8,0:0:0:0:
256,192,63373,1,8,0:0:0:0:
256,192,63467,1,8,0:0:0:0:
256,192,63655,1,0,0:0:0:0:
256,192,64030,1,0,0:0:0:0:
256,192,64217,1,8,0:0:0:0:
256,192,64405,1,8,0:0:0:0:
256,192,64592,1,0,0:0:0:0:
256,192,64780,1,8,0:0:0:0:
256,192,64967,1,0,0:0:0:0:
256,192,65061,1,0,0:0:0:0:
256,192,65155,1,0,0:0:0:0:
256,192,65342,1,8,0:0:0:0:
256,192,65530,1,0,0:0:0:0:
256,192,65905,1,8,0:0:0:0:
256,192,66092,1,8,0:0:0:0:
256,192,66280,1,0,0:0:0:0:
256,192,67030,1,0,0:0:0:0:
256,192,67217,1,0,0:0:0:0:
256,192,67405,1,12,0:0:0:0:
256,192,67780,1,0,0:0:0:0:
256,192,67967,1,8,0:0:0:0:
256,192,68061,1,8,0:0:0:0:
256,192,68155,1,8,0:0:0:0:
256,192,68342,1,0,0:0:0:0:
256,192,68530,1,8,0:0:0:0:
256,192,68717,1,8,0:0:0:0:
256,192,68905,1,0,0:0:0:0:
256,192,69092,1,8,0:0:0:0:
256,192,69280,1,0,0:0:0:0:
256,192,69373,1,0,0:0:0:0:
256,192,69467,1,0,0:0:0:0:
256,192,69655,1,8,0:0:0:0:
256,192,70030,1,4,0:0:0:0:
256,192,70405,1,0,0:0:0:0:
256,192,70592,1,8,0:0:0:0:
256,192,70780,1,0,0:0:0:0:
256,192,70967,1,8,0:0:0:0:
256,192,71061,1,8,0:0:0:0:
256,192,71248,1,0,0:0:0:0:
256,192,71342,1,0,0:0:0:0:
256,192,71530,1,8,0:0:0:0:
256,192,71717,1,0,0:0:0:0:
256,192,71905,1,8,0:0:0:0:
256,192,72280,1,0,0:0:0:0:
256,192,72655,1,8,0:0:0:0:
256,192,73030,1,0,0:0:0:0:
256,192,73405,1,12,0:0:0:0:
256,192,73780,1,8,0:0:0:0:
256,192,73967,1,0,0:0:0:0:
256,192,74061,1,0,0:0:0:0:
256,192,74155,1,0,0:0:0:0:
256,192,74342,1,8,0:0:0:0:
256,192,74530,1,0,0:0:0:0:
256,192,74717,1,0,0:0:0:0:
256,192,74905,1,8,0:0:0:0:
256,192,75092,1,0,0:0:0:0:
256,192,75280,1,8,0:0:0:0:
256,192,75373,1,8,0:0:0:0:
256,192,75467,1,8,0:0:0:0:
256,192,75655,1,0,0:0:0:0:
256,192,76030,1,0,0:0:0:0:
256,192,76217,1,8,0:0:0:0:
256,192,76405,1,8,0:0:0:0:
256,192,76592,1,0,0:0:0:0:
256,192,76780,1,8,0:0:0:0:
256,192,76967,1,0,0:0:0:0:
256,192,77061,1,0,0:0:0:0:
256,192,77155,1,0,0:0:0:0:
256,192,77342,1,8,0:0:0:0:
256,192,77530,1,0,0:0:0:0:
256,192,77905,1,8,0:0:0:0:
256,192,78092,1,0,0:0:0:0:
256,192,78280,1,0,0:0:0:0:
256,192,78467,1,8,0:0:0:0:
256,192,79030,1,4,0:0:0:0:
256,192,79405,1,8,0:0:0:0:
256,192,79780,1,0,0:0:0:0:
256,192,79967,1,8,0:0:0:0:
256,192,80061,1,8,0:0:0:0:
256,192,80155,1,8,0:0:0:0:
256,192,80342,1,0,0:0:0:0:
256,192,80530,1,8,0:0:0:0:
256,192,80717,1,8,0:0:0:0:
256,192,80905,1,0,0:0:0:0:
256,192,81092,1,8,0:0:0:0:
256,192,81280,1,0,0:0:0:0:
256,192,81373,1,0,0:0:0:0:
256,192,81467,1,0,0:0:0:0:
256,192,81655,1,8,0:0:0:0:
256,192,82030,1,4,0:0:0:0:
256,192,82405,1,0,0:0:0:0:
256,192,82592,1,8,0:0:0:0:
256,192,82780,1,0,0:0:0:0:
256,192,82967,1,8,0:0:0:0:
256,192,83061,1,8,0:0:0:0:
256,192,83248,1,0,0:0:0:0:
256,192,83342,1,0,0:0:0:0:
256,192,83530,1,8,0:0:0:0:
256,192,83717,1,0,0:0:0:0:
256,192,83905,1,8,0:0:0:0:
256,192,84280,1,0,0:0:0:0:
256,192,84373,1,0,0:0:0:0:
256,192,84467,1,0,0:0:0:0:
256,192,84655,1,8,0:0:0:0:
256,192,85030,1,12,0:0:0:0:
256,192,85405,1,0,0:0:0:0:
256,192,85780,1,8,0:0:0:0:
256,192,85967,1,0,0:0:0:0:
256,192,86061,1,0,0:0:0:0:
256,192,86248,1,0,0:0:0:0:
256,192,86342,1,0,0:0:0:0:
256,192,86530,1,8,0:0:0:0:
256,192,86905,1,0,0:0:0:0:
256,192,87280,1,8,0:0:0:0:
256,192,87467,1,0,0:0:0:0:
256,192,87561,1,0,0:0:0:0:
256,192,87748,1,8,0:0:0:0:
256,192,87842,1,8,0:0:0:0:
256,192,88030,1,0,0:0:0:0:
256,192,88405,1,8,0:0:0:0:
256,192,88780,1,0,0:0:0:0:
256,192,88967,1,8,0:0:0:0:
256,192,89061,1,8,0:0:0:0:
256,192,89248,1,8,0:0:0:0:
256,192,89342,1,8,0:0:0:0:
256,192,89530,1,0,0:0:0:0:
256,192,89905,1,8,0:0:0:0:
256,192,90280,1,0,0:0:0:0:
256,192,91030,1,0,0:0:0:0:
256,192,91217,1,0,0:0:0:0:
256,192,91405,1,12,0:0:0:0:
256,192,91780,1,0,0:0:0:0:
256,192,91967,1,8,0:0:0:0:
256,192,92061,1,8,0:0:0:0:
256,192,92155,1,8,0:0:0:0:
256,192,92342,1,0,0:0:0:0:
256,192,92530,1,8,0:0:0:0:
256,192,92717,1,8,0:0:0:0:
256,192,92905,1,0,0:0:0:0:
256,192,93092,1,8,0:0:0:0:
256,192,93280,1,0,0:0:0:0:
256,192,93373,1,0,0:0:0:0:
256,192,93467,1,0,0:0:0:0:
256,192,93655,1,8,0:0:0:0:
256,192,93842,1,8,0:0:0:0:
256,192,94030,1,4,0:0:0:0:
256,192,96280,1,12,0:0:0:0:
256,192,96655,1,8,0:0:0:0:
256,192,97030,1,0,0:0:0:0:
256,192,97780,1,0,0:0:0:0:
256,192,98530,1,0,0:0:0:0:
256,192,98905,1,0,0:0:0:0:
256,192,99280,1,0,0:0:0:0:
256,192,99655,1,0,0:0:0:0:
256,192,100030,1,0,0:0:0:0:
256,192,100780,1,0,0:0:0:0:
256,192,101530,1,0,0:0:0:0:
256,192,101905,1,0,0:0:0:0:
256,192,102280,1,0,0:0:0:0:
256,192,103030,1,0,0:0:0:0:
256,192,103405,1,8,0:0:0:0:
256,192,104155,1,8,0:0:0:0:
256,192,104905,1,0,0:0:0:0:
256,192,105280,1,8,0:0:0:0:
256,192,105655,1,8,0:0:0:0:
256,192,106030,1,0,0:0:0:0:
256,192,106405,1,8,0:0:0:0:
256,192,107155,1,8,0:0:0:0:
256,192,107530,8,0,108655,0:0:0:0:
256,192,109030,5,4,0:0:0:0:
256,192,109405,1,0,0:0:0:0:
256,192,109592,1,8,0:0:0:0:
256,192,109780,1,0,0:0:0:0:
256,192,110155,1,8,0:0:0:0:
256,192,110530,1,0,0:0:0:0:
256,192,110717,1,8,0:0:0:0:
256,192,110905,1,8,0:0:0:0:
256,192,111280,1,0,0:0:0:0:
256,192,111467,1,8,0:0:0:0:
256,192,111561,1,8,0:0:0:0:
256,192,111655,1,8,0:0:0:0:
256,192,111842,1,8,0:0:0:0:
256,192,112030,1,0,0:0:0:0:
256,192,112592,1,8,0:0:0:0:
256,192,112780,1,0,0:0:0:0:
256,192,112967,1,0,0:0:0:0:
256,192,113155,1,8,0:0:0:0:
256,192,113530,1,0,0:0:0:0:
256,192,113717,1,8,0:0:0:0:
256,192,113905,1,8,0:0:0:0:
256,192,114092,1,0,0:0:0:0:
256,192,114186,1,0,0:0:0:0:
256,192,114280,1,0,0:0:0:0:
256,192,114467,1,8,0:0:0:0:
256,192,114655,1,0,0:0:0:0:
256,192,115030,1,0,0:0:0:0:
256,192,115405,1,0,0:0:0:0:
256,192,115592,1,8,0:0:0:0:
256,192,115780,1,0,0:0:0:0:
256,192,116155,1,8,0:0:0:0:
256,192,116530,1,0,0:0:0:0:
256,192,116717,1,8,0:0:0:0:
256,192,116905,1,8,0:0:0:0:
256,192,117280,1,0,0:0:0:0:
256,192,117467,1,8,0:0:0:0:
256,192,117561,1,8,0:0:0:0:
256,192,117655,1,8,0:0:0:0:
256,192,117842,1,8,0:0:0:0:
256,192,118030,1,0,0:0:0:0:
256,192,118592,1,8,0:0:0:0:
256,192,118780,1,0,0:0:0:0:
256,192,118967,1,0,0:0:0:0:
256,192,119155,1,8,0:0:0:0:
256,192,119530,1,0,0:0:0:0:
256,192,119717,1,8,0:0:0:0:
256,192,119905,1,8,0:0:0:0:
256,192,120092,1,0,0:0:0:0:
256,192,120186,1,0,0:0:0:0:
256,192,120280,1,0,0:0:0:0:
256,192,120467,1,8,0:0:0:0:
256,192,120655,1,0,0:0:0:0:
256,192,121030,1,4,0:0:0:0:
256,192,121405,1,0,0:0:0:0:
256,192,121592,1,8,0:0:0:0:
256,192,121780,1,0,0:0:0:0:
256,192,122155,1,8,0:0:0:0:
256,192,122530,1,0,0:0:0:0:
256,192,122717,1,8,0:0:0:0:
256,192,122905,1,8,0:0:0:0:
256,192,123280,1,0,0:0:0:0:
256,192,123467,1,8,0:0:0:0:
256,192,123561,1,8,0:0:0:0:
256,192,123655,1,8,0:0:0:0:
256,192,123842,1,8,0:0:0:0:
256,192,124030,1,0,0:0:0:0:
256,192,124592,1,8,0:0:0:0:
256,192,124780,1,0,0:0:0:0:
256,192,124967,1,0,0:0:0:0:
256,192,125155,1,8,0:0:0:0:
256,192,125530,1,0,0:0:0:0:
256,192,125717,1,8,0:0:0:0:
256,192,125905,1,8,0:0:0:0:
256,192,126092,1,0,0:0:0:0:
256,192,126186,1,0,0:0:0:0:
256,192,126280,1,0,0:0:0:0:
256,192,126467,1,8,0:0:0:0:
256,192,126655,1,0,0:0:0:0:
256,192,127030,1,0,0:0:0:0:
256,192,127405,1,0,0:0:0:0:
256,192,127592,1,8,0:0:0:0:
256,192,127780,1,0,0:0:0:0:
256,192,128155,1,8,0:0:0:0:
256,192,128530,1,0,0:0:0:0:
256,192,128717,1,8,0:0:0:0:
256,192,128905,1,8,0:0:0:0:
256,192,129280,1,0,0:0:0:0:
256,192,129467,1,8,0:0:0:0:
256,192,129561,1,8,0:0:0:0:
256,192,129655,1,8,0:0:0:0:
256,192,129842,1,8,0:0:0:0:
256,192,130030,1,0,0:0:0:0:
256,192,130592,1,8,0:0:0:0:
256,192,130780,1,0,0:0:0:0:
256,192,130967,1,0,0:0:0:0:
256,192,131155,1,8,0:0:0:0:
256,192,131530,1,4,0:0:0:0:
256,192,131905,1,8,0:0:0:0:
256,192,132280,1,0,0:0:0:0:
256,192,132373,1,0,0:0:0:0:
256,192,132467,1,0,0:0:0:0:
256,192,132655,1,8,0:0:0:0:
256,192,132842,1,0,0:0:0:0:
256,192,133030,1,12,0:0:0:0:
256,192,136030,12,0,138655,0:0:0:0:
256,192,139030,5,0,0:0:0:0:
256,192,139405,1,0,0:0:0:0:
256,192,139592,1,8,0:0:0:0:
256,192,139780,1,0,0:0:0:0:
256,192,140155,1,8,0:0:0:0:
256,192,140342,1,8,0:0:0:0:
256,192,140530,1,0,0:0:0:0:
256,192,140905,1,0,0:0:0:0:
256,192,141092,1,8,0:0:0:0:
256,192,141280,1,0,0:0:0:0:
256,192,141467,1,0,0:0:0:0:
256,192,141655,1,8,0:0:0:0:
256,192,142030,1,8,0:0:0:0:
256,192,142217,1,8,0:0:0:0:
256,192,142405,1,0,0:0:0:0:
256,192,142592,1,0,0:0:0:0:
256,192,142780,1,8,0:0:0:0:
256,192,142873,1,8,0:0:0:0:
256,192,142967,1,8,0:0:0:0:
256,192,143155,1,0,0:0:0:0:
256,192,143248,1,0,0:0:0:0:
256,192,143342,1,0,0:0:0:0:
256,192,143530,1,8,0:0:0:0:
256,192,143905,1,0,0:0:0:0:
256,192,144186,1,8,0:0:0:0:
256,192,144467,1,0,0:0:0:0:
256,192,144655,1,8,0:0:0:0:
256,192,145030,1,4,0:0:0:0:
256,192,145780,1,4,0:0:0:0:
256,192,146530,1,4,0:0:0:0:
256,192,147280,1,0,0:0:0:0:
256,192,147373,1,0,0:0:0:0:
256,192,147467,1,0,0:0:0:0:
256,192,147655,1,8,0:0:0:0:
256,192,147842,1,0,0:0:0:0:
256,192,148030,1,8,0:0:0:0:
256,192,148405,1,8,0:0:0:0:
256,192,148780,1,0,0:0:0:0:
256,192,148873,1,0,0:0:0:0:
256,192,148967,1,0,0:0:0:0:
256,192,149155,1,8,0:0:0:0:
256,192,149342,1,8,0:0:0:0:
256,192,149530,1,0,0:0:0:0:
256,192,149905,1,8,0:0:0:0:
256,192,150280,1,0,0:0:0:0:
256,192,151030,1,0,0:0:0:0:
256,192,151217,1,0,0:0:0:0:
256,192,151405,1,12,0:0:0:0:
256,192,151780,1,8,0:0:0:0:
256,192,151873,1,8,0:0:0:0:
256,192,151967,1,8,0:0:0:0:
256,192,152155,1,0,0:0:0:0:
256,192,152342,1,0,0:0:0:0:
256,192,152530,1,8,0:0:0:0:
256,192,152905,1,0,0:0:0:0:
256,192,153280,1,0,0:0:0:0:
256,192,153373,1,0,0:0:0:0:
256,192,153467,1,0,0:0:0:0:
256,192,153655,1,8,0:0:0:0:
256,192,154030,1,4,0:0:0:0:
256,192,154405,1,0,0:0:0:0:
256,192,154592,1,8,0:0:0:0:
256,192,154780,1,0,0:0:0:0:
256,192,154873,1,0,0:0:0:0:
256,192,155061,1,8,0:0:0:0:
256,192,155155,1,8,0:0:0:0:
256,192,155342,1,8,0:0:0:0:
256,192,155530,1,0,0:0:0:0:
256,192,155717,1,0,0:0:0:0:
256,192,155905,1,8,0:0:0:0:
256,192,156280,1,0,0:0:0:0:
256,192,156373,1,0,0:0:0:0:
256,192,156467,1,0,0:0:0:0:
256,192,156655,1,8,0:0:0:0:
256,192,157030,1,4,0:0:0:0:
256,192,157780,1,8,0:0:0:0:
256,192,157967,1,0,0:0:0:0:
256,192,158061,1,0,0:0:0:0:
256,192,158155,1,0,0:0:0:0:
256,192,158342,1,8,0:0:0:0:
256,192,158530,1,0,0:0:0:0:
256,192,158717,1,0,0:0:0:0:
256,192,158905,1,8,0:0:0:0:
256,192,159092,1,0,0:0:0:0:
256,192,159280,1,8,0:0:0:0:
256,192,159373,1,8,0:0:0:0:
256,192,159467,1,8,0:0:0:0:
256,192,159655,1,0,0:0:0:0:
256,192,160030,1,0,0:0:0:0:
256,192,160217,1,8,0:0:0:0:
256,192,160405,1,8,0:0:0:0:
256,192,160592,1,0,0:0:0:0:
256,192,160780,1,8,0:0:0:0:
256,192,160967,1,0,0:0:0:0:
256,192,161061,1,0,0:0:0:0:
256,192,161155,1,0,0:0:0:0:
256,192,161342,1,8,0:0:0:0:
256,192,161530,1,0,0:0:0:0:
256,192,161905,1,8,0:0:0:0:
256,192,162092,1,8,0:0:0:0:
256,192,162280,1,0,0:0:0:0:
256,192,163030,1,0,0:0:0:0:
256,192,163217,1,0,0:0:0:0:
256,192,163405,1,12,0:0:0:0:
256,192,163780,1,0,0:0:0:0:
256,192,163967,1,8,0:0:0:0:
256,192,164061,1,8,0:0:0:0:
256,192,164155,1,8,0:0:0:0:
256,192,164342,1,0,0:0:0:0:
256,192,164530,1,8,0:0:0:0:
256,192,164717,1,8,0:0:0:0:
256,192,164905,1,0,0:0:0:0:
256,192,165092,1,8,0:0:0:0:
256,192,165280,1,0,0:0:0:0:
256,192,165373,1,0,0:0:0:0:
256,192,165467,1,0,0:0:0:0:
256,192,165655,1,8,0:0:0:0:
256,192,166030,1,4,0:0:0:0:
256,192,166405,1,0,0:0:0:0:
256,192,166592,1,8,0:0:0:0:
256,192,166780,1,0,0:0:0:0:
256,192,166967,1,8,0:0:0:0:
256,192,167061,1,8,0:0:0:0:
256,192,167248,1,0,0:0:0:0:
256,192,167342,1,0,0:0:0:0:
256,192,167530,1,8,0:0:0:0:
256,192,167717,1,0,0:0:0:0:
256,192,167905,1,8,0:0:0:0:
256,192,168280,1,0,0:0:0:0:
256,192,168655,1,8,0:0:0:0:
256,192,169030,1,0,0:0:0:0:
256,192,169405,1,12,0:0:0:0:
256,192,169780,1,8,0:0:0:0:
256,192,169967,1,0,0:0:0:0:
256,192,170061,1,0,0:0:0:0:
256,192,170155,1,0,0:0:0:0:
256,192,170342,1,8,0:0:0:0:
256,192,170530,1,0,0:0:0:0:
256,192,170717,1,0,0:0:0:0:
256,192,170905,1,8,0:0:0:0:
256,192,171092,1,0,0:0:0:0:
256,192,171280,1,8,0:0:0:0:
256,192,171373,1,8,0:0:0:0:
256,192,171467,1,8,0:0:0:0:
256,192,171655,1,0,0:0:0:0:
256,192,172030,1,0,0:0:0:0:
256,192,172217,1,8,0:0:0:0:
256,192,172405,1,8,0:0:0:0:
256,192,172592,1,0,0:0:0:0:
256,192,172780,1,8,0:0:0:0:
256,192,172967,1,0,0:0:0:0:
256,192,173061,1,0,0:0:0:0:
256,192,173155,1,0,0:0:0:0:
256,192,173342,1,8,0:0:0:0:
256,192,173530,1,0,0:0:0:0:
256,192,173905,1,8,0:0:0:0:
256,192,174092,1,0,0:0:0:0:
256,192,174280,1,0,0:0:0:0:
256,192,174467,1,8,0:0:0:0:
256,192,175030,1,4,0:0:0:0:
256,192,175405,1,8,0:0:0:0:
256,192,175780,1,0,0:0:0:0:
256,192,175967,1,8,0:0:0:0:
256,192,176061,1,8,0:0:0:0:
256,192,176155,1,8,0:0:0:0:
256,192,176342,1,0,0:0:0:0:
256,192,176530,1,8,0:0:0:0:
256,192,176717,1,8,0:0:0:0:
256,192,176905,1,0,0:0:0:0:
256,192,177092,1,8,0:0:0:0:
256,192,177280,1,0,0:0:0:0:
256,192,177373,1,0,0:0:0:0:
256,192,177467,1,0,0:0:0:0:
256,192,177655,1,8,0:0:0:0:
256,192,178030,1,4,0:0:0:0:
256,192,178405,1,0,0:0:0:0:
256,192,178592,1,8,0:0:0:0:
256,192,178780,1,0,0:0:0:0:
256,192,178967,1,8,0:0:0:0:
256,192,179061,1,8,0:0:0:0:
256,192,179248,1,0,0:0:0:0:
256,192,179342,1,0,0:0:0:0:
256,192,179530,1,8,0:0:0:0:
256,192,179717,1,0,0:0:0:0:
256,192,179905,1,8,0:0:0:0:
256,192,180280,1,0,0:0:0:0:
256,192,180373,1,0,0:0:0:0:
256,192,180467,1,0,0:0:0:0:
256,192,180655,1,8,0:0:0:0:
256,192,181030,1,12,0:0:0:0:
256,192,181405,1,0,0:0:0:0:
256,192,181780,1,8,0:0:0:0:
256,192,181967,1,0,0:0:0:0:
256,192,182061,1,0,0:0:0:0:
256,192,182248,1,0,0:0:0:0:
256,192,182342,1,0,0:0:0:0:
256,192,182530,1,8,0:0:0:0:
256,192,182905,1,0,0:0:0:0:
256,192,183280,1,8,0:0:0:0:
256,192,183467,1,0,0:0:0:0:
256,192,183561,1,0,0:0:0:0:
256,192,183748,1,8,0:0:0:0:
256,192,183842,1,8,0:0:0:0:
256,192,184030,1,0,0:0:0:0:
256,192,184405,1,8,0:0:0:0:
256,192,184780,1,0,0:0:0:0:
256,192,184967,1,8,0:0:0:0:
256,192,185061,1,8,0:0:0:0:
256,192,185248,1,8,0:0:0:0:
256,192,185342,1,8,0:0:0:0:
256,192,185530,1,0,0:0:0:0:
256,192,185905,1,8,0:0:0:0:
256,192,186280,1,0,0:0:0:0:
256,192,187030,1,0,0:0:0:0:
256,192,187217,1,0,0:0:0:0:
256,192,187405,1,12,0:0:0:0:
256,192,187780,1,0,0:0:0:0:
256,192,187967,1,8,0:0:0:0:
256,192,188061,1,8,0:0:0:0:
256,192,188155,1,8,0:0:0:0:
256,192,188342,1,0,0:0:0:0:
256,192,188530,1,8,0:0:0:0:
256,192,188717,1,8,0:0:0:0:
256,192,188905,1,0,0:0:0:0:
256,192,189092,1,8,0:0:0:0:
256,192,189280,1,0,0:0:0:0:
256,192,189373,1,0,0:0:0:0:
256,192,189467,1,0,0:0:0:0:
256,192,189655,1,8,0:0:0:0:
256,192,189842,1,8,0:0:0:0:
256,192,190030,1,4,0:0:0:0:
256,192,192280,1,8,0:0:0:0:
256,192,192467,1,8,0:0:0:0:
256,192,192561,1,8,0:0:0:0:
256,192,192748,1,8,0:0:0:0:
256,192,192842,1,8,0:0:0:0:
256,192,193030,1,4,0:0:0:0:
256,192,193405,1,8,0:0:0:0:
256,192,193780,1,0,0:0:0:0:
256,192,193873,1,0,0:0:0:0:
256,192,193967,1,0,0:0:0:0:
256,192,194155,1,8,0:0:0:0:
256,192,194530,1,0,0:0:0:0:
256,192,194717,1,0,0:0:0:0:
256,192,194905,1,8,0:0:0:0:
256,192,195092,1,0,0:0:0:0:
256,192,195280,1,8,0:0:0:0:
256,192,195373,1,8,0:0:0:0:
256,192,195467,1,8,0:0:0:0:
256,192,195655,1,0,0:0:0:0:
256,192,195842,1,8,0:0:0:0:
256,192,196030,1,0,0:0:0:0:
256,192,196405,1,8,0:0:0:0:
256,192,196780,1,0,0:0:0:0:
256,192,196967,1,8,0:0:0:0:
256,192,197061,1,8,0:0:0:0:
256,192,197155,1,8,0:0:0:0:
256,192,197342,1,8,0:0:0:0:
256,192,197530,1,0,0:0:0:0:
256,192,197905,1,8,0:0:0:0:
256,192,198280,1,0,0:0:0:0:
256,192,198373,1,0,0:0:0:0:
256,192,198467,1,0,0:0:0:0:
256,192,198655,1,8,0:0:0:0:
256,192,198842,1,8,0:0:0:0:
256,192,199030,1,0,0:0:0:0:
256,192,199405,1,8,0:0:0:0:
256,192,199780,1,0,0:0:0:0:
256,192,199873,1,0,0:0:0:0:
256,192,199967,1,0,0:0:0:0:
256,192,200155,1,8,0:0:0:0:
256,192,200530,1,0,0:0:0:0:
256,192,200717,1,0,0:0:0:0:
256,192,200905,1,8,0:0:0:0:
256,192,201092,1,0,0:0:0:0:
256,192,201280,1,8,0:0:0:0:
256,192,201373,1,8,0:0:0:0:
256,192,201467,1,8,0:0:0:0:
256,192,201655,1,0,0:0:0:0:
256,192,201842,1,8,0:0:0:0:
256,192,202030,1,0,0:0:0:0:
256,192,202405,1,8,0:0:0:0:
256,192,202780,1,0,0:0:0:0:
256,192,202967,1,8,0:0:0:0:
256,192,203061,1,8,0:0:0:0:
256,192,203155,1,8,0:0:0:0:
256,192,203342,1,8,0:0:0:0:
256,192,203530,1,0,0:0:0:0:
256,192,203905,1,8,0:0:0:0:
256,192,204280,1,0,0:0:0:0:
256,192,204373,1,0,0:0:0:0:
256,192,204467,1,0,0:0:0:0:
256,192,204655,1,8,0:0:0:0:
256,192,205030,1,0,0:0:0:0:
256,192,205592,1,8,0:0:0:0:
256,192,205780,1,0,0:0:0:0:
256,192,205967,1,0,0:0:0:0:
256,192,206155,1,8,0:0:0:0:
256,192,206530,1,0,0:0:0:0:
256,192,206717,1,0,0:0:0:0:
256,192,206905,1,8,0:0:0:0:
256,192,207092,1,0,0:0:0:0:
256,192,207186,1,0,0:0:0:0:
256,192,207280,1,0,0:0:0:0:
256,192,207467,1,8,0:0:0:0:
256,192,207655,1,0,0:0:0:0:
256,192,208030,1,8,0:0:0:0:
256,192,208405,1,8,0:0:0:0:
256,192,208780,1,0,0:0:0:0:
256,192,208967,1,8,0:0:0:0:
256,192,209061,1,8,0:0:0:0:
256,192,209155,1,8,0:0:0:0:
256,192,209342,1,8,0:0:0:0:
256,192,209530,1,0,0:0:0:0:
256,192,209905,1,8,0:0:0:0:
256,192,210280,1,0,0:0:0:0:
256,192,210373,1,0,0:0:0:0:
256,192,210467,1,0,0:0:0:0:
256,192,210655,1,8,0:0:0:0:
256,192,211030,1,0,0:0:0:0:
256,192,211592,1,8,0:0:0:0:
256,192,211780,1,0,0:0:0:0:
256,192,211967,1,0,0:0:0:0:
256,192,212155,1,8,0:0:0:0:
256,192,212530,1,0,0:0:0:0:
256,192,212717,1,0,0:0:0:0:
256,192,212905,1,8,0:0:0:0:
256,192,213092,1,0,0:0:0:0:
256,192,213186,1,0,0:0:0:0:
256,192,213280,1,0,0:0:0:0:
256,192,213467,1,8,0:0:0:0:
256,192,213655,1,8,0:0:0:0:
256,192,214030,1,4,0:0:0:0:
256,192,216280,1,0,0:0:0:0:
256,192,216373,1,0,0:0:0:0:
256,192,216467,1,0,0:0:0:0:
256,192,216655,1,8,0:0:0:0:
256,192,216842,1,0,0:0:0:0:
