osu file format v14

[General]
AudioFilename: audio.mp3
AudioLeadIn: 0
PreviewTime: 96022
Countdown: 0
SampleSet: Normal
StackLeniency: 0.8
Mode: 3
LetterboxInBreaks: 0
SpecialStyle: 1
WidescreenStoryboard: 0

[Editor]
DistanceSpacing: 0.8
BeatDivisor: 2
GridSize: 32
TimelineZoom: 1.8

[Metadata]
Title:Illuyanka
TitleUnicode:Illuyanka
Artist:PSYQUI
ArtistUnicode:PSYQUI
Creator:Herkkupala
Version:treat
Source:
Tags:electronic pdm dance treat
BeatmapID:1615903
BeatmapSetID:768336

[Difficulty]
HPDrainRate:8.5
CircleSize:4
OverallDifficulty:8.7
ApproachRate:5
SliderMultiplier:1.4
SliderTickRate:1

[Events]
//Background and Video events
0,0,"bg.png",0,0
//Break Periods
//Storyboard Layer 0 (Background)
//Storyboard Layer 1 (Fail)
//Storyboard Layer 2 (Pass)
//Storyboard Layer 3 (Foreground)
//Storyboard Sound Samples

[TimingPoints]
109,491.803279,4,1,0,20,1,0
109,-99.9999999366667,4,1,0,20,0,0
126011,495.867769,4,1,0,20,1,0
126011,-99.1803277878552,4,1,0,20,0,0
127498,483.870968,4,1,0,20,1,0
127498,-101.639344208087,4,1,0,20,0,0
127982,491.803279,4,1,0,20,1,0
127982,-99.9999999366667,4,1,0,20,0,0
128474,495.867769,4,1,0,20,1,0
128474,-99.1803277878552,4,1,0,20,0,0
129466,491.803279,4,1,0,20,1,0
129466,-99.9999999366667,4,1,0,20,0,0

[HitObjects]
448,192,109,128,0,231:0:0:0:0:
320,192,354,1,0,0:0:0:0:
64,192,600,1,0,0:0:0:0:
192,192,846,1,0,0:0:0:0:
320,192,1092,1,0,0:0:0:0:
192,192,1338,1,0,0:0:0:0:
64,192,1584,1,0,0:0:0:0:
192,192,1830,1,0,0:0:0:0:
320,192,2076,1,0,0:0:0:0:
192,192,2322,1,0,0:0:0:0:
64,192,2568,1,0,0:0:0:0:
192,192,2813,1,0,0:0:0:0:
320,192,3059,1,0,0:0:0:0:
192,192,3305,1,0,0:0:0:0:
64,192,3551,1,0,0:0:0:0:
192,192,3797,1,0,0:0:0:0:
320,192,4043,128,0,4166:0:0:0:0:
448,192,4289,1,0,0:0:0:0:
192,192,4535,1,0,0:0:0:0:
64,192,4781,1,0,0:0:0:0:
320,192,5027,1,0,0:0:0:0:
64,192,5272,1,0,0:0:0:0:
192,192,5518,1,0,0:0:0:0:
64,192,5764,1,0,0:0:0:0:
320,192,6010,1,0,0:0:0:0:
64,192,6256,1,0,0:0:0:0:
192,192,6502,1,0,0:0:0:0:
64,192,6748,1,0,0:0:0:0:
320,192,6994,1,0,0:0:0:0:
64,192,7240,1,0,0:0:0:0:
192,192,7486,1,0,0:0:0:0:
64,192,7731,1,0,0:0:0:0:
192,192,7977,128,0,8100:0:0:0:0:
320,192,8223,1,0,0:0:0:0:
192,192,8469,1,0,0:0:0:0:
448,192,8715,1,0,0:0:0:0:
64,192,8961,1,0,0:0:0:0:
448,192,9207,1,0,0:0:0:0:
192,192,9453,1,0,0:0:0:0:
448,192,9699,1,0,0:0:0:0:
64,192,9945,1,0,0:0:0:0:
448,192,10190,1,0,0:0:0:0:
192,192,10436,1,0,0:0:0:0:
448,192,10682,1,0,0:0:0:0:
64,192,10928,1,0,0:0:0:0:
448,192,11174,1,0,0:0:0:0:
192,192,11420,1,0,0:0:0:0:
448,192,11666,1,0,0:0:0:0:
320,192,11912,128,0,12035:0:0:0:0:
448,192,12158,1,0,0:0:0:0:
192,192,12404,1,0,0:0:0:0:
320,192,12649,1,0,0:0:0:0:
64,192,12895,1,0,0:0:0:0:
320,192,13141,1,0,0:0:0:0:
192,192,13387,1,0,0:0:0:0:
320,192,13633,1,0,0:0:0:0:
64,192,13879,1,0,0:0:0:0:
320,192,14125,1,0,0:0:0:0:
192,192,14371,1,0,0:0:0:0:
320,192,14617,1,0,0:0:0:0:
448,192,14863,1,0,0:0:0:0:
320,192,15109,1,0,0:0:0:0:
192,192,15354,1,0,0:0:0:0:
320,192,15600,1,0,0:0:0:0:
64,192,15846,128,0,15969:0:0:0:0:
192,192,15846,1,0,0:0:0:0:
448,192,15846,128,0,15969:0:0:0:0:
64,192,16092,128,0,16215:0:0:0:0:
448,192,16092,128,0,16215:0:0:0:0:
192,192,16338,1,0,0:0:0:0:
320,192,16584,1,0,0:0:0:0:
448,192,16584,1,0,0:0:0:0:
192,192,16830,1,0,0:0:0:0:
448,192,16830,1,0,0:0:0:0:
64,192,17076,1,0,0:0:0:0:
320,192,17076,1,0,0:0:0:0:
192,192,17322,1,0,0:0:0:0:
448,192,17322,1,0,0:0:0:0:
320,192,17568,1,0,0:0:0:0:
192,192,17813,1,0,0:0:0:0:
448,192,18059,1,0,0:0:0:0:
64,192,18305,128,0,18797:0:0:0:0:
320,192,18305,1,0,0:0:0:0:
192,192,18551,1,0,0:0:0:0:
320,192,18797,1,0,0:0:0:0:
448,192,18797,1,0,0:0:0:0:
192,192,19043,1,0,0:0:0:0:
320,192,19289,1,0,0:0:0:0:
448,192,19535,1,0,0:0:0:0:
64,192,19781,1,0,0:0:0:0:
192,192,19781,1,0,0:0:0:0:
448,192,19781,1,0,0:0:0:0:
192,192,20027,1,0,0:0:0:0:
320,192,20027,1,0,0:0:0:0:
448,192,20272,1,0,0:0:0:0:
64,192,20518,1,0,0:0:0:0:
192,192,20518,1,0,0:0:0:0:
64,192,20764,1,0,0:0:0:0:
320,192,20764,1,0,0:0:0:0:
192,192,21010,1,0,0:0:0:0:
448,192,21010,1,0,0:0:0:0:
64,192,21256,128,0,21748:0:0:0:0:
320,192,21256,1,0,0:0:0:0:
192,192,21502,1,0,0:0:0:0:
320,192,21748,1,0,0:0:0:0:
448,192,21748,1,0,0:0:0:0:
192,192,21994,1,0,0:0:0:0:
448,192,22240,1,0,0:0:0:0:
64,192,22486,1,0,0:0:0:0:
320,192,22486,1,0,0:0:0:0:
64,192,22731,1,0,0:0:0:0:
192,192,22731,1,0,0:0:0:0:
448,192,22731,1,0,0:0:0:0:
192,192,22977,1,0,0:0:0:0:
448,192,22977,1,0,0:0:0:0:
64,192,23223,1,0,0:0:0:0:
320,192,23223,1,0,0:0:0:0:
192,192,23469,1,0,0:0:0:0:
192,192,23715,1,0,0:0:0:0:
320,192,23715,1,0,0:0:0:0:
448,192,23715,1,0,0:0:0:0:
64,192,23961,1,0,0:0:0:0:
320,192,24207,1,0,0:0:0:0:
192,192,24330,1,0,0:0:0:0:
320,192,24453,1,0,0:0:0:0:
448,192,24453,1,0,0:0:0:0:
192,192,24699,1,0,0:0:0:0:
448,192,24699,1,0,0:0:0:0:
64,192,24945,1,0,0:0:0:0:
320,192,24945,1,0,0:0:0:0:
192,192,25190,1,0,0:0:0:0:
448,192,25190,1,0,0:0:0:0:
320,192,25436,1,0,0:0:0:0:
64,192,25682,1,0,0:0:0:0:
192,192,25682,1,0,0:0:0:0:
192,192,25928,1,0,0:0:0:0:
320,192,25928,1,0,0:0:0:0:
64,192,26174,128,0,26666:0:0:0:0:
320,192,26174,1,0,0:0:0:0:
192,192,26420,1,0,0:0:0:0:
448,192,26420,1,0,0:0:0:0:
192,192,26666,1,0,0:0:0:0:
448,192,26666,1,0,0:0:0:0:
64,192,26912,1,0,0:0:0:0:
320,192,26912,1,0,0:0:0:0:
192,192,27158,1,0,0:0:0:0:
448,192,27158,1,0,0:0:0:0:
320,192,27404,1,0,0:0:0:0:
64,192,27649,1,0,0:0:0:0:
192,192,27649,1,0,0:0:0:0:
320,192,27649,1,0,0:0:0:0:
448,192,27895,1,0,0:0:0:0:
64,192,28141,1,0,0:0:0:0:
192,192,28141,1,0,0:0:0:0:
192,192,28387,1,0,0:0:0:0:
320,192,28387,1,0,0:0:0:0:
64,192,28633,1,0,0:0:0:0:
448,192,28633,1,0,0:0:0:0:
192,192,28879,1,0,0:0:0:0:
448,192,28879,1,0,0:0:0:0:
64,192,29125,128,0,29617:0:0:0:0:
320,192,29125,1,0,0:0:0:0:
192,192,29371,1,0,0:0:0:0:
448,192,29371,1,0,0:0:0:0:
192,192,29617,1,0,0:0:0:0:
320,192,29617,128,0,29863:0:0:0:0:
64,192,29863,1,0,0:0:0:0:
448,192,29863,1,0,0:0:0:0:
192,192,30109,1,0,0:0:0:0:
320,192,30109,128,0,30354:0:0:0:0:
64,192,30354,1,0,0:0:0:0:
448,192,30354,1,0,0:0:0:0:
192,192,30600,1,0,0:0:0:0:
320,192,30600,128,0,30846:0:0:0:0:
448,192,30662,1,0,0:0:0:0:
64,192,30846,1,0,0:0:0:0:
448,192,30908,1,0,0:0:0:0:
192,192,31092,1,0,0:0:0:0:
320,192,31092,128,0,31338:0:0:0:0:
448,192,31154,1,0,0:0:0:0:
64,192,31338,1,0,0:0:0:0:
448,192,31399,1,0,0:0:0:0:
192,192,31461,1,0,0:0:0:0:
320,192,31522,1,0,0:0:0:0:
64,192,31584,1,0,0:0:0:0:
192,192,31584,1,0,0:0:0:0:
448,192,31584,1,0,0:0:0:0:
64,192,31830,128,0,32568:0:0:0:0:
320,192,31830,1,0,0:0:0:0:
448,192,32076,1,0,0:0:0:0:
320,192,32322,1,0,0:0:0:0:
192,192,32568,1,0,0:0:0:0:
448,192,32629,1,0,0:0:0:0:
320,192,32731,1,0,0:0:0:0:
192,192,32813,1,0,0:0:0:0:
320,192,33059,1,0,0:0:0:0:
448,192,33059,1,0,0:0:0:0:
192,192,33305,1,0,0:0:0:0:
64,192,33551,1,0,0:0:0:0:
448,192,33551,1,0,0:0:0:0:
320,192,33797,1,0,0:0:0:0:
192,192,34043,1,0,0:0:0:0:
448,192,34043,1,0,0:0:0:0:
320,192,34289,1,0,0:0:0:0:
64,192,34535,1,0,0:0:0:0:
448,192,34535,1,0,0:0:0:0:
320,192,34781,1,0,0:0:0:0:
64,192,35027,1,0,0:0:0:0:
192,192,35027,1,0,0:0:0:0:
320,192,35272,1,0,0:0:0:0:
64,192,35518,1,0,0:0:0:0:
448,192,35518,1,0,0:0:0:0:
192,192,35764,1,0,0:0:0:0:
64,192,36010,1,0,0:0:0:0:
320,192,36010,1,0,0:0:0:0:
192,192,36256,1,0,0:0:0:0:
64,192,36502,1,0,0:0:0:0:
448,192,36502,1,0,0:0:0:0:
192,192,36748,1,0,0:0:0:0:
320,192,36994,1,0,0:0:0:0:
448,192,36994,1,0,0:0:0:0:
192,192,37240,1,0,0:0:0:0:
64,192,37486,1,0,0:0:0:0:
448,192,37486,1,0,0:0:0:0:
320,192,37731,1,0,0:0:0:0:
64,192,37977,1,0,0:0:0:0:
448,192,37977,1,0,0:0:0:0:
320,192,38223,1,0,0:0:0:0:
64,192,38469,1,0,0:0:0:0:
192,192,38469,1,0,0:0:0:0:
320,192,38715,1,0,0:0:0:0:
64,192,38961,1,0,0:0:0:0:
448,192,38961,1,0,0:0:0:0:
320,192,39207,1,0,0:0:0:0:
64,192,39453,1,0,0:0:0:0:
192,192,39453,1,0,0:0:0:0:
448,192,39453,1,0,0:0:0:0:
192,192,39699,1,0,0:0:0:0:
320,192,39699,128,0,40436:0:0:0:0:
448,192,39699,128,0,40436:0:0:0:0:
64,192,39945,1,0,0:0:0:0:
192,192,39945,1,0,0:0:0:0:
64,192,40190,1,0,0:0:0:0:
64,192,40436,1,0,0:0:0:0:
192,192,40436,1,0,0:0:0:0:
320,192,40682,1,0,0:0:0:0:
448,192,40682,1,0,0:0:0:0:
192,192,40928,1,0,0:0:0:0:
448,192,40928,1,0,0:0:0:0:
192,192,41174,1,0,0:0:0:0:
320,192,41174,1,0,0:0:0:0:
64,192,41420,1,0,0:0:0:0:
320,192,41420,1,0,0:0:0:0:
192,192,41666,1,0,0:0:0:0:
448,192,41666,1,0,0:0:0:0:
192,192,41912,1,0,0:0:0:0:
320,192,41912,1,0,0:0:0:0:
64,192,42158,1,0,0:0:0:0:
320,192,42158,1,0,0:0:0:0:
64,192,42404,1,0,0:0:0:0:
448,192,42404,1,0,0:0:0:0:
192,192,42649,1,0,0:0:0:0:
320,192,42649,1,0,0:0:0:0:
64,192,42895,1,0,0:0:0:0:
320,192,42895,1,0,0:0:0:0:
64,192,43141,1,0,0:0:0:0:
448,192,43141,1,0,0:0:0:0:
192,192,43387,1,0,0:0:0:0:
320,192,43387,1,0,0:0:0:0:
448,192,43387,1,0,0:0:0:0:
192,192,43572,1,0,0:0:0:0:
64,192,43633,1,0,0:0:0:0:
448,192,43633,1,0,0:0:0:0:
320,192,43695,1,0,0:0:0:0:
448,192,43818,1,0,0:0:0:0:
64,192,43879,1,0,0:0:0:0:
192,192,43879,1,0,0:0:0:0:
320,192,43940,1,0,0:0:0:0:
64,192,44063,1,0,0:0:0:0:
192,192,44125,1,0,0:0:0:0:
320,192,44125,1,0,0:0:0:0:
448,192,44186,1,0,0:0:0:0:
64,192,44309,1,0,0:0:0:0:
320,192,44371,1,0,0:0:0:0:
448,192,44371,1,0,0:0:0:0:
192,192,44432,1,0,0:0:0:0:
320,192,44555,1,0,0:0:0:0:
64,192,44617,1,0,0:0:0:0:
192,192,44617,1,0,0:0:0:0:
448,192,44678,1,0,0:0:0:0:
64,192,44801,1,0,0:0:0:0:
192,192,44863,1,0,0:0:0:0:
448,192,44863,1,0,0:0:0:0:
320,192,44924,1,0,0:0:0:0:
192,192,45047,1,0,0:0:0:0:
320,192,45109,1,0,0:0:0:0:
448,192,45109,1,0,0:0:0:0:
64,192,45170,1,0,0:0:0:0:
448,192,45231,1,0,0:0:0:0:
192,192,45354,128,0,45600:0:0:0:0:
320,192,45600,1,0,0:0:0:0:
448,192,45846,1,0,0:0:0:0:
320,192,46092,1,0,0:0:0:0:
64,192,46338,128,0,46461:0:0:0:0:
64,192,46830,1,0,0:0:0:0:
192,192,46830,1,0,0:0:0:0:
320,192,46830,1,0,0:0:0:0:
448,192,46830,1,0,0:0:0:0:
448,192,47076,128,0,47199:0:0:0:0:
64,192,47240,1,0,0:0:0:0:
192,192,47322,1,0,0:0:0:0:
448,192,47322,1,0,0:0:0:0:
320,192,47383,1,0,0:0:0:0:
448,192,47445,1,0,0:0:0:0:
320,192,47506,1,0,0:0:0:0:
64,192,47568,1,0,0:0:0:0:
192,192,47629,1,0,0:0:0:0:
320,192,47690,1,0,0:0:0:0:
192,192,47752,1,0,0:0:0:0:
64,192,47813,1,0,0:0:0:0:
448,192,47813,1,0,0:0:0:0:
320,192,47895,1,0,0:0:0:0:
192,192,47977,1,0,0:0:0:0:
448,192,48059,1,0,0:0:0:0:
192,192,48141,1,0,0:0:0:0:
320,192,48213,1,0,0:0:0:0:
64,192,48305,1,0,0:0:0:0:
192,192,48305,1,0,0:0:0:0:
448,192,48305,1,0,0:0:0:0:
192,192,48551,128,0,48797:0:0:0:0:
64,192,48797,1,0,0:0:0:0:
192,192,48879,1,0,0:0:0:0:
320,192,48961,1,0,0:0:0:0:
64,192,49043,1,0,0:0:0:0:
448,192,49043,1,0,0:0:0:0:
320,192,49125,1,0,0:0:0:0:
192,192,49207,1,0,0:0:0:0:
320,192,49289,1,0,0:0:0:0:
448,192,49289,1,0,0:0:0:0:
64,192,49535,128,0,49781:0:0:0:0:
192,192,49781,1,0,0:0:0:0:
448,192,49822,1,0,0:0:0:0:
320,192,49863,1,0,0:0:0:0:
192,192,49945,1,0,0:0:0:0:
320,192,50027,1,0,0:0:0:0:
64,192,50068,1,0,0:0:0:0:
192,192,50109,1,0,0:0:0:0:
320,192,50190,1,0,0:0:0:0:
64,192,50272,1,0,0:0:0:0:
448,192,50272,1,0,0:0:0:0:
192,192,50365,1,0,0:0:0:0:
320,192,50477,1,0,0:0:0:0:
192,192,50518,1,0,0:0:0:0:
448,192,50580,1,0,0:0:0:0:
64,192,50672,1,0,0:0:0:0:
192,192,50764,1,0,0:0:0:0:
320,192,50764,1,0,0:0:0:0:
192,192,51256,1,0,0:0:0:0:
320,192,51256,1,0,0:0:0:0:
448,192,51338,1,0,0:0:0:0:
320,192,51420,1,0,0:0:0:0:
64,192,51502,1,0,0:0:0:0:
192,192,51584,1,0,0:0:0:0:
320,192,51666,1,0,0:0:0:0:
64,192,51748,1,0,0:0:0:0:
448,192,51748,1,0,0:0:0:0:
192,192,51994,128,0,52240:0:0:0:0:
64,192,52240,1,0,0:0:0:0:
448,192,52281,1,0,0:0:0:0:
320,192,52322,1,0,0:0:0:0:
192,192,52404,1,0,0:0:0:0:
320,192,52486,1,0,0:0:0:0:
64,192,52527,1,0,0:0:0:0:
192,192,52568,1,0,0:0:0:0:
320,192,52649,1,0,0:0:0:0:
64,192,52731,1,0,0:0:0:0:
448,192,52793,1,0,0:0:0:0:
192,192,52854,1,0,0:0:0:0:
320,192,52916,1,0,0:0:0:0:
64,192,52977,1,0,0:0:0:0:
192,192,53039,1,0,0:0:0:0:
448,192,53070,1,0,0:0:0:0:
64,192,53223,1,0,0:0:0:0:
320,192,53223,1,0,0:0:0:0:
448,192,53305,1,0,0:0:0:0:
192,192,53346,1,0,0:0:0:0:
64,192,53408,1,0,0:0:0:0:
448,192,53469,1,0,0:0:0:0:
320,192,53531,1,0,0:0:0:0:
64,192,53592,1,0,0:0:0:0:
192,192,53715,1,0,0:0:0:0:
448,192,53715,1,0,0:0:0:0:
320,192,53777,1,0,0:0:0:0:
64,192,53807,1,0,0:0:0:0:
320,192,53899,1,0,0:0:0:0:
192,192,54022,1,0,0:0:0:0:
64,192,54053,1,0,0:0:0:0:
192,192,54145,1,0,0:0:0:0:
320,192,54207,1,0,0:0:0:0:
448,192,54207,1,0,0:0:0:0:
64,192,54289,1,0,0:0:0:0:
192,192,54330,1,0,0:0:0:0:
448,192,54391,1,0,0:0:0:0:
64,192,54484,1,0,0:0:0:0:
320,192,54535,1,0,0:0:0:0:
448,192,54576,1,0,0:0:0:0:
64,192,54699,1,0,0:0:0:0:
192,192,54699,1,0,0:0:0:0:
320,192,54699,1,0,0:0:0:0:
64,192,55190,1,0,0:0:0:0:
320,192,55190,1,0,0:0:0:0:
192,192,55252,1,0,0:0:0:0:
64,192,55313,1,0,0:0:0:0:
192,192,55375,1,0,0:0:0:0:
448,192,55436,1,0,0:0:0:0:
320,192,55498,1,0,0:0:0:0:
192,192,55559,1,0,0:0:0:0:
320,192,55621,1,0,0:0:0:0:
64,192,55682,1,0,0:0:0:0:
448,192,55682,1,0,0:0:0:0:
192,192,55764,1,0,0:0:0:0:
320,192,55846,1,0,0:0:0:0:
64,192,55928,1,0,0:0:0:0:
448,192,56010,1,0,0:0:0:0:
320,192,56092,1,0,0:0:0:0:
64,192,56174,1,0,0:0:0:0:
192,192,56174,1,0,0:0:0:0:
448,192,56174,1,0,0:0:0:0:
320,192,56420,128,0,56666:0:0:0:0:
64,192,56666,1,0,0:0:0:0:
192,192,56748,1,0,0:0:0:0:
320,192,56830,1,0,0:0:0:0:
64,192,56912,1,0,0:0:0:0:
448,192,56912,1,0,0:0:0:0:
320,192,56994,1,0,0:0:0:0:
192,192,57076,1,0,0:0:0:0:
320,192,57158,1,0,0:0:0:0:
448,192,57158,1,0,0:0:0:0:
192,192,57404,128,0,57649:0:0:0:0:
64,192,57649,1,0,0:0:0:0:
448,192,57690,1,0,0:0:0:0:
320,192,57731,1,0,0:0:0:0:
192,192,57813,1,0,0:0:0:0:
320,192,57895,1,0,0:0:0:0:
64,192,57936,1,0,0:0:0:0:
192,192,57977,1,0,0:0:0:0:
320,192,58059,1,0,0:0:0:0:
448,192,58141,1,0,0:0:0:0:
64,192,58203,1,0,0:0:0:0:
192,192,58264,1,0,0:0:0:0:
64,192,58326,1,0,0:0:0:0:
320,192,58387,1,0,0:0:0:0:
448,192,58469,1,0,0:0:0:0:
320,192,58551,1,0,0:0:0:0:
64,192,58633,1,0,0:0:0:0:
192,192,58633,1,0,0:0:0:0:
64,192,59125,1,0,0:0:0:0:
320,192,59125,1,0,0:0:0:0:
192,192,59186,1,0,0:0:0:0:
64,192,59248,1,0,0:0:0:0:
192,192,59309,1,0,0:0:0:0:
448,192,59371,1,0,0:0:0:0:
320,192,59432,1,0,0:0:0:0:
192,192,59494,1,0,0:0:0:0:
320,192,59555,1,0,0:0:0:0:
64,192,59617,1,0,0:0:0:0:
448,192,59617,1,0,0:0:0:0:
192,192,59863,128,0,60109:0:0:0:0:
64,192,60109,1,0,0:0:0:0:
448,192,60149,1,0,0:0:0:0:
320,192,60190,1,0,0:0:0:0:
192,192,60272,1,0,0:0:0:0:
320,192,60354,1,0,0:0:0:0:
64,192,60395,1,0,0:0:0:0:
192,192,60436,1,0,0:0:0:0:
320,192,60518,1,0,0:0:0:0:
64,192,60600,1,0,0:0:0:0:
448,192,60662,1,0,0:0:0:0:
192,192,60723,1,0,0:0:0:0:
320,192,60785,1,0,0:0:0:0:
64,192,60846,1,0,0:0:0:0:
192,192,60908,1,0,0:0:0:0:
448,192,60938,1,0,0:0:0:0:
320,192,61010,1,0,0:0:0:0:
64,192,61092,128,0,62158:0:0:0:0:
192,192,61092,128,0,62076:0:0:0:0:
448,192,61092,128,0,61584:0:0:0:0:
320,192,61584,1,0,0:0:0:0:
448,192,61830,1,0,0:0:0:0:
320,192,62076,1,0,0:0:0:0:
64,192,62568,1,0,0:0:0:0:
192,192,62568,1,0,0:0:0:0:
320,192,62568,1,0,0:0:0:0:
448,192,62568,1,0,0:0:0:0:
192,192,63059,1,0,0:0:0:0:
448,192,63059,1,0,0:0:0:0:
320,192,63121,1,0,0:0:0:0:
192,192,63182,1,0,0:0:0:0:
320,192,63244,1,0,0:0:0:0:
64,192,63305,1,0,0:0:0:0:
448,192,63367,1,0,0:0:0:0:
64,192,63428,1,0,0:0:0:0:
192,192,63490,1,0,0:0:0:0:
64,192,63797,128,0,63920:0:0:0:0:
192,192,64043,1,0,0:0:0:0:
448,192,64043,1,0,0:0:0:0:
320,192,64084,1,0,0:0:0:0:
64,192,64125,1,0,0:0:0:0:
448,192,64166,1,0,0:0:0:0:
192,192,64207,1,0,0:0:0:0:
64,192,64248,1,0,0:0:0:0:
320,192,64289,128,0,64412:0:0:0:0:
448,192,64289,128,0,64412:0:0:0:0:
64,192,64535,128,0,64658:0:0:0:0:
192,192,64535,128,0,64658:0:0:0:0:
448,192,64535,128,0,64658:0:0:0:0:
64,192,64781,1,0,0:0:0:0:
320,192,64781,1,0,0:0:0:0:
192,192,64842,1,0,0:0:0:0:
320,192,64904,1,0,0:0:0:0:
64,192,64965,1,0,0:0:0:0:
192,192,65027,128,0,65149:0:0:0:0:
320,192,65027,128,0,65149:0:0:0:0:
448,192,65027,128,0,65149:0:0:0:0:
64,192,65272,1,0,0:0:0:0:
448,192,65272,1,0,0:0:0:0:
320,192,65334,1,0,0:0:0:0:
64,192,65395,1,0,0:0:0:0:
192,192,65457,1,0,0:0:0:0:
64,192,65518,128,0,65641:0:0:0:0:
320,192,65518,128,0,65641:0:0:0:0:
448,192,65518,128,0,65641:0:0:0:0:
192,192,65764,1,0,0:0:0:0:
448,192,65764,1,0,0:0:0:0:
320,192,65826,1,0,0:0:0:0:
192,192,65887,1,0,0:0:0:0:
64,192,66010,1,0,0:0:0:0:
320,192,66010,1,0,0:0:0:0:
192,192,66072,1,0,0:0:0:0:
448,192,66133,1,0,0:0:0:0:
192,192,66195,1,0,0:0:0:0:
320,192,66256,1,0,0:0:0:0:
64,192,66338,1,0,0:0:0:0:
320,192,66420,1,0,0:0:0:0:
64,192,66502,1,0,0:0:0:0:
192,192,66502,1,0,0:0:0:0:
448,192,66502,1,0,0:0:0:0:
64,192,66994,1,0,0:0:0:0:
320,192,66994,1,0,0:0:0:0:
192,192,67055,1,0,0:0:0:0:
320,192,67117,1,0,0:0:0:0:
192,192,67178,1,0,0:0:0:0:
448,192,67240,1,0,0:0:0:0:
64,192,67301,1,0,0:0:0:0:
448,192,67363,1,0,0:0:0:0:
64,192,67424,1,0,0:0:0:0:
192,192,67486,1,0,0:0:0:0:
320,192,67486,1,0,0:0:0:0:
448,192,67731,128,0,67977:0:0:0:0:
64,192,67977,1,0,0:0:0:0:
192,192,67977,1,0,0:0:0:0:
320,192,68059,1,0,0:0:0:0:
192,192,68141,1,0,0:0:0:0:
320,192,68223,1,0,0:0:0:0:
64,192,68264,1,0,0:0:0:0:
448,192,68305,1,0,0:0:0:0:
320,192,68387,1,0,0:0:0:0:
64,192,68469,1,0,0:0:0:0:
448,192,68531,1,0,0:0:0:0:
192,192,68592,1,0,0:0:0:0:
320,192,68654,1,0,0:0:0:0:
64,192,68715,1,0,0:0:0:0:
192,192,68777,1,0,0:0:0:0:
320,192,68807,1,0,0:0:0:0:
192,192,68869,1,0,0:0:0:0:
320,192,68920,1,0,0:0:0:0:
64,192,68961,1,0,0:0:0:0:
448,192,68961,1,0,0:0:0:0:
192,192,69022,1,0,0:0:0:0:
320,192,69053,1,0,0:0:0:0:
64,192,69115,1,0,0:0:0:0:
192,192,69207,1,0,0:0:0:0:
320,192,69207,1,0,0:0:0:0:
448,192,69268,1,0,0:0:0:0:
64,192,69299,1,0,0:0:0:0:
320,192,69361,1,0,0:0:0:0:
64,192,69453,1,0,0:0:0:0:
192,192,69453,1,0,0:0:0:0:
448,192,69514,1,0,0:0:0:0:
192,192,69545,1,0,0:0:0:0:
320,192,69606,1,0,0:0:0:0:
64,192,69699,1,0,0:0:0:0:
448,192,69699,1,0,0:0:0:0:
192,192,69760,1,0,0:0:0:0:
320,192,69791,1,0,0:0:0:0:
64,192,69852,1,0,0:0:0:0:
192,192,69945,1,0,0:0:0:0:
448,192,69945,1,0,0:0:0:0:
320,192,70006,1,0,0:0:0:0:
192,192,70037,1,0,0:0:0:0:
64,192,70098,1,0,0:0:0:0:
320,192,70190,1,0,0:0:0:0:
448,192,70190,1,0,0:0:0:0:
192,192,70252,1,0,0:0:0:0:
320,192,70283,1,0,0:0:0:0:
448,192,70344,1,0,0:0:0:0:
64,192,70395,1,0,0:0:0:0:
192,192,70436,1,0,0:0:0:0:
320,192,70436,1,0,0:0:0:0:
192,192,70928,1,0,0:0:0:0:
448,192,70928,1,0,0:0:0:0:
320,192,70990,1,0,0:0:0:0:
64,192,71051,1,0,0:0:0:0:
320,192,71113,1,0,0:0:0:0:
448,192,71174,1,0,0:0:0:0:
64,192,71236,1,0,0:0:0:0:
448,192,71266,1,0,0:0:0:0:
64,192,71338,1,0,0:0:0:0:
192,192,71379,1,0,0:0:0:0:
192,192,71666,128,0,71789:0:0:0:0:
64,192,71912,1,0,0:0:0:0:
320,192,71912,1,0,0:0:0:0:
192,192,71953,1,0,0:0:0:0:
448,192,71994,1,0,0:0:0:0:
64,192,72035,1,0,0:0:0:0:
320,192,72076,1,0,0:0:0:0:
448,192,72117,1,0,0:0:0:0:
64,192,72158,128,0,72281:0:0:0:0:
192,192,72158,128,0,72281:0:0:0:0:
64,192,72404,128,0,72527:0:0:0:0:
320,192,72404,128,0,72527:0:0:0:0:
448,192,72404,128,0,72527:0:0:0:0:
192,192,72649,1,0,0:0:0:0:
448,192,72649,1,0,0:0:0:0:
320,192,72711,1,0,0:0:0:0:
192,192,72772,1,0,0:0:0:0:
448,192,72834,1,0,0:0:0:0:
64,192,72895,128,0,73018:0:0:0:0:
192,192,72895,128,0,73018:0:0:0:0:
320,192,72895,128,0,73018:0:0:0:0:
64,192,73141,1,0,0:0:0:0:
448,192,73141,1,0,0:0:0:0:
192,192,73203,1,0,0:0:0:0:
448,192,73264,1,0,0:0:0:0:
320,192,73326,1,0,0:0:0:0:
64,192,73387,128,0,73510:0:0:0:0:
192,192,73387,128,0,73510:0:0:0:0:
448,192,73387,128,0,73510:0:0:0:0:
64,192,73633,1,0,0:0:0:0:
320,192,73633,1,0,0:0:0:0:
192,192,73695,1,0,0:0:0:0:
320,192,73756,1,0,0:0:0:0:
192,192,73879,1,0,0:0:0:0:
448,192,73879,1,0,0:0:0:0:
320,192,73940,1,0,0:0:0:0:
64,192,74002,1,0,0:0:0:0:
320,192,74063,1,0,0:0:0:0:
192,192,74125,1,0,0:0:0:0:
448,192,74207,1,0,0:0:0:0:
192,192,74289,1,0,0:0:0:0:
64,192,74371,1,0,0:0:0:0:
320,192,74371,1,0,0:0:0:0:
448,192,74371,1,0,0:0:0:0:
64,192,74863,1,0,0:0:0:0:
320,192,74863,1,0,0:0:0:0:
192,192,74924,1,0,0:0:0:0:
320,192,74986,1,0,0:0:0:0:
192,192,75047,1,0,0:0:0:0:
64,192,75109,1,0,0:0:0:0:
320,192,75149,1,0,0:0:0:0:
192,192,75231,1,0,0:0:0:0:
448,192,75272,1,0,0:0:0:0:
64,192,75354,1,0,0:0:0:0:
320,192,75354,1,0,0:0:0:0:
192,192,75600,128,0,75846:0:0:0:0:
64,192,75846,1,0,0:0:0:0:
448,192,75846,1,0,0:0:0:0:
320,192,75928,1,0,0:0:0:0:
192,192,76010,1,0,0:0:0:0:
320,192,76092,1,0,0:0:0:0:
64,192,76133,1,0,0:0:0:0:
448,192,76174,1,0,0:0:0:0:
192,192,76256,1,0,0:0:0:0:
64,192,76338,1,0,0:0:0:0:
320,192,76338,1,0,0:0:0:0:
448,192,76379,1,0,0:0:0:0:
192,192,76420,1,0,0:0:0:0:
320,192,76502,1,0,0:0:0:0:
64,192,76584,1,0,0:0:0:0:
448,192,76584,1,0,0:0:0:0:
192,192,76645,1,0,0:0:0:0:
320,192,76676,1,0,0:0:0:0:
64,192,76748,1,0,0:0:0:0:
192,192,76830,1,0,0:0:0:0:
448,192,76830,1,0,0:0:0:0:
320,192,76994,128,0,78305:0:0:0:0:
448,192,77076,1,0,0:0:0:0:
64,192,77260,1,0,0:0:0:0:
448,192,77322,1,0,0:0:0:0:
192,192,77506,1,0,0:0:0:0:
448,192,77568,1,0,0:0:0:0:
64,192,77752,1,0,0:0:0:0:
448,192,77813,1,0,0:0:0:0:
192,192,77998,1,0,0:0:0:0:
448,192,78059,1,0,0:0:0:0:
64,192,78244,1,0,0:0:0:0:
192,192,78305,1,0,0:0:0:0:
448,192,78305,1,0,0:0:0:0:
320,192,78674,128,0,78797:0:0:0:0:
64,192,78797,1,0,0:0:0:0:
192,192,78797,1,0,0:0:0:0:
448,192,78797,1,0,0:0:0:0:
64,192,79043,128,0,79781:0:0:0:0:
320,192,79043,1,0,0:0:0:0:
192,192,79289,1,0,0:0:0:0:
320,192,79535,1,0,0:0:0:0:
448,192,79781,1,0,0:0:0:0:
320,192,79842,1,0,0:0:0:0:
64,192,79945,1,0,0:0:0:0:
192,192,80027,1,0,0:0:0:0:
448,192,80027,1,0,0:0:0:0:
192,192,80272,1,0,0:0:0:0:
320,192,80272,1,0,0:0:0:0:
64,192,80518,1,0,0:0:0:0:
192,192,80764,1,0,0:0:0:0:
448,192,80764,128,0,81010:0:0:0:0:
320,192,81010,1,0,0:0:0:0:
64,192,81256,1,0,0:0:0:0:
192,192,81256,1,0,0:0:0:0:
320,192,81502,1,0,0:0:0:0:
448,192,81502,1,0,0:0:0:0:
192,192,81748,1,0,0:0:0:0:
448,192,81748,1,0,0:0:0:0:
64,192,81994,1,0,0:0:0:0:
320,192,81994,1,0,0:0:0:0:
192,192,82240,1,0,0:0:0:0:
448,192,82240,1,0,0:0:0:0:
320,192,82486,1,0,0:0:0:0:
64,192,82731,1,0,0:0:0:0:
448,192,82731,1,0,0:0:0:0:
192,192,82977,128,0,83223:0:0:0:0:
64,192,83223,1,0,0:0:0:0:
320,192,83223,1,0,0:0:0:0:
192,192,83469,1,0,0:0:0:0:
448,192,83469,1,0,0:0:0:0:
192,192,83715,1,0,0:0:0:0:
320,192,83715,1,0,0:0:0:0:
64,192,83961,1,0,0:0:0:0:
448,192,83961,1,0,0:0:0:0:
192,192,84207,1,0,0:0:0:0:
320,192,84207,1,0,0:0:0:0:
64,192,84453,1,0,0:0:0:0:
320,192,84699,1,0,0:0:0:0:
448,192,84699,128,0,84945:0:0:0:0:
64,192,84945,1,0,0:0:0:0:
192,192,85190,1,0,0:0:0:0:
320,192,85190,1,0,0:0:0:0:
64,192,85436,1,0,0:0:0:0:
448,192,85436,1,0,0:0:0:0:
192,192,85682,1,0,0:0:0:0:
448,192,85682,1,0,0:0:0:0:
64,192,85928,1,0,0:0:0:0:
320,192,85928,1,0,0:0:0:0:
192,192,86174,1,0,0:0:0:0:
448,192,86174,1,0,0:0:0:0:
320,192,86420,1,0,0:0:0:0:
64,192,86666,1,0,0:0:0:0:
192,192,86666,1,0,0:0:0:0:
448,192,86666,1,0,0:0:0:0:
192,192,86912,1,0,0:0:0:0:
320,192,86912,1,0,0:0:0:0:
64,192,87158,1,0,0:0:0:0:
320,192,87158,1,0,0:0:0:0:
192,192,87404,1,0,0:0:0:0:
448,192,87404,1,0,0:0:0:0:
320,192,87649,1,0,0:0:0:0:
448,192,87649,1,0,0:0:0:0:
64,192,87895,1,0,0:0:0:0:
192,192,87895,1,0,0:0:0:0:
192,192,88141,1,0,0:0:0:0:
448,192,88141,1,0,0:0:0:0:
64,192,88387,1,0,0:0:0:0:
320,192,88387,1,0,0:0:0:0:
64,192,88633,1,0,0:0:0:0:
192,192,88633,1,0,0:0:0:0:
320,192,88879,1,0,0:0:0:0:
448,192,88879,1,0,0:0:0:0:
192,192,89125,1,0,0:0:0:0:
320,192,89125,1,0,0:0:0:0:
64,192,89371,1,0,0:0:0:0:
448,192,89371,1,0,0:0:0:0:
192,192,89617,1,0,0:0:0:0:
448,192,89617,1,0,0:0:0:0:
64,192,89863,1,0,0:0:0:0:
320,192,89863,1,0,0:0:0:0:
64,192,90109,1,0,0:0:0:0:
192,192,90109,1,0,0:0:0:0:
320,192,90354,1,0,0:0:0:0:
448,192,90354,1,0,0:0:0:0:
64,192,90600,1,0,0:0:0:0:
192,192,90600,1,0,0:0:0:0:
448,192,90600,1,0,0:0:0:0:
320,192,90785,1,0,0:0:0:0:
64,192,90846,1,0,0:0:0:0:
448,192,90846,1,0,0:0:0:0:
192,192,90908,1,0,0:0:0:0:
64,192,91031,1,0,0:0:0:0:
320,192,91092,1,0,0:0:0:0:
448,192,91092,1,0,0:0:0:0:
192,192,91154,1,0,0:0:0:0:
448,192,91277,1,0,0:0:0:0:
192,192,91338,1,0,0:0:0:0:
320,192,91338,1,0,0:0:0:0:
64,192,91399,1,0,0:0:0:0:
448,192,91522,1,0,0:0:0:0:
64,192,91584,1,0,0:0:0:0:
192,192,91584,1,0,0:0:0:0:
320,192,91645,1,0,0:0:0:0:
192,192,91768,1,0,0:0:0:0:
320,192,91830,1,0,0:0:0:0:
448,192,91830,1,0,0:0:0:0:
64,192,91891,1,0,0:0:0:0:
448,192,92014,1,0,0:0:0:0:
64,192,92076,1,0,0:0:0:0:
320,192,92076,1,0,0:0:0:0:
192,192,92137,1,0,0:0:0:0:
320,192,92260,1,0,0:0:0:0:
64,192,92322,1,0,0:0:0:0:
192,192,92322,1,0,0:0:0:0:
448,192,92383,1,0,0:0:0:0:
64,192,92445,1,0,0:0:0:0:
192,192,92506,1,0,0:0:0:0:
448,192,92568,128,0,92813:0:0:0:0:
192,192,92813,128,0,92936:0:0:0:0:
192,192,93059,128,0,93182:0:0:0:0:
192,192,93305,128,0,93428:0:0:0:0:
448,192,93551,128,0,94473:0:0:0:0:
320,192,93797,1,0,0:0:0:0:
192,192,94043,1,0,0:0:0:0:
64,192,94289,1,0,0:0:0:0:
448,192,94535,128,0,95518:0:0:0:0:
320,192,94781,1,0,0:0:0:0:
192,192,95027,1,0,0:0:0:0:
64,192,95272,1,0,0:0:0:0:
192,192,95518,128,0,95641:0:0:0:0:
64,192,96010,1,0,0:0:0:0:
192,192,96010,1,0,0:0:0:0:
320,192,96010,1,0,0:0:0:0:
448,192,96010,1,0,0:0:0:0:
320,192,96256,128,0,96379:0:0:0:0:
64,192,96502,1,0,0:0:0:0:
192,192,96502,1,0,0:0:0:0:
448,192,96543,1,0,0:0:0:0:
192,192,96584,1,0,0:0:0:0:
320,192,96625,1,0,0:0:0:0:
64,192,96666,1,0,0:0:0:0:
320,192,96707,1,0,0:0:0:0:
192,192,96994,128,0,97486:0:0:0:0:
64,192,97486,1,0,0:0:0:0:
320,192,97486,1,0,0:0:0:0:
448,192,97486,1,0,0:0:0:0:
320,192,97609,1,0,0:0:0:0:
448,192,97609,1,0,0:0:0:0:
64,192,97731,1,0,0:0:0:0:
192,192,97731,1,0,0:0:0:0:
64,192,97854,1,0,0:0:0:0:
192,192,97854,1,0,0:0:0:0:
64,192,97977,1,0,0:0:0:0:
320,192,97977,1,0,0:0:0:0:
448,192,97977,1,0,0:0:0:0:
192,192,98039,1,0,0:0:0:0:
320,192,98100,1,0,0:0:0:0:
192,192,98162,1,0,0:0:0:0:
448,192,98223,1,0,0:0:0:0:
320,192,98285,1,0,0:0:0:0:
192,192,98315,1,0,0:0:0:0:
64,192,98377,1,0,0:0:0:0:
192,192,98428,1,0,0:0:0:0:
320,192,98469,1,0,0:0:0:0:
448,192,98469,1,0,0:0:0:0:
320,192,98592,1,0,0:0:0:0:
448,192,98592,1,0,0:0:0:0:
64,192,98715,1,0,0:0:0:0:
192,192,98715,1,0,0:0:0:0:
64,192,98838,1,0,0:0:0:0:
192,192,98838,1,0,0:0:0:0:
64,192,98961,1,0,0:0:0:0:
320,192,98961,1,0,0:0:0:0:
448,192,98961,1,0,0:0:0:0:
192,192,99084,1,0,0:0:0:0:
320,192,99084,1,0,0:0:0:0:
64,192,99207,1,0,0:0:0:0:
448,192,99207,1,0,0:0:0:0:
64,192,99330,1,0,0:0:0:0:
448,192,99330,1,0,0:0:0:0:
192,192,99453,1,0,0:0:0:0:
320,192,99453,1,0,0:0:0:0:
448,192,99453,1,0,0:0:0:0:
64,192,99514,1,0,0:0:0:0:
192,192,99576,1,0,0:0:0:0:
320,192,99637,1,0,0:0:0:0:
448,192,99699,1,0,0:0:0:0:
64,192,99760,1,0,0:0:0:0:
320,192,99791,1,0,0:0:0:0:
192,192,99852,1,0,0:0:0:0:
64,192,99904,1,0,0:0:0:0:
320,192,99945,1,0,0:0:0:0:
448,192,99945,1,0,0:0:0:0:
448,192,100190,128,0,100436:0:0:0:0:
64,192,100436,1,0,0:0:0:0:
320,192,100436,1,0,0:0:0:0:
192,192,100498,1,0,0:0:0:0:
320,192,100559,1,0,0:0:0:0:
192,192,100621,1,0,0:0:0:0:
448,192,100682,1,0,0:0:0:0:
64,192,100744,1,0,0:0:0:0:
448,192,100805,1,0,0:0:0:0:
64,192,100867,1,0,0:0:0:0:
192,192,100928,1,0,0:0:0:0:
320,192,100928,1,0,0:0:0:0:
448,192,100928,1,0,0:0:0:0:
192,192,101051,1,0,0:0:0:0:
448,192,101051,1,0,0:0:0:0:
64,192,101174,1,0,0:0:0:0:
320,192,101174,1,0,0:0:0:0:
64,192,101297,1,0,0:0:0:0:
320,192,101297,1,0,0:0:0:0:
64,192,101420,1,0,0:0:0:0:
192,192,101420,1,0,0:0:0:0:
448,192,101420,1,0,0:0:0:0:
320,192,101543,1,0,0:0:0:0:
448,192,101543,1,0,0:0:0:0:
192,192,101584,1,0,0:0:0:0:
64,192,101666,1,0,0:0:0:0:
320,192,101666,1,0,0:0:0:0:
64,192,101789,1,0,0:0:0:0:
192,192,101789,1,0,0:0:0:0:
320,192,101830,1,0,0:0:0:0:
64,192,101912,1,0,0:0:0:0:
192,192,101912,1,0,0:0:0:0:
448,192,101912,1,0,0:0:0:0:
320,192,101973,1,0,0:0:0:0:
448,192,102035,1,0,0:0:0:0:
64,192,102158,1,0,0:0:0:0:
320,192,102158,1,0,0:0:0:0:
192,192,102219,1,0,0:0:0:0:
64,192,102281,1,0,0:0:0:0:
320,192,102342,1,0,0:0:0:0:
192,192,102404,1,0,0:0:0:0:
448,192,102404,1,0,0:0:0:0:
192,192,102527,1,0,0:0:0:0:
320,192,102527,1,0,0:0:0:0:
64,192,102649,1,0,0:0:0:0:
320,192,102649,1,0,0:0:0:0:
64,192,102772,1,0,0:0:0:0:
448,192,102772,1,0,0:0:0:0:
64,192,102895,1,0,0:0:0:0:
320,192,102895,1,0,0:0:0:0:
448,192,102895,1,0,0:0:0:0:
192,192,102957,1,0,0:0:0:0:
320,192,103018,1,0,0:0:0:0:
64,192,103049,1,0,0:0:0:0:
192,192,103141,1,0,0:0:0:0:
448,192,103172,1,0,0:0:0:0:
64,192,103264,1,0,0:0:0:0:
320,192,103295,1,0,0:0:0:0:
64,192,103387,1,0,0:0:0:0:
192,192,103387,1,0,0:0:0:0:
64,192,103510,1,0,0:0:0:0:
192,192,103510,1,0,0:0:0:0:
192,192,103633,1,0,0:0:0:0:
320,192,103633,1,0,0:0:0:0:
448,192,103633,1,0,0:0:0:0:
64,192,103756,1,0,0:0:0:0:
320,192,103756,1,0,0:0:0:0:
448,192,103756,1,0,0:0:0:0:
64,192,103879,1,0,0:0:0:0:
192,192,103879,128,0,104033:0:0:0:0:
448,192,103879,1,0,0:0:0:0:
192,192,104186,128,0,104371:0:0:0:0:
64,192,104371,1,0,0:0:0:0:
320,192,104371,1,0,0:0:0:0:
448,192,104371,1,0,0:0:0:0:
192,192,104432,1,0,0:0:0:0:
320,192,104494,1,0,0:0:0:0:
192,192,104555,1,0,0:0:0:0:
448,192,104617,1,0,0:0:0:0:
64,192,104678,1,0,0:0:0:0:
320,192,104709,1,0,0:0:0:0:
192,192,104770,1,0,0:0:0:0:
64,192,104822,1,0,0:0:0:0:
320,192,104863,1,0,0:0:0:0:
448,192,104863,1,0,0:0:0:0:
320,192,104986,1,0,0:0:0:0:
448,192,104986,1,0,0:0:0:0:
64,192,105109,1,0,0:0:0:0:
192,192,105109,1,0,0:0:0:0:
64,192,105231,1,0,0:0:0:0:
192,192,105231,1,0,0:0:0:0:
320,192,105354,1,0,0:0:0:0:
448,192,105354,1,0,0:0:0:0:
64,192,105385,1,0,0:0:0:0:
448,192,105477,1,0,0:0:0:0:
192,192,105508,1,0,0:0:0:0:
64,192,105600,1,0,0:0:0:0:
320,192,105600,1,0,0:0:0:0:
448,192,105600,1,0,0:0:0:0:
64,192,105723,1,0,0:0:0:0:
192,192,105723,1,0,0:0:0:0:
320,192,105723,1,0,0:0:0:0:
320,192,105846,1,0,0:0:0:0:
448,192,105846,1,0,0:0:0:0:
192,192,105908,1,0,0:0:0:0:
320,192,105938,1,0,0:0:0:0:
448,192,106000,1,0,0:0:0:0:
64,192,106092,1,0,0:0:0:0:
192,192,106092,1,0,0:0:0:0:
320,192,106154,1,0,0:0:0:0:
192,192,106184,1,0,0:0:0:0:
64,192,106246,1,0,0:0:0:0:
192,192,106338,1,0,0:0:0:0:
320,192,106338,1,0,0:0:0:0:
448,192,106338,1,0,0:0:0:0:
64,192,106461,1,0,0:0:0:0:
320,192,106461,1,0,0:0:0:0:
448,192,106461,1,0,0:0:0:0:
64,192,106584,1,0,0:0:0:0:
192,192,106584,1,0,0:0:0:0:
320,192,106584,1,0,0:0:0:0:
64,192,106707,1,0,0:0:0:0:
192,192,106707,1,0,0:0:0:0:
448,192,106707,1,0,0:0:0:0:
320,192,106830,1,0,0:0:0:0:
448,192,106830,1,0,0:0:0:0:
192,192,106891,1,0,0:0:0:0:
448,192,106953,1,0,0:0:0:0:
320,192,107014,1,0,0:0:0:0:
64,192,107045,1,0,0:0:0:0:
192,192,107106,1,0,0:0:0:0:
320,192,107158,1,0,0:0:0:0:
448,192,107199,1,0,0:0:0:0:
192,192,107260,1,0,0:0:0:0:
64,192,107322,1,0,0:0:0:0:
320,192,107322,1,0,0:0:0:0:
448,192,107322,1,0,0:0:0:0:
192,192,107445,1,0,0:0:0:0:
320,192,107445,1,0,0:0:0:0:
64,192,107486,1,0,0:0:0:0:
448,192,107568,1,0,0:0:0:0:
192,192,107629,1,0,0:0:0:0:
64,192,107660,1,0,0:0:0:0:
448,192,107721,1,0,0:0:0:0:
320,192,107772,1,0,0:0:0:0:
64,192,107813,1,0,0:0:0:0:
192,192,107813,1,0,0:0:0:0:
64,192,108305,1,0,0:0:0:0:
192,192,108305,1,0,0:0:0:0:
320,192,108367,1,0,0:0:0:0:
192,192,108428,1,0,0:0:0:0:
320,192,108490,1,0,0:0:0:0:
64,192,108551,1,0,0:0:0:0:
448,192,108613,1,0,0:0:0:0:
64,192,108643,1,0,0:0:0:0:
320,192,108715,1,0,0:0:0:0:
64,192,108797,1,0,0:0:0:0:
192,192,108797,1,0,0:0:0:0:
448,192,108797,1,0,0:0:0:0:
64,192,108920,1,0,0:0:0:0:
320,192,108920,1,0,0:0:0:0:
192,192,109043,1,0,0:0:0:0:
448,192,109043,1,0,0:0:0:0:
320,192,109166,1,0,0:0:0:0:
448,192,109166,1,0,0:0:0:0:
64,192,109289,1,0,0:0:0:0:
192,192,109289,1,0,0:0:0:0:
320,192,109289,1,0,0:0:0:0:
192,192,109412,1,0,0:0:0:0:
448,192,109412,1,0,0:0:0:0:
320,192,109453,1,0,0:0:0:0:
64,192,109535,1,0,0:0:0:0:
192,192,109535,1,0,0:0:0:0:
64,192,109658,1,0,0:0:0:0:
320,192,109658,1,0,0:0:0:0:
192,192,109699,1,0,0:0:0:0:
64,192,109781,1,0,0:0:0:0:
320,192,109781,1,0,0:0:0:0:
448,192,109781,1,0,0:0:0:0:
192,192,109842,1,0,0:0:0:0:
320,192,109904,1,0,0:0:0:0:
448,192,109965,1,0,0:0:0:0:
64,192,110027,1,0,0:0:0:0:
192,192,110027,1,0,0:0:0:0:
320,192,110088,1,0,0:0:0:0:
192,192,110149,1,0,0:0:0:0:
64,192,110211,1,0,0:0:0:0:
192,192,110272,128,0,110764:0:0:0:0:
320,192,110272,128,0,111256:0:0:0:0:
448,192,110272,128,0,111338:0:0:0:0:
64,192,110764,1,0,0:0:0:0:
192,192,111010,1,0,0:0:0:0:
64,192,111256,1,0,0:0:0:0:
64,192,111748,1,0,0:0:0:0:
192,192,111748,1,0,0:0:0:0:
320,192,111748,1,0,0:0:0:0:
448,192,111748,1,0,0:0:0:0:
64,192,112240,1,0,0:0:0:0:
192,192,112240,1,0,0:0:0:0:
448,192,112301,1,0,0:0:0:0:
192,192,112363,1,0,0:0:0:0:
320,192,112424,1,0,0:0:0:0:
64,192,112486,1,0,0:0:0:0:
448,192,112547,1,0,0:0:0:0:
64,192,112578,1,0,0:0:0:0:
192,192,112649,1,0,0:0:0:0:
320,192,112701,1,0,0:0:0:0:
64,192,112977,128,0,113059:0:0:0:0:
192,192,113223,1,0,0:0:0:0:
448,192,113223,1,0,0:0:0:0:
320,192,113264,1,0,0:0:0:0:
64,192,113305,1,0,0:0:0:0:
448,192,113346,1,0,0:0:0:0:
192,192,113387,1,0,0:0:0:0:
64,192,113428,1,0,0:0:0:0:
320,192,113469,128,0,113592:0:0:0:0:
448,192,113469,128,0,113592:0:0:0:0:
64,192,113715,128,0,113838:0:0:0:0:
192,192,113715,128,0,113838:0:0:0:0:
448,192,113715,128,0,113838:0:0:0:0:
320,192,113961,1,0,0:0:0:0:
448,192,113961,1,0,0:0:0:0:
192,192,114022,1,0,0:0:0:0:
64,192,114084,1,0,0:0:0:0:
64,192,114207,1,0,0:0:0:0:
320,192,114207,1,0,0:0:0:0:
448,192,114207,1,0,0:0:0:0:
192,192,114268,1,0,0:0:0:0:
320,192,114330,1,0,0:0:0:0:
448,192,114330,1,0,0:0:0:0:
64,192,114453,1,0,0:0:0:0:
192,192,114453,1,0,0:0:0:0:
448,192,114453,1,0,0:0:0:0:
320,192,114514,1,0,0:0:0:0:
64,192,114576,1,0,0:0:0:0:
192,192,114576,1,0,0:0:0:0:
64,192,114699,1,0,0:0:0:0:
320,192,114699,1,0,0:0:0:0:
448,192,114699,1,0,0:0:0:0:
192,192,114760,1,0,0:0:0:0:
320,192,114822,1,0,0:0:0:0:
448,192,114822,1,0,0:0:0:0:
64,192,114945,1,0,0:0:0:0:
192,192,114945,1,0,0:0:0:0:
448,192,114945,1,0,0:0:0:0:
320,192,115006,1,0,0:0:0:0:
64,192,115068,1,0,0:0:0:0:
192,192,115068,1,0,0:0:0:0:
192,192,115190,1,0,0:0:0:0:
448,192,115190,1,0,0:0:0:0:
320,192,115252,1,0,0:0:0:0:
64,192,115313,1,0,0:0:0:0:
320,192,115375,1,0,0:0:0:0:
192,192,115436,1,0,0:0:0:0:
320,192,115498,1,0,0:0:0:0:
448,192,115529,1,0,0:0:0:0:
64,192,115590,1,0,0:0:0:0:
192,192,115641,1,0,0:0:0:0:
320,192,115682,1,0,0:0:0:0:
448,192,115682,1,0,0:0:0:0:
192,192,115928,128,0,116174:0:0:0:0:
320,192,116174,1,0,0:0:0:0:
448,192,116174,1,0,0:0:0:0:
192,192,116236,1,0,0:0:0:0:
320,192,116297,1,0,0:0:0:0:
192,192,116359,1,0,0:0:0:0:
448,192,116420,1,0,0:0:0:0:
64,192,116481,1,0,0:0:0:0:
448,192,116512,1,0,0:0:0:0:
64,192,116574,1,0,0:0:0:0:
192,192,116625,1,0,0:0:0:0:
320,192,116666,1,0,0:0:0:0:
448,192,116666,1,0,0:0:0:0:
320,192,116789,1,0,0:0:0:0:
448,192,116789,1,0,0:0:0:0:
64,192,116912,1,0,0:0:0:0:
192,192,116912,1,0,0:0:0:0:
448,192,116912,1,0,0:0:0:0:
64,192,117035,1,0,0:0:0:0:
192,192,117035,1,0,0:0:0:0:
192,192,117158,1,0,0:0:0:0:
320,192,117158,1,0,0:0:0:0:
448,192,117158,1,0,0:0:0:0:
64,192,117281,1,0,0:0:0:0:
320,192,117281,1,0,0:0:0:0:
192,192,117322,1,0,0:0:0:0:
320,192,117404,1,0,0:0:0:0:
448,192,117404,1,0,0:0:0:0:
64,192,117527,1,0,0:0:0:0:
448,192,117527,1,0,0:0:0:0:
320,192,117568,1,0,0:0:0:0:
64,192,117649,1,0,0:0:0:0:
192,192,117649,1,0,0:0:0:0:
320,192,117711,1,0,0:0:0:0:
64,192,117742,1,0,0:0:0:0:
192,192,117834,1,0,0:0:0:0:
320,192,117895,1,0,0:0:0:0:
448,192,117895,1,0,0:0:0:0:
64,192,117957,1,0,0:0:0:0:
448,192,117988,1,0,0:0:0:0:
192,192,118080,1,0,0:0:0:0:
64,192,118141,1,0,0:0:0:0:
320,192,118141,1,0,0:0:0:0:
448,192,118141,1,0,0:0:0:0:
192,192,118264,1,0,0:0:0:0:
448,192,118264,1,0,0:0:0:0:
64,192,118387,1,0,0:0:0:0:
192,192,118387,1,0,0:0:0:0:
448,192,118387,1,0,0:0:0:0:
64,192,118510,1,0,0:0:0:0:
320,192,118510,1,0,0:0:0:0:
64,192,118633,1,0,0:0:0:0:
320,192,118633,1,0,0:0:0:0:
448,192,118633,1,0,0:0:0:0:
192,192,118695,1,0,0:0:0:0:
320,192,118756,1,0,0:0:0:0:
64,192,118787,1,0,0:0:0:0:
192,192,118879,1,0,0:0:0:0:
320,192,118910,1,0,0:0:0:0:
448,192,119002,1,0,0:0:0:0:
192,192,119033,1,0,0:0:0:0:
64,192,119125,1,0,0:0:0:0:
320,192,119125,1,0,0:0:0:0:
448,192,119125,1,0,0:0:0:0:
192,192,119248,1,0,0:0:0:0:
320,192,119248,1,0,0:0:0:0:
64,192,119371,1,0,0:0:0:0:
192,192,119371,1,0,0:0:0:0:
448,192,119371,1,0,0:0:0:0:
320,192,119494,1,0,0:0:0:0:
448,192,119494,1,0,0:0:0:0:
64,192,119617,128,0,119770:0:0:0:0:
192,192,119617,1,0,0:0:0:0:
320,192,119617,1,0,0:0:0:0:
64,192,119924,128,0,120078:0:0:0:0:
320,192,120109,1,0,0:0:0:0:
448,192,120109,1,0,0:0:0:0:
192,192,120170,1,0,0:0:0:0:
320,192,120231,1,0,0:0:0:0:
192,192,120293,1,0,0:0:0:0:
448,192,120354,1,0,0:0:0:0:
64,192,120416,1,0,0:0:0:0:
320,192,120447,1,0,0:0:0:0:
192,192,120508,1,0,0:0:0:0:
64,192,120559,1,0,0:0:0:0:
448,192,120600,1,0,0:0:0:0:
192,192,120723,1,0,0:0:0:0:
448,192,120723,1,0,0:0:0:0:
64,192,120846,1,0,0:0:0:0:
64,192,120969,1,0,0:0:0:0:
320,192,120969,1,0,0:0:0:0:
192,192,121092,1,0,0:0:0:0:
320,192,121092,1,0,0:0:0:0:
448,192,121092,1,0,0:0:0:0:
320,192,121338,1,0,0:0:0:0:
448,192,121379,1,0,0:0:0:0:
64,192,121420,1,0,0:0:0:0:
192,192,121461,1,0,0:0:0:0:
64,192,121584,1,0,0:0:0:0:
448,192,121584,1,0,0:0:0:0:
320,192,121625,1,0,0:0:0:0:
192,192,121666,1,0,0:0:0:0:
448,192,121707,1,0,0:0:0:0:
64,192,121830,1,0,0:0:0:0:
448,192,121830,1,0,0:0:0:0:
192,192,121871,1,0,0:0:0:0:
320,192,121912,1,0,0:0:0:0:
64,192,121953,1,0,0:0:0:0:
192,192,122076,1,0,0:0:0:0:
320,192,122076,1,0,0:0:0:0:
448,192,122076,1,0,0:0:0:0:
320,192,122199,1,0,0:0:0:0:
448,192,122199,1,0,0:0:0:0:
64,192,122322,1,0,0:0:0:0:
192,192,122322,1,0,0:0:0:0:
448,192,122322,1,0,0:0:0:0:
64,192,122445,1,0,0:0:0:0:
192,192,122445,1,0,0:0:0:0:
64,192,122568,1,0,0:0:0:0:
320,192,122568,1,0,0:0:0:0:
448,192,122568,1,0,0:0:0:0:
320,192,122690,1,0,0:0:0:0:
448,192,122690,1,0,0:0:0:0:
64,192,122813,1,0,0:0:0:0:
192,192,122813,1,0,0:0:0:0:
448,192,122813,1,0,0:0:0:0:
64,192,122936,1,0,0:0:0:0:
192,192,122936,1,0,0:0:0:0:
64,192,123059,1,0,0:0:0:0:
320,192,123059,1,0,0:0:0:0:
448,192,123059,1,0,0:0:0:0:
192,192,123182,1,0,0:0:0:0:
320,192,123182,1,0,0:0:0:0:
448,192,123223,1,0,0:0:0:0:
64,192,123305,1,0,0:0:0:0:
192,192,123367,1,0,0:0:0:0:
448,192,123397,1,0,0:0:0:0:
64,192,123459,1,0,0:0:0:0:
192,192,123510,1,0,0:0:0:0:
320,192,123551,1,0,0:0:0:0:
448,192,123551,1,0,0:0:0:0:
192,192,124043,1,0,0:0:0:0:
448,192,124043,1,0,0:0:0:0:
320,192,124104,1,0,0:0:0:0:
448,192,124166,1,0,0:0:0:0:
320,192,124227,1,0,0:0:0:0:
64,192,124289,1,0,0:0:0:0:
192,192,124350,1,0,0:0:0:0:
448,192,124381,1,0,0:0:0:0:
64,192,124443,1,0,0:0:0:0:
320,192,124494,1,0,0:0:0:0:
192,192,124535,1,0,0:0:0:0:
448,192,124535,1,0,0:0:0:0:
64,192,124658,1,0,0:0:0:0:
320,192,124658,1,0,0:0:0:0:
192,192,124781,1,0,0:0:0:0:
320,192,124781,1,0,0:0:0:0:
448,192,124781,1,0,0:0:0:0:
64,192,124904,1,0,0:0:0:0:
448,192,124904,1,0,0:0:0:0:
64,192,125027,1,0,0:0:0:0:
192,192,125027,1,0,0:0:0:0:
320,192,125027,1,0,0:0:0:0:
192,192,125149,1,0,0:0:0:0:
448,192,125149,1,0,0:0:0:0:
320,192,125190,1,0,0:0:0:0:
64,192,125272,1,0,0:0:0:0:
448,192,125272,1,0,0:0:0:0:
64,192,125395,1,0,0:0:0:0:
320,192,125395,1,0,0:0:0:0:
192,192,125436,1,0,0:0:0:0:
320,192,125518,1,0,0:0:0:0:
448,192,125518,1,0,0:0:0:0:
64,192,125580,1,0,0:0:0:0:
192,192,125641,1,0,0:0:0:0:
320,192,125703,1,0,0:0:0:0:
448,192,125826,1,0,0:0:0:0:
320,192,125887,1,0,0:0:0:0:
192,192,125949,1,0,0:0:0:0:
64,192,126011,128,0,127002:0:0:0:0:
320,192,126011,1,0,0:0:0:0:
448,192,126011,1,0,0:0:0:0:
448,192,126258,1,0,0:0:0:0:
320,192,126506,1,0,0:0:0:0:
192,192,126754,1,0,0:0:0:0:
320,192,127002,1,0,0:0:0:0:
64,192,127250,1,0,0:0:0:0:
448,192,127250,1,0,0:0:0:0:
64,192,127498,1,0,0:0:0:0:
320,192,127498,1,0,0:0:0:0:
192,192,127739,1,0,0:0:0:0:
64,192,127982,128,0,128227:0:0:0:0:
448,192,127982,1,0,0:0:0:0:
320,192,128227,1,0,0:0:0:0:
192,192,128474,1,0,0:0:0:0:
64,192,128721,1,0,0:0:0:0:
320,192,128721,1,0,0:0:0:0:
64,192,128969,1,0,0:0:0:0:
448,192,128969,1,0,0:0:0:0:
192,192,129217,1,0,0:0:0:0:
320,192,129217,1,0,0:0:0:0:
64,192,129466,1,0,0:0:0:0:
192,192,129466,1,0,0:0:0:0:
320,192,129711,1,0,0:0:0:0:
64,192,129957,1,0,0:0:0:0:
448,192,129957,128,0,130080:0:0:0:0:
192,192,130203,128,0,130326:0:0:0:0:
448,192,130203,128,0,130326:0:0:0:0:
192,192,130449,1,0,0:0:0:0:
448,192,130449,128,0,130572:0:0:0:0:
64,192,130695,1,0,0:0:0:0:
448,192,130695,128,0,130818:0:0:0:0:
64,192,130941,1,0,0:0:0:0:
192,192,130941,1,0,0:0:0:0:
192,192,131187,1,0,0:0:0:0:
320,192,131187,1,0,0:0:0:0:
64,192,131433,1,0,0:0:0:0:
448,192,131433,1,0,0:0:0:0:
320,192,131679,1,0,0:0:0:0:
64,192,131925,128,0,132170:0:0:0:0:
448,192,131925,1,0,0:0:0:0:
320,192,132170,1,0,0:0:0:0:
64,192,132416,1,0,0:0:0:0:
192,192,132416,1,0,0:0:0:0:
64,192,132662,1,0,0:0:0:0:
320,192,132662,1,0,0:0:0:0:
448,192,132908,1,0,0:0:0:0:
64,192,133154,1,0,0:0:0:0:
320,192,133400,1,0,0:0:0:0:
192,192,133646,128,0,133830:0:0:0:0:
