osu file format v14

[General]
AudioFilename: audio.mp3
AudioLeadIn: 0
PreviewTime: 61672
Countdown: 0
SampleSet: Soft
StackLeniency: 0.7
Mode: 2
LetterboxInBreaks: 0
WidescreenStoryboard: 0

[Editor]
Bookmarks: 32,16907,31907,46907,61907,91907,106907,121907,136907,146282,161282,176282,191282,206282,221282,237219,252219,267219,278469,289719
DistanceSpacing: 1.1
BeatDivisor: 16
GridSize: 8
TimelineZoom: 2.899999

[Metadata]
Title:Hysteric Night Girl feat. Such (android52 Edit)
TitleUnicode:ヒステリックナイトガール feat. Such (android52 Edit)
Artist:PSYQUI
ArtistUnicode:PSYQUI
Creator:Verti
Version:Oomfies' Hysteria
Source:
Tags:pop rock jpop jrock j-pop j-rock groove STYLEY! LQAZ-0003 Loquartz M3-41 M3 2018 Spring Music Media-Mix Market 2017春 UberFazz -rustyy juansy- mniam quix bigh bighzonda 050 zonda stardust prism japanese electronic styley! featuring Juanfmlal hng
BeatmapID:3966874
BeatmapSetID:1921831

[Difficulty]
HPDrainRate:6
CircleSize:4.2
OverallDifficulty:9
ApproachRate:9
SliderMultiplier:2.5
SliderTickRate:2

[Events]
//Background and Video events
0,0,"psyquiuwu.jpg",0,0
//Break Periods
//Storyboard Layer 0 (Background)
//Storyboard Layer 1 (Fail)
//Storyboard Layer 2 (Pass)
//Storyboard Layer 3 (Foreground)
//Storyboard Layer 4 (Overlay)
//Storyboard Sound Samples

[TimingPoints]
26,468.75,4,2,2,70,1,0
26,-66.6666666666667,4,2,2,70,0,0
494,-100,4,2,2,70,0,0
1871,-100,4,2,2,5,0,0
1901,-40,4,2,1,70,0,0
2135,-80,4,2,1,70,0,0
5358,-80,4,2,1,5,0,0
5416,-80,4,2,1,70,0,0
5592,-80,4,2,1,5,0,0
5651,-62.5,4,2,1,70,0,0
6061,-62.5,4,2,1,5,0,0
6119,-80,4,2,1,70,0,0
9401,-40,4,2,1,70,0,0
9635,-80,4,2,1,70,0,0
10338,-62.5,4,2,1,70,0,0
10748,-62.5,4,2,1,5,0,0
10807,-62.5,4,2,1,70,0,0
11041,-62.5,4,2,99,5,0,0
11276,-80,4,2,1,70,0,0
12858,-62.5,4,2,1,5,0,0
12916,-80,4,2,1,70,0,0
13092,-62.5,4,2,1,5,0,0
13151,-62.5,4,2,1,70,0,0
13561,-62.5,4,2,1,5,0,0
13619,-80,4,2,1,70,0,0
14029,-80,4,2,1,5,0,0
14088,-80,4,2,1,70,0,0
15026,-80,4,2,2,70,0,0
15032,-80,4,2,2,70,0,0
15436,-80,4,2,2,5,0,0
15494,-80,4,2,2,70,0,0
15787,-80,4,2,2,5,0,0
15846,-62.5,4,2,2,70,0,0
16080,-80,4,2,2,70,0,0
16901,-80,4,2,1,60,0,0
16907,-80,4,2,1,60,0,0
17311,-80,4,2,1,5,0,0
17369,-100,4,2,1,60,0,0
18776,-80,4,2,1,60,0,0
18951,-80,4,2,1,60,0,0
19010,-80,4,2,1,60,0,0
19186,-80,4,2,1,5,0,0
19244,-80,4,2,1,60,0,0
19713,-100,4,2,1,60,0,0
22701,-100,4,2,1,5,0,0
22760,-100,4,2,1,60,0,0
27213,-80,4,2,1,60,0,0
27389,-80,4,2,1,60,0,0
27447,-80,4,2,1,60,0,0
27623,-80,4,2,1,5,0,0
27682,-100,4,2,1,60,0,0
28151,-100,4,2,1,60,0,0
29244,-100,4,2,1,5,0,0
29322,-100,4,2,1,60,0,0
29733,-100,4,2,1,5,0,0
29791,-100,4,2,1,60,0,0
30963,-66.6666666666667,4,2,1,60,0,0
31139,-100,4,2,1,5,0,0
31197,-100,4,2,1,60,0,0
47369,-100,4,2,2,60,0,0
48541,-100,4,2,1,60,0,0
50885,-100,4,2,2,60,0,0
52291,-100,4,2,1,60,0,0
61901,-66.6666666666667,4,2,1,70,0,1
61907,-66.6666666666667,4,2,1,70,0,1
62369,-50,4,2,1,70,0,1
62838,-40,4,2,1,70,0,1
63307,-33.3333333333333,4,2,1,70,0,1
66119,-40,4,2,1,70,0,1
66588,-50,4,2,1,70,0,1
67057,-41.6666666666667,4,2,1,70,0,1
67526,-100,4,2,1,70,0,1
69401,-66.6666666666667,4,2,1,70,0,1
69869,-50,4,2,1,70,0,1
70338,-40,4,2,1,70,0,1
71276,-29.4117647058824,4,2,1,70,0,1
71627,-40,4,2,1,70,0,1
72213,-100,4,2,1,70,0,1
76901,-66.6666666666667,4,2,1,70,0,1
77369,-50,4,2,1,70,0,1
77838,-40,4,2,1,70,0,1
78307,-33.3333333333333,4,2,1,70,0,1
80651,-100,4,2,1,70,0,1
82526,-80,4,2,1,70,0,1
82994,-40,4,2,1,70,0,1
83229,-100,4,2,1,70,0,1
84401,-41.6666666666667,4,2,1,70,0,1
84635,-100,4,2,1,70,0,1
84869,-71.4285714285714,4,2,1,70,0,1
85221,-100,4,2,1,70,0,1
85807,-80,4,2,1,70,0,1
86276,-40,4,2,1,70,0,1
86510,-100,4,2,1,70,0,1
86744,-71.4285714285714,4,2,1,70,0,1
87096,-100,4,2,1,70,0,1
87682,-80,4,2,1,70,0,1
88151,-40,4,2,1,70,0,1
88385,-100,4,2,1,70,0,1
88619,-71.4285714285714,4,2,1,70,0,1
89088,-100,4,2,1,70,0,1
90494,-100,4,2,2,70,0,1
91901,-41.6666666666667,4,2,1,70,0,0
91907,-41.6666666666667,4,2,1,70,0,0
92135,-100,4,2,1,70,0,0
95651,-41.6666666666667,4,2,1,70,0,0
95885,-100,4,2,1,70,0,0
96588,-80,4,2,1,70,0,0
97057,-100,4,2,1,70,0,0
97994,-66.6666666666667,4,2,1,70,0,0
98932,-100,4,2,1,70,0,0
99401,-41.6666666666667,4,2,1,70,0,0
99635,-100,4,2,1,70,0,0
100338,-66.6666666666667,4,2,1,70,0,0
100748,-66.6666666666667,4,2,1,5,0,0
100807,-100,4,2,1,70,0,0
101041,-100,4,2,99,70,0,0
101217,-100,4,2,1,5,0,0
101276,-100,4,2,1,70,0,0
103151,-41.6666666666667,4,2,1,70,0,0
103385,-100,4,2,1,70,0,0
105026,-100,4,2,2,70,0,0
105084,-100,4,2,2,5,0,0
105143,-100,4,2,2,70,0,0
105318,-100,4,2,2,5,0,0
105377,-100,4,2,2,70,0,0
105436,-100,4,2,2,5,0,0
105494,-100,4,2,2,70,0,0
105553,-100,4,2,2,5,0,0
105611,-100,4,2,2,70,0,0
105787,-100,4,2,2,5,0,0
105846,-100,4,2,2,70,0,0
106022,-100,4,2,2,5,0,0
106080,-100,4,2,2,70,0,0
106139,-100,4,2,2,5,0,0
106197,-100,4,2,2,70,0,0
106256,-100,4,2,2,5,0,0
106315,-100,4,2,2,70,0,0
106373,-100,4,2,2,5,0,0
106432,-100,4,2,2,70,0,0
106490,-100,4,2,2,5,0,0
106549,-100,4,2,2,70,0,0
106901,-100,4,2,2,40,0,0
106907,-100,4,2,2,40,0,0
114674,-62.5,4,2,2,40,0,0
115065,-100,4,2,2,40,0,0
120963,-100,4,2,1,60,0,0
121901,-100,4,2,1,60,0,0
122311,-100,4,2,1,5,0,0
122369,-100,4,2,1,60,0,0
123951,-100,4,2,1,5,0,0
124010,-100,4,2,1,60,0,0
124186,-100,4,2,1,5,0,0
124244,-100,4,2,1,60,0,0
124420,-100,4,2,1,5,0,0
124479,-100,4,2,1,60,0,0
124537,-100,4,2,1,5,0,0
124596,-100,4,2,1,60,0,0
124654,-100,4,2,1,5,0,0
124713,-100,4,2,1,60,0,0
125768,-100,4,2,1,5,0,0
125826,-100,4,2,1,60,0,0
126002,-100,4,2,1,60,0,0
126061,-100,4,2,1,60,0,0
129401,-66.6666666666667,4,2,1,60,0,0
129752,-66.6666666666667,4,2,1,60,0,0
129869,-40,4,2,1,60,0,0
130104,-100,4,2,1,60,0,0
130631,-100,4,2,1,5,0,0
130690,-100,4,2,1,60,0,0
130748,-100,4,2,1,5,0,0
130807,-100,4,2,1,60,0,0
130983,-100,4,2,1,5,0,0
131041,-100,4,2,1,60,0,0
131217,-100,4,2,1,5,0,0
131276,-100,4,2,1,60,0,0
134147,-100,4,2,1,5,0,0
134205,-100,4,2,1,60,0,0
134381,-100,4,2,1,5,0,0
134440,-100,4,2,1,60,0,0
134498,-100,4,2,1,5,0,0
134557,-100,4,2,1,60,0,0
135026,-100,4,2,2,60,0,0
135143,-100,4,2,1,60,0,0
135377,-100,4,2,2,60,0,0
135494,-100,4,2,1,60,0,0
135729,-100,4,2,2,60,0,0
135846,-100,4,2,1,60,0,0
136080,-100,4,2,2,60,0,0
136197,-100,4,2,1,60,0,0
136432,-100,4,2,2,60,0,0
136549,-100,4,2,1,60,0,0
136783,-100,4,2,2,60,0,0
136901,-100,4,2,1,60,0,0
145337,-100,4,2,2,60,0,0
146276,-64.9350649350649,4,2,1,70,0,1
146282,-64.9350649350649,4,2,1,70,0,1
146744,-39.0625,4,2,1,70,0,1
147682,-32.5732899022801,4,2,1,70,0,1
148151,-64.9350649350649,4,2,1,70,0,1
148619,-39.0625,4,2,1,70,0,1
149557,-32.5732899022801,4,2,1,70,0,1
150026,-64.9350649350649,4,2,1,70,0,1
150494,-39.0625,4,2,1,70,0,1
151432,-32.5732899022801,4,2,1,70,0,1
153776,-64.9350649350649,4,2,1,70,0,1
154244,-39.0625,4,2,1,70,0,1
155182,-32.5732899022801,4,2,1,70,0,1
156588,-39.0625,4,2,1,70,0,1
157526,-100,4,2,1,70,0,1
161744,-83.3333333333333,4,2,1,70,0,1
162213,-66.6666666666667,4,2,1,70,0,1
162682,-38.4615384615385,4,2,1,70,0,1
163151,-100,4,2,1,70,0,1
163619,-83.3333333333333,4,2,1,70,0,1
164088,-66.6666666666667,4,2,1,70,0,1
164557,-38.4615384615385,4,2,1,70,0,1
165026,-83.3333333333333,4,2,1,70,0,1
172994,-38.4615384615385,4,2,1,70,0,1
173463,-83.3333333333333,4,2,1,70,0,1
175455,-83.3333333333333,4,2,2,70,0,1
176276,-100,4,2,1,70,0,0
176282,-100,4,2,1,70,0,0
181901,-39.0625,4,2,1,70,0,0
182838,-100,4,2,1,70,0,0
187174,-100,4,2,2,70,0,0
187526,-100,4,2,1,70,0,0
187701,-100,4,2,1,5,0,0
187760,-100,4,2,1,70,0,0
187936,-100,4,2,1,5,0,0
187994,-100,4,2,1,70,0,0
188053,-100,4,2,1,5,0,0
188111,-100,4,2,1,70,0,0
188404,-100,4,2,1,5,0,0
188463,-100,4,2,1,70,0,0
188639,-100,4,2,1,5,0,0
188697,-100,4,2,1,70,0,0
188873,-100,4,2,1,5,0,0
188932,-100,4,2,1,70,0,0
188990,-100,4,2,1,5,0,0
189049,-100,4,2,1,70,0,0
189342,-100,4,2,1,70,0,0
189401,-100,4,2,1,70,0,0
189576,-100,4,2,1,5,0,0
189635,-100,4,2,1,70,0,0
189811,-100,4,2,1,5,0,0
189869,-100,4,2,1,70,0,0
189986,-100,4,2,1,70,0,0
190279,-100,4,2,1,70,0,0
190338,-100,4,2,1,70,0,0
194088,-83.3333333333333,4,2,1,70,0,0
194322,-100,4,2,1,70,0,0
198541,-100,4,2,2,70,0,0
198776,-100,4,2,1,70,0,0
204459,-100,4,2,1,5,0,0
204518,-100,4,2,1,70,0,0
204811,-100,4,2,1,5,0,0
204869,-100,4,2,2,70,0,0
204928,-100,4,2,2,5,0,0
204986,-100,4,2,1,70,0,0
205162,-100,4,2,1,5,0,0
205221,-100,4,2,1,70,0,0
205397,-100,4,2,1,5,0,0
205455,-100,4,2,2,70,0,0
205514,-100,4,2,2,5,0,0
205572,-83.3333333333333,4,2,1,70,0,0
205748,-100,4,2,1,5,0,0
205807,-40,4,2,1,70,0,0
206217,-40,4,2,1,5,0,0
206282,-40,4,2,1,70,0,0
206286,468.75,4,2,1,60,1,0
206399,-100,4,2,1,60,0,0
206403,-100,4,2,1,30,0,0
221282,-100,4,2,1,30,0,0
221286,-100,4,2,1,40,0,0
231125,-100,4,2,1,40,0,0
231129,-100,4,2,1,60,0,0
232418,-100,4,2,1,5,0,0
232536,-100,4,2,2,60,0,0
232828,-100,4,2,2,5,0,0
232887,-100,4,2,2,60,0,0
233121,-100,4,2,2,60,0,0
233297,-100,4,2,2,5,0,0
233356,-100,4,2,2,60,0,0
233414,-100,4,2,2,5,0,0
233473,-90.9090909090909,4,2,2,60,0,0
233649,-100,4,2,2,5,0,0
233707,-90.9090909090909,4,2,2,60,0,0
233883,-100,4,2,2,5,0,0
233942,-90.9090909090909,4,2,2,60,0,0
234352,-83.3333333333333,4,2,2,5,0,0
234411,-100,4,2,2,60,0,0
235348,-100,4,2,2,60,0,0
236754,-90.9090909090909,4,2,2,60,0,0
237164,-100,4,2,2,5,0,0
237213,468.75,4,2,1,70,1,1
237213,-66.6666666666667,4,2,1,70,0,1
237681,-50,4,2,1,70,0,1
238150,-40,4,2,1,70,0,1
238619,-33.3333333333333,4,2,1,70,0,1
239556,-41.6666666666667,4,2,1,70,0,1
241431,-33.3333333333333,4,2,1,70,0,1
242838,-100,4,2,1,70,0,1
244713,-66.6666666666667,4,2,1,70,0,1
245181,-50,4,2,1,70,0,1
245650,-40,4,2,1,70,0,1
246119,-33.3333333333333,4,2,1,70,0,1
246588,-40,4,2,1,70,0,1
247056,-50,4,2,1,70,0,1
247525,-100,4,2,1,70,0,1
252213,-57.1428571428571,4,2,1,70,0,1
252652,-57.1428571428571,4,2,1,5,0,1
252681,-40,4,2,1,70,0,1
253121,-40,4,2,1,5,0,1
253150,-40,4,2,1,70,0,1
253589,-40,4,2,1,5,0,1
253619,-40,4,2,1,70,0,1
254058,-40,4,2,1,5,0,1
254088,-40,4,2,1,70,0,1
254527,-40,4,2,1,5,0,1
254556,-40,4,2,1,70,0,1
254996,-40,4,2,1,5,0,1
255025,-40,4,2,1,70,0,1
255464,-40,4,2,1,5,0,1
255494,-40,4,2,1,70,0,1
255933,-40,4,2,1,5,0,1
255963,-40,4,2,1,70,0,1
256168,-40,4,2,1,5,0,1
256197,-40,4,2,1,70,0,1
256402,-40,4,2,1,5,0,1
256431,-40,4,2,1,70,0,1
256636,-40,4,2,1,5,0,1
256666,-40,4,2,1,70,0,1
256871,-40,4,2,1,5,0,1
256900,-40,4,2,1,70,0,1
257105,-40,4,2,1,5,0,1
257134,-40,4,2,1,70,0,1
257339,-40,4,2,1,5,0,1
257369,-40,4,2,1,70,0,1
257574,-40,4,2,1,5,0,1
257603,-40,4,2,1,70,0,1
257808,-40,4,2,1,5,0,1
257838,-40,4,2,1,70,0,1
258277,-40,4,2,1,5,0,1
258306,-40,4,2,1,70,0,1
258746,-40,4,2,1,5,0,1
258775,-40,4,2,1,70,0,1
258980,-40,4,2,1,5,0,1
259009,-40,4,2,1,70,0,1
259214,-40,4,2,1,5,0,1
259244,-40,4,2,1,70,0,1
260152,-40,4,2,1,5,0,1
260181,-40,4,2,1,70,0,1
260386,-40,4,2,1,5,0,1
260416,-40,4,2,1,70,0,1
260621,-40,4,2,1,5,0,1
260650,-40,4,2,1,70,0,1
260855,-40,4,2,1,5,0,1
260884,-40,4,2,1,70,0,1
261089,-40,4,2,1,5,0,1
261119,-40,4,2,1,70,0,1
261558,-40,4,2,1,5,0,1
261588,-40,4,2,1,70,0,1
262027,-40,4,2,1,5,0,1
262056,-40,4,2,1,70,0,1
262261,-40,4,2,1,5,0,1
262291,-40,4,2,1,70,0,1
262496,-40,4,2,1,5,0,1
262525,-40,4,2,1,70,0,1
262730,-40,4,2,1,5,0,1
262759,-40,4,2,1,70,0,1
262964,-40,4,2,1,5,0,1
262994,-40,4,2,1,70,0,1
263433,-40,4,2,1,5,0,1
263463,-40,4,2,1,70,0,1
264400,-80,4,2,1,70,0,1
264869,-40,4,2,1,70,0,1
265777,-40,4,2,1,5,0,1
265806,-40,4,2,1,70,0,1
266246,-40,4,2,1,5,0,1
266275,-40,4,2,1,70,0,1
266714,-40,4,2,1,5,0,1
266744,-40,4,2,1,70,0,1
267213,-66.6666666666667,4,2,1,70,0,0
267652,-66.6666666666667,4,2,1,5,0,0
267681,-66.6666666666667,4,2,1,70,0,0
268121,-66.6666666666667,4,2,1,5,0,0
268150,-66.6666666666667,4,2,1,70,0,0
268589,-66.6666666666667,4,2,1,5,0,0
268619,-66.6666666666667,4,2,1,70,0,0
269058,-66.6666666666667,4,2,1,5,0,0
269088,-66.6666666666667,4,2,1,70,0,0
269527,-66.6666666666667,4,2,1,5,0,0
269556,-66.6666666666667,4,2,1,70,0,0
269996,-66.6666666666667,4,2,1,5,0,0
270025,-66.6666666666667,4,2,1,70,0,0
270464,-66.6666666666667,4,2,1,5,0,0
270494,-66.6666666666667,4,2,1,70,0,0
270933,-66.6666666666667,4,2,1,5,0,0
270963,-66.6666666666667,4,2,1,70,0,0
271168,-66.6666666666667,4,2,1,5,0,0
271197,-66.6666666666667,4,2,1,70,0,0
271402,-66.6666666666667,4,2,1,5,0,0
271431,-66.6666666666667,4,2,1,70,0,0
271871,-66.6666666666667,4,2,1,5,0,0
271900,-66.6666666666667,4,2,1,70,0,0
272339,-66.6666666666667,4,2,1,5,0,0
272369,-66.6666666666667,4,2,1,70,0,0
272808,-66.6666666666667,4,2,1,5,0,0
272838,-66.6666666666667,4,2,1,70,0,0
273043,-66.6666666666667,4,2,1,5,0,0
273072,-66.6666666666667,4,2,1,70,0,0
273277,-66.6666666666667,4,2,1,5,0,0
273306,-66.6666666666667,4,2,1,70,0,0
273746,-66.6666666666667,4,2,1,5,0,0
273775,-66.6666666666667,4,2,1,70,0,0
273980,-66.6666666666667,4,2,1,5,0,0
274009,-66.6666666666667,4,2,1,70,0,0
274214,-66.6666666666667,4,2,1,5,0,0
274244,-66.6666666666667,4,2,1,70,0,0
275152,-66.6666666666667,4,2,1,5,0,0
275181,-66.6666666666667,4,2,1,70,0,0
275621,-66.6666666666667,4,2,1,5,0,0
275650,-66.6666666666667,4,2,1,70,0,0
276089,-66.6666666666667,4,2,1,5,0,0
276119,-66.6666666666667,4,2,1,70,0,0
276558,-66.6666666666667,4,2,1,5,0,0
276588,-66.6666666666667,4,2,1,70,0,0
277027,-66.6666666666667,4,2,1,5,0,0
277056,-66.6666666666667,4,2,1,70,0,0
277496,-66.6666666666667,4,2,1,5,0,0
277525,-66.6666666666667,4,2,1,70,0,0
277730,-66.6666666666667,4,2,1,5,0,0
277759,-66.6666666666667,4,2,1,70,0,0
278463,-100,4,2,1,70,0,0
287838,-66.6666666666667,4,2,1,70,0,0
288277,-66.6666666666667,4,2,1,5,0,0
288306,-66.6666666666667,4,2,1,70,0,0
288746,-66.6666666666667,4,2,1,5,0,0
288775,-66.6666666666667,4,2,1,70,0,0
288980,-66.6666666666667,4,2,1,5,0,0
289009,-66.6666666666667,4,2,2,70,0,0
289214,-66.6666666666667,4,2,2,5,0,0
289244,-66.6666666666667,4,2,1,70,0,0
289449,-66.6666666666667,4,2,1,5,0,0
289478,-66.6666666666667,4,2,1,70,0,0
289683,-66.6666666666667,4,2,1,70,0,0
289713,-57.1428571428571,4,2,1,70,0,0
290416,-100,4,2,1,70,0,0
291529,-100,4,2,1,5,0,0
291588,-100,4,2,1,70,0,0
294986,-100,4,2,2,70,0,0
295338,-100,4,2,1,70,0,0
295396,-100,4,2,1,5,0,0
295455,-100,4,2,1,70,0,0
296334,-100,4,2,1,5,0,0
296392,-100,4,2,1,70,0,0
298853,-100,4,2,1,60,0,0
299088,-100,4,2,1,50,0,0
299205,-100,4,2,2,5,0,0
300142,-100,4,2,2,5,0,0

[Colours]
Combo1 : 0,102,204
Combo2 : 151,255,255
Combo3 : 102,255,102
Combo4 : 148,148,148

[HitObjects]
224,232,26,6,0,P|113:184|241:120,1,328.125012516976,4|0,1:0|1:1,0:0:0:0:
368,232,494,2,0,L|376:154,1,62.5,8|8,0:1|0:1,0:0:0:0:
183,169,846,1,8,0:1:0:0:
398,103,1080,5,8,0:1:0:0:
305,96,1197,1,4,1:2:0:0:
398,103,1315,1,8,0:1:0:0:
222,266,1432,1,8,0:1:0:0:
129,264,1549,1,8,0:1:0:0:
222,266,1666,2,0,L|334:257,1,109.375,0|0,1:0|0:0,0:0:0:0:
346,250,1901,6,0,L|21:232,1,312.5,6|0,1:0|0:0,0:0:0:0:
112,166,2252,1,2,0:0:0:0:
300,169,2369,2,0,P|350:144|292:83,1,156.25,8|2,0:0|1:0,0:0:0:0:
225,76,2721,1,0,0:0:0:0:
35,249,2838,6,0,L|284:247,1,234.375,2|2,1:0|0:1,0:0:0:0:
456,251,3307,1,8,0:0:0:0:
231,171,3541,2,0,L|320:160,1,78.125,2|0,1:0|0:0,0:0:0:0:
494,149,3776,6,0,P|490:100|383:44,1,156.25,2|2,1:2|0:0,0:0:0:0:
331,37,4127,1,0,0:0:0:0:
136,120,4244,1,10,0:0:0:0:
240,112,4361,1,2,0:0:0:0:
136,120,4479,1,2,0:0:0:0:
332,153,4596,1,2,0:0:0:0:
136,120,4713,5,2,0:0:0:0:
240,112,4830,1,2,0:0:0:0:
344,104,4947,1,2,0:0:0:0:
240,112,5065,1,2,0:0:0:0:
62,149,5182,2,0,P|25:176|68:242,1,117.1875,10|0,0:0|0:0,0:0:0:0:
211,278,5416,2,0,L|71:290,1,117.1875
268,211,5651,6,0,P|416:133|280:42,1,350,2|0,1:0|0:0,0:0:0:0:
165,129,6119,1,8,0:0:0:0:
344,128,6354,1,2,0:0:0:0:
16,225,6588,5,2,1:2:0:0:
120,216,6705,1,2,0:0:0:0:
224,208,6822,1,2,0:0:0:0:
120,216,6940,1,2,0:0:0:0:
312,264,7057,2,0,P|384:224|359:170,1,156.25,10|2,0:0|0:0,0:0:0:0:
286,139,7408,1,2,0:0:0:0:
88,110,7526,6,0,L|2:98,3,78.125,2|0|2|2,1:2|0:0|0:0|0:0,0:0:0:0:
207,219,7994,1,10,0:0:0:0:
112,232,8111,1,2,0:0:0:0:
207,219,8229,1,0,0:0:0:0:
334,201,8346,1,2,0:0:0:0:
138,305,8463,6,0,L|137:138,1,156.25,2|2,1:2|0:0,0:0:0:0:
216,145,8815,1,0,0:0:0:0:
412,125,8932,1,10,0:2:0:0:
304,104,9049,1,0,0:0:0:0:
412,125,9166,1,0,0:0:0:0:
304,104,9283,1,0,0:0:0:0:
92,195,9401,6,0,L|452:187,1,312.5,6|0,1:0|0:0,0:0:0:0:
327,122,9752,1,0,0:0:0:0:
131,97,9869,2,0,L|121:270,1,156.25,8|6,0:0|1:0,0:0:0:0:
202,262,10221,1,0,0:0:0:0:
380,271,10338,6,0,P|441:245|321:75,1,350,2|0,1:0|0:0,0:0:0:0:
146,75,10807,2,0,B|146:326|146:326|146:203,1,350,10|0,0:2|0:0,0:0:0:0:
380,271,11276,6,0,P|441:245|470:131,1,156.25,6|2,1:0|0:0,0:0:0:0:
388,111,11627,1,2,0:0:0:0:
196,95,11744,1,10,0:0:0:0:
296,48,11861,1,0,0:0:0:0:
196,95,11979,1,2,0:0:0:0:
397,205,12096,1,2,0:0:0:0:
196,199,12213,5,2,0:0:0:0:
296,128,12330,1,2,0:0:0:0:
196,199,12447,1,2,0:0:0:0:
96,136,12565,1,2,0:0:0:0:
269,274,12682,2,0,P|306:247|263:181,1,117.1875,10|0,0:0|0:0,0:0:0:0:
120,145,12916,2,0,L|260:133,1,117.1875,2|0,0:0|0:0,0:0:0:0:
464,52,13151,6,0,L|103:46,1,350,2|0,1:0|0:0,0:0:0:0:
286,186,13619,2,0,L|390:178,1,78.125,10|2,0:0|0:0,0:0:0:0:
286,186,13854,2,0,L|151:177,1,117.1875,2|0,0:0|0:0,0:0:0:0:
344,88,14088,5,2,1:2:0:0:
448,80,14205,1,2,0:0:0:0:
344,88,14322,1,2,0:0:0:0:
240,80,14440,1,0,0:0:0:0:
442,237,14557,2,0,P|463:196|378:117,1,156.25,10|2,0:0|0:0,0:0:0:0:
324,93,14908,1,2,0:0:0:0:
118,114,15026,5,14,0:2:0:0:
324,93,15143,2,0,L|425:91,1,78.125,10|0,0:1|0:0,0:0:0:0:
144,196,15377,2,0,L|95:196,1,39.0625,8|0,0:1|0:0,0:0:0:0:
292,239,15494,2,0,L|408:235,1,104.166666666667,10|0,0:1|0:0,0:0:0:0:
211,53,15729,2,0,L|151:50,1,39.0625,8|0,0:1|0:0,0:0:0:0:
344,159,15846,6,0,B|452:142|452:142|324:127,1,200,6|2,1:0|1:2,0:0:0:0:
256,112,16197,1,2,1:2:0:0:
148,99,16315,1,2,1:2:0:0:
256,112,16432,1,2,1:2:0:0:
148,99,16549,2,0,P|84:135|149:193,1,156.25,6|0,1:1|0:0,0:0:0:0:
178,206,16842,1,0,0:0:0:0:
339,250,16901,6,0,P|391:225|295:109,1,273.4375,6|0,1:2|0:0,0:0:0:0:
141,103,17369,6,0,L|-9:103,1,125,10|0,0:0|0:0,0:0:0:0:
79,108,17720,1,0,0:0:0:0:
229,170,17837,2,0,L|92:170,1,125,2|2,1:0|1:2,0:0:0:0:
41,171,18189,1,2,0:0:0:0:
274,187,18307,2,0,L|287:119,1,62.5,8|0,0:0|0:0,0:0:0:0:
211,125,18541,2,0,L|301:124,1,62.5
478,125,18776,6,0,L|474:214,1,78.125,0|0,1:2|0:0,0:0:0:0:
273,124,19010,2,0,L|155:124,1,117.1875,2|0,0:2|0:0,0:0:0:0:
347,201,19244,1,10,0:2:0:0:
433,200,19361,1,0,0:0:0:0:
433,200,19479,1,0,0:0:0:0:
347,201,19596,1,2,0:0:0:0:
145,109,19713,6,0,L|283:111,1,125,0|2,1:0|1:2,0:0:0:0:
339,122,20065,1,0,0:0:0:0:
147,225,20182,2,0,L|15:224,1,125,8|0,0:0|0:0,0:0:0:0:
22,224,20533,1,0,0:0:0:0:
198,149,20651,6,0,L|34:147,1,125,0|0,1:0|0:0,0:0:0:0:
423,144,21119,2,0,L|525:144,1,83.3333333333333,8|0,0:0|0:0,0:0:0:0:
391,106,21471,1,2,0:0:0:0:
155,112,21588,1,0,1:0:0:0:
86,110,21705,1,2,0:0:0:0:
155,112,21822,1,2,1:2:0:0:
224,117,21940,1,0,0:0:0:0:
421,113,22057,2,0,P|486:172|416:210,1,187.5,8|0,0:0|0:0,0:0:0:0:
271,213,22526,6,0,L|391:215,1,93.75,0|0,1:0|0:0,0:0:0:0:
365,215,22760,1,2,1:0:0:0:
240,215,22877,1,0,0:0:0:0:
36,219,22994,6,0,P|20:159|86:140,1,125,10|0,0:0|0:0,0:0:0:0:
130,137,23346,1,2,0:0:0:0:
374,199,23463,1,2,1:2:0:0:
395,133,23580,1,0,0:0:0:0:
270,99,23697,1,2,1:0:0:0:
201,91,23815,1,0,0:0:0:0:
434,79,23932,2,0,P|505:130|439:201,1,187.5,8|2,0:0|0:0,0:0:0:0:
265,212,24401,6,0,L|430:212,1,145.833333333333,4|0,1:0|0:0,0:0:0:0:
228,193,24869,2,0,L|221:124,1,62.5,8|0,0:0|0:0,0:0:0:0:
291,130,25104,1,0,0:0:0:0:
222,130,25221,1,0,0:0:0:0:
97,134,25338,1,0,1:0:0:0:
28,137,25455,1,2,0:0:0:0:
97,134,25572,1,2,1:2:0:0:
166,136,25690,1,0,0:0:0:0:
360,104,25807,2,0,L|510:104,1,125,10|2,0:0|0:0,0:0:0:0:
422,109,26158,1,2,0:0:0:0:
240,160,26275,6,0,P|166:162|136:218,1,125,0|0,1:0|0:0,0:0:0:0:
333,133,26744,1,8,0:0:0:0:
402,133,26861,1,0,0:0:0:0:
402,133,26979,1,0,0:0:0:0:
333,133,27096,1,2,0:0:0:0:
60,139,27213,6,0,L|57:225,1,78.125,0|0,1:0|0:0,0:0:0:0:
265,138,27447,2,0,L|383:138,1,117.1875,2|0,1:0|0:0,0:0:0:0:
191,215,27681,1,8,0:0:0:0:
122,214,27798,1,2,0:0:0:0:
52,214,27916,1,2,0:0:0:0:
122,214,28033,1,2,0:0:0:0:
340,127,28151,6,0,L|457:127,1,104.166666666667,0|0,1:0|0:0,0:0:0:0:
233,204,28619,1,8,0:0:0:0:
164,204,28736,1,0,0:0:0:0:
164,204,28854,1,0,0:0:0:0:
233,204,28971,1,0,0:0:0:0:
432,206,29089,6,0,P|481:224|498:268,1,83.3333333333333,2|0,1:0|0:0,0:0:0:0:
457,291,29322,1,0,0:0:0:0:
369,291,29440,1,2,0:0:0:0:
106,309,29557,2,0,L|-1:309,1,93.75,8|0,0:0|0:0,0:0:0:0:
13,309,29791,1,0,1:2:0:0:
82,309,29909,1,0,0:0:0:0:
308,242,30026,5,0,1:0:0:0:
377,240,30260,1,2,1:0:0:0:
71,111,30495,2,0,P|27:160|76:208,1,125,8|0,0:0|0:0,0:0:0:0:
123,213,30846,1,2,0:0:0:0:
350,178,30964,2,0,L|184:178,1,140.625005364418,0|0,1:0|0:0,0:0:0:0:
178,178,31198,1,2,1:0:0:0:
224,153,31315,1,0,0:0:0:0:
473,85,31432,1,8,0:0:0:0:
404,84,31549,1,0,0:0:0:0:
473,85,31666,1,2,0:0:0:0:
404,84,31783,1,2,0:0:0:0:
213,309,31901,6,0,P|153:280|125:145,1,187.5,4|2,1:0|0:0,0:0:0:0:
399,307,32369,2,0,P|468:274|465:158,1,187.5,8|0,0:0|0:0,0:0:0:0:
351,176,32838,1,0,1:0:0:0:
288,171,32955,1,0,0:0:0:0:
413,177,33072,1,2,0:0:0:0:
475,172,33190,1,0,0:0:0:0:
286,236,33307,2,0,L|426:236,1,125,8|2,0:0|0:0,0:0:0:0:
348,238,33658,1,0,0:0:0:0:
138,280,33776,6,0,P|123:226|149:188,1,93.75,0|0,1:0|0:0,0:0:0:0:
172,197,34010,1,2,0:0:0:0:
278,205,34127,1,0,0:0:0:0:
479,168,34244,2,0,L|349:168,1,125,10|2,0:0|0:0,0:0:0:0:
417,155,34596,1,2,0:0:0:0:
292,226,34713,5,0,0:0:0:0:
355,179,34830,2,0,L|289:176,1,62.5,0|0,0:0|3:1,0:0:0:0:
229,170,35065,1,0,0:0:0:0:
33,222,35182,2,0,L|169:221,1,125,8|0,0:0|0:0,0:0:0:0:
222,229,35533,1,2,0:0:0:0:
419,180,35651,6,0,L|316:180,1,93.75,2|0,1:0|0:0,0:0:0:0:
293,181,35885,1,2,0:0:0:0:
356,155,36002,1,2,0:0:0:0:
158,175,36119,2,0,P|174:119|240:107,1,125,10|0,0:0|0:0,0:0:0:0:
297,100,36471,1,2,0:0:0:0:
175,252,36588,2,0,L|169:169,1,62.5,0|0,1:0|0:0,0:0:0:0:
66,171,36822,1,2,0:0:0:0:
131,174,36940,1,2,0:0:0:0:
322,242,37057,2,0,L|402:242,1,62.5,10|0,0:0|0:0,0:0:0:0:
446,241,37291,2,0,L|358:242,1,62.5,2|0,0:0|0:0,0:0:0:0:
104,295,37526,6,0,P|48:270|51:205,1,125,2|2,1:0|0:0,0:0:0:0:
109,221,37877,1,2,0:0:0:0:
297,180,37994,2,0,L|195:180,1,93.75,10|0,0:0|0:0,0:0:0:0:
203,180,38229,1,2,0:0:0:0:
266,161,38346,2,0,L|322:161,1,31.25
453,206,38463,6,0,L|365:206,1,62.5,2|2,1:0|0:0,0:0:0:0:
328,210,38697,2,0,L|395:210,1,62.5,2|0,0:0|0:0,0:0:0:0:
191,300,38932,2,0,P|151:264|214:249,1,125,8|2,0:0|0:0,0:0:0:0:
301,230,39283,1,2,0:0:0:0:
121,272,39401,6,0,P|64:254|144:210,1,187.5,6|0,1:0|0:0,0:0:0:0:
327,270,39869,2,0,P|384:252|304:208,1,187.5,8|0,0:0|0:0,0:0:0:0:
190,146,40338,2,0,P|221:113|281:104,1,93.75,0|0,1:0|0:0,0:0:0:0:
299,96,40572,1,2,0:0:0:0:
363,104,40690,1,0,0:0:0:0:
167,242,40807,2,0,L|157:155,1,62.5,8|0,0:0|0:0,0:0:0:0:
223,139,41041,2,0,L|151:133,1,62.5,2|2,0:0|0:0,0:0:0:0:
361,255,41276,6,0,P|413:245|497:231,1,125,0|2,1:0|0:0,0:0:0:0:
419,203,41627,1,0,0:0:0:0:
223,194,41744,2,0,P|216:132|260:93,1,125,10|0,0:0|0:0,0:0:0:0:
322,105,42096,1,2,0:0:0:0:
445,266,42213,2,0,L|363:255,2,62.5,2|0|2,1:0|0:0|0:0,0:0:0:0:
509,283,42565,1,0,0:0:0:0:
304,246,42682,2,0,L|301:178,1,62.5,10|2,0:0|0:0,0:0:0:0:
412,151,42916,2,0,L|462:150,2,31.25,2|0|0,1:0|0:0|0:0,0:0:0:0:
199,221,43151,6,0,L|342:221,1,125,0|2,1:0|0:0,0:0:0:0:
260,211,43502,1,2,0:0:0:0:
59,265,43619,2,0,L|56:175,1,62.5,10|2,0:0|0:0,0:0:0:0:
130,198,43854,2,0,L|130:124,1,62.5,0|2,0:0|0:0,0:0:0:0:
258,240,44088,2,0,L|158:240,1,93.75,0|0,1:0|0:0,0:0:0:0:
164,240,44322,1,0,0:0:0:0:
228,225,44440,1,2,0:0:0:0:
425,250,44557,2,0,P|462:234|409:185,1,125,8|0,0:0|0:0,0:0:0:0:
363,171,44908,1,2,0:0:0:0:
159,299,45026,6,0,P|99:280|58:219,1,125,2|0,1:0|0:0,0:0:0:0:
142,204,45377,1,0,0:0:0:0:
317,142,45494,2,0,L|182:140,1,125,10|0,0:1|0:0,0:0:0:0:
253,164,45846,1,0,0:0:0:0:
430,295,45963,2,0,P|472:250|467:188,1,125,2|6,1:0|0:0,0:0:0:0:
380,181,46315,5,0,0:0:0:0:
185,163,46432,1,10,0:1:0:0:
331,163,46666,1,2,0:0:0:0:
256,152,46783,1,2,0:0:0:0:
80,128,46901,2,0,L|80:256,1,125,14|0,1:0|0:0,0:0:0:0:
472,240,47369,2,0,L|206:227,2,250,2|8|0,1:2|0:0|1:0,0:0:0:0:
146,292,48541,6,0,P|148:215|300:165,1,250,14|6,1:0|3:0,0:0:0:0:
458,159,49244,2,0,L|328:148,1,125,0|2,0:0|1:2,0:0:0:0:
333,148,49596,1,0,0:0:0:0:
236,224,49713,2,0,L|231:133,1,62.5,0|0,1:2|0:0,0:0:0:0:
351,193,49947,2,0,P|360:129|288:96,1,125,6|2,0:0|0:0,0:0:0:0:
250,88,50299,1,0,0:0:0:0:
50,221,50416,6,0,L|311:214,1,250,14|0,1:0|0:0,0:0:0:0:
234,207,51002,1,0,0:0:0:0:
355,177,51119,1,8,0:0:0:0:
362,114,51236,1,0,1:0:0:0:
235,112,51354,2,0,L|164:106,1,62.5,8|0,0:0|1:0,0:0:0:0:
303,201,51588,2,0,L|379:201,2,62.5,12|12|8,3:0|3:0|3:0,0:0:0:0:
225,207,51940,1,8,3:0:0:0:
354,267,52057,2,0,L|359:198,1,62.5,4|4,3:0|3:0,0:0:0:0:
158,169,52291,6,0,P|89:170|168:104,1,250,14|2,1:0|0:0,0:0:0:0:
232,112,52877,1,0,0:0:0:0:
299,207,52994,2,0,L|211:204,1,62.5,2|0,0:0|0:0,0:0:0:0:
436,276,53229,2,0,P|473:237|347:152,1,250,0|12,0:0|3:0,0:0:0:0:
294,157,53815,1,12,3:0:0:0:
361,211,53932,1,4,3:0:0:0:
365,180,53990,1,0,0:0:0:0:
369,149,54049,1,4,3:0:0:0:
161,312,54166,6,0,P|95:299|89:175,1,187.5,6|0,1:2|0:0,0:0:0:0:
147,196,54635,1,0,0:0:0:0:
396,292,54869,1,2,1:2:0:0:
267,284,55104,2,0,L|367:170,1,125,2|2,0:0|1:2,0:0:0:0:
215,142,55572,1,2,0:0:0:0:
397,249,55807,2,0,L|531:251,1,125,2|2,1:2|0:0,0:0:0:0:
458,222,56158,1,0,0:0:0:0:
325,272,56276,6,0,P|295:231|348:188,1,125,2|2,1:2|0:0,0:0:0:0:
466,138,56744,2,0,L|338:132,1,125,2|2,1:2|0:0,0:0:0:0:
277,120,57096,1,0,0:0:0:0:
154,237,57213,2,0,L|285:234,2,125,2|2|2,1:2|0:0|1:2,0:0:0:0:
27,252,57916,1,2,0:0:0:0:
340,301,58151,6,0,L|353:223,1,62.5,6|0,1:2|0:0,0:0:0:0:
280,218,58385,2,0,L|274:139,1,62.5,2|0,3:2|0:0,0:0:0:0:
403,115,58619,2,0,L|321:105,1,62.5,2|0,3:2|0:0,0:0:0:0:
203,119,58854,2,0,L|211:56,1,62.5,2|0,3:2|0:0,0:0:0:0:
398,149,59088,2,0,L|400:78,1,62.5,10|0,0:2|0:0,0:0:0:0:
207,104,59322,2,0,L|278:102,1,62.5,10|0,0:2|0:0,0:0:0:0:
68,236,59557,2,0,L|145:237,1,62.5,10|0,0:2|0:0,0:0:0:0:
356,334,59791,6,0,P|408:316|334:188,1,250,14|0,1:0|0:0,0:0:0:0:
184,127,60494,2,0,L|446:132,2,250
360,265,61666,5,0,0:0:0:0:
394,241,61724,1,0,0:0:0:0:
394,241,61783,1,0,0:0:0:0:
360,265,61841,1,0,0:0:0:0:
192,192,61901,6,0,L|379:189,1,187.500007152558,6|0,1:0|0:0,0:0:0:0:
439,191,62252,1,0,0:0:0:0:
379,188,62369,2,0,L|94:189,1,250,8|2,0:0|0:0,0:0:0:0:
72,190,62721,1,0,0:0:0:0:
129,188,62838,2,0,L|447:188,1,312.5,0|2,1:0|0:0,0:0:0:0:
496,190,63190,1,0,0:0:0:0:
441,188,63307,2,0,L|65:191,1,375.000014305115,8|2,0:0|0:0,0:0:0:0:
40,192,63658,1,0,0:0:0:0:
16,192,63776,6,0,L|392:192,1,375.000014305115,2|2,1:0|0:0,0:0:0:0:
416,200,64127,1,0,0:0:0:0:
441,188,64244,2,0,L|65:188,1,375.000014305115,8|2,0:0|0:0,0:0:0:0:
40,216,64596,1,0,0:0:0:0:
16,192,64713,2,0,L|392:192,1,375.000014305115,0|2,1:0|0:0,0:0:0:0:
416,208,65065,1,0,0:0:0:0:
440,232,65182,2,0,L|57:232,1,375.000014305115,8|2,0:0|0:0,0:0:0:0:
40,208,65533,1,0,0:0:0:0:
16,192,65651,6,0,L|392:192,1,375.000014305115,2|2,1:0|0:0,0:0:0:0:
440,192,66002,1,0,0:0:0:0:
384,192,66119,2,0,L|48:192,1,312.5,8|2,0:0|0:0,0:0:0:0:
16,192,66471,1,0,0:0:0:0:
71,192,66588,2,0,L|344:192,1,250,0|2,1:0|0:0,0:0:0:0:
496,192,66940,1,0,0:0:0:0:
321,192,67057,2,0,L|16:192,1,299.999990844727,8|2,0:0|0:0,0:0:0:0:
104,192,67408,1,0,0:0:0:0:
368,272,67526,6,0,P|408:224|368:176,1,125,2|0,1:0|0:0,0:0:0:0:
192,136,67994,2,0,L|360:136,1,125,10|0,0:1|0:0,0:0:0:0:
136,72,68463,1,2,1:0:0:0:
64,72,68580,1,0,0:0:0:0:
136,72,68697,1,2,0:0:0:0:
320,160,68815,1,2,0:0:0:0:
240,152,68932,1,10,0:0:0:0:
240,72,69049,1,0,0:0:0:0:
424,64,69166,1,0,0:0:0:0:
240,112,69283,1,0,0:0:0:0:
40,192,69401,6,0,L|280:192,1,187.500007152558,6|2,1:0|0:0,0:0:0:0:
228,192,69752,1,0,0:0:0:0:
228,192,69869,2,0,L|484:192,1,250,8|2,0:0|0:0,0:0:0:0:
478,192,70221,1,0,0:0:0:0:
478,192,70338,2,0,L|160:192,1,312.5,0|2,1:0|0:0,0:0:0:0:
166,192,70690,1,0,0:0:0:0:
168,152,70807,2,0,L|496:152,1,312.5,8|2,0:0|0:0,0:0:0:0:
481,152,71158,1,0,0:0:0:0:
481,152,71276,6,0,L|48:152,1,425.000008106232,2|2,1:0|0:0,0:0:0:0:
112,152,71627,1,0,0:0:0:0:
168,152,71744,2,0,L|488:152,1,312.5,8|2,0:0|0:0,0:0:0:0:
424,152,72096,1,2,0:0:0:0:
200,240,72213,5,2,1:0:0:0:
280,200,72330,2,0,L|280:128,1,62.5,0|2,0:0|0:0,0:0:0:0:
200,192,72565,1,0,0:0:0:0:
448,176,72682,1,10,0:0:0:0:
448,176,72799,1,2,0:0:0:0:
448,176,72916,1,2,0:0:0:0:
448,176,73033,1,2,0:0:0:0:
224,208,73151,6,0,L|136:208,1,62.5,6|0,1:0|0:0,0:0:0:0:
376,168,73385,2,0,L|448:168,1,62.5,2|0,0:0|0:0,0:0:0:0:
224,176,73619,2,0,P|160:128|224:64,1,187.5,10|0,0:0|0:0,0:0:0:0:
408,176,74088,6,0,L|496:176,1,62.5,2|0,1:0|0:0,0:0:0:0:
256,136,74322,2,0,L|184:136,1,62.5,2|0,0:0|0:0,0:0:0:0:
408,144,74556,2,0,P|472:96|408:32,1,187.5,10|0,0:0|0:0,0:0:0:0:
190,203,75026,6,0,L|42:201,1,125,2|2,1:0|0:0,0:0:0:0:
310,245,75494,2,0,L|316:177,1,62.5,14|0,0:0|0:0,0:0:0:0:
206,158,75729,2,0,L|196:91,1,62.5,2|0,0:0|0:0,0:0:0:0:
416,192,75963,1,2,1:0:0:0:
490,182,76080,1,0,0:0:0:0:
490,182,76197,1,0,0:0:0:0:
416,192,76315,1,2,0:0:0:0:
202,176,76432,2,0,L|113:173,1,62.5,8|12,0:0|3:0,0:0:0:0:
313,269,76666,1,4,3:0:0:0:
488,296,76783,1,4,3:0:0:0:
313,269,76901,6,0,L|119:268,1,187.500007152558,6|2,1:0|0:0,0:0:0:0:
76,268,77252,1,0,0:0:0:0:
134,269,77369,2,0,L|397:268,1,250,8|2,0:0|0:0,0:0:0:0:
444,268,77721,1,0,0:0:0:0:
383,268,77838,2,0,L|63:267,1,312.5,0|2,1:0|0:0,0:0:0:0:
14,268,78190,1,0,0:0:0:0:
71,267,78307,2,0,L|456:263,1,375.000014305115,8|2,0:0|0:0,0:0:0:0:
496,264,78658,1,0,0:0:0:0:
440,192,78776,6,0,L|64:192,1,375.000014305115,2|2,1:0|0:0,0:0:0:0:
65,192,79127,1,0,0:0:0:0:
65,192,79244,2,0,L|441:192,1,375.000014305115,8|2,0:0|0:0,0:0:0:0:
440,192,79595,1,0,0:0:0:0:
440,192,79713,2,0,L|64:192,1,375.000014305115,0|2,1:0|0:0,0:0:0:0:
65,192,80064,1,0,0:0:0:0:
65,192,80182,2,0,L|448:192,1,375.000014305115,8|2,0:0|0:0,0:0:0:0:
244,131,80533,1,0,0:0:0:0:
62,292,80651,5,2,1:0:0:0:
62,292,80885,2,0,L|58:222,1,62.5,2|0,0:0|0:0,0:0:0:0:
289,197,81119,2,0,L|291:127,1,62.5,10|0,0:0|0:0,0:0:0:0:
395,131,81354,2,0,L|400:66,1,62.5,2|0,0:0|0:0,0:0:0:0:
195,181,81588,2,0,L|193:111,1,62.5,2|0,1:2|0:0,0:0:0:0:
84,117,81823,2,0,L|79:52,1,62.5,2|0,0:0|0:0,0:0:0:0:
296,264,82057,2,0,L|366:260,1,62.5,10|0,0:0|0:0,0:0:0:0:
112,184,82291,2,0,L|40:180,1,62.5,2|0,0:0|0:0,0:0:0:0:
272,320,82526,6,0,P|352:264|265:209,1,234.375,2|0,1:0|0:0,0:1:0:0:
184,208,82994,2,0,L|496:208,1,312.5,10|0,0:1|0:0,0:1:0:0:
424,168,83346,1,0,0:0:0:0:
208,273,83463,2,0,L|199:202,1,62.5,2|0,1:0|0:0,0:0:0:0:
99,187,83697,2,0,L|93:118,1,62.5,2|0,1:0|0:0,0:0:0:0:
368,256,83932,2,0,L|368:184,1,62.5,10|2,1:0|0:0,0:0:0:0:
192,168,84166,1,2,1:0:0:0:
16,160,84283,1,0,0:0:0:0:
192,168,84401,6,0,L|496:168,1,299.999990844727,6|0,1:0|0:0,0:0:0:0:
406,132,84752,1,0,0:0:0:0:
232,232,84869,2,0,L|56:232,1,174.999994659424,10|2,0:0|0:0,0:0:0:0:
128,200,85221,1,0,0:0:0:0:
400,192,85338,2,0,L|481:190,1,62.5,2|0,1:2|0:0,0:0:0:0:
244,142,85572,2,0,L|171:138,1,62.5,2|0,0:0|0:0,0:0:0:0:
416,288,85807,2,0,P|496:232|416:160,1,234.375,10|0,0:1|0:0,0:0:0:0:
352,176,86276,6,0,L|24:176,1,312.5,2|0,1:0|0:0,0:0:0:0:
120,176,86627,1,0,0:0:0:0:
304,232,86744,2,0,L|488:232,1,174.999994659424,10|2,0:0|0:0,0:0:0:0:
392,192,87096,1,0,0:0:0:0:
168,184,87213,2,0,L|87:182,1,62.5,2|0,1:2|0:0,0:0:0:0:
328,248,87447,2,0,L|328:152,1,62.5,2|0,0:0|0:0,0:0:0:0:
104,232,87682,2,0,P|19:190|102:116,1,234.375,10|0,0:1|0:0,0:0:0:0:
184,128,88151,6,0,L|496:128,1,312.5,2|0,1:0|0:0,0:0:0:0:
432,88,88502,1,0,0:0:0:0:
240,224,88619,2,0,L|48:224,1,174.999994659424,14|2,0:0|0:0,0:0:0:0:
144,192,88971,1,0,0:0:0:0:
360,184,89088,1,2,1:0:0:0:
432,184,89205,1,0,0:0:0:0:
432,184,89322,1,0,1:0:0:0:
360,184,89440,1,0,0:0:0:0:
136,272,89557,2,0,L|72:272,1,62.5,10|2,0:1|0:0,0:0:0:0:
312,224,89791,2,0,L|376:224,1,62.5,2|2,0:0|0:0,0:0:0:0:
136,240,90026,5,0,1:0:0:0:
368,184,90143,2,0,L|240:184,1,125,12|0,0:0|0:0,0:0:0:0:
307,48,90494,1,10,0:2:0:0:
120,224,90611,2,0,L|48:224,1,62.5,2|2,1:2|0:2,0:0:0:0:
264,176,90846,2,0,L|184:176,1,62.5,10|2,0:2|0:2,0:0:0:0:
410,134,91080,1,10,0:2:0:0:
487,132,91197,1,2,1:2:0:0:
410,134,91315,1,2,0:2:0:0:
191,96,91432,1,8,0:0:0:0:
270,94,91549,1,12,3:0:0:0:
349,92,91666,1,4,3:0:0:0:
270,94,91783,1,4,3:0:0:0:
85,205,91901,6,0,L|405:207,1,299.999990844727,6|0,1:0|0:0,0:0:0:0:
207,159,92252,1,2,0:0:0:0:
27,122,92369,1,8,0:0:0:0:
160,128,92604,1,2,1:0:0:0:
80,128,92721,1,0,0:0:0:0:
256,288,92838,2,0,L|256:64,1,218.75,2|0,1:0|0:0,0:0:0:0:
456,189,93307,1,8,0:0:0:0:
456,189,93541,1,2,1:0:0:0:
376,183,93658,1,0,0:0:0:0:
195,170,93776,5,2,1:2:0:0:
286,161,93893,1,2,0:0:0:0:
376,183,94010,1,2,0:0:0:0:
376,183,94127,1,0,0:0:0:0:
203,236,94244,2,0,L|201:152,1,62.5,10|2,0:0|0:0,0:0:0:0:
18,177,94479,1,2,0:0:0:0:
109,170,94596,1,2,0:0:0:0:
18,177,94713,2,0,L|16:110,1,62.5,2|2,0:0|0:0,0:0:0:0:
109,170,94947,2,0,L|109:96,1,62.5,2|2,0:0|0:0,0:0:0:0:
299,192,95182,2,0,L|300:129,1,62.5,10|0,0:0|0:0,0:0:0:0:
215,122,95416,1,0,0:0:0:0:
299,192,95533,1,0,0:0:0:0:
481,194,95651,6,0,L|136:190,1,299.999990844727,2|2,1:0|0:0,0:0:0:0:
269,156,96002,1,2,0:0:0:0:
76,182,96119,1,8,0:0:0:0:
21,138,96236,1,0,0:0:0:0:
76,182,96354,1,2,0:0:0:0:
410,224,96588,2,0,L|226:226,1,156.25,2|2,1:2|0:0,0:0:0:0:
179,228,96940,1,2,0:0:0:0:
476,241,97057,2,0,L|481:172,1,62.5,10|2,0:0|0:0,0:0:0:0:
383,154,97291,2,0,L|381:80,1,62.5,2|2,0:0|0:0,0:0:0:0:
181,128,97526,5,2,1:2:0:0:
98,111,97643,1,0,0:0:0:0:
181,128,97760,2,0,L|183:52,1,62.5,2|2,0:0|0:0,0:0:0:0:
434,234,97994,2,0,L|221:228,1,187.500007152558,10|0,0:0|0:0,0:0:0:0:
170,204,98346,1,2,0:0:0:0:
424,156,98463,1,2,0:0:0:0:
424,156,98580,1,2,0:0:0:0:
343,152,98697,1,2,0:0:0:0:
424,156,98815,1,0,0:0:0:0:
229,191,98932,2,0,L|226:116,1,62.5,10|0,0:2|0:0,0:0:0:0:
27,120,99166,1,0,0:0:0:0:
227,118,99283,1,0,0:0:0:0:
446,122,99401,6,0,L|80:118,1,299.999990844727,6|0,1:0|0:0,0:0:0:0:
321,253,99752,1,0,0:0:0:0:
496,256,99869,1,8,0:0:0:0:
496,256,100104,1,6,1:0:0:0:
424,256,100221,1,0,0:0:0:0:
206,258,100338,2,0,B|204:72|204:72|375:80,1,328.125012516976,2|0,1:0|0:0,0:0:0:0:
164,113,100807,2,0,L|167:336,1,218.75,10|0,0:2|0:0,0:0:0:0:
403,288,101276,5,6,1:0:0:0:
405,213,101393,1,0,0:0:0:0:
319,173,101510,1,2,0:0:0:0:
405,213,101627,1,2,0:0:0:0:
200,199,101744,2,0,L|194:124,1,62.5,10|0,0:0|0:0,0:0:0:0:
94,114,101979,1,2,0:0:0:0:
189,110,102096,1,2,0:0:0:0:
405,251,102213,1,0,1:0:0:0:
326,246,102330,1,2,0:0:0:0:
326,246,102447,1,0,0:0:0:0:
405,251,102565,1,2,0:0:0:0:
211,192,102682,2,0,L|206:117,1,62.5,10|0,0:0|0:0,0:0:0:0:
401,157,102916,1,2,0:0:0:0:
208,160,103033,1,2,0:0:0:0:
16,176,103151,6,0,L|341:175,1,299.999990844727,2|2,1:0|0:0,0:0:0:0:
401,171,103502,1,2,0:0:0:0:
162,218,103619,1,10,0:0:0:0:
96,192,103736,1,2,0:0:0:0:
162,218,103854,1,2,0:0:0:0:
484,117,104088,6,0,L|481:51,1,62.5,2|2,1:2|0:0,0:0:0:0:
282,64,104322,2,0,L|348:60,1,62.5,2|0,0:0|0:0,0:0:0:0:
143,171,104557,2,0,L|139:100,1,62.5,10|2,0:0|0:0,0:0:0:0:
41,111,104791,2,0,L|36:45,1,62.5,2|2,0:0|0:0,0:0:0:0:
261,260,105026,6,0,L|305:256,1,31.25,6|0,1:2|0:0,0:0:0:0:
109,259,105143,2,0,L|102:138,1,93.75,10|0,0:1|0:0,0:0:0:0:
270,198,105377,2,0,L|313:195,1,31.25,8|0,0:1|0:0,0:0:0:0:
146,98,105494,2,0,L|113:94,1,31.25,10|0,0:1|0:0,0:0:0:0:
267,161,105611,2,0,L|263:42,1,93.75
106,231,105846,6,0,L|108:121,1,93.75,6|0,1:0|0:0,0:0:0:0:
287,212,106080,2,0,L|329:211,1,31.25,2|0,1:2|0:0,0:0:0:0:
174,124,106197,2,0,L|128:125,1,31.25,2|0,1:2|0:0,0:0:0:0:
345,116,106315,2,0,L|377:120,1,31.25,2|0,1:2|0:0,0:0:0:0:
172,83,106432,2,0,L|120:84,1,31.25,2|0,1:2|0:0,0:0:0:0:
313,298,106549,2,0,L|317:158,1,125,6|0,1:1|0:0,0:0:0:0:
99,273,106901,6,0,L|248:251,2,140.625,6|0|0,1:2|0:0|0:0,0:0:0:0:
270,137,107604,2,0,L|337:129,1,62.5
226,73,107838,2,0,P|196:105|253:145,1,125,2|0,0:0|0:0,0:0:0:0:
299,90,108160,1,0,0:0:0:0:
366,83,108248,2,0,L|314:131,2,62.5,2|0|0,0:0|0:0|0:0,0:0:0:0:
450,78,108600,1,0,0:0:0:0:
347,234,108717,1,0,0:0:0:0:
278,233,108776,6,0,L|151:232,1,125,2|0,0:0|0:0,0:0:0:0:
298,85,109244,2,0,P|301:140|239:163,1,125,2|0,0:0|0:0,0:0:0:0:
165,90,109596,1,0,0:0:0:0:
298,85,109713,2,0,L|437:82,2,125,2|2|2,0:0|0:0|0:0,0:0:0:0:
164,227,110338,1,8,0:0:0:0:
463,228,110572,1,6,1:2:0:0:
254,120,110963,6,0,L|346:117,1,83.3333333333333,0|2,0:0|0:0,0:0:0:0:
180,58,111315,1,0,0:0:0:0:
377,61,111549,2,0,P|376:100|273:174,1,177.083333333333
163,219,112018,1,0,0:0:0:0:
344,216,112213,1,0,0:0:0:0:
100,131,112467,1,0,0:0:0:0:
68,119,112526,5,0,0:0:0:0:
367,140,112760,2,0,L|165:149,2,187.5,6|0|2,0:0|0:0|0:0,0:0:0:0:
205,62,113697,2,0,P|200:95|259:162,1,125,2|2,0:0|0:0,0:0:0:0:
399,88,114078,2,0,L|377:88,1,15.625
233,104,114283,6,0,P|199:133|244:248,1,187.5
268,172,114674,2,0,L|369:167,1,100
378,114,114908,2,0,L|279:121,1,100
291,85,115143,1,0,0:0:0:0:
360,62,115260,1,2,0:0:0:0:
220,64,115377,2,0,L|156:64,1,62.5
157,64,115572,1,2,0:0:0:0:
332,133,115768,2,0,L|202:133,1,125
472,326,116197,6,0,P|447:272|321:239,1,197.916666666667,6|0,1:2|0:0,0:0:0:0:
161,261,116744,1,2,0:0:0:0:
262,230,116920,2,0,L|262:134,1,93.75
369,94,117213,2,0,L|243:90,1,125,2|2,0:0|0:0,0:0:0:0:
244,90,117477,2,0,L|361:90,1,109.375,0|2,0:0|0:0,0:0:0:0:
102,234,117799,2,0,L|76:206,2,31.25
306,131,118033,6,0,L|156:126,1,125
313,114,118385,2,0,L|398:116,1,62.5,2|0,0:0|0:0,0:0:0:0:
246,133,118619,2,0,L|238:217,1,62.5,2|0,0:0|0:0,0:0:0:0:
373,202,118854,2,0,L|377:282,1,62.5,2|0,0:0|0:0,0:0:0:0:
256,286,119088,1,2,0:0:0:0:
378,266,119205,1,0,0:0:0:0:
239,262,119440,2,0,L|236:192,1,62.5,0|2,0:0|1:2,0:0:0:0:
124,195,119674,2,0,L|121:124,1,62.5,0|2,0:0|1:2,0:0:0:0:
427,151,119908,6,0,B|248:120|128:168|120:224|224:272|280:288|344:296|320:280,1,437.5,0|0,0:0|1:0,0:0:0:0:
352,280,120787,1,0,0:0:0:0:
320,280,120846,1,0,0:0:0:0:
77,137,120963,1,8,0:0:0:0:
256,344,121432,1,8,0:0:0:0:
256,344,121901,6,0,L|256:120,1,218.75
432,160,122369,1,14,1:0:0:0:
493,143,122486,1,0,0:0:0:0:
432,160,122604,1,0,0:0:0:0:
136,119,122838,1,0,1:0:0:0:
220,115,122955,1,0,0:0:0:0:
306,109,123072,1,2,0:0:0:0:
220,115,123190,1,0,0:0:0:0:
28,125,123307,1,8,0:0:0:0:
112,121,123424,1,0,0:0:0:0:
198,115,123541,1,2,0:0:0:0:
112,121,123659,1,0,0:0:0:0:
316,254,123776,6,0,B|386:247|386:247|372:222,1,93.75,0|0,1:0|0:0,0:0:0:0:
196,254,124010,2,0,B|126:247|126:247|140:222,1,93.75,2|0,0:0|0:0,0:0:0:0:
329,188,124244,2,0,L|335:83,1,93.75,10|0,0:0|0:0,0:0:0:0:
187,95,124479,2,0,L|139:91,1,31.25,2|0,0:0|0:0,0:0:0:0:
325,95,124596,2,0,L|373:91,1,31.25,2|0,0:0|0:0,0:0:0:0:
143,251,124713,6,0,L|112:176,1,62.5
143,251,124947,1,2,1:0:0:0:
231,215,125065,1,0,0:0:0:0:
472,234,125182,2,0,L|478:151,1,62.5,8|2,0:0|0:0,0:0:0:0:
181,74,125416,1,0,0:0:0:0:
272,172,125533,1,2,0:0:0:0:
465,194,125651,6,0,L|469:112,1,62.5,2|0,1:0|0:0,0:0:0:0:
278,136,125826,2,0,L|176:131,1,93.75,0|2,0:0|0:0,0:0:0:0:
216,132,126061,1,0,0:0:0:0:
432,296,126119,2,0,L|464:232,1,62.5,10|0,0:0|0:0,0:0:0:0:
434,232,126354,1,0,0:0:0:0:
373,230,126471,1,2,0:0:0:0:
168,233,126588,2,0,L|93:230,1,62.5,0|0,1:0|0:0,0:0:0:0:
326,162,126822,1,2,0:0:0:0:
232,154,126940,1,2,0:0:0:0:
326,162,127057,1,10,0:0:0:0:
232,154,127174,1,0,0:0:0:0:
326,162,127291,1,2,0:0:0:0:
232,154,127408,1,0,0:0:0:0:
424,248,127526,6,0,L|496:248,1,62.5,2|0,1:0|0:0,0:0:0:0:
258,192,127760,2,0,L|257:118,1,62.5,2|2,0:0|0:0,0:0:0:0:
154,122,127994,2,0,L|151:56,1,62.5,10|0,0:0|0:0,0:0:0:0:
43,74,128229,2,0,L|41:10,1,62.5,2|0,0:0|0:0,0:0:0:0:
281,257,128463,2,0,L|359:250,1,62.5,2|0,1:0|0:0,0:0:0:0:
133,194,128697,1,2,0:0:0:0:
49,180,128815,2,0,L|50:113,1,62.5,0|8,0:0|0:0,0:0:0:0:
338,163,129049,1,0,0:0:0:0:
252,155,129167,2,0,L|251:88,1,62.5,2|2,0:0|0:0,0:0:0:0:
475,139,129401,6,0,L|188:134,1,281.250010728836,6|0,1:0|0:0,0:0:0:0:
109,134,129869,2,0,L|484:137,1,312.5,8|0,0:0|0:0,0:0:0:0:
333,144,130221,1,0,0:0:0:0:
128,246,130338,2,0,L|118:169,1,62.5,0|0,1:0|0:0,0:0:0:0:
323,185,130572,2,0,L|361:178,1,31.25,2|0,0:0|0:0,0:0:0:0:
202,104,130690,2,0,L|170:101,1,31.25
326,266,130807,2,0,L|429:249,1,93.75,8|0,0:0|0:0,0:0:0:0:
252,164,131041,2,0,L|135:158,1,93.75,2|0,0:0|0:0,0:0:0:0:
381,342,131276,6,0,L|390:197,1,125,2|2,1:0|0:0,0:0:0:0:
306,193,131627,1,0,0:0:0:0:
120,132,131744,1,10,0:0:0:0:
198,125,131861,1,2,0:0:0:0:
287,116,131979,1,0,0:0:0:0:
198,125,132096,1,6,0:0:0:0:
444,269,132213,2,0,L|452:196,1,62.5,0|4,1:0|0:0,0:0:0:0:
258,178,132447,2,0,L|258:101,1,62.5,2|0,0:0|1:0,0:0:0:0:
381,123,132682,2,0,L|381:57,1,62.5,14|0,0:0|0:0,0:0:0:0:
258,178,132916,2,0,L|261:258,1,62.5
33,222,133151,6,0,L|28:88,1,125,0|2,1:0|0:0,0:0:0:0:
101,161,133502,1,2,0:0:0:0:
353,112,133619,1,10,0:0:0:0:
277,101,133736,1,2,0:0:0:0:
353,112,133854,1,0,0:0:0:0:
431,122,133971,1,2,0:0:0:0:
243,180,134088,2,0,L|185:177,1,31.25,0|0,1:0|0:0,0:0:0:0:
368,262,134205,2,0,L|370:143,1,93.75,2|0,0:0|0:0,0:0:0:0:
243,178,134440,2,0,L|206:178,1,31.25,2|0,0:0|0:0,0:0:0:0:
401,297,134557,2,0,L|475:296,1,62.5,8|2,0:0|0:0,0:0:0:0:
274,210,134791,1,0,0:0:0:0:
79,194,134908,1,0,0:0:0:0:
275,271,135026,5,12,0:2:0:0:
368,244,135143,2,0,L|373:172,1,62.5,8|0,1:0|0:0,0:0:0:0:
153,169,135377,1,12,0:2:0:0:
248,139,135494,2,0,L|250:72,1,62.5,8|0,0:0|0:0,0:0:0:0:
16,128,135729,1,12,0:2:0:0:
111,98,135846,2,0,L|113:31,1,62.5,8|0,0:0|0:0,0:0:0:0:
309,247,136080,1,12,0:2:0:0:
107,235,136197,1,10,0:0:0:0:
309,247,136315,1,2,1:2:0:0:
496,248,136432,1,12,0:2:0:0:
210,212,136549,2,0,L|206:144,1,62.5,14|2,0:0|1:2,0:0:0:0:
412,154,136783,1,12,0:2:0:0:
102,106,136901,6,0,P|10:164|98:214,1,250,12|0,1:0|0:0,0:0:0:0:
470,219,137838,2,0,L|220:219,1,250,4|0,1:0|0:0,0:0:0:0:
471,64,138776,6,0,B|471:200|471:200|471:64,1,250,4|0,1:0|0:0,0:0:0:0:
220,198,139713,2,0,L|498:198,1,250,4|2,1:0|0:0,0:0:0:0:
94,70,140651,6,0,P|26:162|142:199,1,250,4|2,1:0|0:0,0:0:0:0:
369,205,141588,2,0,L|369:63,1,125,6|2,1:2|0:0,0:0:0:0:
244,80,142057,2,0,L|391:80,1,125,6|2,1:2|0:0,0:0:0:0:
56,90,142526,6,0,P|10:170|132:217,1,250,4|2,1:0|1:2,0:0:0:0:
351,134,143229,1,2,1:2:0:0:
27,148,143463,1,2,1:2:0:0:
227,153,143697,1,2,1:2:0:0:
428,150,143932,1,2,1:2:0:0:
54,84,144166,1,2,1:2:0:0:
367,332,144401,6,0,L|366:187,1,125,2|2,1:2|1:2,0:0:0:0:
42,213,144869,2,0,L|41:367,1,125,2|2,1:2|1:2,0:0:0:0:
443,224,145338,5,8,0:0:0:0:
374,228,145455,1,0,1:0:0:0:
194,166,145572,1,8,0:0:0:0:
118,161,145690,1,8,0:0:0:0:
402,87,145807,1,8,0:0:0:0:
472,86,145924,1,0,1:0:0:0:
285,82,146041,1,8,0:0:0:0:
98,85,146158,1,8,0:0:0:0:
448,32,146276,6,0,L|256:32,1,192.499996181488,6|2,1:0|0:0,0:0:0:0:
224,64,146627,1,0,0:0:0:0:
416,96,146744,2,0,L|96:96,1,320,8|2,0:0|0:0,0:0:0:0:
32,128,147096,1,0,0:0:0:0:
96,160,147213,2,0,L|416:160,1,320,0|2,1:2|0:0,0:0:0:0:
320,192,147565,1,0,0:0:0:0:
64,224,147682,2,0,L|448:224,1,383.749977895261,8|2,0:0|0:0,0:0:0:0:
480,128,148033,1,0,0:0:0:0:
448,32,148151,6,0,L|256:32,1,192.499996181488,2|2,1:0|0:0,0:0:0:0:
224,64,148502,1,0,0:0:0:0:
416,96,148619,2,0,L|96:96,1,320,8|2,0:0|0:0,0:0:0:0:
32,128,148971,1,0,0:0:0:0:
96,160,149088,2,0,L|416:160,1,320,0|2,1:2|0:0,0:0:0:0:
320,192,149440,1,0,0:0:0:0:
64,224,149557,2,0,L|448:224,1,383.749977895261,8|2,0:0|0:0,0:0:0:0:
480,128,149908,1,0,0:0:0:0:
448,32,150026,6,0,L|256:32,1,192.499996181488,2|2,1:0|0:0,0:0:0:0:
224,64,150377,1,0,0:0:0:0:
416,96,150494,2,0,L|96:96,1,320,8|2,0:2|0:0,0:0:0:0:
64,128,150846,1,0,0:0:0:0:
96,160,150963,2,0,L|416:160,1,320,0|2,1:2|0:0,0:0:0:0:
320,192,151315,1,0,0:0:0:0:
64,224,151432,2,0,L|448:224,1,383.749977895261,8|2,0:2|0:0,0:0:0:0:
480,128,151783,1,0,0:0:0:0:
448,32,151901,6,0,L|64:32,1,383.749977895261,2|0,1:0|0:0,0:0:0:0:
160,64,152252,1,0,0:0:0:0:
448,96,152369,2,0,L|64:96,1,383.749977895261,10|0,0:1|0:0,0:0:0:0:
160,128,152720,1,0,0:0:0:0:
352,160,152838,6,0,B|256:160|256:160|256:256,1,191.874988947631,2|0,1:0|0:0,0:0:0:0:
160,160,153072,2,0,B|256:160|256:160|256:256,1,191.874988947631,2|2,0:0|0:0,0:0:0:0:
480,224,153307,2,0,L|256:224,1,191.874988947631,10|0,0:0|0:0,0:0:0:0:
96,224,153541,1,0,0:0:0:0:
64,224,153658,1,0,0:0:0:0:
384,32,153776,6,0,L|192:32,1,192.499996181488,6|2,1:0|0:0,0:0:0:0:
224,64,154127,1,0,0:0:0:0:
416,96,154244,2,0,L|96:96,1,320,10|2,0:0|0:0,0:0:0:0:
32,128,154596,1,0,0:0:0:0:
96,160,154713,2,0,L|416:160,1,320,2|2,1:2|0:0,0:0:0:0:
320,192,155065,1,0,0:0:0:0:
64,224,155182,2,0,L|448:224,1,383.749977895261,10|2,0:0|0:0,0:0:0:0:
480,128,155533,1,0,0:0:0:0:
448,32,155651,6,0,L|64:32,1,383.749977895261,2|2,1:0|0:0,0:0:0:0:
160,64,156002,1,0,0:0:0:0:
448,96,156119,2,0,L|64:96,1,383.749977895261,10|2,0:2|0:0,0:0:0:0:
160,128,156471,1,2,0:0:0:0:
64,160,156588,2,0,L|384:160,1,320,2|2,1:0|0:0,0:0:0:0:
448,160,156940,1,0,0:0:0:0:
160,224,157057,1,10,0:0:0:0:
256,224,157174,1,2,0:0:0:0:
320,224,157291,1,2,0:0:0:0:
352,224,157408,1,2,0:0:0:0:
96,32,157526,6,0,P|73:79|128:96,1,125,6|2,1:0|0:0,0:0:0:0:
224,32,157877,1,0,0:0:0:0:
448,32,157994,1,10,0:0:0:0:
352,32,158229,1,0,0:0:0:0:
416,32,158346,1,0,0:0:0:0:
288,32,158463,2,0,P|267:82|321:95,1,125,2|2,1:0|0:0,0:0:0:0:
224,32,158815,1,0,0:0:0:0:
448,32,158932,1,10,0:0:0:0:
384,32,159166,1,0,0:0:0:0:
288,32,159283,1,0,0:0:0:0:
160,96,159401,5,2,1:0:0:0:
128,96,159518,1,0,0:0:0:0:
256,160,159635,1,2,0:0:0:0:
320,160,159752,1,0,0:0:0:0:
64,224,159869,1,14,0:0:0:0:
160,224,159986,1,0,0:0:0:0:
448,288,160104,1,2,0:0:0:0:
352,288,160221,1,0,0:0:0:0:
96,352,160338,5,2,1:0:0:0:
128,352,160455,1,0,0:0:0:0:
96,352,160572,1,0,0:0:0:0:
192,352,160690,1,2,0:0:0:0:
448,352,160807,1,8,0:0:0:0:
352,352,160924,1,12,3:0:0:0:
448,352,161041,1,4,3:0:0:0:
256,352,161159,1,4,3:0:0:0:
69,304,161276,6,0,L|203:290,1,125,6|2,1:0|0:2,0:0:0:0:
131,270,161627,1,0,0:0:0:0:
334,196,161744,2,0,L|165:176,1,149.999995422363,10|2,0:2|0:2,0:0:0:0:
261,155,162096,1,0,0:0:0:0:
87,100,162213,6,0,L|294:94,1,187.500007152558,2|2,1:2|0:2,0:0:0:0:
199,68,162565,1,0,0:0:0:0:
413,92,162682,2,0,L|72:138,1,324.999985122681,10|2,0:2|0:2,0:0:0:0:
188,169,163033,1,0,0:0:0:0:
380,266,163151,6,0,L|505:274,1,125,2|2,1:0|0:2,0:0:0:0:
443,301,163502,1,0,0:0:0:0:
259,338,163619,2,0,L|443:351,1,149.999995422363,10|2,0:2|0:2,0:0:0:0:
332,360,163971,1,0,0:0:0:0:
151,268,164088,6,0,L|368:265,1,187.500007152558,2|2,1:2|0:2,0:0:0:0:
255,224,164440,1,0,0:0:0:0:
67,180,164557,2,0,L|395:171,1,324.999985122681,10|2,0:2|0:2,0:0:0:0:
296,127,164908,1,0,0:0:0:0:
105,72,165026,5,2,1:0:0:0:
254,63,165260,2,0,L|166:60,1,74.9999977111817,2|0,0:0|0:0,0:0:0:0:
353,133,165494,2,0,L|364:241,1,74.9999977111817,10|0,0:0|0:0,0:0:0:0:
453,223,165729,2,0,L|461:309,1,74.9999977111817,2|0,0:0|0:0,0:0:0:0:
275,338,165963,6,0,L|358:354,1,74.9999977111817,2|0,1:2|0:0,0:0:0:0:
246,333,166197,2,0,L|233:246,1,74.9999977111817,2|0,0:0|0:0,0:0:0:0:
411,203,166432,2,0,L|332:188,1,74.9999977111817,10|0,0:0|0:0,0:0:0:0:
248,151,166666,2,0,L|346:148,1,74.9999977111817,2|0,0:0|0:0,0:0:0:0:
136,103,166901,5,2,1:0:0:0:
316,73,167018,2,0,L|423:94,2,74.9999977111817
496,171,167369,1,10,0:1:0:0:
321,233,167486,2,0,L|233:236,2,74.9999977111817
135,314,167838,6,0,L|226:325,1,74.9999977111817,2|0,1:0|0:0,0:0:0:0:
410,288,168072,2,0,L|326:275,1,74.9999977111817,2|0,1:0|0:0,0:0:0:0:
155,205,168307,2,0,L|245:206,1,74.9999977111817,10|2,1:0|0:0,0:0:0:0:
130,168,168541,2,0,L|40:162,1,74.9999977111817,2|0,1:0|0:0,0:0:0:0:
303,43,168776,6,0,P|344:74|258:178,1,224.999993133545,6|0,1:0|0:0,0:0:0:0:
142,241,169244,2,0,L|133:393,1,149.999995422363,10|2,0:0|0:0,0:0:0:0:
427,314,169713,5,2,1:2:0:0:
280,282,169947,2,0,L|191:271,1,74.9999977111817,2|0,0:0|0:0,0:0:0:0:
311,229,170182,2,0,L|319:146,1,74.9999977111817,10|0,0:1|0:0,0:0:0:0:
425,155,170416,2,0,L|335:113,1,74.9999977111817
158,40,170651,6,0,P|111:100|215:194,1,224.999993133545,2|0,1:0|0:0,0:0:0:0:
315,263,171119,2,0,L|473:276,1,149.999995422363,10|2,0:0|0:0,0:0:0:0:
173,349,171588,1,2,1:2:0:0:
322,276,171822,2,0,L|228:264,1,74.9999977111817,2|0,0:0|0:0,0:0:0:0:
141,236,172057,2,0,L|134:160,1,74.9999977111817,10|0,0:1|0:0,0:0:0:0:
29,129,172291,2,0,L|115:119,1,74.9999977111817
328,32,172526,6,0,P|359:83|226:160,1,224.999993133545,2|0,1:0|0:0,0:0:0:0:
146,249,172994,2,0,L|481:281,1,324.999985122681,14|2,0:0|0:0,0:0:0:0:
147,332,173463,1,2,1:0:0:0:
223,323,173580,2,0,L|263:238,2,74.9999977111817,0|0|0,0:0|1:0|0:0,0:0:0:0:
400,244,173932,1,10,0:1:0:0:
324,235,174049,2,0,L|284:150,2,74.9999977111817,2|2|2,0:0|0:0|0:0,0:0:0:0:
116,179,174401,5,0,1:0:0:0:
41,121,174518,2,0,L|84:117,1,37.4999988555909,12|0,0:0|0:0,0:0:0:0:
224,71,174635,2,0,L|141:65,1,74.9999977111817,0|0,0:0|1:0,0:0:0:0:
338,148,174869,2,0,L|491:186,1,149.999995422363,12|0,0:0|1:0,0:0:0:0:
294,217,175221,6,0,L|288:307,1,74.9999977111817,12|0,0:0|0:0,0:0:0:0:
366,312,175455,1,10,0:0:0:0:
175,331,175572,2,0,L|97:344,1,74.9999977111817,10|0,0:0|0:0,0:0:0:0:
279,311,175807,2,0,L|200:285,1,74.9999977111817,10|8,0:0|0:0,0:0:0:0:
383,220,176041,2,0,L|332:211,1,37.4999988555909,10|0,0:0|0:0,0:0:0:0:
211,195,176158,2,0,L|161:192,1,37.4999988555909,8|0,0:0|0:0,0:0:0:0:
364,288,176276,5,6,1:0:0:0:
395,279,176334,1,0,0:0:0:0:
427,263,176393,1,0,0:0:0:0:
427,263,176451,1,0,0:0:0:0:
427,263,176510,1,0,0:0:0:0:
364,288,176627,1,0,0:0:0:0:
147,288,176744,5,10,1:2:0:0:
116,279,176802,1,0,0:0:0:0:
84,263,176861,1,0,0:0:0:0:
84,263,176919,1,0,0:0:0:0:
84,263,176978,1,0,0:0:0:0:
147,288,177095,1,0,0:0:0:0:
351,196,177213,2,0,L|492:196,1,125,10|2,0:1|0:1,0:0:0:0:
69,154,177682,2,0,L|68:15,1,125,10|2,0:1|0:1,0:0:0:0:
135,153,178033,1,0,0:0:0:0:
337,192,178151,6,0,L|339:102,1,62.5,2|0,1:0|0:0,0:0:0:0:
250,121,178385,1,0,0:0:0:0:
337,192,178502,1,2,0:0:0:0:
117,214,178619,1,10,0:1:0:0:
184,216,178736,1,0,0:0:0:0:
117,214,178854,1,0,0:0:0:0:
294,267,178971,1,0,0:0:0:0:
476,218,179088,1,2,1:0:0:0:
376,197,179205,1,0,0:0:0:0:
276,188,179322,1,2,0:0:0:0:
376,197,179440,1,0,0:0:0:0:
192,176,179557,2,0,L|192:104,1,62.5,8|0,0:0|0:0,0:0:0:0:
368,136,179791,1,0,0:0:0:0:
192,176,179908,1,0,0:0:0:0:
16,192,180026,6,0,L|16:120,1,62.5,2|0,1:0|0:0,0:0:0:0:
120,120,180260,1,0,0:0:0:0:
351,230,180377,1,0,0:0:0:0:
415,232,180494,1,10,0:1:0:0:
227,113,180611,1,0,0:0:0:0:
142,155,180729,1,0,0:0:0:0:
227,113,180846,1,0,0:0:0:0:
456,225,180963,6,0,L|460:145,1,62.5,2|0,1:0|0:0,0:0:0:0:
371,127,181197,2,0,L|371:60,1,62.5
192,80,181432,1,10,0:1:0:0:
371,64,181549,1,0,0:0:0:0:
192,80,181666,1,2,0:1:0:0:
16,88,181783,1,2,0:1:0:0:
192,144,181901,6,0,B|512:144|512:144,1,320,2|0,1:0|0:0,0:0:0:0:
320,88,182252,1,0,0:0:0:0:
128,88,182369,2,0,L|448:88,1,320,8|0,0:0|0:0,0:0:0:0:
448,88,182721,1,0,0:0:0:0:
205,183,182838,2,0,L|71:181,1,125,4|0,1:0|0:0,0:0:0:0:
394,227,183307,2,0,L|471:224,1,62.5,10|2,0:1|0:0,0:0:0:0:
372,186,183541,2,0,L|454:182,1,62.5,2|2,0:0|0:1,0:0:0:0:
182,276,183776,6,0,L|177:138,1,125,4|0,1:0|0:0,0:0:0:0:
481,192,184244,2,0,L|481:51,1,125,10|0,1:0|0:0,0:0:0:0:
177,191,184713,2,0,L|109:188,1,62.5,0|2,1:0|0:0,0:0:0:0:
291,166,184947,1,2,0:0:0:0:
468,179,185065,1,2,0:0:0:0:
291,166,185182,2,0,L|289:97,1,62.5,10|0,0:0|0:0,0:0:0:0:
75,181,185416,2,0,L|76:63,1,93.75,6|0,0:1|0:0,0:0:0:0:
304,297,185651,5,2,1:2:0:0:
391,292,185768,1,2,0:0:0:0:
304,297,185885,2,0,L|303:225,1,62.5,2|2,0:0|0:0,0:0:0:0:
109,192,186119,2,0,L|104:120,1,62.5,10|2,0:1|0:0,0:0:0:0:
205,130,186354,1,2,0:0:0:0:
305,126,186471,1,2,0:0:0:0:
94,247,186588,2,0,L|86:171,1,62.5,2|0,1:2|0:0,0:0:0:0:
282,182,186822,2,0,L|351:178,1,62.5,2|0,1:2|1:0,0:0:0:0:
136,162,187057,2,0,L|129:84,1,62.5,8|10,0:0|0:0,0:0:0:0:
312,240,187291,1,10,0:0:0:0:
496,192,187408,1,10,0:0:0:0:
312,240,187526,6,0,L|192:237,1,93.75,4|0,1:0|0:0,0:0:0:0:
367,139,187760,2,0,B|387:89|387:89|374:22,1,93.75,2|0,0:0|0:0,0:0:0:0:
234,292,187994,2,0,L|183:287,1,31.25,8|0,0:0|0:0,0:0:0:0:
348,226,188111,2,0,P|407:195|353:153,1,156.25,2|0,0:1|0:0,0:0:0:0:
184,241,188463,6,0,L|85:241,1,93.75
315,137,188697,2,0,B|335:87|335:87|322:20,1,93.75,6|0,1:2|0:0,0:0:0:0:
182,290,188931,2,0,L|131:285,1,31.25,8|0,0:0|0:0,0:0:0:0:
299,222,189048,2,0,P|364:197|366:130,1,125,2|2,1:0|1:0,0:0:0:0:
174,210,189401,6,0,L|75:210,1,93.75
305,106,189635,2,0,B|325:56|325:56|312:-11,1,93.75
172,259,189869,2,0,L|121:254,1,31.25,12|0,0:0|0:0,0:0:0:0:
298,194,189986,2,0,P|352:162|353:98,1,125,2|2,1:0|1:0,0:0:0:0:
156,118,190338,2,0,L|244:117,1,62.5
439,130,190572,1,2,0:0:0:0:
245,191,190690,1,2,0:0:0:0:
71,179,190807,2,0,L|72:99,1,62.5,8|0,0:0|0:0,0:0:0:0:
245,191,191041,2,0,L|246:113,1,62.5,4|0,1:2|0:0,0:0:0:0:
148,63,191276,6,0,L|236:56,1,62.5,6|0,1:0|0:0,0:0:0:0:
347,61,191510,2,0,L|267:57,1,62.5,2|0,0:0|0:0,0:0:0:0:
85,142,191744,1,8,0:0:0:0:
243,145,191920,1,0,0:0:0:0:
173,150,191979,1,2,0:0:0:0:
240,231,192096,1,0,0:0:0:0:
432,153,192213,2,0,L|296:145,1,125,2|2,1:0|0:0,0:0:0:0:
243,145,192565,1,0,0:0:0:0:
51,83,192682,1,10,0:1:0:0:
275,96,192916,1,2,0:0:0:0:
163,91,193033,1,0,0:0:0:0:
51,83,193151,5,2,1:2:0:0:
400,184,193385,1,2,0:1:0:0:
51,83,193619,1,10,0:0:0:0:
400,184,193854,1,2,0:1:0:0:
175,129,194088,2,0,B|64:123|64:123|105:125|105:125,1,149.999995422363,2|2,1:0|0:1,0:1:0:0:
168,72,194440,1,0,0:0:0:0:
358,87,194557,2,0,L|206:79,1,125,10|2,0:1|0:1,0:0:0:0:
168,72,194908,1,0,0:0:0:0:
357,180,195026,6,2,P|400:210|318:290,1,187.5,2|0,1:0|0:0,0:1:0:0:
152,280,195494,2,0,L|150:134,1,125,10|0,0:1|0:0,0:0:0:0:
259,148,195846,1,2,0:0:0:0:
75,148,195963,1,2,1:0:0:0:
115,76,196080,1,2,0:0:0:0:
211,52,196197,1,0,0:0:0:0:
115,76,196315,1,2,0:1:0:0:
243,148,196432,2,0,L|323:148,1,62.5,8|2,0:0|0:0,0:0:0:0:
243,220,196666,1,2,0:1:0:0:
147,220,196783,1,0,0:0:0:0:
339,220,196901,5,0,1:0:0:0:
443,220,197018,1,0,0:0:0:0:
499,220,197135,2,0,L|499:116,1,93.75,2|0,0:1|0:0,0:0:0:0:
339,108,197369,2,0,L|195:108,1,125,10|0,0:1|0:0,0:0:0:0:
283,108,197721,1,2,0:0:0:0:
165,176,197838,1,2,1:0:0:0:
283,108,197955,2,0,L|283:188,1,62.5,2|0,1:0|0:0,0:0:0:0:
403,176,198190,1,2,1:0:0:0:
224,288,198307,1,2,1:0:0:0:
320,288,198424,1,0,1:0:0:0:
224,288,198541,1,10,0:1:0:0:
160,288,198658,1,10,0:1:0:0:
344,112,198776,5,4,1:0:0:0:
136,96,199010,1,0,0:0:0:0:
200,96,199127,1,0,0:0:0:0:
384,104,199244,1,10,0:0:0:0:
408,176,199361,1,2,0:0:0:0:
384,104,199479,1,2,0:0:0:0:
280,104,199596,1,0,0:0:0:0:
67,100,199713,1,2,1:0:0:0:
123,164,199830,1,0,0:0:0:0:
298,176,199947,1,2,0:1:0:0:
474,184,200065,1,0,0:0:0:0:
298,176,200182,1,8,0:0:0:0:
474,184,200299,1,2,0:0:0:0:
298,176,200416,1,2,0:0:0:0:
232,176,200533,1,0,0:0:0:0:
56,160,200651,5,2,1:0:0:0:
232,176,200768,1,0,0:0:0:0:
408,104,200885,2,0,L|320:104,1,62.5,0|2,0:0|0:0,0:0:0:0:
168,96,201119,2,0,L|88:96,1,62.5,10|2,0:0|0:0,0:0:0:0:
224,96,201354,2,0,L|176:176,1,62.5,2|0,0:1|0:0,0:0:0:0:
368,280,201588,2,0,L|328:225,1,62.5,2|0,1:2|0:0,0:0:0:0:
436,217,201823,2,0,L|373:217,1,62.5,2|0,0:1|0:0,0:0:0:0:
176,192,202057,2,0,L|248:192,1,62.5,2|2,0:0|0:0,0:0:0:0:
360,136,202291,2,0,L|280:136,1,62.5,2|2,0:0|0:0,0:0:0:0:
480,288,202526,6,0,L|480:200,1,62.5,2|0,1:2|0:0,0:0:0:0:
352,224,202760,2,0,L|280:224,1,62.5,2|0,0:1|0:0,0:0:0:0:
480,225,202994,2,0,L|408:224,1,62.5,14|0,0:0|0:0,0:0:0:0:
289,224,203228,2,0,L|360:224,1,62.5,2|0,0:1|0:0,0:0:0:0:
160,192,203463,6,0,L|160:104,1,62.5,2|0,1:2|0:0,0:0:0:0:
32,128,203697,2,0,L|104:128,1,62.5,2|8,1:0|3:0,0:0:0:0:
272,128,203932,1,10,0:1:0:0:
94,128,204049,1,2,1:2:0:0:
128,128,204166,1,8,3:0:0:0:
94,128,204283,1,4,3:0:0:0:
32,128,204401,6,0,L|80:128,1,31.25,2|0,1:2|0:0,0:0:0:0:
224,128,204518,2,2,B|229:253|229:253|217:295,1,156.25,14|0,1:2|0:0,0:1:0:0:
381,128,204869,2,0,L|333:128,1,31.25,10|0,0:2|0:0,0:0:0:0:
189,128,204986,2,0,L|183:235,1,93.75,14|0,0:0|0:0,0:0:0:0:
349,128,205221,2,0,L|343:235,1,93.75,14|0,0:0|0:0,0:0:0:0:
183,221,205455,2,0,L|218:220,1,31.25,10|0,0:2|0:0,0:0:0:0:
378,53,205572,2,2,L|494:45,1,112.499996566773,14|0,1:0|0:0,0:1:0:0:
349,128,205807,2,2,B|199:174|42:123|42:123|38:140|28:150|28:150|63:174|71:198|63:262|55:286|55:286|56:248|39:222,1,546.875,14|0,1:0|0:0,0:1:0:0:
256,192,206286,6,0,L|256:64,1,125,4|0,1:0|0:0,0:0:0:0:
464,232,206754,2,0,L|464:88,1,125
360,104,207106,1,0,0:0:0:0:
256,96,207223,1,0,0:0:0:0:
496,72,207692,1,0,0:0:0:0:
256,192,208161,6,0,L|256:336,1,125,2|0,0:0|0:0,0:0:0:0:
48,280,208629,2,0,L|48:136,1,125
152,152,208981,1,0,0:0:0:0:
256,144,209098,1,0,0:0:0:0:
16,119,209567,1,0,0:0:0:0:
256,192,210036,6,0,L|256:336,1,125,2|0,0:0|0:0,0:0:0:0:
464,280,210504,2,0,L|464:136,1,125
360,152,210856,1,0,0:0:0:0:
256,144,210973,1,0,0:0:0:0:
496,120,211442,1,0,0:0:0:0:
240,192,211911,6,0,L|496:192,3,250,2|2|2|2,0:0|0:0|0:0|0:0,0:0:0:0:
256,192,213786,6,0,L|256:336,1,125,2|0,0:0|0:0,0:0:0:0:
464,280,214254,2,0,L|464:136,1,125
360,152,214606,1,0,0:0:0:0:
256,144,214723,1,0,0:0:0:0:
496,120,215192,1,0,0:0:0:0:
256,192,215661,6,0,L|256:336,1,125,2|0,0:0|0:0,0:0:0:0:
48,280,216129,2,0,L|48:136,1,125
152,152,216481,1,0,0:0:0:0:
256,144,216598,1,0,0:0:0:0:
16,120,217067,1,0,0:0:0:0:
256,192,217536,6,0,L|256:336,1,125,2|0,0:0|0:0,0:0:0:0:
464,280,218004,2,0,L|464:136,1,125
360,152,218356,1,0,0:0:0:0:
256,144,218473,1,0,0:0:0:0:
496,120,218942,1,0,0:0:0:0:
256,192,219411,5,2,0:0:0:0:
112,184,219645,1,0,0:0:0:0:
256,192,219879,1,2,0:0:0:0:
16,112,220348,2,0,L|280:112,1,250,2|2,0:0|0:0,0:0:0:0:
28,210,221286,6,0,L|28:354,1,125,2|0,0:0|0:0,0:0:0:0:
235,336,221754,2,0,L|91:336,1,125,2|0,0:0|0:0,0:0:0:0:
214,328,222106,1,2,0:0:0:0:
318,320,222223,1,2,0:0:0:0:
78,204,222692,1,2,0:0:0:0:
326,200,223161,6,0,L|326:344,1,125,2|0,0:0|0:0,0:0:0:0:
118,288,223629,2,0,L|118:144,1,125,2|0,0:0|0:0,0:0:0:0:
222,160,223981,1,0,0:0:0:0:
326,152,224098,1,2,0:0:0:0:
29,120,224567,1,2,0:0:0:0:
380,132,225036,6,0,L|239:132,1,125,0|2,0:0|0:0,0:0:0:0:
143,160,225504,2,0,L|143:301,1,125,2|2,0:0|0:0,0:0:0:0:
256,166,225973,2,0,L|256:307,1,125,2|2,0:0|0:0,0:0:0:0:
143,291,226442,2,0,L|284:291,1,125,2|2,0:0|0:0,0:0:0:0:
444,288,226911,6,0,L|186:288,2,250,2|2|2,0:0|0:0|0:0,0:0:0:0:
330,243,228082,2,0,L|199:243,2,125,2|2|2,0:0|0:0|0:0,0:0:0:0:
154,263,228786,5,2,0:0:0:0:
54,240,229020,1,0,0:0:0:0:
54,240,229254,1,2,0:0:0:0:
154,263,229489,1,0,0:0:0:0:
329,319,229723,6,0,L|329:176,1,125,2|2,0:0|0:0,0:0:0:0:
78,138,230192,2,0,L|78:282,1,125,2|0,0:0|0:0,0:0:0:0:
182,268,230543,1,0,0:0:0:0:
292,273,230661,5,2,0:0:0:0:
43,158,231129,1,0,0:0:0:0:
43,158,231364,1,0,0:0:0:0:
155,163,231598,1,0,0:0:0:0:
381,192,232067,2,0,P|452:248|386:294,1,187.5,2|0,0:0|0:0,0:0:0:0:
189,298,232536,6,0,L|145:294,1,31.25,8|0,0:0|0:0,0:0:0:0:
341,297,232653,2,0,L|348:176,1,93.75,6|0,1:0|0:0,0:0:0:0:
224,248,232887,1,0,1:0:0:0:
301,249,233004,1,8,0:0:0:0:
120,184,233121,2,0,L|65:86,1,93.75,6|0,1:0|0:0,0:0:0:0:
293,177,233356,2,0,L|335:176,1,31.25,0|0,1:0|0:0,0:0:0:0:
125,84,233473,2,0,L|-1:94,1,103.125003147125,14|0,1:2|0:0,0:0:0:0:
200,88,233707,2,0,L|74:98,1,103.125003147125,14|0,1:2|0:0,0:0:0:0:
286,295,233942,2,0,P|391:303|378:191,1,240.625007343292,14|0,1:2|0:0,0:0:0:0:
256,225,234411,6,0,L|118:186,1,125,0|8,1:0|0:0,0:0:0:0:
380,140,234801,1,8,0:0:0:0:
210,121,234879,1,8,0:0:0:0:
140,120,234996,1,8,3:0:0:0:
210,121,235114,1,4,3:0:0:0:
422,282,235231,1,8,0:0:0:0:
85,252,235348,5,8,0:0:0:0:
172,253,235504,1,8,3:0:0:0:
85,252,235661,1,4,3:0:0:0:
301,170,235817,1,4,3:0:0:0:
171,132,235973,1,8,3:0:0:0:
387,120,236129,1,12,0:0:0:0:
387,120,236754,6,0,P|494:151|436:231,1,240.625007343292
185,197,237213,6,0,L|372:194,1,187.500007152558,6|2,1:0|0:2,0:0:0:0:
316,193,237564,1,2,0:2:0:0:
379,194,237681,2,0,L|94:195,1,250,10|2,0:2|0:2,0:0:0:0:
204,195,238033,1,2,0:2:0:0:
126,194,238150,2,0,L|444:194,1,312.5,2|2,1:2|0:2,0:0:0:0:
344,196,238502,1,2,0:2:0:0:
438,194,238619,2,0,L|62:197,1,375.000014305115,10|2,0:2|0:0,0:0:0:0:
163,197,238970,1,0,0:0:0:0:
62,196,239088,6,0,L|438:196,1,375.000014305115,2|2,1:0|0:2,0:0:0:0:
334,197,239439,1,2,0:2:0:0:
231,311,239556,2,0,P|144:232|276:143,1,299.999990844727,10|2,0:2|0:2,0:0:0:0:
378,159,239907,1,2,0:2:0:0:
275,235,240025,2,0,P|368:160|240:68,1,299.999990844727,2|2,1:2|0:2,0:0:0:0:
146,81,240376,1,2,0:2:0:0:
250,102,240494,2,0,P|432:192|428:284,1,299.999990844727,10|2,0:2|0:0,0:0:0:0:
324,257,240845,1,0,0:0:0:0:
220,255,240963,6,0,P|120:176|242:81,1,299.999990844727,2|2,1:0|0:0,0:0:0:0:
339,197,241314,1,2,0:0:0:0:
442,196,241431,2,0,L|51:195,1,375.000014305115,10|2,0:0|0:0,0:0:0:0:
170,195,241783,1,2,0:0:0:0:
67,195,241900,2,0,L|458:195,1,375.000014305115,2|2,1:2|0:0,0:0:0:0:
339,196,242252,1,2,0:0:0:0:
442,195,242369,2,0,L|57:193,1,375.000014305115,10|2,0:0|0:0,0:0:0:0:
170,192,242720,1,0,0:0:0:0:
375,196,242838,6,0,L|375:331,1,125,2|0,1:0|0:0,0:0:0:0:
188,332,243306,2,0,L|323:332,1,125,10|0,0:1|0:0,0:0:0:0:
125,320,243775,1,2,1:0:0:0:
50,314,243892,1,0,0:0:0:0:
50,314,244009,5,2,0:0:0:0:
125,320,244127,1,2,1:2:0:0:
312,324,244244,1,10,0:0:0:0:
237,324,244361,1,2,1:2:0:0:
462,262,244478,1,0,0:0:0:0:
387,262,244595,1,0,0:0:0:0:
189,212,244713,6,0,L|401:212,1,187.500007152558,6|2,1:0|0:2,0:0:0:0:
376,212,245064,1,2,0:2:0:0:
376,212,245181,2,0,L|126:212,1,250,10|2,0:2|0:2,0:0:0:0:
126,212,245532,1,2,0:2:0:0:
126,212,245650,2,0,L|441:212,1,312.5,2|2,1:2|0:2,0:0:0:0:
438,212,246002,1,2,0:2:0:0:
438,212,246119,2,0,L|40:212,1,375.000014305115,10|2,0:2|0:0,0:0:0:0:
63,212,246470,1,0,0:0:0:0:
63,212,246588,6,0,L|398:212,1,312.5,2|2,1:0|0:2,0:0:0:0:
430,212,246939,1,2,0:2:0:0:
374,212,247056,2,0,L|106:212,1,250,10|2,0:2|0:2,0:0:0:0:
63,212,247408,1,2,0:2:0:0:
287,214,247525,5,2,1:2:0:0:
224,214,247642,1,0,0:0:0:0:
161,214,247759,1,2,0:0:0:0:
224,214,247877,1,0,0:0:0:0:
430,212,247994,1,8,0:0:0:0:
493,212,248111,1,2,0:0:0:0:
430,212,248228,1,2,0:0:0:0:
493,212,248345,1,0,0:0:0:0:
224,214,248463,6,0,L|224:302,1,62.5,6|0,1:0|0:0,0:0:0:0:
411,211,248697,2,0,L|411:283,1,62.5,2|0,0:0|0:0,0:0:0:0:
192,215,248931,2,0,P|124:173|192:143,1,187.5,10|0,0:0|0:0,0:0:0:0:
379,162,249400,6,0,L|379:250,1,62.5,2|0,1:0|0:0,0:0:0:0:
160,109,249634,2,0,L|160:181,1,62.5,2|0,0:0|0:0,0:0:0:0:
380,162,249869,2,0,P|445:120|375:80,1,187.5,10|0,0:0|0:0,0:0:0:0:
188,169,250338,6,0,L|39:169,1,125,2|2,1:0|0:0,0:0:0:0:
308,315,250806,2,0,L|308:243,1,62.5,14|0,0:0|0:0,0:0:0:0:
188,231,251041,2,0,L|188:167,1,62.5,2|0,0:0|0:0,0:0:0:0:
391,287,251275,1,2,1:0:0:0:
460,291,251392,1,0,0:0:0:0:
391,287,251509,1,0,0:0:0:0:
321,283,251627,5,2,0:0:0:0:
134,227,251744,2,0,L|134:290,1,62.5,8|0,0:0|0:0,0:0:0:0:
312,312,251978,1,0,1:0:0:0:
488,344,252095,1,2,0:0:0:0:
163,258,252213,6,0,P|165:127|166:259,1,410.156253911555,4|0,1:2|0:0,0:0:0:0:
184,257,252681,2,0,B|491:252|491:252|499:113|499:113|491:252,1,585.9375,10|0,0:2|0:0,0:0:0:0:
471,257,253150,2,0,B|163:253|163:253|445:255,1,585.9375,2|0,1:2|0:0,0:0:0:0:
461,256,253619,2,0,B|154:251|154:251|146:112|146:112|154:251,1,585.9375,10|0,0:2|0:0,0:0:0:0:
174,74,254088,6,0,B|286:366|286:366|398:78,1,585.9375,2|0,1:0|0:0,0:0:0:0:
393,77,254556,2,0,B|86:82|86:82|78:221|78:221|86:82,1,585.9375,10|0,0:2|0:0,0:0:0:0:
106,78,255025,2,0,B|414:82|414:82|132:80,1,585.9375,2|0,1:2|0:0,0:0:0:0:
116,79,255494,2,0,B|423:84|423:84|431:223|431:223|423:84,1,585.9375,10|0,0:2|0:0,0:0:0:0:
423,37,255963,6,0,B|428:345|428:345,1,273.4375,2|0,1:0|0:0,0:0:0:0:
427,310,256197,2,0,B|141:308|141:308,1,273.4375,2|0,0:0|0:0,0:0:0:0:
137,351,256431,2,0,B|102:350|428:349,1,273.4375,10|0,0:0|0:0,0:0:0:0:
424,317,256666,2,0,B|424:351|419:43,1,273.4375,2|0,0:0|0:0,0:0:0:0:
419,310,256900,2,0,B|133:308|133:308,1,273.4375,2|0,1:0|0:0,0:0:0:0:
129,351,257134,2,0,B|94:350|420:349,1,273.4375,2|0,0:0|0:0,0:0:0:0:
416,317,257369,2,0,B|416:351|411:43,1,273.4375,10|0,0:0|0:0,0:0:0:0:
388,53,257603,2,0,B|86:53|121:54,1,273.4375,2|0,0:0|0:0,0:0:0:0:
96,72,257838,6,0,B|408:72|408:72|528:192|408:312,1,585.9375,2|0,1:0|0:0,0:0:0:0:
390,313,258306,2,0,B|78:313|78:313|-42:193|78:73,1,585.9375,10|0,0:1|0:0,0:0:0:0:
97,66,258775,2,0,L|405:57,1,273.4375,2|0,1:0|0:0,0:0:0:0:
390,58,259009,2,0,L|82:49,1,273.4375,2|0,1:0|0:0,0:0:0:0:
96,48,259244,1,10,1:0:0:0:
18,98,259361,1,2,1:0:0:0:
96,48,259478,1,2,1:0:0:0:
213,46,259595,1,0,0:0:0:0:
407,142,259713,6,0,B|94:153|94:153|375:143|375:143,1,585.9375,6|0,1:0|0:0,0:0:0:0:
386,142,260181,2,0,L|89:155,1,273.4375,10|0,0:0|0:0,0:0:0:0:
93,144,260416,2,0,L|390:157,1,273.4375,2|0,0:0|0:0,0:0:0:0:
386,22,260650,2,0,P|440:157|378:263,1,273.4375,2|0,1:2|0:0,0:0:0:0:
362,260,260884,2,0,P|308:125|370:19,1,273.4375,2|0,0:0|0:0,0:0:0:0:
387,23,261119,2,0,B|74:29|74:29|58:312,1,585.9375,10|0,0:1|0:0,0:0:0:0:
80,310,261588,6,0,B|393:304|393:304|396:20,1,585.9375,2|0,1:0|0:0,0:0:0:0:
376,31,262056,2,0,P|322:166|384:272,1,273.4375,10|0,0:0|0:0,0:0:0:0:
400,269,262290,2,0,P|454:134|392:28,1,273.4375,2|0,0:0|0:0,0:0:0:0:
375,28,262525,2,0,L|75:38,1,273.4375,2|0,1:2|0:0,0:0:0:0:
83,63,262759,2,0,L|383:73,1,273.4375,2|0,0:0|0:0,0:0:0:0:
377,87,262994,2,0,B|57:100|57:100|42:266|42:266|21:143,1,585.9375,10|0,0:1|0:0,0:0:0:0:
46,147,263463,6,0,B|359:141|359:141|280:288,1,468.75,2|2,1:0|1:0,0:0:0:0:
94,226,263931,2,0,L|420:215,1,312.5,0|2,0:0|1:0,0:0:0:0:
343,134,264283,1,0,0:0:0:0:
210,60,264400,2,0,P|138:93|148:159,1,156.25,2|2,1:0|0:0,0:0:0:0:
227,160,264752,1,2,1:0:0:0:
423,95,264869,2,0,L|97:84,1,312.5,8|2,0:0|1:0,0:0:0:0:
48,77,265220,1,0,0:0:0:0:
110,84,265338,6,0,B|424:90|424:90|122:113,1,585.9375,6|0,1:0|0:0,0:0:0:0:
132,131,265806,2,0,B|445:136|445:136|143:159,1,585.9375,10|0,0:0|0:0,0:0:0:0:
154,184,266275,2,0,B|468:190|468:190|166:213,1,585.9375,2|0,1:2|0:0,0:0:0:0:
176,231,266743,2,0,B|489:236|489:236,1,312.5,8|0,0:0|1:0,0:0:0:0:
409,303,267095,1,0,1:0:0:0:
228,196,267213,6,0,B|39:185|39:185|222:191,1,351.562513411046,6|0,1:0|0:0,0:0:0:0:
201,190,267681,2,0,B|12:179|12:179|195:185,1,351.562513411046,10|0,0:0|0:0,0:0:0:0:
201,190,268150,6,0,B|390:179|390:179|207:185,1,351.562513411046,2|0,1:2|0:0,0:0:0:0:
228,184,268618,2,0,B|417:173|417:173|234:179,1,351.562513411046,10|0,0:0|0:0,0:0:0:0:
228,184,269088,6,0,B|228:28|228:28|226:237,1,351.562513411046,6|0,1:0|0:0,0:0:0:0:
228,184,269556,2,0,B|41:172|41:172|211:166,1,351.562513411046,10|0,0:0|0:0,0:0:0:0:
228,184,270025,6,0,B|228:28|228:28|230:237,1,351.562513411046,2|0,1:2|0:0,0:0:0:0:
228,184,270494,2,0,B|415:172|415:172|245:166,1,351.562513411046,10|0,0:0|0:0,0:0:0:0:
228,184,270963,6,0,B|338:181|338:181|376:138,1,164.062506258488,6|0,1:0|0:0,0:0:0:0:
373,140,271197,2,0,B|338:100|338:100|228:97,1,164.062506258488
227,96,271431,2,0,B|415:92|415:92|232:88,1,351.562513411046,10|0,0:0|0:0,0:0:0:0:
227,96,271900,6,0,B|39:91|39:91|222:87,1,351.562513411046,2|0,1:2|0:0,0:0:0:0:
202,87,272369,2,0,B|14:82|14:82|197:78,1,351.562513411046,10|0,0:0|0:0,0:0:0:0:
202,87,272838,6,0,B|92:84|92:84|54:41,1,164.062506258488,2|0,1:0|0:0,0:0:0:0:
57,43,273072,2,0,B|92:3|92:3|202:0,1,164.062506258488,2|0,0:1|0:0,0:0:0:0:
202,87,273306,2,0,B|390:82|390:82|207:78,1,351.562513411046,10|0,0:0|0:0,0:0:0:0:
202,87,273775,6,0,B|312:84|312:84|347:44,1,164.062506258488,6|0,1:0|0:0,0:0:0:0:
347,43,274009,2,0,B|312:3|312:3|202:0,1,164.062506258488,2|0,0:1|0:0,0:0:0:0:
202,87,274244,1,8,0:0:0:0:
294,90,274361,1,2,0:0:0:0:
396,91,274478,1,2,0:1:0:0:
492,90,274595,1,0,0:0:0:0:
250,305,274713,6,0,B|235:120|235:120|418:109,1,351.562513411046,6|0,1:0|0:0,0:0:0:0:
400,110,275181,2,0,B|235:120|235:120|250:305,1,351.562513411046,10|0,0:0|0:0,0:0:0:0:
250,305,275650,6,0,B|265:120|265:120|82:109,1,351.562513411046,2|0,1:2|0:0,0:0:0:0:
100,110,276118,2,0,B|265:120|265:120|250:305,1,351.562513411046,10|0,0:0|0:0,0:0:0:0:
249,305,276588,6,0,B|436:301|436:301|269:256,1,351.562513411046,2|0,1:0|0:0,0:0:0:0:
276,257,277056,2,0,B|86:248|86:248|262:202,1,351.562513411046,10|0,0:0|0:0,0:0:0:0:
242,207,277525,6,0,B|241:38,1,164.062506258488,2|0,1:2|0:0,0:0:0:0:
241,43,277759,1,2,1:0:0:0:
351,40,277877,1,2,0:0:0:0:
466,42,277994,1,10,0:1:0:0:
351,40,278111,1,0,0:0:0:0:
241,43,278228,1,2,0:0:0:0:
351,40,278345,1,2,0:0:0:0:
128,335,278463,6,2,P|84:285|203:186,1,250,6|10,1:0|0:1,0:1:0:0:
369,179,279166,1,2,0:0:0:0:
78,86,279400,2,0,L|244:68,1,125,0|0,1:0|0:0,0:0:0:0:
59,39,279869,2,0,L|31:207,1,125,10|2,0:0|0:1,0:0:0:0:
332,227,280338,6,0,L|185:240,1,125,0|2,1:0|0:0,0:0:0:0:
497,327,280806,2,0,L|498:177,1,125,14|0,0:0|0:0,0:0:0:0:
324,206,281275,2,0,L|483:193,1,125,2|2,1:2|0:0,0:0:0:0:
155,88,281744,2,0,L|12:66,1,125,10|6,0:1|0:0,0:0:0:0:
333,49,282213,6,0,P|367:113|224:214,1,250,6|8,1:0|0:0,0:0:0:0:
82,234,282916,1,0,0:0:0:0:
375,324,283150,2,0,L|500:329,1,125,0|0,1:0|0:0,0:0:0:0:
319,253,283619,2,0,L|470:243,1,125,8|0,0:0|0:0,0:0:0:0:
149,331,284088,6,0,L|139:187,1,125,0|2,1:0|0:1,0:0:0:0:
312,126,284556,2,0,L|161:110,1,125,10|2,0:1|0:1,0:0:0:0:
359,57,285025,2,0,L|487:49,1,125,2|2,1:0|0:1,0:0:0:0:
186,189,285494,2,0,L|41:179,1,125,8|0,0:0|0:0,0:0:0:0:
357,288,285963,5,0,1:0:0:0:
210,308,286197,2,0,L|204:174,1,125,2|10,0:0|0:0,0:0:0:0:
383,159,286666,1,2,0:0:0:0:
86,113,286900,2,0,L|218:101,1,125,2|2,1:2|0:0,0:0:0:0:
340,50,287369,2,0,L|200:41,1,125,10|2,0:0|0:0,0:0:0:0:
440,253,287838,6,0,B|256:231|256:231|422:215,1,351.562513411046,2|0,1:0|0:0,0:0:0:0:
421,215,288306,2,0,B|237:193|237:193|403:177,1,351.562513411046,10|0,0:0|0:0,0:0:0:0:
402,177,288775,2,0,L|231:154,1,164.062506258488,2|0,1:0|0:0,0:0:0:0:
239,155,289009,2,0,B|369:145|369:145|371:97,1,164.062506258488,8|0,0:0|0:0,0:0:0:0:
370,110,289244,2,0,B|369:145|369:145|239:155,1,164.062506258488,8|0,0:0|0:0,0:0:0:0:
240,154,289478,2,0,B|111:144|111:144|111:118,1,140.625005364418,12|0,3:0|0:0,0:0:0:0:
293,297,289713,6,0,P|438:257|296:58,1,437.500004172325,6|10,1:0|0:0,0:0:0:0:
147,43,290416,1,2,0:0:0:0:
346,51,290650,2,0,L|358:233,1,125,2|2,1:2|0:0,0:0:0:0:
155,236,291119,2,0,P|93:194|168:101,1,218.75,10|0,0:1|0:0,0:0:0:0:
321,157,291588,6,0,L|474:147,1,125,2|2,1:0|0:1,0:0:0:0:
255,239,292056,2,0,L|239:97,1,125,8|2,0:0|0:0,0:0:0:0:
435,71,292525,1,2,1:2:0:0:
241,82,292759,1,2,0:1:0:0:
435,71,292994,2,0,P|486:89|463:153,1,125,14|8,0:1|3:0,0:0:0:0:
411,162,293345,1,8,3:0:0:0:
227,189,293463,5,6,1:0:0:0:
352,233,293697,1,0,0:0:0:0:
155,246,293931,2,0,L|23:232,1,125,8|2,0:0|0:0,0:0:0:0:
229,154,294400,1,0,1:0:0:0:
294,146,294517,1,8,3:0:0:0:
325,80,294634,1,8,3:0:0:0:
294,146,294752,1,8,3:0:0:0:
104,206,294869,5,8,0:0:0:0:
90,178,294927,1,0,0:0:0:0:
86,147,294986,1,8,0:0:0:0:
91,116,295044,1,0,0:0:0:0:
106,89,295103,1,8,0:0:0:0:
129,68,295161,1,0,0:0:0:0:
162,54,295220,1,8,0:0:0:0:
213,53,295279,1,0,0:0:0:0:
387,60,295338,6,0,L|441:59,1,31.25,12|0,3:0|0:0,0:0:0:0:
246,124,295455,2,0,L|241:202,1,62.5,12|0,0:0|0:0,0:0:0:0:
429,167,295689,2,0,L|434:245,1,62.5,12|0,0:0|0:0,0:0:0:0:
246,124,295923,2,0,L|241:202,1,62.5,12|4,0:0|3:0,0:0:0:0:
266,203,296099,1,0,0:0:0:0:
309,213,296158,1,0,0:0:0:0:
365,219,296216,1,0,0:0:0:0:
194,224,296275,6,0,L|139:226,1,31.25,12|0,3:0|0:0,0:0:0:0:
332,144,296392,2,0,L|337:66,1,62.5,12|0,0:0|0:0,0:0:0:0:
149,101,296626,2,0,L|144:23,1,62.5,12|0,0:0|0:0,0:0:0:0:
332,144,296860,2,0,L|337:66,1,62.5,12|0,0:0|0:0,0:0:0:0:
147,296,297095,6,0,P|333:284|125:277,1,875,12|0,1:0|0:0,0:0:0:0:
147,296,298795,1,0,0:0:0:0:
185,314,298853,1,8,3:0:0:0:
232,321,298912,1,0,0:0:0:0:
287,310,298970,1,0,0:0:0:0:
353,260,299029,1,0,0:0:0:0:
429,226,299088,6,0,B|432:42|432:42|426:363|426:363|428:241,1,625,4|0,3:0|0:0,0:0:0:0:
