osu file format v14

[General]
AudioFilename: audio.mp3
AudioLeadIn: 0
PreviewTime: 32
Countdown: 0
SampleSet: Soft
StackLeniency: 0.5
Mode: 0
LetterboxInBreaks: 0
WidescreenStoryboard: 1

[Editor]
DistanceSpacing: 0.7
BeatDivisor: 4
GridSize: 16
TimelineZoom: 2.1

[Metadata]
Title:Hysteric Night Girl feat. Such (android52 Edit)
TitleUnicode:ヒステリックナイトガール feat. Such (android52 Edit)
Artist:PSYQUI
ArtistUnicode:PSYQUI
Creator:UberFazz
Version:Hysteria
Source:
Tags:japanese electronic styley!
BeatmapID:3237044
BeatmapSetID:1584725

[Difficulty]
HPDrainRate:5
CircleSize:4
OverallDifficulty:8
ApproachRate:9.3
SliderMultiplier:2.4
SliderTickRate:1

[Events]
//Background and Video events
0,0,"5cm bg small.png",0,0
//Break Periods
//Storyboard Layer 0 (Background)
//Storyboard Layer 1 (Fail)
//Storyboard Layer 2 (Pass)
//Storyboard Layer 3 (Foreground)
//Storyboard Layer 4 (Overlay)
//Storyboard Sound Samples

[TimingPoints]
32,468.75,4,2,2,70,1,0
32,-100,4,2,2,70,0,0
1907,-80,4,2,1,70,0,0
15032,-80,4,2,2,70,0,0
16907,-117.647058823529,4,2,1,60,0,0
31907,-100,4,2,1,60,0,0
46907,-76.9230769230769,4,2,1,60,0,0
47375,-100,4,2,2,60,0,0
48547,-76.9230769230769,4,2,1,60,0,0
49015,-100,4,2,1,60,0,0
50422,-76.9230769230769,4,2,1,60,0,0
50891,-100,4,2,2,60,0,0
52297,-76.9230769230769,4,2,1,60,0,0
52766,-153.846153846154,4,2,1,60,0,0
53235,-76.9230769230769,4,2,1,60,0,0
53703,-100,4,2,1,60,0,0
54875,-153.846153846154,4,2,1,60,0,0
55813,-117.64705882353,4,2,1,60,0,0
56750,-95.2380952380953,4,2,1,60,0,0
57688,-80,4,2,1,60,0,0
61907,-71.4285714285714,4,2,1,70,0,1
90500,-100,4,2,2,70,0,0
91907,-80,4,2,1,70,0,0
105032,-80,4,2,2,70,0,0
106907,-133.333333333333,4,2,2,40,0,0
120969,-83.3333333333333,4,2,1,60,0,0
135032,-83.3333333333333,4,2,2,60,0,0
135149,-83.3333333333333,4,2,1,60,0,0
135383,-83.3333333333333,4,2,2,60,0,0
135500,-76.9230769230769,4,2,1,60,0,0
135735,-71.4285714285714,4,2,2,60,0,0
135852,-71.4285714285714,4,2,1,60,0,0
136086,-66.6666666666667,4,2,2,60,0,0
136203,-66.6666666666667,4,2,1,60,0,0
136438,-66.6666666666667,4,2,2,60,0,0
136555,-66.6666666666667,4,2,1,60,0,0
136789,-66.6666666666667,4,2,2,60,0,0
136907,-80,4,2,1,60,0,0
136965,-133.333333333333,4,2,1,60,0,0
142532,-153.846153846154,4,2,1,60,0,0
143468,-117.64705882353,4,2,1,60,0,0
144405,-95.2380952380953,4,2,1,60,0,0
145343,-80,4,2,2,60,0,0
146282,-71.4285714285714,4,2,1,70,0,1
175461,-71.4285714285714,4,2,2,70,0,1
175813,-71.4285714285714,4,2,2,70,0,0
176282,-76.9230769230769,4,2,1,70,0,1
180032,-111.111111111111,4,2,1,70,0,1
180500,-90.9090909090909,4,2,1,70,0,1
180969,-76.9230769230769,4,2,1,70,0,1
181438,-66.6666666666667,4,2,1,70,0,1
181907,-58.8235294117647,4,2,1,70,0,1
182844,-66.6666666666667,4,2,1,70,0,1
183782,-76.9230769230769,4,2,1,70,0,1
186594,-90.9090909090909,4,2,1,70,0,1
187180,-90.9090909090909,4,2,2,70,0,1
187532,-90.9090909090909,4,2,1,70,0,1
189289,-76.9230769230769,4,2,1,70,0,1
190227,-66.6666666666667,4,2,1,70,0,1
191282,-76.9230769230769,4,2,1,70,0,1
193391,-58.8235294117647,4,2,1,70,0,1
193625,-76.9230769230769,4,2,1,70,0,1
193860,-58.8235294117647,4,2,1,70,0,1
195032,-66.6666666666667,4,2,1,70,0,1
195500,-76.9230769230769,4,2,1,70,0,1
198547,-76.9230769230769,4,2,2,70,0,1
198782,-76.9230769230769,4,2,1,70,0,1
200657,-66.6666666666667,4,2,1,70,0,1
201594,-90.9090909090909,4,2,1,70,0,1
201828,-66.6666666666667,4,2,1,70,0,1
202532,-76.9230769230769,4,2,1,70,0,1
204407,-66.6666666666667,4,2,1,70,0,1
204875,-66.6666666666667,4,2,2,70,0,1
204992,-66.6666666666667,4,2,1,70,0,1
205461,-66.6666666666667,4,2,2,70,0,1
205578,-66.6666666666667,4,2,1,70,0,1
205813,-133.333333333333,4,2,1,70,0,1
206282,-200,4,2,1,60,0,0
206399,-200,4,2,1,30,0,0
221282,-142.857142857143,4,2,1,40,0,0
231125,-111.111111111111,4,2,1,60,0,0
232063,-166.666666666666,4,2,1,60,0,0
232532,-66.6666666666667,4,2,2,60,0,0
233469,-58.8235294117647,4,2,2,60,0,0
234407,-117.647058823529,4,2,2,60,0,0
234875,-90.9090909090909,4,2,2,60,0,0
237219,468.75,4,2,1,70,1,1
237219,-71.4285714285714,4,2,1,70,0,1
267219,-83.3333333333333,4,2,1,70,0,0
276594,-76.9230769230769,4,2,1,70,0,0
278469,-71.4285714285714,4,2,1,70,0,0
289015,-71.4285714285714,4,2,2,70,0,0
289250,-71.4285714285714,4,2,1,70,0,0
294992,-71.4285714285714,4,2,2,70,0,0
295344,-71.4285714285714,4,2,1,70,0,0
297219,-285.714285714286,4,2,1,70,0,0
298859,-285.714285714286,4,2,1,60,0,0
299094,-285.714285714286,4,2,1,50,0,0
299211,-285.714285714286,4,2,2,5,0,0

[Colours]
Combo1 : 255,251,72
Combo2 : 0,244,244
Combo3 : 248,78,205
Combo4 : 66,242,111

[HitObjects]
97,16,32,6,0,P|105:139|144:195,1,180,4|0,1:0|1:0,0:0:0:0:
134,184,442,1,0,1:1:0:0:
134,184,500,1,8,0:1:0:0:
208,303,617,2,0,P|149:276|85:276,1,120,8|8,0:1|0:1,0:0:0:0:
94,274,1086,1,8,0:1:0:0:
228,212,1203,2,0,P|242:182|246:134,1,60,4|8,1:2|0:1,0:0:0:0:
182,108,1438,1,8,0:1:0:0:
285,272,1555,1,8,0:1:0:0:
134,361,1672,1,0,1:0:0:0:
440,146,1907,6,0,P|436:217|472:298,1,150,6|0,1:0|0:0,0:0:0:0:
465,288,2258,1,2,0:0:0:0:
510,109,2375,1,8,0:0:0:0:
510,109,2610,6,0,L|360:124,1,150,2|2,1:0|1:0,0:0:0:0:
360,124,3078,1,0,0:0:0:0:
389,206,3196,1,2,0:1:0:0:
377,46,3313,1,8,0:0:0:0:
377,46,3547,2,0,P|339:48|288:37,1,75,2|0,1:0|0:0,0:0:0:0:
234,18,3782,5,2,1:2:0:0:
234,18,3899,1,2,0:0:0:0:
234,18,4016,1,2,0:0:0:0:
196,93,4250,1,10,0:0:0:0:
196,93,4367,1,2,0:0:0:0:
196,93,4485,1,2,0:0:0:0:
196,93,4602,1,2,0:0:0:0:
243,178,4836,1,2,0:0:0:0:
243,178,4953,1,2,0:0:0:0:
243,178,5070,1,2,0:0:0:0:
243,178,5188,1,10,0:0:0:0:
197,244,5422,2,0,P|207:281|234:320,1,75
440,373,5657,6,0,P|359:346|286:365,1,150,2|2,1:0|0:0,0:0:0:0:
297,359,6008,1,2,0:0:0:0:
297,359,6125,1,8,0:0:0:0:
163,366,6360,2,0,P|122:379|86:370,1,75,2|0,0:0|0:0,0:0:0:0:
16,345,6594,1,2,1:2:0:0:
33,299,6711,1,2,0:0:0:0:
17,252,6828,1,2,0:0:0:0:
34,206,6945,1,2,0:0:0:0:
23,170,7063,1,10,0:0:0:0:
23,170,7180,1,2,0:0:0:0:
23,170,7297,1,2,0:0:0:0:
23,170,7414,1,2,0:0:0:0:
23,170,7532,5,2,1:2:0:0:
0,0,7766,2,0,P|-2:38|15:86,1,75,2|2,0:0|0:0,0:0:0:0:
159,4,8000,1,10,0:0:0:0:
83,29,8117,2,0,P|96:103|78:187,2,150,2|2|2,0:0|0:0|0:0,0:0:0:0:
159,4,8703,2,0,P|198:10|243:6,1,75,2|0,0:0|0:0,0:0:0:0:
238,195,8938,2,0,P|199:189|154:193,1,75,10|0,0:2|0:0,0:0:0:0:
202,101,9172,1,0,0:0:0:0:
202,101,9289,1,0,0:0:0:0:
317,3,9407,6,0,B|275:137|381:145|317:298,1,300,6|8,1:0|0:0,0:0:0:0:
318,294,10110,2,0,P|362:288|400:273,1,75,6|0,1:0|0:0,0:0:0:0:
476,37,10344,2,0,P|495:91|495:193,1,150,2|2,1:0|0:0,0:0:0:0:
463,256,10696,1,2,0:1:0:0:
416,193,10813,1,10,0:2:0:0:
416,193,11282,6,0,P|422:287|415:350,1,150,6|2,1:0|0:0,0:0:0:0:
496,326,11633,1,2,0:0:0:0:
346,371,11750,2,0,P|308:359|246:359,1,75,10|0,0:0|0:0,0:0:0:0:
264,275,11985,1,2,0:0:0:0:
273,356,12102,2,0,P|181:349|127:331,1,150,2|2,0:0|0:0,0:0:0:0:
336,257,12453,2,0,P|296:262|240:288,1,75,2|2,0:0|0:0,0:0:0:0:
126,330,12688,1,10,0:0:0:0:
5,145,12922,5,2,0:0:0:0:
2,227,13039,1,2,0:0:0:0:
147,253,13157,2,0,P|153:181|151:83,1,150,2|2,1:0|0:0,0:0:0:0:
152,103,13508,1,2,0:0:0:0:
78,195,13625,1,10,0:0:0:0:
78,195,13742,1,2,0:0:0:0:
78,195,13860,1,2,0:0:0:0:
16,4,14094,5,2,1:2:0:0:
16,4,14211,1,2,0:0:0:0:
16,4,14328,2,0,P|91:4|168:22,1,150,2|10,0:0|0:0,0:0:0:0:
0,89,14680,1,2,0:0:0:0:
0,89,14797,1,2,0:0:0:0:
0,89,14914,1,2,0:0:0:0:
153,104,15032,5,14,0:2:0:0:
76,120,15149,2,0,P|75:157|81:214,1,75,10|0,0:1|0:0,0:0:0:0:
229,70,15383,1,8,0:1:0:0:
233,222,15500,2,0,P|230:184|231:147,1,75,10|0,0:1|0:0,0:0:0:0:
155,185,15735,1,8,0:1:0:0:
303,109,15852,2,0,P|385:102|468:104,1,150,6|2,1:0|1:2,0:0:0:0:
452,103,16203,1,2,1:2:0:0:
452,103,16321,1,2,1:2:0:0:
490,184,16438,1,2,1:2:0:0:
498,34,16555,6,0,B|435:25|378:-11|378:-11|388:36|377:97,1,225,6|6,1:1|1:2,0:0:0:0:
379,84,17375,5,10,0:0:0:0:
379,84,17844,2,0,P|389:141|420:189,1,102.000001945496,2|2,1:0|1:2,0:0:0:0:
490,184,18196,1,2,0:0:0:0:
490,184,18313,1,8,0:0:0:0:
448,248,18782,5,0,1:2:0:0:
499,316,19016,1,2,0:2:0:0:
366,246,19250,1,10,0:2:0:0:
420,335,19602,6,0,P|404:329|389:317,2,25.5000004863739,2|2|0,0:0|0:0|1:0,0:0:0:0:
499,316,19836,1,2,0:0:0:0:
499,316,19953,1,2,1:2:0:0:
321,313,20188,2,0,P|256:337|140:341,1,153.000002918243,8|0,0:0|0:0,0:0:0:0:
350,383,20657,5,0,1:0:0:0:
173,344,21125,2,0,B|175:263|136:272|140:177,1,153.000002918243,8|2,0:0|0:0,0:0:0:0:
139,194,21535,1,2,0:0:0:0:
139,194,21594,1,0,1:0:0:0:
230,219,21711,2,0,P|255:197|279:160,1,51.0000009727478,2|2,0:0|1:2,0:0:0:0:
48,230,22063,2,0,L|57:125,2,102.000001945496,8|0|0,0:0|0:0|1:0,0:0:0:0:
87,313,22766,5,2,1:0:0:0:
0,50,23000,2,0,P|46:53|151:34,1,153.000002918243,10|2,0:0|0:0,0:0:0:0:
150,34,23410,1,0,0:0:0:0:
150,34,23469,2,0,P|119:32|94:32,1,51.0000009727478,2|0,1:2|0:0,0:0:0:0:
130,200,23703,2,0,L|181:221,1,51.0000009727478,2|0,1:0|0:0,0:0:0:0:
160,120,23938,2,0,L|258:161,1,102.000001945496,8|2,0:0|0:0,0:0:0:0:
254,159,24289,1,2,0:0:0:0:
224,53,24407,5,4,1:0:0:0:
224,53,24875,2,0,P|290:29|403:39,1,153.000002918243,8|0,0:0|0:0,0:0:0:0:
371,29,25344,1,0,1:0:0:0:
371,29,25461,1,2,0:0:0:0:
371,29,25578,1,2,1:2:0:0:
314,112,25813,2,0,P|365:135|419:129,1,102.000001945496,10|2,0:0|0:0,0:0:0:0:
461,68,26164,1,2,0:0:0:0:
324,202,26282,5,0,1:0:0:0:
424,366,26750,2,0,L|405:207,1,153.000002918243,8|2,0:0|0:0,0:0:0:0:
405,214,27160,1,2,0:0:0:0:
405,214,27219,2,0,L|456:208,1,51.0000009727478,0|0,1:0|0:0,0:0:0:0:
320,281,27453,2,0,L|371:287,1,51.0000009727478,2|0,1:0|0:0,0:0:0:0:
201,242,27688,1,8,0:0:0:0:
201,242,27805,2,0,L|252:236,2,51.0000009727478,2|2|2,0:0|0:0|0:0,0:0:0:0:
243,152,28157,5,0,1:0:0:0:
247,321,28625,2,0,B|177:313|175:347|93:340,1,153.000002918243,8|0,0:0|0:0,0:0:0:0:
96,340,29094,1,2,1:0:0:0:
201,242,29211,2,0,L|150:236,1,51.0000009727478,2|0,0:0|0:0,0:0:0:0:
189,84,29446,1,2,0:0:0:0:
157,158,29563,2,0,L|115:127,1,51.0000009727478,8|0,0:0|0:0,0:0:0:0:
75,199,29797,2,0,L|33:229,1,51.0000009727478,0|0,1:2|0:0,0:0:0:0:
88,289,30032,5,0,1:0:0:0:
88,289,30266,1,2,1:0:0:0:
12,149,30500,2,0,P|10:73|35:-2,1,153.000002918243,8|2,0:0|0:0,0:0:0:0:
34,1,30910,1,2,0:0:0:0:
34,1,30969,2,0,P|11:15|-21:22,1,51.0000009727478,0|0,1:0|0:0,0:0:0:0:
47,83,31203,2,0,P|73:97|102:103,1,51.0000009727478,2|0,1:0|0:0,0:0:0:0:
121,21,31438,2,0,P|158:7|243:2,1,102.000001945496,8|2,0:0|0:0,0:0:0:0:
75,199,31789,1,2,0:0:0:0:
75,199,31907,6,0,L|201:179,1,120,4|2,1:0|0:0,0:0:0:0:
193,180,32258,1,2,0:0:0:0:
292,79,32375,2,0,L|166:99,1,120,8|0,0:0|0:0,0:0:0:0:
488,6,32844,2,0,L|481:69,1,60,0|0,1:0|0:0,0:0:0:0:
394,42,33078,2,0,L|387:105,1,60,2|0,0:0|0:0,0:0:0:0:
494,21,33313,2,0,L|487:84,1,60,8|0,0:0|0:0,0:0:0:0:
400,57,33547,2,0,L|393:120,1,60,2|0,0:0|0:0,0:0:0:0:
470,170,33782,6,0,P|427:197|341:195,1,120,0|2,1:0|0:0,0:0:0:0:
503,377,34250,2,0,P|511:344|512:312,1,60,10|0,0:0|0:0,0:0:0:0:
511,239,34485,1,2,0:0:0:0:
359,200,34602,2,0,P|363:259|385:334,1,120,2|0,0:0|0:0,0:0:0:0:
406,365,34953,2,0,P|422:303|428:247,1,120,2|8,1:0|0:0,0:0:0:0:
428,247,35305,1,2,0:0:0:0:
285,247,35539,1,2,0:0:0:0:
285,247,35598,1,2,0:0:0:0:
285,247,35657,6,0,P|225:248|165:265,1,120,2|2,1:0|0:0,0:0:0:0:
167,264,36008,1,2,0:0:0:0:
0,247,36125,2,0,L|35:380,1,120,10|0,0:0|0:0,0:0:0:0:
108,343,36477,1,2,0:0:0:0:
108,343,36535,1,2,0:0:0:0:
108,343,36594,2,0,L|77:226,1,120,0|2,1:0|0:0,0:0:0:0:
150,185,36946,1,2,0:0:0:0:
189,350,37063,6,0,P|224:348|260:336,1,60,10|0,0:0|0:0,0:0:0:0:
332,321,37297,2,0,P|296:322|260:334,1,60,2|0,0:0|0:0,0:0:0:0:
150,185,37532,2,0,P|123:121|114:69,1,120,2|2,1:0|0:0,0:0:0:0:
114,71,37883,1,2,0:0:0:0:
13,0,38000,6,0,P|29:38|34:69,1,60,10|0,0:0|0:0,0:0:0:0:
47,138,38235,2,0,P|41:179|30:209,1,60,2|0,0:0|0:0,0:0:0:0:
96,0,38469,1,2,1:0:0:0:
96,0,38586,1,2,0:0:0:0:
194,35,38703,2,0,L|210:101,1,60,2|0,0:0|0:0,0:0:0:0:
381,36,38938,2,0,L|366:94,1,60,8|0,0:0|0:0,0:0:0:0:
288,0,39172,1,2,0:0:0:0:
288,0,39289,1,2,0:0:0:0:
288,111,39407,6,0,B|272:154|272:154|317:241|317:241|291:296,1,180,6|0,1:0|0:0,0:0:0:0:
289,359,39875,2,0,B|304:326|304:326|259:239|259:239|275:196,1,180,8|0,0:0|0:0,0:0:0:0:
359,148,40344,2,0,L|433:132,1,60,0|0,1:0|0:0,0:0:0:0:
402,235,40578,2,0,L|474:258,1,60,2|0,0:0|0:0,0:0:0:0:
394,331,40813,2,0,L|444:387,1,60,8|0,0:0|0:0,0:0:0:0:
500,328,41047,1,2,0:0:0:0:
500,328,41164,1,2,0:0:0:0:
505,174,41282,6,0,P|507:114|473:47,1,120,0|2,1:0|0:0,0:0:0:0:
483,59,41750,1,10,0:0:0:0:
428,5,41867,1,2,0:0:0:0:
224,64,42102,1,2,0:0:0:0:
281,125,42219,6,0,P|283:155|271:203,1,60,2|0,1:0|0:0,0:0:0:0:
323,251,42453,2,0,P|303:273|260:299,1,60,2|0,0:0|0:0,0:0:0:0:
202,149,42688,1,10,0:0:0:0:
202,149,42805,1,2,0:0:0:0:
224,64,42922,2,0,P|243:41|286:15,1,60,2|0,1:0|0:0,0:0:0:0:
0,15,43157,5,0,1:0:0:0:
164,6,43391,1,2,0:0:0:0:
164,6,43508,1,2,0:0:0:0:
85,38,43625,1,10,0:0:0:0:
9,212,43742,2,0,P|3:153|19:96,1,120,2|2,0:0|0:0,0:0:0:0:
200,144,44094,1,0,1:0:0:0:
200,144,44211,2,0,P|202:172|195:213,1,60,2|0,0:0|0:0,0:0:0:0:
101,204,44446,2,0,P|99:176|106:135,1,60,2|8,0:0|0:0,0:0:0:0:
150,81,44680,1,2,0:0:0:0:
32,291,44914,1,2,0:0:0:0:
32,291,45032,6,0,B|160:335|151:245|281:296,2,240,2|10|2,1:0|0:1|1:0,0:0:0:0:
211,367,46086,1,2,0:0:0:0:
211,367,46203,2,0,P|244:371|283:382,1,60,6|0,0:0|0:0,0:0:0:0:
490,373,46438,2,0,P|460:380|431:383,1,60,10|0,0:1|0:0,0:0:0:0:
354,384,46672,1,2,0:0:0:0:
354,384,46789,1,2,0:0:0:0:
354,384,46907,6,0,B|342:338|342:338|355:254|355:254|344:212,1,155.999992858887,14|2,1:0|0:0,0:0:0:0:
349,231,47375,1,2,1:2:0:0:
349,231,47492,1,0,1:0:0:0:
349,231,47610,1,0,1:0:0:0:
349,231,47727,1,0,1:0:0:0:
438,302,47844,2,0,P|454:254|434:176,1,120,8|8,0:0|0:0,0:0:0:0:
440,187,48196,1,8,0:0:0:0:
273,258,48313,1,0,1:0:0:0:
500,0,48547,6,0,P|520:48|509:170,1,155.999992858887,14|2,1:0|0:0,0:0:0:0:
353,144,49016,2,0,P|402:109|430:57,1,120,6|0,3:0|1:0,0:0:0:0:
360,10,49485,2,0,P|303:27|244:17,1,120,2|0,1:2|1:2,0:0:0:0:
273,108,49953,1,6,0:0:0:0:
273,108,50071,1,2,0:0:0:0:
273,108,50188,1,2,0:0:0:0:
17,16,50422,6,0,B|-16:85|37:159|37:159|109:119|98:14,1,311.999985717774,14|2,1:0|0:0,0:0:0:0:
179,67,51125,2,0,P|177:98|166:135,1,60,8|0,0:0|1:0,0:0:0:0:
122,194,51360,2,0,P|100:216|68:237,1,60,8|0,0:0|1:0,0:0:0:0:
3,261,51594,1,12,3:0:0:0:
14,280,51711,1,12,3:0:0:0:
8,295,51828,1,8,3:0:0:0:
13,305,51946,1,8,3:0:0:0:
9,317,52063,2,0,L|2:377,1,60,4|4,3:0|3:0,0:0:0:0:
219,356,52297,6,0,P|225:284|200:185,1,155.999992858887,14|2,1:0|0:0,0:0:0:0:
114,307,52766,2,0,P|114:345|122:388,1,77.9999964294435,2|2,0:0|0:0,0:0:0:0:
332,383,53235,6,0,B|301:275|363:251|325:147,1,233.999989288331,14|0,1:0|0:0,0:0:0:0:
327,153,53704,1,12,3:0:0:0:
379,129,53821,1,12,3:0:0:0:
430,153,53938,1,4,3:0:0:0:
444,208,54055,1,4,3:0:0:0:
411,253,54172,5,6,1:2:0:0:
419,381,54875,6,0,L|413:328,1,38.9999982147218,2|0,1:2|0:0,0:0:0:0:
496,339,55110,2,0,L|490:286,1,38.9999982147218,2|0,0:0|0:0,0:0:0:0:
414,342,55344,2,0,L|408:289,1,38.9999982147218,2|0,1:2|0:0,0:0:0:0:
491,300,55579,2,0,L|485:247,1,38.9999982147218,2|0,0:0|0:0,0:0:0:0:
409,303,55813,6,0,L|403:250,1,51.0000009727478,2|0,1:2|0:0,0:0:0:0:
486,261,56048,2,0,L|480:208,1,51.0000009727478,2|0,0:0|0:0,0:0:0:0:
403,252,56282,2,0,L|397:199,1,51.0000009727478,2|0,1:2|0:0,0:0:0:0:
480,210,56517,2,0,L|474:157,1,51.0000009727478,2|0,0:0|0:0,0:0:0:0:
397,201,56750,6,0,L|389:137,1,62.9999980773926,2|0,1:2|0:0,0:0:0:0:
474,159,56985,2,0,L|466:95,1,62.9999980773926,2|0,0:0|0:0,0:0:0:0:
389,138,57219,2,0,L|381:74,1,62.9999980773926,2|0,1:2|0:0,0:0:0:0:
466,96,57454,2,0,L|458:32,1,62.9999980773926,2|0,0:0|0:0,0:0:0:0:
381,75,57688,6,0,L|371:-6,1,75,2|0,1:2|0:0,0:0:0:0:
140,0,57922,2,0,L|131:75,1,75,2|0,0:0|0:0,0:0:0:0:
256,384,58157,5,6,1:2:0:0:
256,256,58391,1,2,3:2:0:0:
256,128,58625,1,2,3:2:0:0:
256,0,58860,1,2,3:2:0:0:
256,384,59094,5,10,0:2:0:0:
256,128,59328,1,10,0:2:0:0:
256,384,59563,1,10,0:2:0:0:
256,0,59797,5,14,1:0:0:0:
206,382,61907,6,0,L|32:357,1,167.999994873047,6|2,1:0|0:0,0:0:0:0:
196,264,62375,2,0,L|22:239,1,167.999994873047,8|2,0:0|0:0,0:0:0:0:
186,146,62844,2,0,L|12:121,1,167.999994873047,0|2,1:0|0:0,0:0:0:0:
176,28,63313,2,0,L|2:3,1,167.999994873047,8|2,0:0|0:0,0:0:0:0:
306,382,63782,6,0,L|480:357,1,167.999994873047,2|2,1:0|0:0,0:0:0:0:
316,264,64250,2,0,L|490:239,1,167.999994873047,8|2,0:0|0:0,0:0:0:0:
326,146,64719,2,0,L|500:121,1,167.999994873047,0|2,1:0|0:0,0:0:0:0:
336,28,65188,2,0,L|510:3,1,167.999994873047,8|2,0:0|0:0,0:0:0:0:
206,382,65657,6,0,L|32:357,1,167.999994873047,2|2,1:0|0:0,0:0:0:0:
316,264,66125,2,0,L|490:239,1,167.999994873047,8|2,0:0|0:0,0:0:0:0:
186,146,66594,2,0,L|12:121,1,167.999994873047,0|2,1:0|0:0,0:0:0:0:
336,28,67063,2,0,L|510:3,1,167.999994873047,8|2,0:0|0:0,0:0:0:0:
0,0,67532,6,0,L|259:-8,1,251.999992309571,2|0,1:0|0:0,0:0:0:0:
512,0,68000,6,0,L|253:-8,1,251.999992309571,10|0,0:1|0:0,0:0:0:0:
8,8,68469,6,0,L|178:2,1,167.999994873047,2|2,1:0|0:0,0:0:0:0:
232,72,68821,1,2,0:0:0:0:
207,161,68938,1,10,0:0:0:0:
232,72,69055,2,2,L|254:256,1,167.999994873047,0|0,0:0|0:0,0:0:0:0:
160,365,69407,6,0,P|73:372|-6:338,1,167.999994873047,6|2,1:0|0:0,0:0:0:0:
15,247,69875,2,0,P|97:239|175:269,1,167.999994873047,8|2,0:0|0:0,0:0:0:0:
198,135,70344,2,0,P|111:142|32:108,1,167.999994873047,0|2,1:0|0:0,0:0:0:0:
53,17,70812,2,0,P|135:9|213:39,1,167.999994873047,8|2,0:0|0:0,0:0:0:0:
458,17,71282,6,0,P|375:9|298:39,1,167.999994873047,2|2,1:0|0:0,0:0:0:0:
314,135,71750,2,0,P|396:142|474:112,1,167.999994873047,8|2,0:0|0:0,0:0:0:0:
474,112,72102,1,2,0:0:0:0:
301,241,72219,2,0,P|306:283|332:341,1,83.9999974365235,2|0,1:0|0:0,0:0:0:0:
478,288,72453,2,0,P|473:246|447:188,1,83.9999974365235,2|0,0:0|0:0,0:0:0:0:
393,269,72688,1,10,0:0:0:0:
393,269,72805,1,2,0:0:0:0:
393,269,72922,2,0,L|412:360,1,83.9999974365235,2|2,0:0|0:0,0:0:0:0:
200,323,73157,6,0,P|155:337|113:344,1,83.9999974365235,6|0,1:0|0:0,0:0:0:0:
29,352,73391,1,2,0:0:0:0:
29,352,73625,2,0,P|34:259|52:184,1,167.999994873047,10|0,0:0|0:0,0:0:0:0:
312,61,74094,6,0,P|357:47|399:40,1,83.9999974365235,2|0,1:0|0:0,0:0:0:0:
483,32,74328,1,2,0:0:0:0:
483,32,74562,2,0,P|478:125|460:200,1,167.999994873047,10|0,0:0|0:0,0:0:0:0:
204,254,75032,6,0,P|224:215|255:192,1,83.9999974365235,2|0,1:0|0:0,0:0:0:0:
335,205,75266,2,0,P|291:207|255:191,1,83.9999974365235,2|0,0:0|0:0,0:0:0:0:
228,115,75500,2,0,P|252:152|256:191,1,83.9999974365235,14|0,0:0|0:0,0:0:0:0:
256,191,75735,1,2,0:0:0:0:
256,191,75969,6,0,L|74:164,1,167.999994873047,2|0,1:0|0:0,0:0:0:0:
11,146,76321,1,2,0:0:0:0:
76,91,76438,2,0,L|90:0,1,83.9999974365235,8|12,0:0|3:0,0:0:0:0:
34,222,76672,2,0,L|21:305,1,83.9999974365235,4|4,3:0|3:0,0:0:0:0:
306,382,76907,6,0,L|393:369,1,83.9999974365235,6|0,1:0|0:0,0:0:0:0:
472,358,77141,1,2,0:0:0:0:
316,264,77375,2,0,L|403:251,1,83.9999974365235,8|0,0:0|0:0,0:0:0:0:
482,240,77609,1,2,0:0:0:0:
326,146,77844,2,0,L|413:133,1,83.9999974365235,0|0,1:0|0:0,0:0:0:0:
492,122,78078,1,2,0:0:0:0:
336,28,78313,2,0,L|423:15,1,83.9999974365235,8|0,0:0|0:0,0:0:0:0:
502,4,78547,1,2,0:0:0:0:
206,382,78782,6,0,L|119:369,1,83.9999974365235,2|0,1:0|0:0,0:0:0:0:
39,358,79016,1,2,0:0:0:0:
196,264,79250,2,0,L|109:251,1,83.9999974365235,8|0,0:0|0:0,0:0:0:0:
30,240,79484,1,2,0:0:0:0:
186,146,79719,2,0,L|99:133,1,83.9999974365235,0|0,1:0|0:0,0:0:0:0:
20,122,79953,1,2,0:0:0:0:
176,28,80188,2,0,L|89:15,1,83.9999974365235,8|0,0:0|0:0,0:0:0:0:
10,4,80422,1,2,0:0:0:0:
256,192,80657,5,2,1:0:0:0:
306,382,80891,6,0,L|393:369,1,83.9999974365235,2|0,0:0|0:0,0:0:0:0:
196,264,81125,2,0,L|109:251,1,83.9999974365235,10|0,0:0|0:0,0:0:0:0:
326,146,81359,2,0,L|413:133,1,83.9999974365235,2|0,0:0|0:0,0:0:0:0:
176,28,81594,2,0,L|89:15,1,83.9999974365235,2|0,1:2|0:0,0:0:0:0:
336,28,81828,2,0,L|423:15,1,83.9999974365235,2|0,0:0|0:0,0:0:0:0:
186,146,82063,2,0,L|99:133,1,83.9999974365235,10|0,0:0|0:0,0:0:0:0:
316,264,82297,2,0,L|403:251,1,83.9999974365235,2|0,0:0|0:0,0:0:0:0:
512,0,82532,6,0,L|253:-8,1,251.999992309571,2|0,1:0|0:0,0:1:0:0:
0,80,83000,6,0,L|259:72,1,251.999992309571,10|0,0:1|0:0,0:1:0:0:
502,127,83469,6,0,L|331:121,1,167.999994873047,2|2,1:0|1:0,0:0:0:0:
255,72,83938,5,10,1:0:0:0:
255,174,84055,1,2,0:0:0:0:
255,72,84172,1,2,1:0:0:0:
182,342,84407,6,0,B|196:213|127:231|138:96,1,251.999992309571,6|0,1:0|0:0,0:0:0:0:
138,99,84875,2,0,P|145:143|167:190,1,83.9999974365235,10|0,0:0|0:0,0:0:0:0:
222,254,85110,1,2,0:0:0:0:
4,15,85344,2,0,P|45:30|97:35,1,83.9999974365235,2|0,1:2|0:0,0:0:0:0:
180,19,85579,1,2,0:0:0:0:
98,290,85813,6,0,B|152:246|221:253|221:253|264:298|330:294,1,251.999992309571,10|0,0:1|0:0,0:0:0:0:
9,227,86282,2,0,B|77:215|134:257|134:257|148:316|208:347,1,251.999992309571,2|0,1:0|0:0,0:0:0:0:
179,105,86750,2,0,L|76:125,1,83.9999974365235,10|0,0:0|0:0,0:0:0:0:
3,141,86985,1,2,0:0:0:0:
185,263,87219,2,0,L|103:246,1,83.9999974365235,2|0,1:2|0:0,0:0:0:0:
9,227,87454,1,2,0:0:0:0:
207,182,87688,6,0,B|279:204|279:204|354:148|356:51,1,251.999992309571,10|0,0:1|0:0,0:0:0:0:
297,305,88157,2,0,B|352:253|352:253|341:160|258:110,1,251.999992309571,2|0,1:0|0:0,0:0:0:0:
279,383,88625,5,14,0:0:0:0:
259,111,88860,1,2,0:0:0:0:
390,336,89094,6,0,P|437:326|471:310,1,83.9999974365235,2|0,1:0|0:0,0:0:0:0:
470,162,89328,2,0,P|454:201|431:235,1,83.9999974365235,0|0,1:0|0:0,0:0:0:0:
398,118,89563,1,10,0:1:0:0:
398,118,89680,1,2,0:0:0:0:
398,118,89797,1,2,0:0:0:0:
398,118,89914,1,2,0:0:0:0:
326,58,90032,5,0,1:0:0:0:
297,305,90149,2,0,B|314:250|261:210|279:140,1,167.999994873047,12|0,0:0|0:0,0:0:0:0:
482,57,90500,5,10,0:2:0:0:
496,84,90617,1,2,1:2:0:0:
489,53,90735,5,2,0:2:0:0:
487,86,90852,1,10,0:2:0:0:
498,54,90969,5,2,0:2:0:0:
478,85,91086,1,10,0:2:0:0:
506,60,91203,5,2,1:2:0:0:
470,79,91320,1,2,0:2:0:0:
510,71,91438,5,8,0:0:0:0:
466,68,91555,1,12,3:0:0:0:
507,82,91672,5,4,3:0:0:0:
469,58,91789,1,4,3:0:0:0:
502,244,91907,6,0,B|482:279|482:279|432:295|355:283,1,150,6|0,1:0|0:0,0:0:0:0:
373,285,92258,1,2,0:0:0:0:
439,139,92375,1,8,0:0:0:0:
439,139,92610,2,0,P|428:177|426:220,1,75,2|0,1:0|0:0,0:0:0:0:
512,357,92844,2,0,P|408:370|342:365,1,150,2|0,1:0|0:0,0:0:0:0:
363,367,93196,1,2,0:1:0:0:
349,211,93313,1,8,0:0:0:0:
349,211,93547,2,0,P|296:204|264:207,1,75,2|0,1:0|0:0,0:0:0:0:
293,290,93782,5,2,1:2:0:0:
293,290,93899,1,2,0:0:0:0:
293,290,94016,1,2,0:0:0:0:
279,373,94250,1,10,0:0:0:0:
279,373,94367,1,2,0:0:0:0:
279,373,94484,1,2,0:0:0:0:
279,373,94602,1,2,0:0:0:0:
196,384,94836,1,2,0:0:0:0:
196,384,94953,1,2,0:0:0:0:
196,384,95070,1,2,0:0:0:0:
196,384,95188,1,10,0:0:0:0:
210,302,95422,2,0,P|172:301|129:305,1,75
105,377,95657,6,0,P|117:290|107:222,1,150,2|2,1:0|0:0,0:0:0:0:
108,228,96008,1,2,0:0:0:0:
108,228,96125,1,8,0:0:0:0:
21,374,96360,2,0,P|13:321|19:281,1,75,2|0,0:0|0:0,0:0:0:0:
31,224,96594,1,2,1:2:0:0:
53,179,96711,1,2,0:0:0:0:
38,134,96828,1,2,0:0:0:0:
60,89,96945,1,2,0:0:0:0:
54,59,97063,1,10,0:0:0:0:
54,59,97180,1,2,0:0:0:0:
54,59,97297,1,2,0:0:0:0:
54,59,97414,1,2,0:0:0:0:
54,59,97532,5,2,1:2:0:0:
187,3,97766,2,0,P|163:35|126:56,1,75,2|2,0:0|0:0,0:0:0:0:
127,134,98000,1,10,0:0:0:0:
273,154,98117,2,0,P|236:169|193:169,1,75,2|0,0:0|0:0,0:0:0:0:
220,86,98352,2,0,P|282:58|369:39,1,150,2|2,0:0|0:0,0:0:0:0:
512,32,98703,2,0,P|478:45|432:50,1,75,2|0,0:0|0:0,0:0:0:0:
352,147,98938,2,0,P|386:134|432:129,1,75,10|0,0:2|0:0,0:0:0:0:
507,128,99172,1,0,0:0:0:0:
507,128,99289,1,0,0:0:0:0:
419,234,99407,6,0,B|428:320|496:355|496:355|548:289|502:186,1,300,6|8,1:0|0:0,0:0:0:0:
314,380,100110,2,0,L|405:374,1,75,6|0,1:0|0:0,0:0:0:0:
223,211,100344,2,0,L|233:365,1,150,2|2,1:0|0:0,0:0:0:0:
232,360,100696,1,2,0:1:0:0:
307,300,100813,1,10,0:2:0:0:
307,300,101282,6,0,P|233:318|156:363,1,150,6|2,1:0|0:0,0:0:0:0:
168,353,101633,1,2,0:0:0:0:
19,356,101750,2,0,P|67:372|112:368,1,75,10|0,0:0|0:0,0:0:0:0:
118,295,101985,1,2,0:0:0:0:
0,221,102102,2,0,P|22:266|57:295,1,75,2|0,0:0|1:0,0:0:0:0:
128,148,102336,2,0,P|112:196|121:305,1,150,2|2,0:0|0:0,0:0:0:0:
251,214,102688,2,0,P|205:236|176:271,1,75,10|0,0:0|0:0,0:0:0:0:
209,148,102922,1,2,0:0:0:0:
209,148,103039,1,2,0:0:0:0:
43,150,103157,6,0,L|24:-4,1,150,2|2,1:0|0:0,0:0:0:0:
24,1,103508,1,2,0:0:0:0:
130,63,103625,1,10,0:0:0:0:
130,63,103742,1,2,0:0:0:0:
130,63,103860,1,2,0:0:0:0:
209,148,104094,5,2,1:2:0:0:
209,148,104211,1,2,0:0:0:0:
209,148,104328,2,0,L|228:-6,1,150,2|10,0:0|0:0,0:0:0:0:
130,63,104680,1,2,0:0:0:0:
130,63,104797,1,2,0:0:0:0:
130,63,104914,1,2,0:0:0:0:
209,148,105032,5,6,1:2:0:0:
295,180,105149,2,0,P|295:139|289:97,1,75,10|0,0:1|0:0,0:0:0:0:
353,61,105383,1,8,0:1:0:0:
432,9,105500,2,0,P|432:50|438:92,1,75,10|0,0:1|0:0,0:0:0:0:
462,157,105735,1,8,0:1:0:0:
382,285,105852,6,0,P|385:190|368:107,1,150,6|2,1:0|1:2,0:0:0:0:
474,247,106203,1,2,1:2:0:0:
474,247,106321,1,2,1:2:0:0:
474,247,106438,1,2,1:2:0:0:
306,262,106555,1,6,1:1:0:0:
7,362,106907,5,6,1:2:0:0:
0,277,107141,2,0,L|65:282,1,60.0000022888184
59,281,107375,1,2,0:0:0:0:
149,358,107610,2,0,L|84:363,1,60.0000022888184
90,362,107844,1,2,0:0:0:0:
151,280,108078,2,0,L|216:285,1,60.0000022888184
210,284,108313,2,0,P|233:323|234:372,1,90.0000034332277,2|0,0:0|0:0,0:0:0:0:
234,367,108625,2,0,L|279:372,2,30.0000011444092,2|2|2,0:0|0:0|0:0,0:0:0:0:
41,203,109016,6,0,L|36:133,1,60.0000022888184
36,143,109250,1,2,0:0:0:0:
12,4,109485,2,0,L|7:74,1,60.0000022888184
7,64,109719,1,2,0:0:0:0:
134,198,109953,2,0,L|129:128,1,60.0000022888184,2|0,0:0|0:0,0:0:0:0:
129,138,110188,2,0,L|134:198,1,60.0000022888184,2|8,0:0|0:0,0:0:0:0:
96,56,110578,6,0,B|128:34|128:34|223:65,1,120.000004577637,6|0,1:2|0:0,0:0:0:0:
212,139,111047,1,2,0:0:0:0:
212,139,111125,1,2,0:0:0:0:
281,23,111360,5,2,0:0:0:0:
289,106,111516,1,2,0:0:0:0:
289,106,111594,1,2,0:0:0:0:
378,103,111828,5,2,0:0:0:0:
370,20,111984,1,2,0:0:0:0:
370,20,112063,2,0,L|432:14,1,60.0000022888184,2|0,0:0|0:0,0:0:0:0:
337,171,112453,1,2,0:0:0:0:
496,173,112766,6,0,P|482:125|454:79,1,90.0000034332277,6|2,0:0|0:0,0:0:0:0:
416,180,113235,1,2,0:0:0:0:
467,248,113391,1,2,0:0:0:0:
467,248,113469,1,2,0:0:0:0:
381,266,113703,5,2,0:0:0:0:
432,334,113860,1,2,0:0:0:0:
432,334,113938,2,0,P|469:339|497:338,1,60.0000022888184,2|8,0:0|0:0,0:0:0:0:
303,246,114328,1,2,0:0:0:0:
303,246,114407,6,0,L|210:253,1,90.0000034332277,4|0,1:0|0:0,0:0:0:0:
348,343,114797,1,0,0:0:0:0:
348,343,114875,1,0,0:0:0:0:
186,360,115110,5,2,0:0:0:0:
266,337,115266,1,2,0:0:0:0:
266,337,115344,1,2,0:0:0:0:
106,337,115578,5,2,0:0:0:0:
186,360,115734,1,2,0:0:0:0:
186,360,115813,2,0,L|183:287,1,60.0000022888184,2|0,0:0|0:0,0:0:0:0:
21,364,116203,6,0,B|4:320|41:292|20:234,1,120.000004577637,6|2,1:2|0:0,0:0:0:0:
4,167,116672,1,2,0:0:0:0:
4,167,116750,1,2,0:0:0:0:
24,3,116985,5,2,0:0:0:0:
32,86,117141,1,2,0:0:0:0:
32,86,117219,1,2,0:0:0:0:
105,235,117453,5,2,0:0:0:0:
97,152,117609,1,2,0:0:0:0:
97,152,117688,2,0,P|113:116|126:93,1,60.0000022888184,2|10,0:0|0:0,0:0:0:0:
100,9,118078,6,0,L|208:20,1,90.0000034332277,6|0,0:0|0:0,0:0:0:0:
189,18,118391,2,0,L|264:10,1,60.0000022888184,2|0,0:0|0:0,0:0:0:0:
248,11,118625,2,0,L|307:17,1,60.0000022888184,2|0,0:0|0:0,0:0:0:0:
307,17,118860,2,0,L|366:10,1,60.0000022888184,2|0,0:0|0:0,0:0:0:0:
395,17,119094,6,0,L|385:94,1,60.0000022888184,2|2,0:0|0:0,0:0:0:0:
209,94,119485,1,2,0:0:0:0:
209,94,119563,1,2,1:2:0:0:
310,102,119719,1,2,0:0:0:0:
310,102,119797,1,2,1:2:0:0:
253,173,119953,5,6,0:0:0:0:
482,34,120735,1,0,1:0:0:0:
484,31,120813,1,0,1:0:0:0:
486,28,120891,1,0,1:0:0:0:
488,25,120969,5,8,0:0:0:0:
488,359,121438,5,8,0:0:0:0:
496,192,122375,6,0,B|372:148|324:273|191:198,1,287.999991210938,14|0,1:0|1:0,0:0:0:0:
282,134,122961,1,0,0:0:0:0:
282,134,123078,2,0,P|281:95|276:60,1,71.9999978027344,2|0,0:0|0:0,0:0:0:0:
351,224,123313,2,0,P|372:191|388:159,1,71.9999978027344,8|0,0:0|0:0,0:0:0:0:
355,337,123547,2,0,P|391:322|422:306,1,71.9999978027344,2|0,0:0|0:0,0:0:0:0:
279,283,123782,6,0,P|205:284|132:297,1,143.999995605469,0|2,1:0|0:0,0:0:0:0:
41,384,124250,2,0,P|47:344|60:306,1,71.9999978027344,10|0,0:0|0:0,0:0:0:0:
127,374,124485,1,2,0:0:0:0:
281,355,124602,2,0,P|280:279|266:206,1,143.999995605469,2|0,0:0|0:0,0:0:0:0:
78,234,124953,2,0,P|143:248|200:313,1,143.999995605469,2|8,1:0|0:0,0:0:0:0:
208,380,125305,1,2,0:0:0:0:
0,256,125539,1,2,0:0:0:0:
0,256,125598,1,2,0:0:0:0:
0,256,125657,6,0,L|-8:107,1,143.999995605469,2|2,1:0|0:0,0:0:0:0:
34,51,126008,1,2,0:0:0:0:
143,119,126125,2,0,L|-15:134,1,143.999995605469,10|0,0:0|0:0,0:0:0:0:
197,190,126477,1,2,0:0:0:0:
197,190,126535,1,2,0:0:0:0:
197,190,126594,6,0,P|186:117|202:38,1,143.999995605469,0|2,1:0|0:0,0:0:0:0:
117,43,126946,1,2,0:0:0:0:
291,0,127063,2,0,P|280:33|273:72,1,71.9999978027344,10|0,0:0|0:0,0:0:0:0:
295,219,127297,2,0,P|284:186|277:147,1,71.9999978027344,2|0,0:0|0:0,0:0:0:0:
405,103,127532,6,0,P|336:112|255:110,1,143.999995605469,2|2,1:0|0:0,0:0:0:0:
372,26,127883,1,2,0:0:0:0:
454,33,128000,2,0,P|479:63|491:112,1,71.9999978027344,10|0,0:0|0:0,0:0:0:0:
367,183,128235,2,0,P|392:153|404:104,1,71.9999978027344,2|0,0:0|0:0,0:0:0:0:
495,311,128469,2,0,P|494:238|470:166,1,143.999995605469,2|2,1:0|0:0,0:0:0:0:
419,246,128821,1,0,0:0:0:0:
367,183,128938,1,8,0:0:0:0:
412,326,129055,1,0,0:0:0:0:
337,256,129172,2,0,P|301:259|247:252,1,71.9999978027344,2|2,0:0|0:0,0:0:0:0:
125,360,129407,6,0,B|149:351|170:330|170:330|248:358|344:352,1,215.999993408203,6|0,1:0|0:0,0:0:0:0:
412,326,129875,2,0,B|388:335|367:356|367:356|289:328|193:334,1,215.999993408203,8|0,0:0|0:0,0:0:0:0:
41,384,130344,2,0,L|36:289,1,71.9999978027344,0|0,1:0|0:0,0:0:0:0:
111,271,130578,1,2,0:0:0:0:
111,271,130696,1,0,0:0:0:0:
33,231,130813,2,0,L|83:150,1,71.9999978027344,8|0,0:0|0:0,0:0:0:0:
154,195,131047,2,0,L|241:157,1,71.9999978027344,2|2,0:0|0:0,0:0:0:0:
231,253,131282,6,0,P|232:196|202:104,1,143.999995605469,2|2,1:0|0:0,0:0:0:0:
71,169,131750,1,10,0:0:0:0:
71,169,131867,1,2,0:0:0:0:
112,6,132102,2,0,P|113:45|123:97,1,71.9999978027344,6|0,0:0|1:0,0:0:0:0:
16,108,132336,2,0,P|17:69|27:17,1,71.9999978027344,4|2,0:0|0:0,0:0:0:0:
200,41,132571,1,0,1:0:0:0:
356,207,132688,2,0,B|309:130|400:67|355:-3,1,215.999993408203,14|0,0:0|0:0,0:0:0:0:
280,47,133157,5,0,1:0:0:0:
429,156,133391,1,2,0:0:0:0:
429,156,133508,1,2,0:0:0:0:
444,64,133625,1,10,0:0:0:0:
475,289,133742,2,0,P|462:215|423:149,1,143.999995605469,2|2,0:0|0:0,0:0:0:0:
508,125,134094,1,0,1:0:0:0:
508,125,134211,2,0,P|481:144|430:161,1,71.9999978027344,2|0,0:0|0:0,0:0:0:0:
411,322,134446,2,0,P|438:303|489:286,1,71.9999978027344,2|8,0:0|0:0,0:0:0:0:
384,238,134680,1,2,0:0:0:0:
384,238,134797,2,0,P|357:219|306:202,1,71.9999978027344
199,374,135032,5,12,0:2:0:0:
328,307,135149,2,0,L|224:295,1,71.9999978027344,8|0,1:0|0:0,0:0:0:0:
365,383,135383,5,12,0:2:0:0:
178,295,135500,2,0,L|282:283,1,77.9999964294435,8|0,0:0|0:0,0:0:0:0:
119,359,135735,5,12,0:2:0:0:
299,258,135852,2,0,L|195:246,1,83.9999974365235,8|0,0:0|0:0,0:0:0:0:
281,380,136086,5,12,0:2:0:0:
215,248,136203,1,10,0:0:0:0:
215,248,136321,1,2,1:2:0:0:
199,374,136438,5,12,0:2:0:0:
299,258,136555,1,14,0:0:0:0:
299,258,136672,1,2,1:2:0:0:
365,383,136789,1,12,0:2:0:0:
261,182,136907,5,12,1:0:0:0:
3,51,137844,5,4,1:0:0:0:
502,251,138782,5,4,1:0:0:0:
215,9,139719,5,4,1:0:0:0:
215,9,140188,1,2,0:0:0:0:
172,376,140657,5,4,1:0:0:0:
172,376,141125,1,2,0:0:0:0:
6,224,141594,6,0,L|111:215,1,90.0000034332277,6|2,1:2|0:0,0:0:0:0:
261,179,142063,2,0,L|350:186,1,90.0000034332277,6|2,1:2|0:0,0:0:0:0:
507,222,142532,5,4,1:0:0:0:
507,222,143000,2,0,L|512:133,1,77.9999964294435,2|2,1:2|1:2,0:0:0:0:
507,222,143469,6,0,L|503:285,1,51.0000009727478,2|0,1:2|0:0,0:0:0:0:
431,183,143704,2,0,L|427:246,1,51.0000009727478,2|0,1:2|0:0,0:0:0:0:
348,214,143938,2,0,L|344:277,1,51.0000009727478,2|0,1:2|0:0,0:0:0:0:
272,175,144173,2,0,L|268:238,1,51.0000009727478,2|0,1:2|0:0,0:0:0:0:
9,220,144407,6,0,L|13:283,1,62.9999980773926,2|0,1:2|0:0,0:0:0:0:
85,181,144641,2,0,L|89:244,1,62.9999980773926,2|0,1:2|0:0,0:0:0:0:
168,212,144876,2,0,L|172:275,1,62.9999980773926,2|0,1:2|0:0,0:0:0:0:
244,173,145111,2,0,L|248:236,1,62.9999980773926,2|0,1:2|0:0,0:0:0:0:
259,354,145344,5,8,0:0:0:0:
269,308,145461,1,0,1:0:0:0:
250,263,145578,1,8,0:0:0:0:
240,217,145695,1,8,0:0:0:0:
265,171,145812,6,0,L|284:95,1,75,8|0,0:0|1:0,0:0:0:0:
244,73,146047,2,0,L|225:-3,1,75,8|8,0:0|0:0,0:0:0:0:
214,381,146282,6,0,L|130:368,1,83.9999974365235,6|0,1:0|0:0,0:0:0:0:
22,350,146516,1,2,0:0:0:0:
17,235,146750,2,0,L|100:247,1,83.9999974365235,8|0,0:0|0:0,0:0:0:0:
209,266,146985,1,2,0:0:0:0:
204,151,147219,2,0,L|120:138,1,83.9999974365235,0|0,1:2|0:0,0:0:0:0:
12,120,147453,1,2,0:0:0:0:
7,5,147688,2,0,L|90:17,1,83.9999974365235,8|0,0:0|0:0,0:0:0:0:
199,36,147923,1,2,0:0:0:0:
298,381,148157,6,0,L|381:368,1,83.9999974365235,2|0,1:0|0:0,0:0:0:0:
490,350,148391,1,2,0:0:0:0:
495,235,148625,2,0,L|411:247,1,83.9999974365235,8|0,0:0|0:0,0:0:0:0:
303,266,148860,1,2,0:0:0:0:
308,151,149094,2,0,L|391:138,1,83.9999974365235,0|0,1:2|0:0,0:0:0:0:
500,120,149328,1,2,0:0:0:0:
505,5,149563,2,0,L|421:17,1,83.9999974365235,8|0,0:0|0:0,0:0:0:0:
313,36,149798,1,2,0:0:0:0:
214,381,150032,6,0,L|130:368,1,83.9999974365235,2|0,1:0|0:0,0:0:0:0:
22,350,150266,1,2,0:0:0:0:
303,266,150500,2,0,L|386:253,1,83.9999974365235,8|0,0:2|0:0,0:0:0:0:
495,235,150734,1,2,0:0:0:0:
204,151,150969,2,0,L|120:138,1,83.9999974365235,0|0,1:2|0:0,0:0:0:0:
12,120,151203,1,2,0:0:0:0:
313,36,151438,2,0,L|396:23,1,83.9999974365235,8|0,0:2|0:0,0:0:0:0:
505,5,151672,1,2,0:0:0:0:
512,0,151907,6,0,P|391:-10|253:-8,1,251.999992309571,2|0,1:0|0:0,0:0:0:0:
0,0,152375,6,0,P|122:3|259:-8,1,251.999992309571,10|0,0:1|0:0,0:0:0:0:
504,8,152844,6,0,P|421:0|334:2,1,167.999994873047,2|2,1:0|0:0,0:0:0:0:
289,75,153196,1,2,0:0:0:0:
321,156,153313,1,10,0:0:0:0:
289,75,153430,2,2,P|291:173|306:248,1,167.999994873047,0|0,0:0|0:0,0:0:0:0:
328,374,153782,6,0,P|378:378|422:357,1,83.9999974365235,6|0,1:0|0:0,0:0:0:0:
481,313,154016,1,2,0:0:0:0:
512,221,154250,2,0,P|462:217|418:238,1,83.9999974365235,10|0,0:0|0:0,0:0:0:0:
359,282,154484,1,2,0:0:0:0:
296,164,154719,2,0,P|346:168|390:147,1,83.9999974365235,2|0,1:2|0:0,0:0:0:0:
449,103,154953,1,2,0:0:0:0:
480,11,155187,2,0,P|430:7|386:28,1,83.9999974365235,10|0,0:0|0:0,0:0:0:0:
327,72,155421,1,2,0:0:0:0:
32,11,155657,6,0,P|82:7|126:28,1,83.9999974365235,2|0,1:0|0:0,0:0:0:0:
185,72,155891,1,2,0:0:0:0:
216,164,156125,2,0,P|166:168|122:147,2,83.9999974365235,10|0|2,0:2|0:0|0:0,0:0:0:0:
63,103,156477,1,2,0:0:0:0:
22,178,156594,2,0,P|7:216|3:278,1,83.9999974365235,2|0,1:0|0:0,0:0:0:0:
22,384,156828,2,0,P|7:346|3:284,1,83.9999974365235,2|0,0:0|0:0,0:0:0:0:
85,283,157063,1,10,0:0:0:0:
85,283,157180,1,2,0:0:0:0:
85,283,157297,2,0,L|178:278,1,83.9999974365235,2|2,0:0|0:0,0:0:0:0:
342,337,157532,6,0,P|297:351|255:358,1,83.9999974365235,6|0,1:0|0:0,0:0:0:0:
171,366,157766,1,2,0:0:0:0:
171,366,158000,2,0,P|176:273|194:198,1,167.999994873047,10|0,0:0|0:0,0:0:0:0:
341,239,158469,2,0,P|386:253|428:260,1,83.9999974365235,2|0,1:0|0:0,0:0:0:0:
512,268,158703,1,2,0:0:0:0:
512,268,158937,2,0,P|507:175|489:100,1,167.999994873047,10|0,0:0|0:0,0:0:0:0:
460,23,159407,6,0,P|476:56|489:102,1,83.9999974365235,2|0,1:0|0:0,0:0:0:0:
373,45,159641,2,0,P|367:81|351:126,1,83.9999974365235,2|0,0:0|0:0,0:0:0:0:
289,13,159875,2,0,P|263:39|224:67,1,83.9999974365235,14|0,0:0|0:0,0:0:0:0:
273,131,160110,1,2,0:0:0:0:
426,149,160344,2,0,P|341:159|241:159,1,167.999994873047,2|0,1:0|0:0,0:0:0:0:
179,133,160696,1,2,0:0:0:0:
147,57,160813,2,0,L|60:30,1,83.9999974365235,8|12,0:0|3:0,0:0:0:0:
100,157,161047,2,0,L|19:181,1,83.9999974365235,4|4,3:0|3:0,0:0:0:0:
186,384,161282,5,6,1:0:0:0:
133,372,161399,1,2,0:2:0:0:
80,360,161516,1,2,0:2:0:0:
180,268,161750,1,10,0:2:0:0:
127,256,161867,1,2,0:2:0:0:
74,244,161984,1,2,0:2:0:0:
174,152,162219,1,2,1:2:0:0:
121,140,162336,1,2,0:2:0:0:
68,128,162453,1,2,0:2:0:0:
168,36,162688,1,10,0:2:0:0:
115,24,162805,1,2,0:2:0:0:
62,12,162922,1,2,0:2:0:0:
326,384,163157,5,2,1:0:0:0:
379,372,163274,1,2,0:2:0:0:
432,360,163391,1,2,0:2:0:0:
332,268,163625,1,10,0:2:0:0:
385,256,163742,1,2,0:2:0:0:
438,244,163859,1,2,0:2:0:0:
338,152,164094,1,2,1:2:0:0:
391,140,164211,1,2,0:2:0:0:
444,128,164328,1,2,0:2:0:0:
344,36,164563,1,10,0:2:0:0:
397,24,164680,1,2,0:2:0:0:
450,12,164797,1,2,0:2:0:0:
256,192,165032,5,2,1:0:0:0:
133,372,165266,2,0,L|36:349,1,83.9999974365235,2|0,0:0|0:0,0:0:0:0:
385,256,165500,2,0,L|482:233,1,83.9999974365235,10|0,0:0|0:0,0:0:0:0:
121,140,165735,2,0,L|24:117,1,83.9999974365235,2|0,0:0|0:0,0:0:0:0:
397,24,165969,2,0,L|478:4,1,83.9999974365235,2|0,1:2|0:0,0:0:0:0:
115,24,166203,2,0,L|33:4,1,83.9999974365235,2|0,0:0|0:0,0:0:0:0:
391,140,166437,2,0,L|472:120,1,83.9999974365235,10|0,0:0|0:0,0:0:0:0:
127,256,166672,2,0,L|45:236,1,83.9999974365235,2|0,0:0|0:0,0:0:0:0:
0,0,166907,6,0,P|124:-9|259:-8,1,251.999992309571,2|0,1:0|0:0,0:1:0:0:
512,80,167375,6,0,P|393:85|253:72,1,251.999992309571,10|0,0:1|0:0,0:1:0:0:
10,127,167844,6,0,P|98:114|181:121,1,167.999994873047,2|2,1:0|1:0,0:0:0:0:
260,73,168313,1,10,1:0:0:0:
238,188,168430,1,2,0:0:0:0:
260,73,168547,1,2,1:0:0:0:
185,350,168782,6,0,B|225:303|220:243|220:243|165:195|178:100,1,251.999992309571,6|0,1:0|0:0,0:0:0:0:
405,231,169250,2,0,P|366:213|325:207,1,83.9999974365235,10|0,0:0|0:0,0:0:0:0:
238,188,169485,1,2,0:0:0:0:
25,306,169719,2,0,P|63:288|104:282,1,83.9999974365235,2|0,1:2|0:0,0:0:0:0:
192,263,169954,1,2,0:0:0:0:
477,298,170188,6,0,B|528:188|431:160|487:53,1,251.999992309571,10|0,0:1|0:0,0:0:0:0:
324,49,170657,2,0,B|380:156|283:184|334:293,1,251.999992309571,2|0,1:0|0:0,0:0:0:0:
405,231,171125,2,0,P|380:270|339:299,1,83.9999974365235,10|0,0:0|0:0,0:0:0:0:
254,325,171360,1,2,0:0:0:0:
406,43,171594,2,0,P|360:52|311:44,1,83.9999974365235,2|0,1:2|0:0,0:0:0:0:
232,2,171829,1,2,0:0:0:0:
484,167,172063,6,0,B|441:118|441:118|349:148|242:112,1,251.999992309571,10|0,0:1|0:0,0:0:0:0:
129,193,172532,2,0,B|172:144|172:144|264:174|371:138,1,251.999992309571,2|0,1:0|0:0,0:0:0:0:
172,65,173000,5,14,0:0:0:0:
412,205,173235,1,2,0:0:0:0:
129,193,173469,2,0,L|119:292,1,83.9999974365235,2|0,1:0|0:0,0:0:0:0:
13,364,173703,2,0,L|21:280,1,83.9999974365235,0|0,1:0|0:0,0:0:0:0:
110,360,173938,1,10,0:1:0:0:
110,360,174055,1,2,0:0:0:0:
110,360,174172,1,2,0:0:0:0:
110,360,174289,1,2,0:0:0:0:
187,319,174407,5,0,1:0:0:0:
47,206,174524,2,0,P|38:163|34:118,1,83.9999974365235,12|0,0:0|0:0,0:0:0:0:
187,319,174758,5,0,1:0:0:0:
137,146,174875,2,0,P|154:105|176:66,1,83.9999974365235,12|0,0:0|0:0,0:0:0:0:
187,319,175110,5,0,1:0:0:0:
245,148,175227,2,0,P|315:103|393:67,1,167.999994873047,12|10,0:0|0:0,0:0:0:0:
482,51,175578,2,0,P|489:91|491:157,1,83.9999974365235,10|0,0:0|0:0,0:0:0:0:
492,134,175754,1,10,0:0:0:0:
492,134,175813,2,0,B|461:158|461:158|488:118,1,83.9999974365235,10|8,0:0|0:0,0:0:0:0:
503,241,176047,2,0,B|463:242|463:242|508:225,1,83.9999974365235,10|8,0:0|0:0,0:0:0:0:
383,361,176282,6,2,B|358:268|358:268|390:149|390:149|365:51,2,311.999985717774,6|10|2,1:0|0:1|1:0,0:2:0:0:
383,361,177336,1,2,0:0:0:0:
383,361,177453,2,0,L|474:354,1,77.9999964294435,2|0,0:1|0:0,0:0:0:0:
300,157,177688,1,10,0:1:0:0:
300,157,177805,1,2,0:0:0:0:
300,157,177922,2,0,L|209:150,1,77.9999964294435,2|0,0:1|0:0,0:0:0:0:
137,380,178157,6,0,B|163:346|163:346|280:354,1,155.999992858887,2|0,1:0|0:0,0:0:0:0:
275,353,178508,1,2,0:0:0:0:
282,274,178625,2,0,B|256:240|256:240|139:248,1,155.999992858887,10|0,0:1|0:0,0:0:0:0:
143,247,178977,1,0,0:0:0:0:
44,384,179094,2,0,L|64:300,1,77.9999964294435,2|0,1:0|0:0,0:0:0:0:
74,310,179328,2,0,L|54:226,1,77.9999964294435,2|0,0:0|0:0,0:0:0:0:
10,169,179563,1,8,0:0:0:0:
10,169,179680,1,0,0:0:0:0:
10,169,179797,1,0,0:0:0:0:
10,169,179914,1,0,0:0:0:0:
10,169,180032,6,0,P|9:128|3:98,1,53.9999983520508,2|0,1:0|0:0,0:0:0:0:
49,0,180266,2,0,P|50:41|56:71,1,53.9999983520508
96,184,180500,2,0,P|95:143|89:113,1,66.0000020141602,10|0,0:1|0:0,0:0:0:0:
253,0,180735,2,0,P|254:41|260:71,1,66.0000020141602
187,173,180969,6,0,B|206:94|147:94|164:0,1,155.999992858887,2|2,1:0|0:0,0:0:0:0:
162,22,181321,1,0,0:0:0:0:
253,0,181438,2,0,P|297:-1|346:9,1,90.0000034332277,10|0,0:1|0:0,0:0:0:0:
425,31,181672,1,2,0:1:0:0:
280,142,181789,1,2,0:1:0:0:
469,204,181907,6,0,B|458:236|433:253|433:253|411:169|348:94|348:94|382:123|409:135,2,306.000005836487,2|2|2,1:0|1:0|1:0,0:0:0:0:
486,128,182844,2,0,P|427:166|328:218,1,180.000006866455,4|0,1:0|0:0,0:0:0:0:
329,217,183313,1,10,0:1:0:0:
254,220,183430,1,2,0:0:0:0:
188,266,183547,1,2,0:0:0:0:
113,269,183664,1,2,0:1:0:0:
113,269,183782,6,0,P|186:290|264:306,1,155.999992858887,4|0,1:0|0:0,0:0:0:0:
508,307,184250,2,0,P|435:328|357:344,1,155.999992858887,10|0,1:0|0:0,0:0:0:0:
236,381,184719,1,0,1:0:0:0:
186,367,184836,1,2,0:0:0:0:
138,374,184953,1,2,0:0:0:0:
89,360,185070,1,2,0:0:0:0:
38,370,185188,2,0,B|5:375|5:375|18:227,1,155.999992858887,10|6,0:0|0:1,0:0:0:0:
5,41,185657,5,2,1:2:0:0:
28,85,185774,1,2,0:0:0:0:
16,134,185891,1,2,0:0:0:0:
39,178,186008,1,2,0:0:0:0:
54,171,186125,5,10,0:1:0:0:
69,164,186242,1,2,0:0:0:0:
84,157,186360,1,2,0:0:0:0:
99,150,186477,1,2,0:0:0:0:
114,143,186594,6,0,L|118:215,1,66.0000020141602,2|0,1:2|1:0,0:0:0:0:
181,90,186828,2,0,L|226:146,1,66.0000020141602,2|0,1:2|1:0,0:0:0:0:
205,8,187063,2,0,L|274:28,3,66.0000020141602,8|10|10|10,0:0|0:0|0:0|0:0,0:0:0:0:
121,30,187532,5,4,1:0:0:0:
295,102,187766,1,2,0:0:0:0:
202,222,188000,1,8,0:0:0:0:
202,222,188117,2,0,P|234:192|252:166,1,66.0000020141602,2|0,0:1|0:0,0:0:0:0:
295,102,188352,6,0,B|404:125|341:187|486:213,1,198.000006042481,2|6,1:0|1:2,0:1:0:0:
365,378,188938,1,8,0:0:0:0:
355,363,189055,2,0,P|349:321|351:284,1,66.0000020141602,2|0,1:0|0:0,0:0:0:0:
360,186,189289,6,2,P|317:275|196:355,1,233.999989288331,2|6,1:0|1:2,0:1:0:0:
2,351,189875,1,12,0:0:0:0:
110,377,189992,2,0,P|110:336|101:292,1,77.9999964294435,2|0,1:0|0:0,0:0:0:0:
59,180,190227,6,2,P|142:161|121:83,1,180.000006866455,2|2,1:0|0:0,0:1:0:0:
57,51,190579,1,2,0:0:0:0:
96,16,190696,1,2,0:0:0:0:
147,14,190813,2,0,P|199:18|328:5,1,180.000006866455,8|4,0:0|1:2,0:0:0:0:
237,104,191282,6,0,L|244:181,1,77.9999964294435,6|0,1:0|0:0,0:0:0:0:
330,174,191517,2,0,L|320:72,1,77.9999964294435,2|0,0:0|0:0,0:0:0:0:
322,96,191750,1,8,0:0:0:0:
342,249,191985,1,2,0:0:0:0:
413,26,192219,6,0,L|421:103,1,77.9999964294435,2|0,1:0|0:0,0:0:0:0:
512,93,192453,2,0,L|503:15,1,77.9999964294435,2|0,0:0|0:0,0:0:0:0:
406,17,192688,2,0,L|414:94,1,77.9999964294435,10|0,0:1|0:0,0:0:0:0:
505,84,192922,2,0,L|496:6,1,77.9999964294435,2|0,0:0|0:0,0:0:0:0:
512,179,193157,6,0,L|434:187,1,77.9999964294435,2|0,1:2|0:0,0:0:0:0:
401,300,193391,6,0,L|292:312,1,102.000001945496,2|0,0:1|0:0,0:0:0:0:
237,211,193625,6,0,L|159:219,1,77.9999964294435,10|0,0:0|0:0,0:0:0:0:
126,332,193860,6,0,L|17:344,1,102.000001945496,2|0,0:1|0:0,0:0:0:0:
51,62,194094,6,0,B|69:132|69:132|45:195|45:195|62:262,3,204.000003890991,2|2|10|2,1:0|0:1|0:1|0:1,0:1:0:0:
51,62,195032,2,2,P|123:40|122:187,1,270.000010299683,2|2,1:0|0:0,0:1:0:0:
215,121,195500,2,0,P|292:100|380:114,1,155.999992858887,10|0,0:1|0:0,0:0:0:0:
437,140,195852,1,2,0:0:0:0:
430,63,195969,5,2,1:0:0:0:
358,31,196086,1,2,0:0:0:0:
362,264,196321,2,0,P|370:225|365:166,1,77.9999964294435,2|8,0:1|0:0,0:0:0:0:
501,192,196555,1,2,0:0:0:0:
471,263,196672,2,0,P|463:302|468:361,1,77.9999964294435,2|0,0:1|0:0,0:0:0:0:
437,140,196907,5,0,1:0:0:0:
363,358,197141,2,0,P|329:337|274:324,1,77.9999964294435,2|0,0:1|0:0,0:0:0:0:
61,269,197375,2,0,P|95:290|150:303,2,77.9999964294435,10|2|0,0:1|0:0|0:0,0:0:0:0:
215,304,197727,1,2,0:0:0:0:
215,304,197844,5,2,1:0:0:0:
244,227,197961,2,0,B|273:141|214:149|257:52,2,155.999992858887,2|2|0,1:0|1:0|1:0,0:0:0:0:
237,381,198547,1,10,0:1:0:0:
244,227,198664,1,10,0:1:0:0:
215,304,198782,5,4,1:0:0:0:
11,111,199250,1,10,0:0:0:0:
57,121,199367,1,2,0:0:0:0:
94,90,199485,1,2,0:0:0:0:
140,101,199602,1,0,0:0:0:0:
177,70,199719,5,2,1:0:0:0:
200,154,199836,1,0,0:0:0:0:
163,226,199953,2,2,B|199:139|125:147|176:53,1,155.999992858887,2|8,0:1|0:0,0:1:0:0:
213,0,200305,1,2,0:0:0:0:
86,0,200422,2,0,P|42:4|-6:14,1,77.9999964294435,2|0,0:0|0:0,0:0:0:0:
265,65,200657,6,2,B|305:41|305:41|444:70,1,180.000006866455,2|0,1:0|0:0,0:1:0:0:
510,92,201008,1,2,0:0:0:0:
491,169,201125,1,10,0:0:0:0:
414,144,201242,1,2,0:0:0:0:
499,182,201360,2,0,P|510:224|514:279,1,90.0000034332277,2|0,0:1|0:0,0:0:0:0:
438,348,201594,6,0,P|474:350|502:357,1,66.0000020141602,2|0,1:2|0:0,0:0:0:0:
318,231,201828,2,0,P|223:233|116:259,1,180.000006866455,2|8,0:1|0:0,0:0:0:0:
354,359,202180,1,2,0:0:0:0:
375,288,202297,1,2,0:0:0:0:
396,217,202414,1,2,0:0:0:0:
417,146,202532,6,0,P|379:135|322:137,1,77.9999964294435,2|0,1:2|0:0,0:0:0:0:
264,122,202766,2,0,P|302:133|359:131,1,77.9999964294435,2|0,0:1|0:0,0:0:0:0:
419,132,203000,2,0,P|381:121|324:123,1,77.9999964294435,14|0,0:0|0:0,0:0:0:0:
266,108,203235,2,0,P|304:119|361:117,1,77.9999964294435,2|0,0:1|0:0,0:0:0:0:
421,118,203469,2,0,P|383:107|326:109,1,77.9999964294435,2|0,1:2|0:0,0:0:0:0:
311,38,203703,1,2,1:0:0:0:
311,38,203821,1,8,3:0:0:0:
227,24,203938,5,10,0:1:0:0:
149,49,204055,1,2,1:2:0:0:
176,126,204172,1,8,3:0:0:0:
252,99,204289,1,4,3:0:0:0:
200,74,204407,5,2,1:2:0:0:
102,110,204524,2,2,P|92:192|132:289,1,180.000006866455,14|0,1:2|0:0,0:1:0:0:
201,313,204875,5,10,0:2:0:0:
88,282,204992,2,0,P|41:277|-11:289,1,90.0000034332277,14|0,0:0|0:0,0:0:0:0:
194,233,205227,2,0,P|240:228|293:240,1,90.0000034332277,14|0,0:0|0:0,0:0:0:0:
362,259,205461,5,10,0:2:0:0:
286,147,205578,2,2,P|290:193|278:246,1,90.0000034332277,14|0,1:0|0:0,0:1:0:0:
444,360,205813,2,2,P|443:274|467:181,1,180.000006866455,14|4,1:0|1:0,0:1:0:0:
466,183,208157,5,2,0:0:0:0:
46,201,210032,5,2,0:0:0:0:
250,19,211907,6,0,L|256:91,3,60,2|0|2|0,0:0|0:0|0:0|0:0,0:0:0:0:
269,155,212844,2,0,L|263:227,3,60,2|0|2|0,0:0|0:0|0:0|0:0,0:0:0:0:
251,293,213782,5,2,0:0:0:0:
261,91,215657,5,2,0:0:0:0:
256,192,217532,5,2,0:0:0:0:
31,242,219407,6,0,L|99:234,1,60,2|0,0:0|0:0,0:0:0:0:
127,163,219875,2,0,L|186:170,1,60,2|0,0:0|0:0,0:0:0:0:
221,240,220344,2,0,L|289:232,1,60,2|0,0:0|0:0,0:0:0:0:
317,161,220812,2,0,L|376:168,1,60,2|0,0:0|0:0,0:0:0:0:
463,116,221282,6,0,L|450:284,1,167.999994873047,2|2,0:0|0:0,0:0:0:0:
294,288,222102,1,2,0:0:0:0:
294,288,222219,2,0,L|281:120,1,167.999994873047,2|2,0:0|0:0,0:0:0:0:
376,0,223157,6,0,B|412:94|346:80|380:178,3,167.999994873047,2|2|2|2,0:0|0:0|0:0|0:0,0:0:0:0:
375,163,225032,1,0,0:0:0:0:
281,120,225266,5,2,0:0:0:0:
281,120,225500,2,0,L|275:34,1,83.9999974365235,2|2,0:0|0:0,0:0:0:0:
188,128,225969,2,0,L|182:42,1,83.9999974365235,2|2,0:0|0:0,0:0:0:0:
95,136,226438,1,2,0:0:0:0:
89,52,226672,1,2,0:0:0:0:
95,136,226907,6,0,P|89:224|60:303,1,167.999994873047,2|2,0:0|0:0,0:0:0:0:
62,298,227844,2,0,P|111:307|152:331,2,83.9999974365235,2|2|2,0:0|0:0|0:0,0:0:0:0:
62,298,228547,1,2,0:0:0:0:
169,235,228782,6,0,P|247:211|337:219,1,167.999994873047,2|2,0:0|0:0,0:0:0:0:
409,235,229485,1,0,0:0:0:0:
387,160,229719,2,0,P|384:113|390:72,2,83.9999974365235,2|2|2,0:0|0:0|0:0,0:0:0:0:
479,290,230539,1,0,0:0:0:0:
479,290,230657,5,2,0:0:0:0:
256,192,230774,12,2,232063,0:0:0:0:
83,157,232532,5,8,0:0:0:0:
186,85,232649,2,0,P|261:54|373:23,1,180.000006866455,6|0,1:0|1:0,0:0:0:0:
437,11,233000,1,8,0:0:0:0:
331,124,233117,2,0,P|290:207|266:296,1,180.000006866455,6|0,1:0|1:0,0:0:0:0:
508,370,233469,6,0,P|504:318|466:264,1,102.000001945496,14|0,1:2|0:0,0:0:0:0:
267,292,233703,6,0,P|314:314|379:308,1,102.000001945496,14|0,1:2|0:0,0:0:0:0:
455,122,233938,6,0,P|411:151|384:211,1,102.000001945496,14|2,1:2|0:0,0:0:0:0:
185,317,234407,6,0,L|180:262,2,34.0000006484985,0|0|0,1:0|1:0|1:0,0:0:0:0:
100,261,234641,1,8,0:0:0:0:
103,253,234719,1,8,0:0:0:0:
106,245,234797,1,8,0:0:0:0:
109,237,234875,2,0,P|107:201|92:152,2,66.0000020141602,8|8|4,0:0|3:0|3:0,0:0:0:0:
180,136,235227,1,8,0:0:0:0:
180,136,235344,2,0,B|167:91|167:91|197:29,2,88.000002685547,8|8|4,0:0|3:0|3:0,0:0:0:0:
251,97,235813,5,4,3:0:0:0:
89,92,235969,1,8,3:0:0:0:
311,40,236125,5,12,0:0:0:0:
198,341,237219,5,6,1:0:0:0:
145,329,237336,1,2,0:2:0:0:
92,317,237453,1,2,0:2:0:0:
39,305,237570,1,2,0:2:0:0:
39,254,237687,5,10,0:2:0:0:
92,242,237804,1,2,0:2:0:0:
145,230,237921,1,2,0:2:0:0:
198,218,238038,1,2,0:2:0:0:
198,165,238156,5,2,1:2:0:0:
145,153,238273,1,2,0:2:0:0:
92,141,238390,1,2,0:2:0:0:
39,129,238507,1,2,0:2:0:0:
39,78,238624,5,10,0:2:0:0:
92,66,238741,1,2,0:2:0:0:
145,54,238859,2,0,L|247:34,1,83.9999974365235,2|0,0:0|0:0,0:0:0:0:
314,341,239094,5,2,1:0:0:0:
367,329,239211,1,2,0:2:0:0:
420,317,239328,1,2,0:2:0:0:
473,305,239445,1,2,0:2:0:0:
473,254,239562,5,10,0:2:0:0:
420,242,239679,1,2,0:2:0:0:
367,230,239796,1,2,0:2:0:0:
314,218,239913,1,2,0:2:0:0:
314,165,240031,5,2,1:2:0:0:
367,153,240148,1,2,0:2:0:0:
420,141,240265,1,2,0:2:0:0:
473,129,240382,1,2,0:2:0:0:
473,78,240499,5,10,0:2:0:0:
420,66,240616,1,2,0:2:0:0:
367,54,240734,2,0,L|271:35,1,83.9999974365235,2|0,0:0|0:0,0:0:0:0:
231,362,240969,5,2,1:0:0:0:
231,349,241086,1,2,0:0:0:0:
232,337,241203,1,2,0:0:0:0:
232,325,241320,1,2,0:0:0:0:
284,261,241437,5,10,0:0:0:0:
284,248,241554,1,2,0:0:0:0:
283,236,241671,1,2,0:0:0:0:
283,224,241788,1,2,0:0:0:0:
229,156,241906,5,2,1:2:0:0:
229,143,242023,1,2,0:0:0:0:
230,131,242140,1,2,0:0:0:0:
230,119,242257,1,2,0:0:0:0:
282,55,242374,5,10,0:0:0:0:
282,42,242491,1,2,0:0:0:0:
281,30,242609,2,0,P|243:25|182:24,1,83.9999974365235,2|0,0:0|0:0,0:0:0:0:
0,17,242844,6,0,P|124:12|252:16,1,251.999992309571,2|0,1:0|0:0,0:0:0:0:
510,26,243312,6,0,P|386:31|258:27,1,251.999992309571,10|0,0:1|0:0,0:0:0:0:
5,30,243781,6,0,P|91:26|181:29,1,167.999994873047,2|2,1:0|0:0,0:0:0:0:
219,103,244133,1,2,1:2:0:0:
187,186,244250,1,10,0:0:0:0:
219,103,244367,2,0,P|217:199|203:284,1,167.999994873047,2|0,1:2|0:0,0:0:0:0:
314,341,244719,5,6,1:0:0:0:
367,329,244836,1,2,0:2:0:0:
420,317,244953,1,2,0:2:0:0:
473,305,245070,1,2,0:2:0:0:
473,254,245187,5,10,0:2:0:0:
420,242,245304,1,2,0:2:0:0:
367,230,245421,1,2,0:2:0:0:
314,218,245538,1,2,0:2:0:0:
314,165,245656,5,2,1:2:0:0:
367,153,245773,1,2,0:2:0:0:
420,141,245890,1,2,0:2:0:0:
473,129,246007,1,2,0:2:0:0:
473,78,246124,5,10,0:2:0:0:
420,66,246241,1,2,0:2:0:0:
367,54,246359,2,0,L|264:34,1,83.9999974365235,2|0,0:0|0:0,0:0:0:0:
198,43,246594,5,2,1:0:0:0:
145,55,246711,1,2,0:2:0:0:
92,67,246828,1,2,0:2:0:0:
39,79,246945,1,2,0:2:0:0:
39,130,247062,5,10,0:2:0:0:
92,142,247179,1,2,0:2:0:0:
145,154,247296,1,2,0:2:0:0:
139,170,247413,1,2,0:2:0:0:
133,186,247531,6,0,P|133:228|148:284,1,83.9999974365235,2|0,1:2|0:0,0:0:0:0:
311,288,247765,2,0,P|280:259|257:225,1,83.9999974365235,2|0,0:0|0:0,0:0:0:0:
388,191,248000,1,8,0:0:0:0:
388,191,248117,1,2,0:0:0:0:
388,191,248234,2,0,P|427:206|485:211,1,83.9999974365235,2|0,0:0|0:0,0:0:0:0:
504,81,248469,6,0,P|459:67|417:60,1,83.9999974365235,6|0,1:0|0:0,0:0:0:0:
333,52,248703,1,2,0:0:0:0:
333,52,248937,2,0,P|338:145|356:220,1,167.999994873047,10|0,0:0|0:0,0:0:0:0:
8,303,249406,2,0,P|53:317|95:324,1,83.9999974365235,2|0,1:0|0:0,0:0:0:0:
179,332,249640,1,2,0:0:0:0:
179,332,249874,2,0,P|174:239|156:164,1,167.999994873047,10|0,0:0|0:0,0:0:0:0:
480,325,250344,6,0,P|440:306|392:300,1,83.9999974365235,2|0,1:0|0:0,0:0:0:0:
390,214,250578,2,0,P|430:195|478:189,1,83.9999974365235,2|0,0:0|0:0,0:0:0:0:
475,110,250812,2,0,P|435:91|387:85,1,83.9999974365235,14|0,0:0|0:0,0:0:0:0:
390,214,251047,1,2,0:0:0:0:
259,0,251281,2,0,P|284:90|335:145,1,167.999994873047,2|0,1:0|0:0,0:0:0:0:
333,143,251633,1,2,0:0:0:0:
245,103,251750,2,0,P|203:88|148:82,1,83.9999974365235,8|0,0:0|0:0,0:0:0:0:
72,84,251984,1,0,1:0:0:0:
72,84,252101,2,0,P|82:125|84:167,1,83.9999974365235,2|4,0:0|1:2,0:0:0:0:
473,254,252687,5,10,0:2:0:0:
420,242,252804,1,2,0:2:0:0:
367,230,252921,1,2,0:2:0:0:
314,218,253038,1,2,0:2:0:0:
314,165,253156,5,2,1:2:0:0:
367,153,253273,1,2,0:2:0:0:
420,141,253390,1,2,0:2:0:0:
473,129,253507,1,2,0:2:0:0:
473,78,253624,5,10,0:2:0:0:
420,66,253741,1,2,0:2:0:0:
367,54,253859,2,0,L|264:34,1,83.9999974365235,2|0,0:0|0:0,0:0:0:0:
198,341,254094,5,2,1:0:0:0:
145,329,254211,1,2,0:2:0:0:
92,317,254328,1,2,0:2:0:0:
39,305,254445,1,2,0:2:0:0:
39,254,254562,5,10,0:2:0:0:
92,242,254679,1,2,0:2:0:0:
145,230,254796,1,2,0:2:0:0:
198,218,254913,1,2,0:2:0:0:
198,165,255031,5,2,1:2:0:0:
145,153,255148,1,2,0:2:0:0:
92,141,255265,1,2,0:2:0:0:
39,129,255382,1,2,0:2:0:0:
39,78,255499,5,10,0:2:0:0:
92,66,255616,1,2,0:2:0:0:
145,54,255734,2,0,L|240:35,1,83.9999974365235,2|0,0:0|0:0,0:0:0:0:
256,192,255969,5,2,1:0:0:0:
285,384,256203,1,2,0:0:0:0:
287,369,256320,1,2,0:0:0:0:
221,321,256437,1,10,0:0:0:0:
219,306,256554,1,2,0:0:0:0:
286,261,256672,1,2,0:0:0:0:
288,246,256789,1,2,0:0:0:0:
222,198,256906,1,2,1:0:0:0:
220,183,257023,1,2,0:0:0:0:
291,139,257140,1,2,0:0:0:0:
293,124,257257,1,2,0:0:0:0:
227,76,257374,1,10,0:0:0:0:
225,61,257491,1,2,0:0:0:0:
277,0,257609,2,0,P|323:4|360:3,1,83.9999974365235,2|0,0:0|0:0,0:0:0:0:
512,17,257844,6,0,P|386:11|260:15,1,251.999992309571,2|0,1:0|0:0,0:0:0:0:
0,104,258312,6,0,P|124:109|252:105,1,251.999992309571,10|0,0:1|0:0,0:0:0:0:
509,162,258781,6,0,P|423:165|333:162,1,167.999994873047,2|2,1:0|1:0,0:0:0:0:
120,141,259250,1,10,1:0:0:0:
130,243,259367,1,2,1:0:0:0:
120,141,259484,1,2,1:0:0:0:
225,369,259719,6,0,B|248:310|248:310|200:185|200:185|220:113,1,251.999992309571,6|0,1:0|0:0,0:0:0:0:
295,149,260187,2,0,P|254:133|204:133,1,83.9999974365235,10|0,0:0|0:0,0:0:0:0:
120,141,260422,1,2,0:0:0:0:
320,222,260656,2,0,P|285:249|260:292,1,83.9999974365235,2|0,1:2|0:0,0:0:0:0:
225,369,260891,1,2,0:0:0:0:
374,162,261125,6,0,B|245:174|299:273|142:280,1,251.999992309571,10|0,0:1|0:0,0:0:0:0:
283,59,261594,2,0,B|412:71|358:170|515:177,1,251.999992309571,2|0,1:0|0:0,0:0:0:0:
489,68,262062,2,0,P|461:111|445:168,1,83.9999974365235,10|0,0:0|0:0,0:0:0:0:
424,239,262297,1,2,0:0:0:0:
190,69,262531,2,0,P|218:112|234:169,1,83.9999974365235,2|0,1:2|0:0,0:0:0:0:
255,240,262766,1,2,0:0:0:0:
358,5,263000,6,0,B|341:42|316:60|316:60|357:135|336:261,1,251.999992309571,10|0,0:1|0:0,0:0:0:0:
307,322,263469,2,0,B|247:338|193:319|193:319|165:340|165:340|118:320|41:342,2,251.999992309571,2|2|2,1:0|1:0|1:0,0:0:0:0:
58,251,264406,2,0,P|66:293|65:335,1,83.9999974365235,2|0,1:0|0:0,0:0:0:0:
255,240,264640,1,2,0:0:0:0:
255,240,264758,2,0,P|247:198|248:156,1,83.9999974365235,2|8,1:0|0:0,0:0:0:0:
155,247,264992,1,2,0:0:0:0:
155,247,265109,6,0,B|147:163|147:163|156:154|156:154|148:81,2,167.999994873047,2|6|2,1:0|1:0|1:0,0:0:0:0:
57,167,265812,2,0,P|35:126|25:81,1,83.9999974365235,10|0,0:0|0:0,0:0:0:0:
44,158,266047,2,0,P|49:111|67:69,1,83.9999974365235,2|0,0:0|0:0,0:0:0:0:
248,156,266281,2,0,P|270:115|280:70,1,83.9999974365235,2|0,1:2|0:0,0:0:0:0:
261,147,266515,2,0,P|255:100|237:58,1,83.9999974365235,2|0,0:0|0:0,0:0:0:0:
147,17,266750,5,8,0:0:0:0:
149,62,266867,1,0,1:0:0:0:
151,108,266984,1,0,1:0:0:0:
154,154,267101,1,0,1:0:0:0:
156,200,267219,5,6,1:0:0:0:
256,192,267336,12,10,272375,0:0:0:0:
428,356,272844,6,0,P|448:284|451:206,1,143.999995605469,2|2,1:0|0:1,0:0:0:0:
354,204,273195,1,2,0:0:0:0:
354,204,273312,2,0,P|334:276|331:354,1,143.999995605469,10|0,0:0|0:0,0:0:0:0:
485,135,273781,2,0,L|400:143,1,71.9999978027344,6|0,1:0|0:0,0:0:0:0:
406,124,274015,2,0,L|262:110,1,143.999995605469,2|8,0:1|0:0,0:0:0:0:
249,122,274367,1,2,0:0:0:0:
249,122,274484,2,0,L|164:130,1,71.9999978027344,2|0,0:1|0:0,0:0:0:0:
182,358,274719,6,0,L|332:341,1,143.999995605469,6|0,1:0|0:0,0:0:0:0:
332,260,275187,2,0,L|181:243,1,143.999995605469,10|0,0:0|0:0,0:0:0:0:
188,139,275656,2,0,L|332:124,1,143.999995605469,2|0,1:2|0:0,0:0:0:0:
325,41,276124,2,0,L|182:26,1,143.999995605469,10|0,0:0|0:0,0:0:0:0:
28,232,276594,6,0,P|34:315|81:377,1,155.999992858887,2|0,1:0|0:0,0:0:0:0:
177,335,277062,2,0,P|171:252|124:190,1,155.999992858887,10|0,0:0|0:0,0:0:0:0:
335,48,277531,2,0,P|338:124|382:188,1,155.999992858887,2|2,1:2|1:0,0:0:0:0:
483,151,277883,1,2,0:0:0:0:
483,151,277999,2,0,P|479:74|435:10,1,155.999992858887,10|2,0:1|0:0,0:0:0:0:
435,10,278351,1,2,0:0:0:0:
335,48,278469,6,2,B|262:34|262:34|163:92|163:92|86:74,1,251.999992309571,6|0,1:0|0:0,0:1:0:0:
32,223,278937,2,0,L|73:137,1,83.9999974365235,10|0,0:1|0:0,0:0:0:0:
251,145,279172,2,2,L|323:296,2,167.999994873047,2|0|0,0:0|1:0|0:0,0:1:0:0:
159,171,279758,1,2,0:0:0:0:
159,171,279875,2,0,P|153:212|164:267,1,83.9999974365235,10|0,0:0|0:0,0:0:0:0:
323,379,280109,2,0,P|329:338|318:283,1,83.9999974365235,2|0,0:1|0:0,0:0:0:0:
91,288,280344,5,0,1:0:0:0:
383,242,280578,1,2,0:0:0:0:
91,288,280812,6,0,B|227:239|204:344|347:297,1,251.999992309571,14|0,0:0|0:0,0:0:0:0:
351,164,281281,2,0,P|370:200|383:244,1,83.9999974365235,2|0,1:2|0:0,0:0:0:0:
464,85,281515,1,2,0:0:0:0:
464,85,281633,1,2,0:0:0:0:
464,85,281750,2,0,P|458:125|444:168,1,83.9999974365235,10|0,0:1|0:0,0:0:0:0:
346,9,281984,1,6,0:0:0:0:
346,9,282101,1,2,0:0:0:0:
346,9,282219,6,0,P|365:45|378:89,1,83.9999974365235,6|0,1:0|0:0,0:0:0:0:
351,164,282453,1,0,0:0:0:0:
201,45,282687,2,0,P|264:181|309:371,3,335.999989746094,8|0|8|0,0:0|1:0|0:0|1:0,0:0:0:0:
162,145,284328,1,2,0:1:0:0:
181,185,284445,1,2,0:0:0:0:
197,226,284562,2,0,P|202:271|195:317,1,83.9999974365235,10|0,0:1|0:0,0:0:0:0:
110,310,284797,2,0,P|105:265|112:219,1,83.9999974365235,2|0,0:1|0:0,0:0:0:0:
214,216,285031,2,0,P|230:258|235:304,1,83.9999974365235,2|0,1:0|0:0,0:0:0:0:
100,324,285265,2,2,P|83:281|78:235,5,83.9999974365235,2|0|8|0|0|0,0:1|0:0|0:0|0:0|0:0|0:0,0:1:0:0:
191,384,285969,5,0,1:0:0:0:
382,305,286203,2,0,L|288:345,1,83.9999974365235,2|0,0:0|0:0,0:0:0:0:
378,212,286437,2,0,L|278:190,1,83.9999974365235,10|0,0:0|0:0,0:0:0:0:
412,130,286672,2,0,L|342:55,1,83.9999974365235,2|0,0:0|0:0,0:0:0:0:
475,224,286906,5,2,1:2:0:0:
270,268,287140,1,2,0:0:0:0:
226,63,287375,1,10,0:0:0:0:
431,19,287609,1,2,0:0:0:0:
299,154,287844,6,0,P|143:207|-6:314,2,335.999989746094,2|10|2,1:0|0:0|1:0,0:0:0:0:
29,118,289015,1,8,0:0:0:0:
53,159,289133,1,8,0:0:0:0:
65,204,289250,2,0,P|74:250|74:298,1,83.9999974365235,8|0,0:0|1:0,0:0:0:0:
65,371,289484,1,12,3:0:0:0:
65,371,289601,1,12,3:0:0:0:
65,371,289719,6,0,B|132:387|132:387|316:341,1,251.999992309571,6|0,1:0|0:0,0:0:0:0:
314,246,290187,2,0,P|333:333|395:387,3,167.999994873047,10|2|2|2,0:0|0:0|1:2|0:0,0:0:0:0:
397,253,291125,2,0,L|284:243,1,83.9999974365235,10|0,0:1|0:0,0:0:0:0:
306,150,291359,2,0,L|207:206,1,83.9999974365235,2|0,0:1|0:0,0:0:0:0:
172,117,291594,2,0,L|123:219,1,83.9999974365235,2|0,1:0|0:0,0:0:0:0:
403,160,291828,6,2,B|365:84|365:84|383:-4,2,167.999994873047,2|8|2,0:1|0:0|0:0,0:1:0:0:
468,212,292414,1,2,0:0:0:0:
487,289,292531,2,0,P|475:332|453:373,1,83.9999974365235,2|0,1:2|0:0,0:0:0:0:
290,307,292765,2,0,P|301:267|320:230,1,83.9999974365235,2|0,0:1|0:0,0:0:0:0:
423,204,293000,5,14,0:1:0:0:
366,383,293234,1,8,3:0:0:0:
366,383,293351,1,8,3:0:0:0:
366,383,293469,6,0,B|311:375|287:336|287:336|216:378|121:375,1,251.999992309571,6|0,1:0|0:0,0:0:0:0:
54,372,293937,1,8,0:0:0:0:
54,372,294054,1,2,0:0:0:0:
54,372,294172,1,2,0:0:0:0:
54,372,294289,1,2,0:0:0:0:
54,372,294406,5,0,1:0:0:0:
50,333,294523,1,8,3:0:0:0:
46,294,294640,1,8,3:0:0:0:
42,255,294758,1,8,3:0:0:0:
76,224,294875,5,8,0:0:0:0:
81,173,294992,1,8,0:0:0:0:
86,122,295109,1,8,0:0:0:0:
91,71,295227,1,8,0:0:0:0:
131,34,295344,5,12,3:0:0:0:
182,120,295461,2,0,P|223:147|287:155,1,83.9999974365235,12|0,0:0|0:0,0:0:0:0:
419,69,295695,2,0,P|374:90|336:142,1,83.9999974365235,12|0,0:0|0:0,0:0:0:0:
344,299,295929,2,0,P|347:250|322:191,1,83.9999974365235,12|4,0:0|3:0,0:0:0:0:
334,207,296125,1,4,3:0:0:0:
330,197,296203,1,4,3:0:0:0:
326,187,296281,5,12,3:0:0:0:
263,232,296398,2,0,P|233:265|206:316,1,83.9999974365235,12|0,0:0|0:0,0:0:0:0:
403,174,296633,2,0,P|446:183|504:181,1,83.9999974365235,12|0,0:0|0:0,0:0:0:0:
283,82,296867,2,0,P|269:39|238:-9,1,83.9999974365235,12|0,0:0|0:0,0:0:0:0:
315,161,297101,5,12,1:0:0:0:
256,192,297219,12,0,298625,1:0:0:0:
204,177,298859,6,0,L|202:196,2,13.9999995727539,8|8|8,3:0|3:0|3:0,0:0:0:0:
120,167,299095,2,0,L|104:-1,1,167.999994873047,4|0,3:0|0:0,0:0:0:0:
