osu file format v14

[General]
AudioFilename: audio.mp3
AudioLeadIn: 0
PreviewTime: 166610
Countdown: 0
SampleSet: Soft
StackLeniency: 0.3
Mode: 0
LetterboxInBreaks: 0
WidescreenStoryboard: 1

[Editor]
Bookmarks: 1610,10610,22610,34610,46610,58610,70610,82610,94610,106610,118610,118797,118985,119172,119360,119547,119735,119922,120110,120297,120485,120672,120860,121047,121235,121422,121610,121797,121985,122172,122360,122547,122735,122922,123110,123297,123485,123672,123860,124047,124235,124422,124610,124797,124985,125172,125360,125547,125735,125922,126110,126297,126485,126672,126860,127047,127235,127422,127610,127797,127985,128172,128360,128547,128735,128922,129110,129297,129485,129672,129860,130047,130235,130422,130610,142610,154610,166610,178610,190610
DistanceSpacing: 1.1
BeatDivisor: 4
GridSize: 32
TimelineZoom: 1.599999

[Metadata]
Title:Hysteric Night Girl -Awakening- (feat. Such)
TitleUnicode:ヒステリックナイトガール -Awakening- (feat. Such)
Artist:PSYQUI
ArtistUnicode:PSYQUI
Creator:Luminiscental
Version:nik's Hard
Source:
Tags:electronic japanese speed garage edm innocent future core jpop j-pop tech wacca lam megarex mrx-034 coffee cup mocha sf nm6 nm 6 nikolomara nik
BeatmapID:3862404
BeatmapSetID:1580891

[Difficulty]
HPDrainRate:4
CircleSize:3.7
OverallDifficulty:6
ApproachRate:7.8
SliderMultiplier:1.6
SliderTickRate:1

[Events]
//Background and Video events
0,0,"bg.jpg",0,0
//Break Periods
2,118822,129843
//Storyboard Layer 0 (Background)
//Storyboard Layer 1 (Fail)
//Storyboard Layer 2 (Pass)
//Storyboard Layer 3 (Foreground)
//Storyboard Layer 4 (Overlay)
//Storyboard Sound Samples

[TimingPoints]
1622,375,4,2,0,50,1,0
1622,-125,4,2,0,50,0,0
7622,-125,4,2,0,60,0,0
9122,-125,4,2,0,70,0,0
9872,-125,4,2,0,80,0,0
10622,-100,4,2,0,80,0,0
10809,-100,4,2,0,70,0,0
22622,-100,4,2,0,60,0,0
34059,-100,4,2,0,70,0,0
45872,-100,4,2,0,80,0,0
46622,-125,4,2,0,60,0,0
52622,-100,4,2,0,50,0,0
54122,-100,4,2,0,62,0,0
55622,-100,4,2,0,75,0,0
56372,-100,4,2,0,85,0,0
58434,-100,4,2,0,70,0,0
58622,-80,4,2,0,90,0,0
67622,-100,4,2,0,90,0,0
67809,-100,4,2,0,75,0,0
70622,-100,4,2,0,70,0,0
76622,-100,4,2,0,77,0,0
81122,-100,4,2,0,80,0,0
82622,-100,4,2,0,90,0,0
88247,-100,4,2,0,70,0,0
88622,-100,4,2,0,90,0,0
91622,-100,4,2,0,100,0,0
94622,-66.6666666666667,4,2,0,100,0,1
94715,-66.6666666666667,4,2,0,85,0,1
103622,-100,4,2,0,70,0,0
106622,-66.6666666666667,4,2,0,85,0,1
115622,-66.6666666666667,4,2,0,95,0,1
117309,-66.6666666666667,4,2,0,75,0,1
117684,-66.6666666666667,4,2,0,65,0,1
118153,-100,4,2,0,65,0,0
118622,-100,4,2,0,80,0,0
130622,-125,4,2,0,50,0,0
136622,-125,4,2,0,60,0,0
138122,-125,4,2,0,70,0,0
139622,-100,4,2,0,80,0,0
142622,-80,4,2,0,90,0,0
151622,-100,4,2,0,75,0,0
154622,-100,4,2,0,70,0,0
165122,-100,4,2,0,80,0,0
166622,-66.6666666666667,4,2,0,80,0,1
166715,-66.6666666666667,4,2,0,75,0,1
175622,-100,4,2,0,80,0,0
175715,-100,4,2,0,60,0,0
178622,-66.6666666666667,4,2,0,70,0,1
187622,-66.6666666666667,4,2,0,75,0,1
189122,-66.6666666666667,4,2,0,80,0,1
189872,-100,4,2,0,85,0,0

[Colours]
Combo1 : 188,84,222
Combo2 : 134,50,186
Combo3 : 211,53,124
Combo4 : 54,44,182
Combo5 : 228,210,156
Combo6 : 248,120,213

[HitObjects]
38,251,1622,6,0,L|-3:205,2,32,0|0|2,1:0|0:3|0:3,0:0:0:0:
46,271,1997,1,2,0:3:0:0:
53,377,2372,2,0,P|110:355|183:298,1,128,8|0,0:1|0:0,0:0:0:0:
211,218,3122,2,0,P|185:168|117:126,1,128,2|2,0:3|0:3,0:0:0:0:
15,147,3872,2,0,P|41:197|109:239,1,128,8|0,0:1|0:0,0:0:0:0:
198,215,4434,5,0,1:0:0:0:
198,215,4622,2,0,L|197:173,2,32,0|2|2,1:0|0:3|0:3,0:0:0:0:
232,241,4997,1,2,0:3:0:0:
337,207,5372,2,0,B|416:205|382:246|476:243,1,128,8|0,0:1|0:0,0:0:0:0:
508,147,6122,2,0,P|501:71|493:9,1,128,2|2,0:3|0:3,0:0:0:0:
402,88,6872,5,8,0:1:0:0:
402,88,7153,2,0,P|361:106|294:98,1,96,0|0,1:0|1:0,0:0:0:0:
259,40,7622,2,0,L|273:9,2,32,4|2|2,1:2|0:3|0:3,0:0:0:0:
226,57,7997,1,2,0:3:0:0:
83,16,8372,2,0,P|18:46|20:119,1,128,8|2,0:1|0:3,0:0:0:0:
113,222,9122,6,0,P|121:172|123:86,1,128,4|2,1:2|0:3,0:0:0:0:
0,3,9872,1,8,1:2:0:0:
19,98,10059,1,0,1:0:0:0:
123,94,10247,1,8,1:2:0:0:
123,94,10622,6,0,P|166:89|218:105,1,80,4|2,1:0|0:3,0:0:0:0:
254,163,10997,2,0,P|298:148|334:43,1,160,8|0,1:2|1:0,0:0:0:0:
252,22,11559,1,2,0:3:0:0:
252,22,11653,1,0,0:0:0:0:
252,22,11747,1,8,1:2:0:0:
201,91,11934,1,2,0:3:0:0:
253,167,12122,6,0,P|266:204|274:262,1,80,0|2,1:0|0:3,0:0:0:0:
216,308,12497,2,0,P|239:357|349:350,1,160,8|0,1:2|1:0,0:0:0:0:
388,298,13059,1,2,0:3:0:0:
388,298,13153,1,0,0:0:0:0:
388,298,13247,1,8,1:2:0:0:
471,315,13434,1,2,0:3:0:0:
501,232,13622,6,0,P|498:189|481:140,1,80,2|2,1:2|0:3,0:0:0:0:
420,96,13997,2,0,B|346:94|382:149|285:137,1,120,10|0,1:2|0:0,0:0:0:0:
282,155,14372,2,0,P|236:145|190:150,1,80,2|2,1:2|0:3,0:0:0:0:
147,212,14747,2,0,B|73:214|109:159|12:171,1,120,10|0,1:2|0:0,0:0:0:0:
5,161,15122,6,0,P|21:115|50:77,1,80,2|2,1:2|0:3,0:0:0:0:
100,33,15497,2,0,P|121:66|133:104,1,80,10|2,1:2|0:3,0:0:0:0:
210,157,15872,1,2,1:2:0:0:
210,157,15965,1,2,0:2:0:0:
210,157,16059,1,2,0:3:0:0:
282,116,16247,2,0,L|380:126,1,80,14|2,1:2|0:3,0:0:0:0:
415,59,16622,6,0,P|472:65|497:93,1,80,4|2,1:3|0:3,0:0:0:0:
512,160,16997,2,0,P|459:180|453:288,1,160,8|0,1:2|1:0,0:0:0:0:
473,355,17559,1,2,0:3:0:0:
473,355,17653,1,0,0:0:0:0:
473,355,17747,1,8,1:2:0:0:
399,384,17934,1,2,0:3:0:0:
334,334,18122,6,0,P|286:341|251:360,1,80,0|2,1:0|0:3,0:0:0:0:
183,384,18497,2,0,P|140:366|133:251,1,160,8|0,1:2|1:0,0:0:0:0:
185,209,19059,1,2,0:3:0:0:
185,209,19153,1,0,0:0:0:0:
185,209,19247,1,8,1:2:0:0:
171,124,19434,1,2,0:3:0:0:
94,99,19622,6,0,P|54:101|23:139,1,80,2|2,1:2|0:3,0:0:0:0:
10,206,19997,2,0,B|78:217|36:257|123:270,1,120,10|0,1:2|0:0,0:0:0:0:
127,292,20372,2,0,P|180:292|229:270,1,80,2|2,1:2|0:3,0:0:0:0:
267,333,20747,2,0,B|339:322|297:282|365:271,1,120,10|0,1:2|0:0,0:0:0:0:
386,294,21122,6,0,P|437:271|452:225,1,80,2|2,1:2|0:3,0:0:0:0:
397,184,21497,2,0,P|372:153|334:141,1,80,10|2,1:2|0:3,0:0:0:0:
268,183,21872,1,0,1:0:0:0:
192,295,22247,1,8,1:2:0:0:
47,290,22622,6,0,P|29:274|40:217,1,80,4|2,1:2|0:3,0:0:0:0:
109,190,22997,2,0,P|129:156|131:107,1,80,8|2,1:2|0:3,0:0:0:0:
81,61,23372,2,0,L|36:78,4,40,0|0|2|0|8,1:0|3:0|0:3|3:0|1:2,0:0:0:0:
167,46,23934,1,2,3:3:0:0:
167,46,24028,1,0,3:0:0:0:
167,46,24122,2,0,P|204:32|239:12,1,80,0|2,1:0|0:3,0:0:0:0:
304,56,24497,2,0,P|338:76|376:89,1,80,8|2,1:2|0:3,0:0:0:0:
436,41,24872,2,0,L|453:-4,6,40,0|0|2|0|8|0|2,1:0|3:0|0:3|3:0|1:2|0:0|3:3,0:0:0:0:
489,96,25622,6,0,P|480:137|482:195,1,80,0|2,1:0|0:3,0:0:0:0:
512,244,25997,2,0,P|478:286|433:275,1,80,8|2,1:2|0:3,0:0:0:0:
390,240,26372,2,0,L|373:195,4,40,0|0|2|0|8,1:0|3:0|0:3|3:0|1:2,0:0:0:0:
353,311,26934,1,2,3:3:0:0:
353,311,27028,1,0,3:0:0:0:
353,311,27122,2,0,P|339:348|319:383,1,80,0|2,1:0|0:3,0:0:0:0:
244,355,27497,2,0,P|223:320|210:282,1,80,8|2,1:2|0:3,0:0:0:0:
140,241,27872,2,0,L|123:196,3,40,0|0|2|0,1:0|3:0|0:3|3:0,0:0:0:0:
151,180,28247,2,0,L|168:135,3,40,8|0|2|0,1:2|3:0|3:3|0:0,0:0:0:0:
151,109,28622,6,0,P|138:74|93:50,1,80,0|2,1:0|0:3,0:0:0:0:
32,20,28997,2,0,P|8:55|1:112,1,80,8|2,1:2|0:3,0:0:0:0:
45,157,29372,2,0,L|90:140,4,40,0|0|2|0|8,1:0|3:0|0:3|3:0|1:2,0:0:0:0:
6,230,29934,1,2,3:3:0:0:
6,230,30028,1,0,3:0:0:0:
6,230,30122,2,0,P|21:274|31:321,1,80,0|2,1:0|3:3,0:0:0:0:
89,353,30497,2,0,P|127:343|165:330,1,80,8|2,1:2|0:3,0:0:0:0:
236,363,30872,2,0,L|273:377,6,40,0|0|2|0|8|0|2,1:0|3:0|0:3|3:0|1:2|3:0|3:3,0:0:0:0:
167,323,31622,6,0,P|173:281|206:240,1,80,0|2,1:0|0:3,0:0:0:0:
267,227,31997,2,0,P|297:261|322:303,1,80,8|2,1:2|0:3,0:0:0:0:
373,348,32372,2,0,L|410:333,3,40,0|0|2|0,1:0|3:0|0:3|3:0,0:0:0:0:
444,349,32747,2,0,L|481:363,3,40,8|0|2|0,1:2|0:0|3:3|3:0,0:0:0:0:
512,332,33122,2,0,P|511:283|503:241,1,80,0|2,1:0|0:3,0:0:0:0:
440,215,33497,2,0,P|428:174|441:137,1,80,8|2,1:2|0:3,0:0:0:0:
495,74,33872,1,0,1:0:0:0:
495,74,33965,1,0,3:0:0:0:
495,74,34059,1,10,3:3:0:0:
440,9,34247,2,0,B|382:21|414:34|355:40,1,80,12|2,1:3|0:3,0:0:0:0:
318,113,34622,6,0,P|273:82|238:47,1,80,4|2,1:2|0:3,0:0:0:0:
207,2,34997,2,0,P|162:32|127:67,1,80,8|2,1:2|0:3,0:0:0:0:
60,38,35372,1,0,1:0:0:0:
60,38,35465,1,0,3:0:0:0:
60,38,35559,1,2,3:2:0:0:
0,97,35747,1,8,1:2:0:0:
48,165,35934,1,2,0:3:0:0:
120,132,36122,6,0,P|150:124|200:124,2,80,0|2|8,1:0|0:3|1:2,0:0:0:0:
43,174,36684,1,2,0:3:0:0:
44,175,36778,2,0,P|15:208|31:257,1,80,0|0,3:0|3:0,0:0:0:0:
35,254,37059,2,0,P|108:244|212:237,1,160,2|2,0:3|0:2,0:0:0:0:
262,289,37622,6,0,P|303:272|339:230,1,80,0|2,1:0|0:2,0:0:0:0:
313,172,37997,2,0,P|319:131|332:74,1,80,8|2,1:2|0:3,0:0:0:0:
390,46,38372,1,0,1:0:0:0:
453,111,38559,1,2,3:2:0:0:
453,111,38653,1,0,3:0:0:0:
453,111,38747,2,0,L|494:90,2,40,8|0|2,1:2|0:0|0:2,0:0:0:0:
401,170,39122,6,0,P|348:173|285:174,1,80,0|2,1:0|0:3,0:0:0:0:
243,149,39497,2,0,P|237:104|227:66,1,80,8|2,1:2|0:3,0:0:0:0:
155,29,39872,1,0,1:0:0:0:
155,29,39965,1,0,3:0:0:0:
155,29,40059,1,2,3:3:0:0:
100,87,40247,2,0,L|49:83,2,40,8|0|2,1:2|0:0|3:3,0:0:0:0:
153,153,40622,6,0,P|135:195|109:216,1,80,0|2,1:0|0:2,0:0:0:0:
34,250,40997,2,0,P|12:305|11:345,1,80,8|2,1:2|0:3,0:0:0:0:
76,372,41372,1,0,1:0:0:0:
142,329,41559,1,2,0:2:0:0:
142,329,41653,1,0,0:0:0:0:
142,329,41747,2,0,L|197:319,1,40,8|0,1:2|0:0,0:0:0:0:
209,310,41934,2,0,L|248:317,1,40,2|0,3:3|3:0,0:0:0:0:
272,348,42122,6,0,P|311:347|386:362,1,80,0|2,1:0|0:3,0:0:0:0:
429,371,42497,1,8,1:2:0:0:
483,311,42684,1,2,0:2:0:0:
483,311,42778,2,0,L|455:86,1,200,0|8,3:0|1:2,0:0:0:0:
400,59,43434,6,0,P|359:73|327:106,1,80,2|0,3:3|1:0,0:0:0:0:
347,177,43809,1,2,0:2:0:0:
284,222,43997,1,8,1:2:0:0:
284,222,44090,2,0,L|222:229,1,40,0|2,0:0|0:3,0:0:0:0:
206,198,44278,1,0,3:0:0:0:
206,198,44372,2,0,P|158:182|110:188,1,80,0|2,1:0|3:3,0:0:0:0:
61,226,44747,1,8,1:2:0:0:
0,174,44934,2,0,P|5:94|63:41,1,160,2|2,3:2|0:2,0:0:0:0:
138,76,45497,6,0,L|229:66,1,80,8|2,1:2|3:2,0:0:0:0:
289,31,45872,2,0,L|368:39,1,80,4|2,1:2|3:3,0:0:0:0:
432,89,46247,1,8,1:2:0:0:
432,89,46622,6,0,B|348:78|301:148|301:148|346:184|346:264,1,256,4|8,1:1|1:2,0:0:0:0:
209,301,48122,2,0,P|295:266|412:386,1,256,2|8,1:2|1:2,0:0:0:0:
512,190,49622,2,0,B|389:199|456:241|308:245,1,192,2|2,1:2|0:2,0:0:0:0:
270,196,50372,2,0,P|230:189|192:191,1,64,10|2,1:2|0:3,0:0:0:0:
152,242,50747,1,2,0:2:0:0:
152,242,50934,2,0,P|119:253|69:63,1,320,2|10,0:2|1:2,0:0:0:0:
66,64,52434,5,2,0:3:0:0:
66,64,52622,2,0,P|114:88|135:126,1,80,12|2,1:2|0:3,0:0:0:0:
204,87,52997,2,0,P|220:137|208:179,1,80,8|2,1:2|0:3,0:0:0:0:
293,188,53372,2,0,P|269:236|231:257,1,80,8|2,1:2|0:3,0:0:0:0:
286,318,53747,2,0,P|235:334|193:322,1,80,8|2,1:2|0:3,0:0:0:0:
131,366,54122,6,0,P|115:329|118:290,1,80,8|2,1:2|0:3,0:0:0:0:
50,252,54497,2,0,P|64:215|94:189,1,80,8|2,1:2|0:3,0:0:0:0:
59,118,54872,2,0,P|95:102|134:105,1,80,8|2,1:2|0:3,0:0:0:0:
156,31,55247,2,0,P|192:45|218:75,1,80,8|2,1:2|0:3,0:0:0:0:
203,163,55622,5,8,1:2:0:0:
203,163,55809,1,8,0:2:0:0:
252,237,55997,1,8,1:2:0:0:
252,237,56184,1,8,0:2:0:0:
216,313,56372,1,8,1:2:0:0:
196,315,56465,1,8,0:2:0:0:
176,318,56559,1,8,0:2:0:0:
156,322,56653,1,8,0:2:0:0:
137,327,56747,2,0,L|91:336,2,40,8|8|2,1:2|0:2|1:3,0:0:0:0:
97,334,58622,6,0,P|152:318|301:284,3,200,4|2|2|2,1:0|1:2|1:2|1:2,0:0:0:0:
201,229,60122,2,0,P|119:206|5:180,3,200,2|2|2|2,1:2|1:2|1:2|1:2,0:0:0:0:
119,121,61622,2,0,P|174:105|321:73,3,200,2|2|2|2,1:2|1:2|1:2|1:2,0:0:0:0:
342,0,63122,2,0,P|419:18|539:56,1,200,2|2,1:2|1:2,0:0:0:0:
512,136,63872,2,0,P|435:154|315:205,1,200,2|2,1:2|1:2,0:0:0:0:
327,294,64622,2,0,P|190:246|112:228,3,200,2|2|2|2,1:2|1:2|1:2|1:2,0:0:0:0:
196,150,66122,2,0,P|75:163|-1:184,1,200,2|2,1:2|1:2,0:0:0:0:
0,46,66778,5,2,0:2:0:0:
0,46,66872,2,0,P|41:79|55:128,1,100,2|2,1:2|0:2,0:0:0:0:
6,182,67247,2,0,P|-13:222|15:285,1,100,2|0,1:2|0:0,0:0:0:0:
85,290,67622,6,0,P|131:278|172:276,1,80,4|2,1:2|0:3,0:0:0:0:
216,341,67997,1,10,1:2:0:0:
282,292,68185,1,2,3:3:0:0:
282,292,68278,1,0,3:0:0:0:
282,292,68372,2,0,P|325:299|368:313,1,80,2|2,1:2|0:3,0:0:0:0:
426,353,68747,1,10,1:2:0:0:
496,306,68934,5,2,3:3:0:0:
496,306,69028,1,0,3:0:0:0:
496,306,69122,2,0,L|473:221,1,80,2|2,1:2|0:3,0:0:0:0:
410,187,69497,2,0,L|433:102,1,80,10|2,1:2|3:3,0:0:0:0:
474,45,69872,2,0,L|532:27,2,40,2|0|2,1:2|3:3|3:3,0:0:0:0:
401,11,70247,2,0,P|342:15|290:28,1,80,10|2,1:2|3:3,0:0:0:0:
279,88,70622,6,0,P|232:88|195:57,1,80,0|2,1:0|0:3,0:0:0:0:
143,7,70997,2,0,P|93:7|48:32,1,80,8|2,1:2|0:3,0:0:0:0:
17,94,71372,1,0,1:0:0:0:
17,94,71465,1,0,3:0:0:0:
17,94,71559,1,2,3:3:0:0:
71,163,71747,2,0,P|57:210|43:255,1,80,8|2,1:2|3:3,0:0:0:0:
2,315,72122,6,0,P|27:353|88:366,1,80,0|2,1:0|0:3,0:0:0:0:
120,305,72497,2,0,P|141:307|213:331,1,80,8|2,1:2|0:3,0:0:0:0:
277,381,72872,1,0,1:0:0:0:
277,381,72965,1,0,3:0:0:0:
277,381,73059,1,2,3:3:0:0:
325,307,73247,2,0,P|376:304|438:313,1,80,8|2,1:2|3:3,0:0:0:0:
478,363,73622,5,0,1:0:0:0:
478,363,73809,2,0,L|520:272,2,80,2|8|2,3:3|1:2|3:3,0:0:0:0:
401,319,74372,2,0,P|368:288|354:235,1,80,0|2,1:0|3:3,0:0:0:0:
424,200,74747,2,0,P|445:149|472:107,1,80,8|2,1:2|3:3,0:0:0:0:
489,45,75122,6,0,B|379:18|427:78|317:49,1,160,0|8,1:0|1:2,0:0:0:0:
254,12,75684,1,2,0:3:0:0:
188,68,75872,1,0,1:0:0:0:
188,68,75965,1,0,3:0:0:0:
188,68,76059,1,2,3:3:0:0:
107,31,76247,2,0,P|54:37|19:56,1,80,8|2,1:2|3:3,0:0:0:0:
6,133,76622,6,0,P|43:154|70:207,1,80,2|2,1:2|0:3,0:0:0:0:
68,272,76997,2,0,P|117:265|170:264,1,80,8|2,1:2|0:3,0:0:0:0:
226,323,77372,1,0,1:0:0:0:
226,323,77465,1,0,3:0:0:0:
226,323,77559,1,2,3:3:0:0:
301,277,77747,2,0,P|310:245|309:185,1,80,8|2,1:2|3:3,0:0:0:0:
245,139,78122,6,0,P|194:169|162:196,1,80,2|2,1:2|0:3,0:0:0:0:
137,260,78497,2,0,P|97:253|57:251,1,80,8|2,1:2|0:3,0:0:0:0:
13,329,78872,1,0,1:0:0:0:
13,329,78965,1,0,3:0:0:0:
13,329,79059,1,2,3:3:0:0:
87,376,79247,2,0,P|126:369|166:367,1,80,8|2,1:2|3:3,0:0:0:0:
230,306,79622,6,0,P|290:312|326:335,1,80,2|2,1:2|0:3,0:0:0:0:
381,367,79997,2,0,P|434:355|453:304,1,80,8|2,1:2|0:3,0:0:0:0:
443,256,80372,1,0,1:0:0:0:
443,256,80465,1,0,3:0:0:0:
443,256,80559,1,2,3:3:0:0:
482,176,80747,1,8,1:2:0:0:
432,103,80934,1,2,3:3:0:0:
346,123,81122,6,0,L|243:133,1,80,6|0,1:2|0:0,0:0:0:0:
213,201,81497,2,0,L|133:193,1,80,6|0,1:2|0:0,0:0:0:0:
60,242,81872,1,8,0:1:0:0:
11,182,82059,1,8,0:2:0:0:
11,182,82153,1,8,0:2:0:0:
11,182,82247,1,8,0:3:0:0:
48,102,82434,1,4,0:3:0:0:
136,106,82622,6,0,B|177:109|177:109|219:76,1,80,4|0,1:0|0:0,0:0:0:0:
258,12,82997,2,0,B|299:9|299:9|341:42,1,80,2|8,1:2|0:1,0:0:0:0:
340,124,83372,1,2,1:2:0:0:
420,158,83559,2,0,B|462:140|462:140|483:84,1,80,2|2,0:2|1:2,0:0:0:0:
473,21,83934,1,2,0:2:0:0:
396,0,84122,5,2,1:2:0:0:
322,42,84309,1,8,0:1:0:0:
322,42,84403,1,2,0:2:0:0:
322,42,84497,1,2,1:2:0:0:
232,15,84684,1,2,0:2:0:0:
153,41,84872,2,0,B|125:73|125:73|132:128,1,80,2|0,1:2|0:0,0:0:0:0:
191,164,85247,1,0,1:0:0:0:
152,239,85434,5,8,0:1:0:0:
152,239,85528,1,8,0:1:0:0:
152,239,85622,2,0,L|61:232,1,80,2|0,1:2|0:0,0:0:0:0:
7,277,85997,2,0,L|13:356,1,80,2|8,1:2|0:1,0:0:0:0:
88,384,86372,2,0,L|179:377,1,80,2|0,1:2|0:0,0:0:0:0:
228,320,86747,1,2,1:2:0:0:
305,365,86934,5,0,0:0:0:0:
305,365,87028,1,0,0:0:0:0:
305,365,87122,2,0,B|338:339|338:339|337:298|337:298|369:246,2,120,2|8|2,1:2|0:1|0:2,0:0:0:0:
225,316,87872,2,0,B|184:284|184:284|132:300|132:300|59:300,1,160,8|8,1:1|0:2,0:0:0:0:
78,301,88622,6,0,L|66:257,3,40,2|0|8|2,1:2|0:0|0:2|0:2,0:0:0:0:
45,239,88997,2,0,L|55:200,3,40,0|2|10|2,1:0|0:2|0:2|0:2,0:0:0:0:
83,174,89372,2,0,L|71:130,3,40,2|2|10|2,1:2|0:2|0:2|0:2,0:0:0:0:
50,112,89747,2,0,L|60:73,3,40,2|0|10|2,1:2|0:0|0:2|0:2,0:0:0:0:
85,44,90122,2,0,L|129:32,3,40,2|2|10|0,1:2|0:2|0:2|0:0,0:0:0:0:
147,11,90497,2,0,L|185:21,3,40,2|2|10|2,1:2|0:2|0:2|0:2,0:0:0:0:
212,49,90872,2,0,L|256:37,3,40,0|2|10|2,1:0|0:2|0:2|0:2,0:0:0:0:
274,16,91247,2,0,L|312:26,3,40,0|2|10|2,1:0|0:2|0:2|0:2,0:0:0:0:
338,53,91622,6,0,L|368:51,12,20,2|0|8|0|10|0|8|0|2|0|10|0|8,1:2|0:0|0:2|0:0|0:2|0:0|0:2|0:0|1:2|0:0|0:2|0:0|0:2,0:0:0:0:
278,120,92372,2,0,L|249:116,12,20,0|0|10|0|10|0|8|0|2|0|10|0|8,1:0|0:0|0:2|0:0|0:2|0:0|0:2|0:0|1:2|0:0|0:2|0:0|0:2,0:0:0:0:
329,190,93122,1,0,1:0:0:0:
333,181,94622,6,0,P|392:165|468:-3,1,240.000009155274,6|10,1:1|1:1,0:0:0:0:
471,17,95278,2,0,P|492:51|501:168,1,120.000004577637,2|2,3:1|3:1,0:0:0:0:
474,287,95653,1,2,0:1:0:0:
474,287,95747,2,0,P|416:319|353:305,1,120.000004577637,10|2,1:1|3:1,0:0:0:0:
364,311,96215,5,2,0:1:0:0:
364,311,96309,2,0,P|291:323|305:391,1,120.000004577637,2|10,0:1|1:1,0:0:0:0:
117,373,96778,1,2,3:1:0:0:
117,373,96872,2,0,P|144:311|-6:301,1,240.000009155274,2|10,1:1|1:1,0:0:0:0:
18,258,97622,6,0,P|126:242|194:134,1,240.000009155274,2|10,1:1|1:1,0:0:0:0:
193,138,98278,2,0,P|186:76|167:17,1,120.000004577637,2|2,3:1|3:1,0:0:0:0:
22,0,98653,1,2,0:1:0:0:
22,0,98747,2,0,P|-7:43|0:121,1,120.000004577637,10|2,1:1|3:1,0:0:0:0:
75,169,99122,6,0,L|193:152,1,120.000004577637,2|2,1:1|0:3,0:0:0:0:
289,177,99497,2,0,L|407:160,1,120.000004577637,10|2,1:1|0:3,0:0:0:0:
485,91,99872,1,2,1:1:0:0:
485,91,99965,1,0,3:0:0:0:
485,91,100059,1,2,3:3:0:0:
442,0,100247,1,10,1:1:0:0:
442,0,100622,6,0,P|366:36|441:164,1,240.000009155274,2|10,1:1|1:1,0:0:0:0:
408,160,101278,2,0,P|367:204|306:220,1,120.000004577637,2|2,3:1|3:1,0:0:0:0:
152,310,101653,1,2,0:1:0:0:
152,310,101747,2,0,P|98:251|116:183,1,120.000004577637,10|2,1:1|3:1,0:0:0:0:
98,214,102216,5,2,0:1:0:0:
98,214,102309,2,0,P|170:141|234:125,1,120.000004577637,2|10,0:1|1:1,0:0:0:0:
310,7,102778,1,2,3:1:0:0:
310,7,102872,2,0,P|353:71|521:55,1,240.000009155274,2|10,1:1|1:1,0:0:0:0:
504,72,103622,6,0,P|437:72|393:96,1,80,4|2,1:2|0:3,0:0:0:0:
372,155,103997,2,0,P|332:161|280:164,1,80,8|2,1:2|0:3,0:0:0:0:
225,221,104372,2,0,P|185:218|145:212,1,80,0|2,1:0|3:3,0:0:0:0:
111,132,104747,2,0,P|72:123|32:127,1,80,8|2,1:2|3:3,0:0:0:0:
0,201,105122,6,0,P|10:243|15:290,1,80,0|2,1:0|0:3,0:0:0:0:
35,360,105497,2,0,P|79:350|128:349,1,80,8|2,1:2|0:3,0:0:0:0:
197,375,105872,1,0,1:0:0:0:
197,375,105965,1,0,3:0:0:0:
197,375,106059,1,2,3:3:0:0:
263,326,106247,1,12,1:2:0:0:
263,326,106622,6,0,P|399:297|465:369,1,240.000009155274,2|10,1:1|1:1,0:0:0:0:
461,360,107278,2,0,P|486:294|472:249,1,120.000004577637,2|2,3:1|3:1,0:0:0:0:
384,168,107653,1,2,0:1:0:0:
384,168,107747,2,0,P|341:180|280:248,1,120.000004577637,10|2,1:1|3:1,0:0:0:0:
287,231,108215,5,2,0:1:0:0:
287,231,108309,2,0,P|243:288|187:288,1,120.000004577637,2|10,0:1|1:1,0:0:0:0:
56,360,108778,1,2,3:1:0:0:
56,360,108872,2,0,P|87:297|54:120,1,240.000009155274,2|10,1:1|1:1,0:0:0:0:
63,134,109622,6,0,P|133:118|269:12,1,240.000009155274,2|10,1:1|1:1,0:0:0:0:
264,17,110278,2,0,P|190:7|129:26,1,120.000004577637,2|2,3:1|3:1,0:0:0:0:
7,26,110653,1,2,0:1:0:0:
7,26,110747,2,0,P|32:91|62:140,1,120.000004577637,10|2,1:1|3:1,0:0:0:0:
82,251,111122,6,0,L|226:241,1,120.000004577637,2|2,1:1|0:3,0:0:0:0:
278,181,111497,2,0,L|397:189,1,120.000004577637,10|2,1:1|0:3,0:0:0:0:
465,272,111872,1,2,1:1:0:0:
465,272,111965,1,0,3:0:0:0:
465,272,112059,1,2,3:3:0:0:
423,352,112247,1,10,1:1:0:0:
423,352,112622,6,0,P|316:371|297:249,1,240.000009155274,2|10,1:1|1:1,0:0:0:0:
286,264,113278,2,0,P|353:276|397:231,1,120.000004577637,2|2,3:1|3:1,0:0:0:0:
471,144,113653,1,2,0:1:0:0:
471,144,113747,2,0,P|463:51|448:-10,1,120.000004577637,10|2,1:1|3:1,0:0:0:0:
458,24,114215,5,2,0:1:0:0:
458,24,114309,2,0,P|384:45|302:90,1,120.000004577637,2|10,0:1|1:1,0:0:0:0:
232,154,114778,1,2,3:1:0:0:
232,154,114872,2,0,P|207:59|76:88,1,240.000009155274,2|10,1:1|1:1,0:0:0:0:
86,71,115622,6,0,P|0:156|53:298,1,240.000009155274,2|10,1:1|1:1,0:0:0:0:
17,264,116278,2,0,P|89:227|141:239,1,120.000004577637,2|2,3:1|3:1,0:0:0:0:
274,295,116653,1,2,0:1:0:0:
274,295,116747,2,0,P|345:275|381:250,1,60.0000022888184,10|0,1:1|0:0,0:0:0:0:
352,255,116934,2,0,P|423:275|459:300,1,60.0000022888184,2|0,3:1|3:0,0:0:0:0:
454,250,117122,1,6,1:2:0:0:
256,192,117309,12,4,118622,1:0:0:0:
435,322,130622,6,0,L|449:352,2,32,0|2|2,1:0|0:3|0:3,0:0:0:0:
437,299,130997,1,2,0:3:0:0:
483,205,131372,2,0,P|445:182|366:141,1,128,8|0,0:1|0:0,0:0:0:0:
300,227,132122,2,0,P|242:243|163:237,1,128,2|2,0:3|0:3,0:0:0:0:
61,254,132872,2,0,P|36:213|19:128,1,128,8|2,0:1|0:3,0:0:0:0:
72,57,133434,1,0,1:0:0:0:
72,57,133622,6,0,L|58:27,2,32,0|2|2,1:0|0:3|0:3,0:0:0:0:
100,66,133997,1,2,0:3:0:0:
175,139,134372,2,0,P|214:129|293:60,1,128,8|0,0:1|0:0,0:0:0:0:
352,8,135122,2,0,P|445:31|450:77,1,128,2|2,0:3|0:3,0:0:0:0:
501,146,135872,1,8,0:1:0:0:
501,146,136153,2,0,L|393:163,1,96,0|0,1:0|1:0,0:0:0:0:
338,232,136622,6,0,L|334:277,2,32,0|2|2,0:0|0:3|0:3,0:0:0:0:
322,208,136997,1,2,0:3:0:0:
241,241,137372,2,0,P|166:243|102:263,1,128,8|2,0:1|0:3,0:0:0:0:
31,227,138122,6,0,L|-14:223,2,32,4|2|2,1:2|0:3|0:3,0:0:0:0:
55,211,138497,1,2,0:3:0:0:
22,130,138872,2,0,P|20:55|0:-9,1,128,8|2,0:1|0:3,0:0:0:0:
5,4,139622,6,0,B|44:67|116:49|116:49|85:124|117:177|117:177|191:150|208:78|208:78|271:79|274:148|274:148|293:113|362:100,1,586.666666666667,4|8,1:2|0:3,0:0:0:0:
333,106,141872,1,0,1:0:0:0:
333,106,142622,6,0,P|438:126|516:188,3,200,6|2|2|2,1:2|1:2|1:2|1:2,0:0:0:0:
481,260,144122,2,0,P|414:269|303:353,3,200,2|2|2|2,1:2|1:2|1:2|1:2,0:0:0:0:
229,384,145622,2,0,P|167:334|48:317,3,200,2|2|2|2,1:2|1:2|1:2|1:2,0:0:0:0:
2,236,147122,2,0,P|63:186|183:200,1,200,2|2,1:2|1:2,0:0:0:0:
282,220,147872,2,0,P|238:114|160:100,1,200,2|2,1:2|1:2,0:0:0:0:
141,5,148622,6,0,P|63:18|-1:116,3,200,2|2|2|2,1:2|1:2|1:2|1:2,0:0:0:0:
81,166,150122,2,0,P|173:164|234:259,1,200,2|2,1:2|1:2,0:0:0:0:
199,346,150778,1,2,0:2:0:0:
199,346,150872,2,0,P|256:326|325:321,1,100,2|2,1:2|0:2,0:0:0:0:
367,362,151247,2,0,P|426:359|485:335,1,100,2|0,1:2|0:0,0:0:0:0:
486,271,151622,6,0,P|481:220|467:159,1,80,4|2,1:2|0:3,0:0:0:0:
512,121,151997,1,8,1:2:0:0:
495,48,152184,1,2,3:3:0:0:
495,48,152278,1,0,3:0:0:0:
495,48,152372,2,0,P|452:22|412:15,1,80,0|2,1:0|0:3,0:0:0:0:
337,5,152747,1,8,1:2:0:0:
292,75,152934,1,2,3:3:0:0:
292,75,153028,1,0,3:0:0:0:
292,75,153122,2,0,L|182:68,1,80,0|2,1:0|0:3,0:0:0:0:
159,8,153497,2,0,L|79:13,1,80,8|2,1:2|3:3,0:0:0:0:
39,82,153872,2,0,L|0:79,2,40,2|2|2,1:2|3:2|3:2,0:0:0:0:
88,146,154247,2,0,P|110:199|106:251,1,80,10|2,1:2|3:3,0:0:0:0:
56,288,154622,6,0,P|89:330|137:344,1,80,4|2,1:2|0:3,0:0:0:0:
183,302,154997,2,0,P|225:299|286:306,1,80,8|2,1:2|0:3,0:0:0:0:
331,367,155372,1,0,1:0:0:0:
331,367,155465,1,0,3:0:0:0:
331,367,155559,1,2,3:3:0:0:
412,348,155747,2,0,P|448:315|462:271,1,80,8|2,1:2|3:3,0:0:0:0:
484,211,156122,6,0,P|440:176|391:163,1,80,0|2,1:0|0:3,0:0:0:0:
356,224,156497,2,0,P|302:221|268:217,1,80,8|2,1:2|0:3,0:0:0:0:
208,164,156872,1,0,1:0:0:0:
208,164,156965,1,0,3:0:0:0:
208,164,157059,1,2,3:3:0:0:
237,71,157247,2,0,P|210:37|167:23,1,80,8|2,1:2|3:3,0:0:0:0:
104,66,157622,1,0,1:0:0:0:
104,66,157809,2,0,L|10:53,2,80,2|8|2,0:3|1:2|0:3,0:0:0:0:
165,122,158372,6,0,P|215:100|265:62,1,80,0|2,1:0|3:3,0:0:0:0:
310,30,158747,2,0,P|346:49|382:91,1,80,8|2,1:2|3:3,0:0:0:0:
464,71,159122,2,0,B|509:154|436:140|477:227,1,160,0|8,1:0|1:2,0:0:0:0:
508,303,159684,1,2,0:3:0:0:
450,363,159872,1,0,1:0:0:0:
450,363,159965,1,0,3:0:0:0:
450,363,160059,1,2,3:3:0:0:
377,321,160247,2,0,P|326:331|299:347,1,80,8|2,1:2|3:3,0:0:0:0:
225,374,160622,6,0,P|186:344|166:296,1,80,2|2,1:2|0:3,0:0:0:0:
226,258,160997,2,0,P|226:207|216:167,1,80,8|2,1:2|0:3,0:0:0:0:
158,133,161372,1,0,1:0:0:0:
158,133,161465,1,0,3:0:0:0:
158,133,161559,1,2,3:3:0:0:
89,180,161747,2,0,P|42:182|7:163,1,80,8|2,1:2|3:3,0:0:0:0:
2,80,162122,6,0,P|27:49|66:36,1,80,2|2,1:2|0:3,0:0:0:0:
141,49,162497,2,0,P|181:44|220:41,1,80,8|2,1:2|0:3,0:0:0:0:
300,89,162872,1,0,1:0:0:0:
300,89,162965,1,0,3:0:0:0:
300,89,163059,1,2,3:3:0:0:
376,43,163247,2,0,P|421:41|484:44,1,80,8|2,1:2|3:3,0:0:0:0:
500,113,163622,6,0,B|517:170|517:170|484:252,2,120,2|2|2,1:2|3:2|3:3,0:0:0:0:
398,152,164372,2,0,B|375:95|375:95|392:38,2,120,2|2|2,1:2|3:2|3:3,0:0:0:0:
349,215,165122,6,0,L|260:230,1,80,4|2,1:2|0:3,0:0:0:0:
202,176,165497,2,0,L|123:162,1,80,12|2,1:2|0:3,0:0:0:0:
49,203,165872,1,4,1:2:0:0:
49,203,165965,1,0,3:0:0:0:
49,203,166059,1,2,3:3:0:0:
29,287,166247,1,12,1:2:0:0:
108,342,166434,1,2,3:3:0:0:
108,342,166528,1,0,3:0:0:0:
108,342,166622,6,0,P|159:248|275:281,1,240.000009155274,6|8,1:1|1:2,0:0:0:0:
271,276,167278,2,0,P|323:266|346:187,1,120.000004577637,0|0,3:0|3:0,0:0:0:0:
308,78,167653,1,0,0:0:0:0:
308,78,167747,2,0,P|243:87|180:123,1,120.000004577637,10|2,1:1|3:1,0:0:0:0:
149,191,168122,5,2,1:1:0:0:
149,191,168215,1,0,0:0:0:0:
59,184,168403,1,0,0:0:0:0:
59,184,168497,2,0,P|55:127|35:55,1,120.000004577637,8|2,1:2|0:3,0:0:0:0:
98,7,168779,1,0,3:0:0:0:
98,7,168872,2,0,P|171:37|246:39,1,120.000004577637,2|2,1:1|0:3,0:0:0:0:
335,0,169247,2,0,P|401:24|446:77,1,120.000004577637,10|2,1:1|3:3,0:0:0:0:
501,173,169622,6,0,P|428:162|298:263,1,240.000009155274,2|8,1:1|1:2,0:0:0:0:
301,255,170278,2,0,P|367:269|396:330,1,120.000004577637,0|0,3:0|3:0,0:0:0:0:
485,368,170653,1,0,0:0:0:0:
485,368,170747,2,0,P|494:301|449:235,1,120.000004577637,8|2,1:2|3:3,0:0:0:0:
386,191,171122,6,0,L|229:209,1,120.000004577637,2|2,1:1|0:3,0:0:0:0:
200,278,171497,2,0,L|80:264,1,120.000004577637,10|2,1:1|0:3,0:0:0:0:
18,205,171872,1,2,1:1:0:0:
18,205,171965,1,0,3:0:0:0:
18,205,172059,1,2,3:3:0:0:
37,121,172247,1,8,1:2:0:0:
122,114,172434,1,2,3:1:0:0:
183,176,172622,6,0,P|259:150|241:11,1,240.000009155274,2|8,1:1|1:2,0:0:0:0:
244,13,173278,2,0,P|185:39|142:86,1,120.000004577637,0|0,3:0|3:0,0:0:0:0:
181,186,173653,1,0,0:0:0:0:
181,186,173747,2,0,P|278:166|321:162,1,120.000004577637,10|2,1:1|3:3,0:0:0:0:
376,209,174122,5,2,1:1:0:0:
458,178,174309,1,2,0:3:0:0:
458,178,174403,1,0,0:0:0:0:
458,178,174497,2,0,P|462:111|480:37,1,120.000004577637,8|2,1:2|0:3,0:0:0:0:
393,20,174778,1,0,3:0:0:0:
393,20,174872,2,0,P|319:47|260:63,1,120.000004577637,0|2,1:0|0:3,0:0:0:0:
205,10,175247,2,0,P|137:18|133:111,1,120.000004577637,8|2,1:2|3:3,0:0:0:0:
163,143,175622,6,0,L|144:259,1,80,4|2,1:2|0:3,0:0:0:0:
67,196,175997,2,0,L|54:117,1,80,8|2,1:2|0:3,0:0:0:0:
122,73,176372,1,0,1:0:0:0:
122,73,176465,1,0,3:0:0:0:
122,73,176559,1,2,3:3:0:0:
177,138,176747,2,0,B|257:129|215:167|327:157,1,120,8|0,1:2|3:0,0:0:0:0:
311,156,177122,6,0,P|345:119|349:91,1,80,0|2,1:0|0:3,0:0:0:0:
383,19,177497,2,0,P|425:45|436:71,1,80,8|2,1:2|0:3,0:0:0:0:
512,124,177872,1,0,1:0:0:0:
512,124,177965,1,8,3:1:0:0:
512,124,178059,1,8,3:1:0:0:
466,200,178247,1,8,1:1:0:0:
512,284,178434,1,8,3:1:0:0:
512,284,178528,1,8,3:1:0:0:
512,284,178622,6,0,P|486:343|341:300,1,240.000009155274,6|10,1:2|1:2,0:0:0:0:
343,309,179278,2,0,P|276:314|243:358,1,120.000004577637,2|2,3:2|3:2,0:0:0:0:
130,384,179653,1,2,0:2:0:0:
130,384,179747,2,0,P|60:356|4:306,1,120.000004577637,10|2,1:2|3:2,0:0:0:0:
2,233,180122,5,0,1:0:0:0:
2,233,180215,1,2,0:2:0:0:
88,202,180403,1,0,0:0:0:0:
88,202,180497,2,0,P|124:183|148:111,1,120.000004577637,10|2,1:2|0:3,0:0:0:0:
174,29,180778,1,2,3:2:0:0:
174,29,180872,2,0,P|212:16|280:50,1,120.000004577637,2|2,1:2|0:3,0:0:0:0:
382,130,181247,2,0,P|450:129|500:54,1,120.000004577637,10|2,1:2|3:3,0:0:0:0:
410,10,181622,6,0,P|309:37|294:172,1,240.000009155274,2|8,1:2|1:2,0:0:0:0:
286,157,182278,2,0,P|365:181|397:233,1,120.000004577637,2|2,3:2|3:2,0:0:0:0:
429,341,182653,1,2,0:2:0:0:
429,341,182747,2,0,P|299:338|279:348,1,120.000004577637,10|2,1:2|3:2,0:0:0:0:
209,375,183122,2,0,P|178:337|-4:311,1,240.000009155274,2|10,1:2|1:2,0:0:0:0:
0,309,183872,6,0,P|73:256|82:202,1,120.000004577637,2|2,1:2|3:3,0:0:0:0:
37,147,184247,1,10,1:2:0:0:
74,69,184434,1,2,3:3:0:0:
74,69,184528,1,0,3:0:0:0:
74,69,184622,6,0,P|146:43|276:144,1,240.000009155274,2|10,1:2|1:2,0:0:0:0:
271,127,185278,2,0,P|339:93|366:51,1,120.000004577637,2|2,3:2|3:2,0:0:0:0:
480,15,185653,1,2,0:2:0:0:
480,15,185747,2,0,P|494:87|480:157,1,120.000004577637,10|2,1:2|3:2,0:0:0:0:
426,196,186122,5,0,1:0:0:0:
426,196,186215,1,2,0:2:0:0:
456,281,186403,1,0,0:0:0:0:
456,281,186497,2,0,P|401:333|343:355,1,120.000004577637,10|2,1:2|3:3,0:0:0:0:
270,287,186872,2,0,P|183:284|119:313,1,120.000004577637,2|2,1:2|3:3,0:0:0:0:
53,368,187247,2,0,P|14:328|13:220,1,120.000004577637,10|2,1:2|3:3,0:0:0:0:
58,182,187622,6,0,L|63:131,14,30.0000011444092,2|0|0|0|2|0|0|0|10|0|0|0|2|0|2,1:2|0:0|0:0|0:0|0:3|0:0|0:0|0:0|1:2|0:0|0:0|0:0|3:3|0:0|0:2,0:0:0:0:
29,106,188372,2,0,L|24:73,14,30.0000011444092,0|0|2|0|2|0|2|0|10|0|0|0|2|0|0,1:0|0:0|0:2|0:0|3:3|0:0|0:2|0:0|1:2|0:0|0:0|0:0|3:2|0:0|3:0,0:0:0:0:
53,37,189122,6,0,L|189:21,1,120.000004577637,6|0,1:2|0:0,0:0:0:0:
248,81,189497,2,0,L|367:95,1,120.000004577637,4|0,1:2|0:0,0:0:0:0:
452,40,189872,1,8,0:1:0:0:
468,50,189965,1,8,0:3:0:0:
483,64,190059,1,8,0:2:0:0:
494,81,190153,1,8,3:2:0:0:
501,99,190247,1,8,1:1:0:0:
460,179,190434,1,4,1:3:0:0:
504,256,190622,5,4,1:1:0:0:
