osu file format v14

[General]
AudioFilename: audio.mp3
AudioLeadIn: 0
PreviewTime: 166610
Countdown: 0
SampleSet: Soft
StackLeniency: 0.2
Mode: 0
LetterboxInBreaks: 0
WidescreenStoryboard: 1

[Editor]
Bookmarks: 1610,10610,22610,34610,46610,58610,70610,82610,94610,106610,118610,130610,142610,154610,166610,178610,190610
DistanceSpacing: 0.8
BeatDivisor: 4
GridSize: 32
TimelineZoom: 1.6

[Metadata]
Title:Hysteric Night Girl -Awakening- (feat. Such)
TitleUnicode:ヒステリックナイトガール -Awakening- (feat. Such)
Artist:PSYQUI
ArtistUnicode:PSYQUI
Creator:Luminiscental
Version:Liber
Source:
Tags:electronic japanese speed garage edm innocent future core jpop j-pop tech wacca lam megarex mrx-034 coffee cup mocha sf nm6 nm 6 nikolomara nik
BeatmapID:3861178
BeatmapSetID:1580891

[Difficulty]
HPDrainRate:5
CircleSize:3.4
OverallDifficulty:8.5
ApproachRate:9.6
SliderMultiplier:2
SliderTickRate:1

[Events]
//Background and Video events
0,0,"bg.jpg",0,0
//Break Periods
2,118822,130113
//Storyboard Layer 0 (Background)
//Storyboard Layer 1 (Fail)
//Storyboard Layer 2 (Pass)
//Storyboard Layer 3 (Foreground)
//Storyboard Layer 4 (Overlay)
//Storyboard Sound Samples

[TimingPoints]
1622,375,4,2,0,50,1,0
1622,-100,4,2,0,50,0,0
7622,-100,4,2,0,60,0,0
9122,-100,4,2,0,70,0,0
9872,-100,4,2,0,80,0,0
10622,-62.5,4,2,0,80,0,0
10809,-62.5,4,2,0,70,0,0
16247,-47.6190476190476,4,2,0,70,0,0
16622,-62.5,4,2,0,70,0,0
22622,-62.5,4,2,0,60,0,0
34059,-62.5,4,2,0,70,0,0
35700,-62.5,4,2,0,5,0,0
35747,-62.5,4,2,0,70,0,0
37575,-62.5,4,2,0,5,0,0
37622,-62.5,4,2,0,70,0,0
37950,-62.5,4,2,0,5,0,0
37997,-62.5,4,2,0,70,0,0
38700,-62.5,4,2,0,5,0,0
38747,-62.5,4,2,0,70,0,0
38934,-52.6315789473684,4,2,0,70,0,0
39497,-62.5,4,2,0,70,0,0
40247,-47.6190476190476,4,2,0,70,0,0
40809,-62.5,4,2,0,70,0,0
40950,-62.5,4,2,0,5,0,0
40997,-62.5,4,2,0,70,0,0
41700,-62.5,4,2,0,5,0,0
41747,-62.5,4,2,0,70,0,0
43950,-62.5,4,2,0,5,0,0
43997,-62.5,4,2,0,70,0,0
44934,-52.6315789473684,4,2,0,70,0,0
45450,-52.6315789473684,4,2,0,5,0,0
45497,-52.6315789473684,4,2,0,70,0,0
45731,-52.6315789473684,4,2,0,25,0,0
45778,-52.6315789473684,4,2,0,70,0,0
45825,-52.6315789473684,4,2,0,25,0,0
45872,-52.6315789473684,4,2,0,80,0,0
46622,-166.666666666666,4,2,0,60,0,0
52622,-90.9090909090907,4,2,0,50,0,0
54122,-90.9090909090907,4,2,0,62,0,0
55622,-90.9090909090907,4,2,0,75,0,0
56372,-90.9090909090907,4,2,0,85,0,0
58434,-90.9090909090907,4,2,0,70,0,0
58622,-71.4285714285712,4,2,0,90,0,0
58903,-71.4285714285712,4,2,0,40,0,0
58997,-71.4285714285712,4,2,0,90,0,0
59278,-71.4285714285712,4,2,0,40,0,0
59372,-71.4285714285712,4,2,0,90,0,0
59653,-71.4285714285712,4,2,0,40,0,0
59747,-71.4285714285712,4,2,0,90,0,0
60028,-71.4285714285712,4,2,0,40,0,0
60122,-71.4285714285712,4,2,0,90,0,0
60403,-71.4285714285712,4,2,0,40,0,0
60497,-71.4285714285712,4,2,0,90,0,0
60778,-71.4285714285712,4,2,0,40,0,0
60872,-71.4285714285712,4,2,0,90,0,0
61153,-71.4285714285712,4,2,0,40,0,0
61247,-71.4285714285712,4,2,0,90,0,0
61528,-71.4285714285712,4,2,0,40,0,0
61622,-71.4285714285712,4,2,0,90,0,0
61903,-71.4285714285712,4,2,0,40,0,0
61997,-71.4285714285712,4,2,0,90,0,0
62278,-71.4285714285712,4,2,0,40,0,0
62372,-71.4285714285712,4,2,0,90,0,0
62653,-71.4285714285712,4,2,0,40,0,0
62747,-71.4285714285712,4,2,0,90,0,0
63028,-71.4285714285712,4,2,0,40,0,0
63122,-71.4285714285712,4,2,0,90,0,0
63403,-71.4285714285712,4,2,0,40,0,0
63497,-71.4285714285712,4,2,0,90,0,0
63778,-71.4285714285712,4,2,0,40,0,0
63872,-71.4285714285712,4,2,0,90,0,0
64153,-71.4285714285712,4,2,0,40,0,0
64247,-71.4285714285712,4,2,0,90,0,0
64528,-71.4285714285712,4,2,0,40,0,0
64622,-71.4285714285712,4,2,0,90,0,0
64903,-71.4285714285712,4,2,0,40,0,0
64997,-71.4285714285712,4,2,0,90,0,0
65278,-71.4285714285712,4,2,0,40,0,0
65372,-71.4285714285712,4,2,0,90,0,0
65653,-71.4285714285712,4,2,0,40,0,0
65747,-71.4285714285712,4,2,0,90,0,0
66028,-71.4285714285712,4,2,0,40,0,0
66122,-71.4285714285712,4,2,0,90,0,0
66403,-71.4285714285712,4,2,0,40,0,0
66497,-71.4285714285712,4,2,0,90,0,0
66778,-71.4285714285712,4,2,0,40,0,0
66872,-71.4285714285712,4,2,0,90,0,0
67153,-71.4285714285712,4,2,0,40,0,0
67247,-71.4285714285712,4,2,0,90,0,0
67528,-71.4285714285712,4,2,0,40,0,0
67622,-71.4285714285712,4,2,0,90,0,0
67809,-62.4999999999998,4,2,0,75,0,0
70247,-47.6190476190475,4,2,0,75,0,0
70622,-62.4999999999998,4,2,0,70,0,0
76622,-62.4999999999998,4,2,0,77,0,0
81122,-71.4285714285712,4,2,0,80,0,0
81403,-71.4285714285712,4,2,0,40,0,0
81497,-71.4285714285712,4,2,0,80,0,0
81778,-71.4285714285712,4,2,0,40,0,0
81872,-58.8235294117646,4,2,0,80,0,0
82340,-58.8235294117646,4,2,0,30,0,0
82434,-58.8235294117646,4,2,0,80,0,0
82528,-58.8235294117646,4,2,0,30,0,0
82622,-52.6315789473683,4,2,0,90,0,0
82903,-52.6315789473683,4,2,0,40,0,0
82997,-52.6315789473683,4,2,0,90,0,0
88247,-52.6315789473683,4,2,0,70,0,0
88622,-52.6315789473683,4,2,0,90,0,0
91622,-52.6315789473683,4,2,0,100,0,0
94622,-52.6315789473684,4,2,0,100,0,1
94715,-52.6315789473684,4,2,0,85,0,1
103622,-62.5,4,2,0,70,0,0
106622,-52.6315789473684,4,2,0,85,0,1
115622,-52.6315789473684,4,2,0,95,0,1
117309,-52.6315789473684,4,2,0,75,0,1
117684,-52.6315789473684,4,2,0,65,0,1
118153,-142.857142857143,4,2,0,65,0,0
118247,-142.857142857143,4,2,0,35,0,0
118622,-142.857142857143,4,2,0,80,0,0
130622,-142.857142857143,4,2,0,50,0,0
135122,-100,4,2,0,50,0,0
136622,-100,4,2,0,60,0,0
138122,-100,4,2,0,70,0,0
139622,-100,4,2,0,80,0,0
142622,-71.4285714285714,4,2,0,90,0,0
142903,-71.4285714285714,4,2,0,40,0,0
142997,-71.4285714285714,4,2,0,90,0,0
143278,-71.4285714285714,4,2,0,40,0,0
143372,-71.4285714285714,4,2,0,90,0,0
143653,-71.4285714285714,4,2,0,40,0,0
143747,-71.4285714285714,4,2,0,90,0,0
144028,-71.4285714285714,4,2,0,40,0,0
144122,-71.4285714285714,4,2,0,90,0,0
144403,-71.4285714285714,4,2,0,40,0,0
144497,-71.4285714285714,4,2,0,90,0,0
144778,-71.4285714285714,4,2,0,40,0,0
144872,-71.4285714285714,4,2,0,90,0,0
145153,-71.4285714285714,4,2,0,40,0,0
145247,-71.4285714285714,4,2,0,90,0,0
145528,-71.4285714285714,4,2,0,40,0,0
145622,-71.4285714285714,4,2,0,90,0,0
145903,-71.4285714285714,4,2,0,40,0,0
145997,-71.4285714285714,4,2,0,90,0,0
146278,-71.4285714285714,4,2,0,40,0,0
146372,-71.4285714285714,4,2,0,90,0,0
146653,-71.4285714285714,4,2,0,40,0,0
146747,-71.4285714285714,4,2,0,90,0,0
147028,-71.4285714285714,4,2,0,40,0,0
147122,-71.4285714285714,4,2,0,90,0,0
147403,-71.4285714285714,4,2,0,40,0,0
147497,-71.4285714285714,4,2,0,90,0,0
147778,-71.4285714285714,4,2,0,40,0,0
147872,-71.4285714285714,4,2,0,90,0,0
148153,-71.4285714285714,4,2,0,40,0,0
148247,-71.4285714285714,4,2,0,90,0,0
148528,-71.4285714285714,4,2,0,40,0,0
148622,-71.4285714285714,4,2,0,90,0,0
148903,-71.4285714285714,4,2,0,40,0,0
148997,-71.4285714285714,4,2,0,90,0,0
149278,-71.4285714285714,4,2,0,40,0,0
149372,-71.4285714285714,4,2,0,90,0,0
149653,-71.4285714285714,4,2,0,40,0,0
149747,-71.4285714285714,4,2,0,90,0,0
150028,-71.4285714285714,4,2,0,40,0,0
150122,-71.4285714285714,4,2,0,90,0,0
150403,-71.4285714285714,4,2,0,40,0,0
150497,-71.4285714285714,4,2,0,90,0,0
150778,-71.4285714285714,4,2,0,40,0,0
150872,-71.4285714285714,4,2,0,90,0,0
151153,-71.4285714285714,4,2,0,40,0,0
151247,-71.4285714285714,4,2,0,90,0,0
151528,-71.4285714285714,4,2,0,40,0,0
151622,-62.5,4,2,0,75,0,0
154247,-47.6190476190476,4,2,0,75,0,0
154622,-62.5,4,2,0,70,0,0
165122,-47.6190476190476,4,2,0,80,0,0
166622,-52.6315789473684,4,2,0,80,0,1
166715,-52.6315789473684,4,2,0,75,0,1
175622,-62.5,4,2,0,80,0,0
175715,-62.5,4,2,0,60,0,0
178622,-52.6315789473684,4,2,0,70,0,1
187622,-52.6315789473684,4,2,0,75,0,1
189122,-71.4285714285714,4,2,0,80,0,1
189872,-58.8235294117647,4,2,0,85,0,0
190340,-58.8235294117647,4,2,0,30,0,0
190434,-58.8235294117647,4,2,0,85,0,0
190528,-58.8235294117647,4,2,0,30,0,0
190622,-58.8235294117647,4,2,0,85,0,0

[Colours]
Combo1 : 188,84,222
Combo2 : 134,50,186
Combo3 : 211,53,124
Combo4 : 54,44,182
Combo5 : 228,210,156
Combo6 : 248,120,213

[HitObjects]
10,235,1622,5,0,1:0:0:0:
51,212,1715,1,2,0:3:0:0:
95,210,1809,1,0,0:0:0:0:
136,194,1903,1,2,0:3:0:0:
143,201,1997,1,2,0:3:0:0:
0,96,2372,5,8,0:3:0:0:
80,128,2559,1,2,0:3:0:0:
76,82,2934,5,0,3:0:0:0:
100,80,3028,1,2,0:3:0:0:
161,149,3309,1,0,3:0:0:0:
207,166,3403,1,2,0:3:0:0:
233,210,3497,1,2,0:3:0:0:
153,0,3872,5,8,0:3:0:0:
207,78,4059,1,0,0:0:0:0:
233,88,4153,1,2,0:3:0:0:
243,14,4434,5,0,1:0:0:0:
256,33,4528,1,0,0:0:0:0:
324,90,4622,1,2,1:3:0:0:
325,119,4715,1,2,0:3:0:0:
346,143,4809,1,0,0:0:0:0:
328,183,4903,1,2,0:3:0:0:
322,188,4997,1,2,0:3:0:0:
484,143,5372,5,8,0:3:0:0:
412,203,5559,1,2,0:3:0:0:
481,310,6122,6,0,L|466:203,1,100,0|2,3:0|0:3,0:0:0:0:
494,226,6497,1,0,0:0:0:0:
465,137,6684,1,0,0:0:0:0:
458,122,6778,1,2,0:3:0:0:
457,70,6872,5,8,0:3:0:0:
470,18,6965,1,2,0:3:0:0:
448,23,7059,1,0,0:0:0:0:
431,72,7153,1,2,1:3:0:0:
412,50,7247,1,0,3:0:0:0:
240,140,7434,1,0,1:0:0:0:
29,374,7622,5,0,1:0:0:0:
62,355,7715,1,2,0:3:0:0:
108,367,7809,1,0,0:0:0:0:
149,368,7903,1,2,0:3:0:0:
158,361,7997,1,2,0:3:0:0:
251,336,8184,6,0,L|201:314,1,50,0|2,0:0|0:3,0:0:0:0:
9,256,8372,1,8,0:3:0:0:
57,273,8465,1,2,0:3:0:0:
83,319,8559,1,0,0:0:0:0:
125,329,8653,1,2,0:3:0:0:
131,326,8747,1,0,3:0:0:0:
278,298,8934,6,0,L|222:261,1,50,0|2,0:0|0:3,0:0:0:0:
64,63,9122,1,0,1:0:0:0:
113,68,9215,1,2,0:3:0:0:
147,111,9309,1,0,0:0:0:0:
162,145,9403,1,2,0:3:0:0:
166,154,9497,1,2,0:3:0:0:
254,218,9684,5,0,3:0:0:0:
303,231,9778,1,2,0:3:0:0:
368,343,9872,1,8,1:0:0:0:
368,343,10059,1,0,1:0:0:0:
368,343,10247,1,8,1:0:0:0:
463,10,10622,6,0,B|485:102|485:102|428:40,1,160,4|2,1:2|0:3,0:0:0:0:
423,54,10903,1,2,0:0:0:0:
232,106,11090,1,2,0:0:0:0:
175,96,11184,2,0,B|226:49|226:49|253:44,1,80,2|2,0:3|0:0,0:0:0:0:
338,175,11465,1,2,0:0:0:0:
379,204,11559,1,2,0:3:0:0:
451,177,11653,1,2,0:0:0:0:
440,328,11840,1,2,0:0:0:0:
395,313,11934,2,0,L|302:349,1,80,2|0,0:3|0:0,0:0:0:0:
93,299,12122,6,0,B|1:274|1:274|78:275,1,160,0|2,1:0|0:3,0:0:0:0:
147,323,12403,1,2,0:0:0:0:
205,150,12590,1,2,0:0:0:0:
200,208,12684,2,0,B|213:212|213:212|182:136,1,80,2|2,0:3|0:0,0:0:0:0:
47,32,12965,1,2,0:0:0:0:
17,63,13059,1,2,0:3:0:0:
66,83,13153,1,2,0:0:0:0:
181,16,13340,1,2,0:0:0:0:
214,43,13434,2,0,L|297:69,1,80,2|0,0:3|0:0,0:0:0:0:
499,193,13622,6,0,B|403:237|403:237|475:244,1,160,0|2,1:0|0:3,0:0:0:0:
428,202,13903,1,2,0:0:0:0:
400,305,14090,1,2,0:0:0:0:
351,343,14184,1,2,0:3:0:0:
333,331,14278,1,2,0:0:0:0:
160,272,14465,2,0,B|218:234|218:234|250:238,1,80,2|2,0:0|0:3,0:0:0:0:
260,225,14653,1,2,0:0:0:0:
327,64,14840,1,2,0:0:0:0:
336,118,14934,2,0,L|305:205,1,80,2|0,0:3|0:0,0:0:0:0:
34,316,15122,6,0,B|-20:278|-20:278|73:298,1,160,0|2,1:0|0:3,0:0:0:0:
83,344,15403,1,0,0:0:0:0:
133,283,15497,1,8,1:0:0:0:
222,274,15590,1,0,0:0:0:0:
182,294,15684,2,0,B|150:273|150:273|110:261,1,80,2|2,0:3|3:2,0:0:0:0:
0,142,15872,5,0,1:0:0:0:
47,168,15965,1,0,3:0:0:0:
124,108,16059,1,2,0:3:0:0:
166,82,16153,1,2,3:2:0:0:
234,150,16247,2,0,L|468:206,1,209.999993591309,12|2,1:0|0:3,0:0:0:0:
470,106,16528,1,0,0:0:0:0:
331,196,16622,6,0,B|277:160|277:160|374:196,1,160,4|2,1:2|0:3,0:0:0:0:
422,263,16903,1,2,0:0:0:0:
391,65,17090,1,2,0:0:0:0:
338,43,17184,2,0,B|361:63|361:63|402:125,1,80,2|2,0:3|0:0,0:0:0:0:
155,57,17465,1,2,0:0:0:0:
217,97,17559,1,2,0:3:0:0:
217,67,17653,1,2,0:0:0:0:
105,205,17840,1,2,0:0:0:0:
128,148,17934,2,0,L|202:186,1,80,2|0,0:3|0:0,0:0:0:0:
340,344,18122,6,0,B|441:311|441:311|397:350,1,160,0|2,1:0|0:3,0:0:0:0:
314,384,18403,1,2,0:0:0:0:
209,283,18590,1,2,0:0:0:0:
253,282,18684,2,0,B|268:261|268:261|215:268,1,80,2|2,0:3|0:0,0:0:0:0:
56,336,18965,1,2,0:0:0:0:
24,378,19059,2,0,B|19:359|19:359|44:296,1,80,2|2,0:3|0:0,2:0:0:0:
113,220,19340,1,2,0:0:0:0:
75,163,19434,1,2,0:3:0:0:
76,157,19528,1,0,0:0:0:0:
129,66,19622,6,0,B|142:8|142:8|70:107,1,160,0|2,1:0|0:3,0:0:0:0:
71,182,19903,1,2,0:0:0:0:
259,48,20090,1,2,0:0:0:0:
231,100,20184,2,0,B|272:72|272:72|319:57,1,80,2|2,0:3|0:0,0:0:0:0:
379,176,20465,1,2,0:0:0:0:
428,215,20559,1,2,0:3:0:0:
429,195,20653,1,2,0:0:0:0:
268,287,20840,1,2,0:0:0:0:
295,229,20934,2,0,L|204:219,1,80,2|0,0:3|0:0,0:0:0:0:
2,250,21122,6,0,B|-9:179|-9:179|42:265,1,160,0|2,1:0|0:3,0:0:0:0:
23,306,21403,1,0,3:0:0:0:
110,198,21497,1,8,1:0:0:0:
70,185,21590,2,0,B|65:159|65:159|87:98,1,80,0|2,0:0|0:3,0:0:0:0:
183,81,21778,1,2,3:2:0:0:
256,0,21872,1,0,1:0:0:0:
256,0,22247,1,8,1:0:0:0:
256,384,22622,5,4,1:2:0:0:
497,295,22997,1,8,1:0:0:0:
257,293,23372,1,0,1:0:0:0:
231,267,23465,2,0,B|261:262|261:262|300:303,1,80,0|0,1:0|0:0,0:0:0:0:
330,210,23653,2,0,B|328:166|328:166|365:206,1,80,0|8,1:0|0:1,0:0:0:0:
388,270,23840,1,0,0:0:0:0:
380,275,23934,1,0,1:0:0:0:
418,226,24028,1,0,1:0:0:0:
327,235,24122,5,0,1:0:0:0:
54,44,24497,1,8,1:0:0:0:
197,75,24684,1,0,0:0:0:0:
201,47,24778,2,0,L|239:121,1,80,0|0,3:0|0:0,0:0:0:0:
349,156,24965,2,0,B|339:131|339:131|266:114,1,80,0|0,1:0|0:0,0:0:0:0:
394,71,25153,1,0,1:0:0:0:
432,102,25247,2,0,B|418:83|418:83|403:148,1,80,8|0,0:1|0:0,0:0:0:0:
444,253,25434,1,0,1:0:0:0:
446,228,25528,1,0,1:0:0:0:
512,293,25622,5,0,1:0:0:0:
216,186,25997,1,8,1:0:0:0:
52,280,26372,1,0,1:0:0:0:
29,253,26465,2,0,B|58:255|58:255|113:280,1,80,0|0,1:0|0:0,0:0:0:0:
235,281,26653,2,0,B|193:236|193:236|199:259,1,80,0|8,1:0|0:1,0:0:0:0:
183,327,26840,1,0,0:0:0:0:
182,333,26934,1,0,1:0:0:0:
218,287,27028,1,0,1:0:0:0:
283,350,27122,5,0,1:0:0:0:
174,283,27309,1,2,0:3:0:0:
476,219,27497,1,8,1:0:0:0:
506,306,27684,1,2,0:3:0:0:
383,65,27872,1,0,1:0:0:0:
440,83,27965,2,0,B|373:102|373:102|342:103,1,80,0|2,1:0|0:3,0:0:0:0:
283,173,28153,1,0,1:0:0:0:
293,160,28247,1,8,0:1:0:0:
186,96,28340,1,0,1:0:0:0:
239,122,28434,2,0,B|193:146|193:146|154:146,1,80,2|0,1:3|3:0,0:0:0:0:
59,65,28622,5,0,1:0:0:0:
320,7,28997,1,8,1:0:0:0:
71,149,29372,1,0,1:0:0:0:
46,101,29465,2,0,B|77:132|77:132|115:148,1,80,0|0,1:0|0:0,0:0:0:0:
207,106,29653,2,0,B|178:61|178:61|179:88,1,80,0|8,1:0|0:1,0:0:0:0:
203,180,29840,1,0,0:0:0:0:
213,185,29934,1,0,1:0:0:0:
256,134,30028,1,0,1:0:0:0:
316,213,30122,5,0,1:0:0:0:
490,60,30309,1,0,1:0:0:0:
316,213,30497,1,8,1:0:0:0:
420,276,30684,1,0,0:0:0:0:
397,268,30778,1,0,3:0:0:0:
294,302,30872,1,0,1:0:0:0:
344,295,30965,2,0,B|291:325|291:325|272:354,1,80,0|0,1:0|0:0,0:0:0:0:
199,318,31153,1,0,0:0:0:0:
212,349,31247,1,8,1:0:0:0:
128,318,31340,1,0,1:0:0:0:
21,365,31434,1,0,1:0:0:0:
61,110,31622,5,0,1:0:0:0:
303,281,31997,1,8,1:0:0:0:
239,171,32184,1,0,0:0:0:0:
195,213,32278,1,0,3:0:0:0:
160,197,32372,2,0,B|190:191|190:191|265:216,1,80,0|0,1:0|1:0,0:0:0:0:
320,164,32559,1,0,0:0:0:0:
334,156,32653,2,0,B|301:117|301:117|335:127,1,80,0|8,1:0|0:1,0:0:0:0:
410,170,32840,1,0,0:0:0:0:
415,172,32934,1,0,1:0:0:0:
457,127,33028,1,0,1:0:0:0:
508,205,33122,5,0,1:0:0:0:
238,22,33497,1,8,1:0:0:0:
79,87,33684,1,0,0:0:0:0:
101,37,33778,1,0,3:0:0:0:
166,117,33872,2,0,B|188:91|188:91|129:84,1,80,0|0,1:0|1:0,0:0:0:0:
20,103,34059,1,10,0:3:0:0:
2,75,34122,1,8,0:3:0:0:
0,41,34184,1,8,0:3:0:0:
16,9,34247,1,8,1:0:0:0:
13,165,34434,1,10,1:3:0:0:
70,112,34528,1,8,0:3:0:0:
23,251,34622,5,4,1:2:0:0:
125,197,34809,1,2,0:3:0:0:
137,203,34903,1,0,3:0:0:0:
215,175,34997,2,0,B|169:159|169:159|158:190,1,80,8|0,1:0|0:0,0:0:0:0:
220,260,35184,1,2,0:3:0:0:
234,266,35278,1,0,3:0:0:0:
311,234,35372,2,0,B|273:207|273:207|256:158,1,80,0|0,1:0|1:0,0:0:0:0:
322,86,35559,2,2,P|327:152|337:210,1,120,2|0,0:3|0:0,0:0:0:0:
343,213,35747,1,8,1:0:0:0:
450,106,35934,1,2,1:3:0:0:
413,136,36028,1,0,1:0:0:0:
430,44,36122,5,0,1:0:0:0:
307,84,36309,2,0,B|292:49|292:49|328:69,1,80,2|0,0:3|0:0,0:0:0:0:
146,96,36497,2,0,B|165:96|165:96|211:42,1,80,8|0,1:0|0:0,0:0:0:0:
75,42,36684,1,2,0:3:0:0:
35,42,36778,2,0,B|81:62|81:62|103:101,1,80,0|0,0:0|1:0,0:0:0:0:
58,169,36965,1,0,1:0:0:0:
60,175,37059,1,2,0:3:0:0:
110,162,37153,1,0,1:0:0:0:
152,232,37247,1,8,1:0:0:0:
331,180,37434,2,2,P|321:248|309:303,1,120,2|0,0:3|0:0,0:0:0:0:
309,308,37622,5,0,1:0:0:0:
381,48,37809,2,2,P|410:100|434:155,1,120,2|0,0:3|0:0,0:0:0:0:
434,163,37997,1,8,1:0:0:0:
415,273,38184,1,2,3:3:0:0:
408,264,38278,1,0,3:0:0:0:
491,261,38372,2,0,B|456:280|456:280|415:329,1,80,0|0,1:0|1:0,0:0:0:0:
333,384,38559,2,2,P|323:326|272:299,1,120,2|0,0:3|0:0,0:0:0:0:
266,306,38747,1,8,1:0:0:0:
479,384,38934,2,2,P|511:350|507:305,1,94.9999974632264,2|2,1:3|1:2,0:0:0:0:
350,271,39122,5,0,1:0:0:0:
401,206,39309,1,2,0:3:0:0:
140,242,39497,2,0,B|116:212|116:212|159:213,1,80,10|0,1:0|0:0,0:0:0:0:
130,282,39684,1,2,0:3:0:0:
98,305,39778,1,2,0:2:0:0:
7,314,39965,1,0,1:0:0:0:
0,316,40059,1,2,0:3:0:0:
46,336,40153,1,2,1:2:0:0:
32,230,40247,2,0,L|46:103,3,104.999996795654,10|0|2|0,1:0|1:0|1:3|3:0,0:0:0:0:
108,11,40622,5,0,1:0:0:0:
269,137,40809,2,2,P|238:95|148:83,1,120,2|0,0:3|0:0,0:0:0:0:
167,83,40997,1,8,1:0:0:0:
292,28,41184,1,2,0:3:0:0:
297,41,41278,1,0,3:0:0:0:
380,18,41372,2,0,B|356:73|356:73|334:98,1,80,0|0,1:0|1:0,0:0:0:0:
219,219,41559,2,2,P|286:177|351:184,1,120,2|0,0:3|0:0,0:0:0:0:
332,188,41747,1,8,1:0:0:0:
420,72,41934,1,2,1:3:0:0:
478,49,42028,1,0,3:0:0:0:
512,131,42122,5,0,1:0:0:0:
282,63,42309,1,2,1:3:0:0:
512,131,42497,1,8,1:0:0:0:
498,176,42590,2,2,P|451:212|414:226,1,80,0|2,0:0|0:3,0:0:0:0:
310,155,42778,1,0,0:0:0:0:
358,173,42872,1,0,1:0:0:0:
322,228,42965,1,0,3:0:0:0:
351,272,43059,1,2,0:3:0:0:
349,236,43153,1,2,3:2:0:0:
83,90,43340,1,0,1:0:0:0:
117,37,43434,1,2,3:3:0:0:
131,68,43528,1,2,3:2:0:0:
210,13,43622,5,0,1:0:0:0:
24,79,43809,2,2,P|72:135|116:171,1,120,2|0,0:3|0:0,0:0:0:0:
122,167,43997,2,0,B|81:159|81:159|113:192,1,80,8|0,1:0|0:0,0:0:0:0:
208,216,44184,1,2,3:3:0:0:
201,205,44278,1,2,3:2:0:0:
146,287,44372,1,0,1:0:0:0:
91,260,44465,2,0,B|144:267|144:267|179:294,1,80,0|2,1:0|3:3,0:0:0:0:
254,327,44653,1,2,3:2:0:0:
248,316,44747,2,0,B|267:260|267:260|277:287,1,80,8|0,1:0|0:0,0:0:0:0:
383,353,44934,2,2,P|340:321|330:253,1,94.9999974632264,2|2,1:3|3:2,0:0:0:0:
501,274,45122,5,0,1:0:0:0:
305,176,45309,2,2,P|363:227|413:281,1,142.49999619484,2|0,0:3|0:0,0:0:0:0:
410,288,45497,1,8,1:0:0:0:
121,328,45684,2,0,P|99:337|77:345,1,47.4999987316132,2|0,3:3|0:0,0:0:0:0:
68,363,45778,2,0,P|46:354|23:346,1,47.4999987316132,0|0,3:0|0:0,0:0:0:0:
0,304,45872,1,0,1:0:0:0:
20,243,45965,1,2,3:2:0:0:
43,252,46059,1,0,0:0:0:0:
56,240,46153,1,2,3:2:0:0:
0,175,46247,1,8,1:0:0:0:
512,0,46622,5,6,1:2:0:0:
456,135,46809,2,0,L|475:2,1,119.999996337891,2|2,0:3|0:3,0:0:0:0:
403,228,47372,1,8,1:0:0:0:
469,167,47559,2,0,L|488:34,1,119.999996337891,2|2,0:3|0:3,0:0:0:0:
0,164,48122,5,2,1:2:0:0:
159,169,48309,2,0,L|32:141,1,119.999996337891,2|2,0:3|0:3,0:0:0:0:
241,105,48872,1,8,1:0:0:0:
132,141,49059,2,0,L|5:113,1,119.999996337891,2|2,0:3|0:3,0:0:0:0:
300,341,49622,5,2,1:2:0:0:
235,217,49809,2,0,L|274:359,1,119.999996337891,2|2,0:3|0:3,0:0:0:0:
159,135,50372,1,8,1:0:0:0:
248,187,50559,2,0,L|287:329,1,119.999996337891,2|2,0:3|0:3,0:0:0:0:
512,165,51122,5,2,1:2:0:0:
359,170,51309,2,0,L|482:142,1,119.999996337891,2|2,0:3|0:3,0:0:0:0:
278,111,51872,1,8,1:0:0:0:
508,157,52059,2,0,L|390:183,1,119.999996337891,2|2,0:3|0:3,0:0:0:0:
0,192,52622,5,4,1:2:0:0:
0,221,52809,2,0,L|42:182,1,55.0000016784668,2|0,0:3|0:0,0:0:0:0:
103,255,52997,1,0,1:0:0:0:
114,294,53184,2,0,L|128:231,1,55.0000016784668,2|0,0:3|0:0,0:0:0:0:
219,288,53372,1,0,1:0:0:0:
264,320,53559,2,0,L|241:256,1,55.0000016784668,2|0,0:3|0:0,0:0:0:0:
350,261,53747,1,0,1:0:0:0:
404,272,53934,2,0,L|341:234,1,55.0000016784668,2|0,0:3|0:0,0:0:0:0:
68,66,54122,5,0,1:0:0:0:
19,126,54309,2,0,L|37:64,1,55.0000016784668,2|0,0:3|0:0,0:0:0:0:
208,31,54497,1,0,1:0:0:0:
130,121,54684,2,0,L|165:55,1,55.0000016784668,2|0,0:3|0:0,0:0:0:0:
357,29,54872,1,0,1:0:0:0:
240,119,55059,2,0,L|284:76,1,55.0000016784668,2|0,0:3|0:0,0:0:0:0:
511,142,55247,1,0,1:0:0:0:
333,141,55434,2,0,L|398:119,1,55.0000016784668,2|0,0:3|0:0,0:0:0:0:
512,384,55622,5,0,1:0:0:0:
465,263,55809,1,2,3:3:0:0:
25,251,55997,1,0,1:0:0:0:
72,130,56184,1,2,3:3:0:0:
313,221,56372,5,0,1:0:0:0:
305,189,56465,1,0,3:0:0:0:
205,184,56559,1,0,3:0:0:0:
213,152,56652,1,0,3:0:0:0:
325,151,56747,1,0,1:0:0:0:
317,119,56840,1,0,3:0:0:0:
226,230,56934,1,2,1:3:0:0:
256,192,57122,12,0,58434,0:0:0:0:
467,48,58622,6,0,P|427:164|375:255,1,209.999993591309,12|0,1:3|0:0,0:0:0:0:
498,110,58997,2,0,P|442:204|365:294,1,209.999993591309,0|0,1:0|0:0,0:0:0:0:
502,188,59372,2,0,P|404:294|336:329,1,209.999993591309,0|0,1:0|0:0,0:0:0:0:
488,284,59747,2,0,P|381:335|282:359,1,209.999993591309,0|0,1:0|0:0,0:0:0:0:
158,94,60122,6,0,P|231:196|216:275,1,209.999993591309,4|0,1:3|0:0,0:0:0:0:
114,64,60497,2,0,P|223:104|268:192,1,209.999993591309,0|0,1:0|0:0,0:0:0:0:
49,54,60872,2,0,P|138:28|247:69,1,209.999993591309,0|0,1:0|0:0,0:0:0:0:
0,70,61247,2,0,P|71:10|200:4,1,209.999993591309,0|0,1:0|0:0,0:0:0:0:
276,254,61622,6,0,P|179:220|53:217,1,209.999993591309,8|0,1:3|0:0,0:0:0:0:
369,190,61997,2,0,P|244:192|137:216,1,209.999993591309,0|0,1:0|0:0,0:0:0:0:
447,99,62372,2,0,P|344:134|235:200,1,209.999993591309,0|0,1:0|0:0,0:0:0:0:
477,0,62747,2,0,P|379:77|298:170,1,209.999993591309,0|0,1:0|0:0,0:0:0:0:
464,2,63122,6,0,P|389:72|307:173,1,209.999993591309,4|0,1:3|0:0,0:0:0:0:
455,2,63497,2,0,P|389:76|320:175,1,209.999993591309,0|0,1:0|0:0,0:0:0:0:
446,2,63872,2,0,P|373:89|325:180,1,209.999993591309,0|0,1:0|0:0,0:0:0:0:
437,2,64247,2,0,P|360:112|324:192,1,209.999993591309,0|0,1:0|0:0,0:0:0:0:
379,382,64622,6,0,P|349:310|226:315,1,209.999993591309,12|0,1:3|0:0,0:0:0:0:
174,364,64997,2,0,P|229:276|337:256,1,209.999993591309,0|0,1:0|0:0,0:0:0:0:
401,295,65372,2,0,P|329:238|199:248,1,209.999993591309,0|0,1:0|0:0,0:0:0:0:
144,303,65747,2,0,P|199:233|322:201,1,209.999993591309,0|0,1:0|0:0,0:0:0:0:
512,107,66122,6,0,P|443:191|316:224,1,209.999993591309,4|0,1:3|0:0,0:0:0:0:
479,51,66497,2,0,P|453:147|370:228,1,209.999993591309,0|0,1:0|0:0,0:0:0:0:
417,0,66872,2,0,P|431:106|388:210,1,209.999993591309,0|0,1:0|0:0,0:0:0:0:
294,0,67247,2,0,P|374:45|403:175,1,209.999993591309,0|0,1:0|0:0,0:0:0:0:
177,138,67622,5,4,1:2:0:0:
97,194,67809,1,2,0:3:0:0:
85,183,67903,1,0,3:0:0:0:
41,246,67997,2,0,B|59:200|59:200|81:256,1,80,8|0,1:0|0:0,0:0:0:0:
134,296,68184,1,2,0:3:0:0:
142,282,68278,1,0,3:0:0:0:
236,306,68372,1,0,1:0:0:0:
190,288,68465,2,0,B|234:332|234:332|261:343,1,80,0|2,1:0|0:3,0:0:0:0:
348,310,68653,2,0,B|325:271|325:271|331:306,1,80,0|8,1:0|1:0,0:0:0:0:
366,352,68840,1,0,0:0:0:0:
372,357,68934,1,2,1:3:0:0:
408,304,69028,1,0,1:0:0:0:
490,355,69122,5,0,1:0:0:0:
375,230,69309,2,0,P|414:252|463:254,1,80,2|0,0:3|0:0,0:0:0:0:
510,131,69497,2,0,B|483:109|483:109|507:175,1,80,8|0,1:0|0:0,0:0:0:0:
398,145,69684,1,2,0:3:0:0:
404,134,69778,1,0,3:0:0:0:
466,61,69872,5,0,1:0:0:0:
421,38,69965,1,0,1:0:0:0:
339,92,70059,1,2,0:3:0:0:
293,108,70153,1,0,1:0:0:0:
226,26,70247,2,0,L|114:212,1,209.999993591309,12|2,1:0|0:3,0:0:0:0:
39,174,70528,1,0,3:0:0:0:
190,116,70622,6,0,B|229:65|229:65|147:131,1,160,4|2,1:2|0:3,0:0:0:0:
79,237,70997,2,0,B|137:148|137:148|127:200,1,160,8|2,1:0|0:3,0:0:0:0:
145,291,71278,1,0,0:0:0:0:
148,297,71372,1,0,1:0:0:0:
89,316,71465,1,0,3:0:0:0:
76,311,71559,1,2,0:3:0:0:
31,352,71653,1,0,3:0:0:0:
8,338,71747,1,8,1:0:0:0:
164,375,71934,5,2,0:3:0:0:
205,334,72028,1,0,3:0:0:0:
287,346,72122,2,0,B|343:372|343:372|234:351,1,160,0|2,1:0|0:3,0:0:0:0:
432,343,72497,2,0,B|372:262|372:262|441:306,1,160,8|2,1:0|0:3,0:0:0:0:
506,307,72778,1,0,0:0:0:0:
508,297,72872,1,0,1:0:0:0:
468,222,72965,1,0,3:0:0:0:
490,229,73059,1,2,0:3:0:0:
512,159,73153,1,0,3:0:0:0:
480,118,73247,1,8,1:0:0:0:
502,28,73434,5,2,0:3:0:0:
444,7,73528,1,0,3:0:0:0:
368,67,73622,1,0,1:0:0:0:
289,0,73809,2,0,L|320:84,1,80,2|0,0:3|0:0,0:0:0:0:
211,172,73997,2,0,B|233:115|233:115|237:147,1,80,8|0,1:0|0:0,0:0:0:0:
272,245,74184,1,2,0:3:0:0:
278,239,74278,1,0,0:0:0:0:
332,263,74372,1,0,1:0:0:0:
294,283,74465,1,0,3:0:0:0:
282,297,74559,1,2,0:3:0:0:
205,293,74653,1,0,3:0:0:0:
222,316,74747,1,8,1:0:0:0:
111,350,74934,5,2,0:3:0:0:
139,302,75028,1,0,3:0:0:0:
48,350,75122,2,0,B|66:233|66:233|78:288,1,160,0|2,1:0|0:3,0:0:0:0:
40,45,75497,2,0,B|46:115|46:115|12:5,1,160,8|2,1:0|0:3,0:0:0:0:
107,10,75778,1,0,0:0:0:0:
113,20,75872,1,0,1:0:0:0:
169,58,75965,1,0,3:0:0:0:
169,86,76059,1,2,0:3:0:0:
115,130,76153,1,0,3:0:0:0:
129,160,76247,2,0,B|190:186|190:186|177:162,1,80,8|0,1:0|0:0,0:0:0:0:
47,105,76434,5,2,0:3:0:0:
94,78,76528,1,0,3:0:0:0:
22,184,76622,2,0,P|97:222|161:274,1,160,2|2,1:2|0:3,0:0:0:0:
325,337,76903,1,0,0:0:0:0:
341,287,76997,2,0,P|298:311|267:334,1,80,8|0,1:0|0:0,0:0:0:0:
401,365,77184,2,0,P|357:352|315:332,1,80,2|0,0:3|0:0,0:0:0:0:
432,271,77372,1,0,1:0:0:0:
486,307,77465,1,0,3:0:0:0:
479,290,77559,1,2,0:3:0:0:
493,219,77653,1,0,3:0:0:0:
510,219,77747,1,8,1:0:0:0:
367,111,77934,5,2,0:3:0:0:
455,105,78028,1,0,3:0:0:0:
392,147,78122,2,0,P|308:123|241:89,1,160,2|2,1:2|0:3,0:0:0:0:
129,146,78403,1,0,0:0:0:0:
98,185,78497,2,0,P|136:173|175:168,1,80,8|0,1:0|0:0,0:0:0:0:
106,70,78684,2,0,P|138:109|176:128,1,80,2|0,0:3|0:0,0:0:0:0:
288,103,78872,1,0,1:0:0:0:
352,57,78965,1,0,3:0:0:0:
338,49,79059,1,2,0:3:0:0:
288,6,79153,1,0,3:0:0:0:
304,7,79247,1,8,1:0:0:0:
442,99,79434,5,2,0:3:0:0:
399,42,79528,1,0,3:0:0:0:
411,139,79622,2,0,P|371:224|308:284,1,160,2|2,1:2|0:3,0:0:0:0:
203,246,79903,1,0,0:0:0:0:
170,226,79997,2,0,P|219:230|266:241,1,80,8|0,1:0|0:0,0:0:0:0:
330,131,80184,2,0,P|294:161|274:199,1,80,2|0,0:3|0:0,0:0:0:0:
258,348,80372,1,0,1:0:0:0:
200,313,80465,1,0,3:0:0:0:
208,315,80559,1,2,0:3:0:0:
150,363,80653,1,0,3:0:0:0:
165,356,80747,1,8,1:0:0:0:
41,298,80934,5,2,0:3:0:0:
108,309,81028,1,0,3:0:0:0:
2,384,81122,2,0,P|25:274|58:156,1,209.999993591309,4|0,1:2|0:0,0:0:0:0:
0,376,81497,2,0,P|24:283|64:170,1,209.999993591309,4|0,1:2|0:0,0:0:0:0:
203,116,81872,5,8,1:0:0:0:
151,80,81965,1,0,3:0:0:0:
160,93,82059,1,2,3:3:0:0:
226,65,82153,1,8,0:1:0:0:
250,47,82247,2,0,L|239:147,1,85.0000016212464,8|0,3:1|0:0,0:0:0:0:
232,20,82434,2,0,L|242:114,1,85.0000016212464,8|0,1:3|0:0,0:0:0:0:
488,384,82622,6,0,P|434:297|447:114,1,284.999992389679,6|0,1:2|0:0,0:0:0:0:
493,330,82997,2,0,P|398:256|339:156,1,189.999994926453,0|4,1:2|0:3,0:0:0:0:
271,362,83372,1,0,1:2:0:0:
307,68,83559,2,0,P|270:117|219:129,1,94.9999974632264,0|0,0:2|0:0,0:0:0:0:
222,330,83747,1,0,1:2:0:0:
402,123,83934,2,0,P|351:145|305:126,1,94.9999974632264,0|0,0:2|0:0,0:0:0:0:
118,379,84122,6,0,P|164:354|217:342,1,94.9999974632264,2|0,1:2|0:0,0:0:0:0:
277,259,84309,1,4,0:3:0:0:
244,240,84403,1,0,0:2:0:0:
102,250,84497,2,0,P|152:281|190:315,1,94.9999974632264,0|0,1:2|0:0,0:0:0:0:
203,248,84684,1,0,0:2:0:0:
175,261,84778,1,0,0:2:0:0:
93,331,84872,1,2,1:2:0:0:
61,307,84965,1,0,0:2:0:0:
54,238,85059,1,2,0:2:0:0:
84,161,85153,1,2,0:2:0:0:
20,0,85340,1,2,0:2:0:0:
87,51,85434,1,8,0:3:0:0:
79,13,85528,1,8,0:3:0:0:
8,95,85622,6,0,P|51:106|103:137,1,94.9999974632264,4|0,1:3|0:0,0:0:0:0:
220,190,85809,1,0,0:2:0:0:
207,183,85903,1,0,0:2:0:0:
165,268,85997,2,0,P|201:230|243:197,1,94.9999974632264,0|0,1:2|0:0,0:0:0:0:
443,247,86184,1,4,0:3:0:0:
427,236,86278,1,0,0:2:0:0:
316,265,86372,2,0,P|371:270|436:264,1,94.9999974632264,0|0,1:2|0:0,0:0:0:0:
499,151,86559,1,0,0:2:0:0:
478,135,86653,1,0,0:2:0:0:
411,177,86747,1,0,1:2:0:0:
345,195,86840,1,0,0:2:0:0:
279,140,86934,1,0,0:2:0:0:
292,55,87028,1,0,0:2:0:0:
170,3,87122,6,0,P|244:77|290:198,1,189.999994926453,2|4,1:2|0:3,0:0:0:0:
166,151,87403,1,8,0:3:0:0:
182,102,87497,2,0,P|194:157|239:166,1,94.9999974632264,0|0,1:0|0:0,0:0:0:0:
22,270,87684,2,0,P|39:239|108:236,1,94.9999974632264,2|0,0:2|0:0,0:0:0:0:
95,248,87872,2,0,P|155:261|207:279,1,94.9999974632264,4|2,1:3|0:2,0:0:0:0:
321,317,88059,1,0,0:0:0:0:
371,314,88153,1,0,0:0:0:0:
485,365,88247,1,8,1:1:0:0:
485,365,88434,1,0,1:0:0:0:
408,85,88622,5,12,1:3:0:0:
400,104,88715,1,0,3:0:0:0:
392,124,88809,1,0,3:0:0:0:
388,170,88903,2,0,P|360:222|331:257,1,94.9999974632264,0|8,3:0|1:3,0:0:0:0:
273,108,89090,1,0,3:0:0:0:
284,128,89184,1,0,3:0:0:0:
293,150,89278,1,0,3:0:0:0:
215,119,89372,1,8,1:3:0:0:
152,133,89465,1,0,3:0:0:0:
145,163,89559,1,0,3:0:0:0:
117,212,89653,1,0,3:0:0:0:
27,231,89747,2,0,P|85:252|102:295,1,94.9999974632264,8|0,1:3|3:0,0:0:0:0:
172,381,89934,1,0,3:0:0:0:
274,341,90028,1,0,3:0:0:0:
361,363,90122,5,4,1:3:0:0:
348,348,90215,1,0,3:0:0:0:
331,326,90309,2,0,P|373:355|438:368,1,94.9999974632264,0|0,3:0|3:0,0:0:0:0:
489,250,90497,1,4,1:3:0:0:
483,265,90590,1,0,3:0:0:0:
471,304,90684,1,0,3:0:0:0:
494,348,90778,1,0,3:0:0:0:
426,368,90872,2,0,P|423:318|438:246,1,94.9999974632264,4|0,1:3|3:0,0:0:0:0:
486,151,91059,1,0,3:0:0:0:
462,115,91153,1,0,3:0:0:0:
493,36,91247,1,4,1:3:0:0:
474,47,91340,1,0,3:0:0:0:
460,68,91434,2,0,P|431:68|347:29,1,94.9999974632264,0|0,3:0|3:0,0:0:0:0:
183,86,91622,5,4,1:3:0:0:
195,73,91715,1,8,0:1:0:0:
207,59,91809,1,8,0:1:0:0:
221,42,91903,1,8,0:1:0:0:
149,55,91997,5,4,1:3:0:0:
156,80,92090,1,8,0:1:0:0:
162,109,92184,1,8,0:1:0:0:
168,137,92278,1,8,0:1:0:0:
106,91,92372,5,4,1:3:0:0:
88,129,92465,1,8,0:1:0:0:
70,163,92559,1,8,0:1:0:0:
50,198,92653,1,8,0:1:0:0:
105,159,92747,5,4,1:3:0:0:
69,110,92840,1,8,0:1:0:0:
36,61,92934,1,8,0:1:0:0:
0,16,93028,1,8,0:1:0:0:
0,0,93122,5,6,1:3:0:0:
11,6,93309,5,2,0:0:0:0:
12,18,93497,5,2,0:0:0:0:
37,27,93590,1,2,0:0:0:0:
54,54,93778,5,2,0:0:0:0:
96,67,93965,5,2,0:0:0:0:
122,107,94059,1,2,0:0:0:0:
175,119,94153,1,2,0:0:0:0:
256,192,94247,1,14,1:2:0:0:
256,192,94434,5,0,1:0:0:0:
512,192,94622,6,0,L|504:298,1,94.9999974632264,6|0,1:0|0:0,0:0:0:0:
491,298,94809,1,2,0:3:0:0:
312,125,94997,2,0,L|289:20,1,94.9999974632264,10|0,1:1|0:0,0:0:0:0:
274,23,95184,1,2,0:3:0:0:
224,143,95278,6,0,L|329:172,1,94.9999974632264,2|0,3:1|1:0,0:0:0:0:
466,350,95465,2,0,L|356:384,1,94.9999974632264,2|2,3:1|0:3,0:0:0:0:
97,288,95653,1,2,0:1:0:0:
89,193,95747,2,0,P|116:244|126:308,1,94.9999974632264,10|0,1:1|0:0,0:0:0:0:
84,384,95934,1,2,0:1:0:0:
175,69,96215,5,2,0:1:0:0:
73,67,96309,2,0,L|163:97,1,94.9999974632264,2|0,0:1|0:0,0:0:0:0:
430,140,96497,2,0,L|317:165,1,94.9999974632264,10|0,1:1|0:0,0:0:0:0:
325,180,96684,1,2,0:3:0:0:
440,12,96778,1,2,3:1:0:0:
505,72,96872,6,0,P|413:121|266:-4,1,284.999992389679,2|0,1:1|3:0,0:0:0:0:
0,134,97247,2,0,P|125:137|161:185,1,189.999994926453,10|0,1:1|0:0,0:0:0:0:
144,333,97528,1,0,3:0:0:0:
103,353,97622,6,0,L|11:330,1,94.9999974632264,2|0,1:1|0:0,0:0:0:0:
0,315,97809,1,2,0:3:0:0:
352,165,97997,2,0,L|310:259,1,94.9999974632264,10|0,1:1|0:0,0:0:0:0:
294,263,98184,1,2,0:3:0:0:
432,269,98278,6,0,L|320:240,1,94.9999974632264,2|0,3:1|1:0,0:0:0:0:
210,67,98465,2,0,L|247:165,1,94.9999974632264,2|2,3:1|0:3,0:0:0:0:
93,212,98653,1,2,0:1:0:0:
46,117,98747,2,0,P|96:157|115:190,1,94.9999974632264,10|0,1:1|0:0,0:0:0:0:
81,321,98934,1,2,0:1:0:0:
512,384,99122,6,0,P|526:279|379:202,1,284.999992389679,2|0,1:1|0:0,0:0:0:0:
201,25,99497,2,0,P|278:90|301:186,1,189.999994926453,10|2,1:1|0:3,0:0:0:0:
226,241,99778,1,0,3:0:0:0:
154,141,99872,1,2,1:1:0:0:
124,233,99965,2,0,P|180:130|280:93,1,189.999994926453,0|0,3:0|0:0,0:0:0:0:
512,125,100247,2,0,P|434:81|426:-7,1,189.999994926453,10|2,1:1|0:3,0:0:0:0:
499,221,100528,1,0,3:0:0:0:
486,253,100622,6,0,L|452:153,1,94.9999974632264,2|0,1:1|0:0,0:0:0:0:
443,152,100809,1,2,0:3:0:0:
228,195,100997,2,0,L|337:215,1,94.9999974632264,10|0,1:1|0:0,0:0:0:0:
339,206,101184,1,2,0:3:0:0:
216,315,101278,6,0,L|272:230,1,94.9999974632264,2|0,3:1|1:0,0:0:0:0:
204,12,101465,2,0,L|232:106,1,94.9999974632264,2|2,3:1|0:3,0:0:0:0:
93,115,101653,1,2,0:1:0:0:
181,122,101747,2,0,P|131:147|75:151,1,94.9999974632264,10|0,1:1|0:0,0:0:0:0:
1,66,101934,1,2,0:1:0:0:
351,308,102215,5,2,0:1:0:0:
292,217,102309,2,0,L|314:329,1,94.9999974632264,2|0,0:1|0:0,0:0:0:0:
182,259,102497,2,0,L|276:293,1,94.9999974632264,10|0,1:1|0:0,0:0:0:0:
284,303,102684,1,2,0:3:0:0:
110,358,102778,1,2,3:1:0:0:
206,372,102872,6,0,P|144:263|-8:189,1,284.999992389679,2|0,1:1|3:0,0:0:0:0:
496,15,103247,2,0,P|433:109|332:122,1,189.999994926453,10|2,1:1|0:3,0:0:0:0:
138,74,103528,1,0,3:0:0:0:
116,39,103622,6,0,B|153:54|153:54|193:95,1,80,0|0,1:0|0:0,0:0:0:0:
177,130,103809,1,2,0:3:0:0:
343,70,103997,2,0,B|333:25|333:25|307:145,1,160,8|2,1:0|0:3,0:0:0:0:
121,142,104372,1,0,1:0:0:0:
146,167,104465,2,0,B|176:159|176:159|232:169,1,80,0|2,1:0|0:3,0:0:0:0:
323,223,104653,2,0,B|308:172|308:172|334:194,1,80,0|8,1:0|1:0,0:0:0:0:
426,242,104934,5,2,1:3:0:0:
466,213,105028,1,0,1:0:0:0:
507,290,105122,6,0,B|436:295|436:295|417:313,1,80,0|0,1:0|0:0,0:0:0:0:
422,337,105309,1,2,0:3:0:0:
220,239,105497,2,0,B|277:243|277:243|166:268,1,160,8|2,1:0|0:3,0:0:0:0:
286,378,105872,1,0,1:0:0:0:
234,349,105965,2,0,B|281:352|281:352|330:375,1,80,0|2,1:0|0:3,0:0:0:0:
152,355,106153,2,0,B|190:326|190:326|183:278,1,80,0|12,1:0|1:0,0:0:0:0:
66,300,106340,1,0,1:0:0:0:
106,332,106434,2,0,B|41:366|41:366|27:345,1,80,2|0,1:3|3:0,0:0:0:0:
6,184,106622,6,0,L|27:89,1,94.9999974632264,6|0,1:1|0:0,0:0:0:0:
20,72,106809,1,2,0:3:0:0:
257,34,106997,2,0,L|173:115,1,94.9999974632264,10|0,1:1|0:0,0:0:0:0:
173,101,107184,1,2,0:3:0:0:
320,113,107278,6,0,L|200:104,1,94.9999974632264,2|0,3:1|1:0,0:0:0:0:
58,26,107465,2,0,L|107:131,1,94.9999974632264,2|2,3:1|0:3,0:0:0:0:
244,279,107653,1,2,0:1:0:0:
306,213,107747,2,0,P|291:274|258:314,1,94.9999974632264,10|0,1:1|0:0,0:0:0:0:
161,345,107934,1,2,0:1:0:0:
478,333,108215,5,2,0:1:0:0:
406,234,108309,2,0,L|441:328,1,94.9999974632264,2|0,0:1|0:0,0:0:0:0:
446,106,108497,2,0,L|408:200,1,94.9999974632264,10|0,1:1|0:0,0:0:0:0:
422,216,108684,1,2,0:3:0:0:
346,64,108778,1,2,3:1:0:0:
302,149,108872,6,0,P|418:129|469:-22,1,284.999992389679,2|0,1:1|3:0,0:0:0:0:
75,39,109247,2,0,P|165:58|201:147,1,189.999994926453,10|2,1:1|0:3,0:0:0:0:
58,186,109528,1,0,3:0:0:0:
104,141,109622,6,0,L|85:265,1,94.9999974632264,2|0,1:1|0:0,0:0:0:0:
77,252,109809,1,2,0:3:0:0:
254,384,109997,2,0,L|191:292,1,94.9999974632264,10|0,1:1|0:0,0:0:0:0:
180,296,110184,1,2,0:3:0:0:
336,304,110278,6,0,L|236:326,1,94.9999974632264,2|0,3:1|1:0,0:0:0:0:
72,84,110465,2,0,L|169:122,1,94.9999974632264,2|2,3:1|0:3,0:0:0:0:
306,239,110653,1,2,0:1:0:0:
363,320,110747,2,0,P|362:269|342:215,1,94.9999974632264,10|0,1:1|0:0,0:0:0:0:
259,147,110934,1,2,0:1:0:0:
498,20,111122,6,0,P|436:105|260:86,1,284.999992389679,2|0,1:1|0:0,0:0:0:0:
106,373,111497,2,0,P|144:265|219:223,1,189.999994926453,10|2,1:1|0:3,0:0:0:0:
304,245,111778,1,0,3:0:0:0:
229,138,111872,1,2,1:1:0:0:
144,163,111965,2,0,P|273:184|331:138,1,189.999994926453,0|0,3:0|0:0,0:0:0:0:
488,360,112247,2,0,P|421:306|416:196,1,189.999994926453,10|2,1:1|0:3,0:0:0:0:
468,84,112528,1,0,3:0:0:0:
490,114,112622,6,0,L|500:10,1,94.9999974632264,2|0,1:1|0:0,0:0:0:0:
512,0,112809,1,2,0:3:0:0:
249,7,112997,2,0,L|298:104,1,94.9999974632264,10|0,1:1|0:0,0:0:0:0:
309,105,113184,1,2,0:3:0:0:
180,101,113278,6,0,L|269:23,1,94.9999974632264,2|0,3:1|1:0,0:0:0:0:
289,222,113465,2,0,L|256:317,1,94.9999974632264,2|2,3:1|0:3,0:0:0:0:
116,294,113653,1,2,0:1:0:0:
74,213,113747,2,0,P|123:254|143:300,1,94.9999974632264,10|0,1:1|0:0,0:0:0:0:
128,382,113934,1,2,0:1:0:0:
116,74,114215,5,2,0:1:0:0:
3,85,114309,2,0,L|109:105,1,94.9999974632264,2|0,0:1|0:0,0:0:0:0:
354,224,114497,2,0,L|242:187,1,94.9999974632264,10|0,1:1|0:0,0:0:0:0:
243,205,114684,1,2,0:3:0:0:
407,128,114778,1,2,3:1:0:0:
451,211,114872,6,0,P|353:155|297:-17,1,284.999992389679,2|0,1:1|3:0,0:0:0:0:
14,22,115247,2,0,P|114:66|159:153,1,189.999994926453,10|2,1:1|0:3,0:0:0:0:
229,331,115528,1,0,3:0:0:0:
195,357,115622,6,0,L|89:376,1,94.9999974632264,2|0,1:1|0:0,0:0:0:0:
85,369,115809,1,2,0:3:0:0:
352,152,115997,2,0,L|427:239,1,94.9999974632264,10|0,1:1|0:0,0:0:0:0:
428,231,116184,1,2,0:3:0:0:
373,351,116278,6,0,L|396:246,1,94.9999974632264,2|0,3:1|1:0,0:0:0:0:
498,16,116465,2,0,L|511:125,1,94.9999974632264,2|2,3:1|0:3,0:0:0:0:
353,196,116653,1,2,0:1:0:0:
420,109,116747,2,0,P|369:151|323:161,1,94.9999974632264,10|0,1:1|0:0,0:0:0:0:
259,98,116934,2,0,P|206:76|145:73,1,94.9999974632264,2|0,0:1|3:0,0:0:0:0:
1,158,117122,1,2,1:1:0:0:
44,209,117309,5,2,3:3:0:0:
30,182,117403,1,0,3:0:0:0:
123,227,117684,5,2,3:3:0:0:
83,222,117778,1,0,3:0:0:0:
167,287,118059,5,2,3:3:0:0:
145,265,118153,2,0,L|188:276,1,34.9999989318848,0|0,3:0|0:0,0:0:0:0:
512,384,118622,1,4,1:0:0:0:
501,150,130622,5,0,1:0:0:0:
461,151,130715,1,2,0:3:0:0:
434,176,130809,1,0,0:0:0:0:
391,184,130903,1,2,0:3:0:0:
385,192,130997,1,2,0:3:0:0:
496,17,131372,5,8,0:3:0:0:
421,72,131559,1,2,0:3:0:0:
348,12,131934,5,0,3:0:0:0:
344,37,132028,1,2,0:3:0:0:
262,60,132309,1,0,3:0:0:0:
280,96,132403,1,2,0:3:0:0:
274,119,132497,1,2,0:3:0:0:
138,8,132872,5,8,0:3:0:0:
182,87,133059,1,0,0:0:0:0:
200,107,133153,1,2,0:3:0:0:
90,89,133434,5,0,1:0:0:0:
94,111,133528,1,0,0:0:0:0:
169,171,133622,1,2,1:3:0:0:
202,189,133715,1,2,0:3:0:0:
219,227,133809,1,0,0:0:0:0:
248,244,133903,1,2,0:3:0:0:
250,258,133997,1,2,0:3:0:0:
52,225,134372,5,8,0:3:0:0:
136,257,134559,1,2,0:3:0:0:
0,384,135122,6,0,L|12:263,1,100,0|2,3:0|0:3,0:0:0:0:
47,305,135497,1,0,0:0:0:0:
22,122,135684,1,0,0:0:0:0:
39,81,135778,1,2,0:3:0:0:
11,18,135872,5,8,0:3:0:0:
30,51,135965,1,2,0:3:0:0:
68,57,136059,1,0,0:0:0:0:
102,83,136153,1,2,1:3:0:0:
91,58,136247,1,0,0:0:0:0:
238,112,136434,1,2,1:3:0:0:
503,318,136622,6,0,L|438:306,1,50,4|0,1:2|0:0,0:0:0:0:
268,235,136809,1,0,0:0:0:0:
322,257,136903,1,2,0:3:0:0:
333,266,136997,1,2,0:3:0:0:
205,355,137184,5,0,3:0:0:0:
215,333,137278,1,2,0:3:0:0:
300,332,137372,1,8,0:3:0:0:
338,327,137465,1,2,0:3:0:0:
362,303,137559,1,0,0:0:0:0:
380,274,137653,1,2,0:3:0:0:
396,268,137747,1,2,0:3:0:0:
468,196,137934,2,0,L|448:256,1,50,0|0,3:0|0:0,0:0:0:0:
491,12,138122,6,0,L|445:32,1,50,4|0,1:2|0:0,0:0:0:0:
226,33,138309,1,0,0:0:0:0:
282,73,138403,1,2,0:3:0:0:
301,72,138497,1,2,0:3:0:0:
118,125,138684,5,0,3:0:0:0:
142,112,138778,1,2,0:3:0:0:
227,155,138872,1,8,0:3:0:0:
273,159,138965,1,2,0:3:0:0:
286,147,139059,1,0,0:0:0:0:
344,145,139153,1,2,0:3:0:0:
378,157,139247,1,2,0:3:0:0:
414,199,139622,1,4,1:0:0:0:
505,127,139809,5,8,3:0:0:0:
399,44,139934,1,8,3:0:0:0:
389,60,139997,1,8,1:0:0:0:
341,19,140090,1,8,3:0:0:0:
285,6,140184,1,8,3:0:0:0:
228,15,140278,1,8,3:0:0:0:
269,102,140372,1,8,1:0:0:0:
153,99,140497,5,8,3:0:0:0:
280,202,140622,1,8,3:0:0:0:
150,234,140747,1,4,3:0:0:0:
199,327,140872,1,4,3:0:0:0:
114,384,140997,1,12,3:2:0:0:
256,192,141122,12,0,141872,1:0:0:0:
494,357,142622,6,0,P|410:306|291:272,1,209.999993591309,8|0,1:3|0:0,0:0:0:0:
489,318,142997,2,0,P|376:273|248:257,1,209.999993591309,0|0,1:0|0:0,0:0:0:0:
464,265,143372,2,0,P|354:240|232:244,1,209.999993591309,0|0,1:0|0:0,0:0:0:0:
429,223,143747,2,0,P|325:216|209:232,1,209.999993591309,0|0,1:0|0:0,0:0:0:0:
9,254,144122,6,0,P|66:186|107:58,1,209.999993591309,4|0,1:3|0:0,0:0:0:0:
31,304,144497,2,0,P|75:223|98:99,1,209.999993591309,0|0,1:0|0:0,0:0:0:0:
88,339,144872,2,0,P|101:234|89:113,1,209.999993591309,0|0,1:0|0:0,0:0:0:0:
154,364,145247,2,0,P|124:251|70:160,1,209.999993591309,0|0,1:0|0:0,0:0:0:0:
415,3,145622,6,0,P|415:87|290:132,1,209.999993591309,8|0,1:3|0:0,0:0:0:0:
456,76,145997,2,0,P|368:152|248:140,1,209.999993591309,0|0,1:0|0:0,0:0:0:0:
426,167,146372,2,0,P|290:178|208:98,1,209.999993591309,0|0,1:0|0:0,0:0:0:0:
326,227,146747,2,0,P|220:149|205:50,1,209.999993591309,0|0,1:0|0:0,0:0:0:0:
215,348,147122,6,0,P|201:237|170:136,1,209.999993591309,4|0,1:3|0:0,0:0:0:0:
224,354,147497,2,0,P|209:271|169:131,1,209.999993591309,0|0,1:0|0:0,0:0:0:0:
233,357,147872,2,0,P|196:225|161:137,1,209.999993591309,0|0,1:0|0:0,0:0:0:0:
239,364,148247,2,0,P|201:229|159:135,1,209.999993591309,0|0,1:0|0:0,0:0:0:0:
11,25,148622,6,0,P|88:58|221:15,1,209.999993591309,8|0,1:3|0:0,0:0:0:0:
260,0,148997,2,0,P|189:64|82:91,1,209.999993591309,0|0,1:0|0:0,0:0:0:0:
8,99,149372,2,0,P|135:126|230:92,1,209.999993591309,0|0,1:0|0:0,0:0:0:0:
286,60,149747,2,0,P|223:127|113:172,1,209.999993591309,0|0,1:0|0:0,0:0:0:0:
155,331,150122,6,0,P|191:250|303:170,1,209.999993591309,4|0,1:3|0:0,0:0:0:0:
102,350,150497,2,0,P|155:264|258:189,1,209.999993591309,0|0,1:0|0:0,0:0:0:0:
51,341,150872,2,0,P|108:270|216:197,1,209.999993591309,0|0,1:0|0:0,0:0:0:0:
8,322,151247,2,0,P|83:258|208:202,1,209.999993591309,0|0,1:0|0:0,0:0:0:0:
496,225,151622,5,4,1:2:0:0:
390,222,151809,1,2,0:3:0:0:
403,210,151903,1,0,3:0:0:0:
427,271,151997,2,0,B|396:324|396:324|392:299,1,80,8|0,1:0|0:0,0:0:0:0:
355,226,152184,1,2,0:3:0:0:
339,216,152278,1,0,3:0:0:0:
263,287,152372,1,0,1:0:0:0:
293,255,152465,2,0,B|230:274|230:274|211:298,1,80,0|2,1:0|0:3,0:0:0:0:
138,344,152653,2,0,B|137:294|137:294|149:330,1,80,0|8,1:0|1:0,0:0:0:0:
225,359,152840,1,0,0:0:0:0:
232,363,152934,1,2,1:3:0:0:
261,317,153028,1,0,1:0:0:0:
329,371,153122,5,0,1:0:0:0:
338,147,153309,2,0,P|306:198|272:222,1,80,2|0,0:3|0:0,0:0:0:0:
141,127,153497,2,0,B|120:105|120:105|168:132,1,80,8|0,1:0|0:0,0:0:0:0:
224,210,153684,1,2,0:3:0:0:
234,199,153778,1,0,3:0:0:0:
241,103,153872,5,0,1:0:0:0:
269,115,153965,1,0,1:0:0:0:
333,50,154059,1,2,0:3:0:0:
360,37,154153,1,0,1:0:0:0:
436,137,154247,2,0,L|377:349,1,209.999993591309,12|2,1:0|0:3,0:0:0:0:
282,332,154528,1,0,3:0:0:0:
445,277,154622,6,0,B|465:224|465:224|398:306,1,160,4|2,1:2|0:3,0:0:0:0:
492,128,154997,2,0,B|520:169|520:169|487:63,1,160,8|2,1:0|0:3,0:0:0:0:
390,42,155278,1,0,3:0:0:0:
381,35,155372,1,0,1:0:0:0:
339,58,155465,1,0,3:0:0:0:
322,67,155559,1,2,0:3:0:0:
265,36,155653,1,0,0:0:0:0:
284,42,155747,1,8,1:0:0:0:
192,89,155934,5,2,0:3:0:0:
145,46,156028,1,0,3:0:0:0:
72,78,156122,2,0,B|0:57|0:57|75:10,1,160,0|2,1:0|0:3,0:0:0:0:
27,232,156497,2,0,B|49:120|49:120|60:177,1,160,8|2,1:0|0:3,0:0:0:0:
124,264,156778,1,0,3:0:0:0:
118,254,156872,1,0,1:0:0:0:
165,220,156965,1,0,3:0:0:0:
180,227,157059,1,2,0:3:0:0:
248,264,157153,1,0,0:0:0:0:
238,244,157247,1,8,1:0:0:0:
174,335,157434,5,2,0:3:0:0:
218,314,157528,1,0,3:0:0:0:
297,343,157622,1,0,1:0:0:0:
339,163,157809,2,0,L|276:255,1,80,2|0,0:3|0:0,0:0:0:0:
414,310,157997,2,0,B|403:330|403:330|381:276,1,80,8|0,1:0|0:0,0:0:0:0:
449,213,158184,1,2,0:3:0:0:
453,205,158278,1,0,3:0:0:0:
430,161,158372,1,0,1:0:0:0:
475,121,158465,1,0,3:0:0:0:
489,112,158559,1,2,0:3:0:0:
454,44,158653,1,0,0:0:0:0:
474,55,158747,1,8,1:0:0:0:
358,51,158934,5,2,0:3:0:0:
392,17,159028,1,0,3:0:0:0:
275,34,159122,2,0,B|253:89|253:89|340:29,1,160,0|2,1:0|0:3,0:0:0:0:
204,222,159497,2,0,B|173:128|173:128|161:205,1,160,8|2,1:0|0:3,0:0:0:0:
177,287,159778,1,0,3:0:0:0:
187,299,159872,1,0,1:0:0:0:
248,281,159965,1,0,3:0:0:0:
266,270,160059,1,2,0:3:0:0:
303,312,160153,1,0,0:0:0:0:
321,330,160247,2,0,B|309:346|309:346|231:367,1,80,8|0,1:0|0:0,0:0:0:0:
98,304,160434,5,2,0:3:0:0:
142,292,160528,1,0,3:0:0:0:
32,369,160622,2,0,P|71:282|78:205,1,160,2|2,1:2|0:3,0:0:0:0:
53,84,160903,1,0,0:0:0:0:
0,72,160997,2,0,P|41:49|75:12,1,80,8|0,1:0|0:0,0:0:0:0:
235,93,161184,2,0,P|192:77|121:70,1,80,2|0,0:3|0:0,0:0:0:0:
66,170,161372,1,0,1:0:0:0:
29,116,161465,1,0,3:0:0:0:
46,120,161559,1,2,0:3:0:0:
81,78,161653,1,0,3:0:0:0:
100,67,161747,1,8,1:0:0:0:
279,115,161934,5,2,0:3:0:0:
181,85,162028,1,0,3:0:0:0:
248,127,162122,2,0,P|311:65|394:46,1,160,2|2,1:2|0:3,0:0:0:0:
465,62,162403,1,0,0:0:0:0:
504,18,162497,2,0,P|483:63|480:131,1,80,8|0,1:0|0:0,0:0:0:0:
334,94,162684,2,0,P|362:126|413:152,1,80,2|0,0:3|3:0,0:0:0:0:
464,241,162872,1,0,1:0:0:0:
501,187,162965,1,0,3:0:0:0:
486,193,163059,1,2,0:3:0:0:
441,241,163153,1,0,0:0:0:0:
430,234,163247,1,8,1:0:0:0:
321,197,163434,5,2,0:3:0:0:
369,219,163528,1,0,3:0:0:0:
265,219,163622,2,0,P|200:164|152:88,1,160,2|2,1:2|0:3,0:0:0:0:
25,142,163903,1,0,0:0:0:0:
1,113,163997,1,8,1:0:0:0:
5,90,164090,2,0,P|55:103|96:146,1,80,0|2,0:0|0:3,0:0:0:0:
88,221,164278,1,0,0:0:0:0:
71,245,164372,1,2,1:2:0:0:
140,247,164465,1,0,3:0:0:0:
151,263,164559,1,2,0:3:0:0:
215,288,164653,1,2,3:2:0:0:
211,305,164747,1,8,1:0:0:0:
348,262,164934,5,2,0:2:0:0:
443,313,165028,1,0,3:0:0:0:
483,281,165122,2,0,P|433:291|378:323,1,104.999996795654,4|0,1:2|0:0,0:0:0:0:
266,384,165309,1,0,1:0:0:0:
242,34,165497,6,0,P|283:83|306:130,1,104.999996795654,12|0,1:2|0:0,0:0:0:0:
266,247,165684,1,0,1:0:0:0:
289,209,165778,1,0,3:0:0:0:
393,213,165872,6,0,P|330:229|290:254,1,104.999996795654,4|0,1:2|3:0,0:0:0:0:
107,311,166059,1,0,1:0:0:0:
58,378,166153,1,0,3:0:0:0:
10,383,166247,6,0,P|33:348|53:283,1,104.999996795654,12|0,1:2|0:0,0:0:0:0:
52,21,166434,1,0,1:0:0:0:
125,61,166528,1,2,3:0:0:0:
219,9,166622,6,0,B|208:26|198:81|174:104,1,94.9999974632264,4|0,1:0|0:0,0:0:0:0:
155,100,166809,1,2,0:3:0:0:
424,52,166997,2,0,B|380:45|350:98|302:78,1,94.9999974632264,8|0,1:2|0:0,0:0:0:0:
317,62,167184,1,2,0:3:0:0:
387,112,167278,2,0,B|380:149|322:195|331:210,1,94.9999974632264,0|0,3:0|1:0,0:0:0:0:
507,30,167465,2,0,B|541:39|444:81|415:90,1,94.9999974632264,0|2,3:0|0:3,0:0:0:0:
282,79,167653,1,0,0:0:0:0:
238,0,167747,2,0,P|285:20|302:78,1,94.9999974632264,10|0,1:2|0:0,0:0:0:0:
235,161,167934,2,0,P|234:123|293:144,1,94.9999974632264,2|0,0:2|3:0,0:0:0:0:
360,265,168122,5,2,1:2:0:0:
323,353,168215,1,0,0:0:0:0:
313,327,168309,2,0,B|279:345|234:332|219:344,1,94.9999974632264,2|0,0:3|0:0,0:0:0:0:
97,268,168497,2,0,B|128:288|142:336|164:347,1,94.9999974632264,8|0,1:2|0:0,0:0:0:0:
164,315,168684,1,2,0:3:0:0:
49,366,168778,1,0,3:0:0:0:
9,304,168872,2,0,P|92:352|196:296,1,189.999994926453,2|2,1:2|0:3,0:0:0:0:
293,264,169153,1,0,0:0:0:0:
364,326,169247,2,0,P|274:315|245:230,1,189.999994926453,10|2,1:2|0:3,0:0:0:0:
192,83,169528,1,0,3:0:0:0:
212,138,169622,6,0,L|136:63,1,94.9999974632264,2|0,1:2|0:0,0:0:0:0:
226,0,169809,1,2,0:0:0:0:
347,193,169997,2,0,L|413:114,1,94.9999974632264,8|0,1:2|0:0,0:0:0:0:
404,107,170184,1,2,0:3:0:0:
448,202,170278,6,0,L|478:300,1,94.9999974632264,0|0,3:0|1:0,0:0:0:0:
280,277,170465,2,0,L|376:234,1,94.9999974632264,0|2,3:0|0:3,0:0:0:0:
154,231,170653,1,2,0:2:0:0:
111,208,170747,2,0,L|151:302,1,94.9999974632264,10|0,1:2|0:0,0:0:0:0:
180,124,170934,2,0,L|163:229,1,94.9999974632264,2|0,0:2|3:0,0:0:0:0:
6,326,171122,6,0,P|87:253|180:283,1,189.999994926453,2|2,1:2|0:3,0:0:0:0:
188,10,171497,2,0,P|79:70|92:133,1,189.999994926453,10|2,1:2|0:3,0:0:0:0:
251,113,171778,1,0,3:0:0:0:
202,131,171872,6,0,P|255:145|309:105,1,94.9999974632264,2|0,1:2|3:0,0:0:0:0:
435,98,172059,1,2,0:3:0:0:
376,20,172153,1,0,0:0:0:0:
439,30,172247,2,0,P|459:124|384:199,1,189.999994926453,8|2,1:2|0:2,0:0:0:0:
403,306,172528,1,2,3:2:0:0:
460,374,172622,6,0,B|464:339|509:306|492:269,1,94.9999974632264,2|0,1:2|0:0,0:0:0:0:
512,300,172809,1,2,0:3:0:0:
311,330,172997,2,0,B|337:306|385:291|410:274,1,94.9999974632264,8|0,1:2|0:0,0:0:0:0:
382,267,173184,1,2,0:3:0:0:
335,373,173278,2,0,B|311:331|264:318|253:298,1,94.9999974632264,0|0,3:0|1:0,0:0:0:0:
259,194,173465,2,0,B|266:236|281:264|288:287,1,94.9999974632264,0|2,3:0|0:3,0:0:0:0:
417,315,173653,1,0,0:0:0:0:
452,340,173747,2,0,B|411:356|365:315|337:315,1,94.9999974632264,10|0,1:2|0:0,0:0:0:0:
215,318,173934,1,2,0:3:0:0:
170,298,174028,1,0,3:0:0:0:
76,367,174122,6,0,B|136:346|130:310|124:278,1,94.9999974632264,2|0,1:2|0:0,0:0:0:0:
100,182,174309,2,0,B|64:151|61:104|54:93,1,94.9999974632264,2|0,0:3|0:0,0:0:0:0:
109,0,174497,2,0,B|104:32|76:77|77:96,1,94.9999974632264,8|0,1:2|0:0,0:0:0:0:
65,84,174684,1,2,0:3:0:0:
208,62,174778,2,0,P|169:70|130:128,1,94.9999974632264,0|0,3:0|1:0,0:0:0:0:
0,138,174965,1,0,3:0:0:0:
2,100,175059,2,0,B|44:121|63:162|77:169,1,94.9999974632264,2|0,0:3|0:0,0:0:0:0:
177,99,175247,2,0,P|274:45|369:71,1,189.999994926453,8|2,1:2|0:3,0:0:0:0:
509,205,175528,1,0,3:0:0:0:
459,189,175622,6,0,B|484:201|484:201|516:252,1,80,0|0,1:0|0:0,0:0:0:0:
498,294,175809,1,2,0:3:0:0:
353,153,175997,2,0,B|402:108|402:108|303:143,1,160,8|2,1:2|0:3,0:0:0:0:
189,151,176372,1,0,1:0:0:0:
165,194,176465,2,0,B|220:171|220:171|234:147,1,80,0|2,1:0|0:3,0:0:0:0:
91,117,176653,2,0,B|90:74|90:74|114:101,1,80,0|8,1:0|1:2,0:0:0:0:
110,242,176934,1,2,1:3:0:0:
133,199,177028,1,0,1:0:0:0:
169,285,177122,6,0,B|106:274|106:274|69:285,1,80,0|0,1:0|0:0,0:0:0:0:
75,326,177309,1,2,0:3:0:0:
360,225,177497,2,0,B|267:181|267:181|323:236,1,160,8|2,1:2|0:3,0:0:0:0:
427,235,177872,2,0,B|411:278|411:278|366:293,1,80,0|0,1:0|1:0,0:0:0:0:
278,170,178059,1,10,0:3:0:0:
298,142,178122,1,8,0:3:0:0:
323,129,178184,1,8,0:3:0:0:
354,127,178247,1,8,1:0:0:0:
446,38,178434,1,10,0:3:0:0:
384,41,178528,1,8,0:3:0:0:
498,97,178622,6,0,L|410:50,1,94.9999974632264,6|0,1:2|0:0,0:0:0:0:
406,34,178809,1,2,0:3:0:0:
315,158,178997,2,0,L|379:74,1,94.9999974632264,10|0,1:2|0:0,0:0:0:0:
390,83,179184,1,2,0:3:0:0:
279,70,179278,6,0,L|365:109,1,94.9999974632264,0|2,3:0|1:2,0:0:0:0:
321,281,179465,2,0,L|281:193,1,94.9999974632264,0|2,3:0|0:3,0:0:0:0:
186,64,179653,1,0,0:0:0:0:
228,41,179747,2,0,P|189:13|118:-3,1,94.9999974632264,10|2,1:2|0:2,0:0:0:0:
61,48,179934,1,2,0:3:0:0:
252,163,180122,5,2,1:2:0:0:
192,243,180215,1,0,0:0:0:0:
215,267,180309,2,0,L|196:360,1,94.9999974632264,2|0,0:3|0:0,0:0:0:0:
190,147,180497,2,0,L|116:210,1,94.9999974632264,10|0,1:2|0:0,0:0:0:0:
112,226,180684,1,2,0:3:0:0:
66,161,180778,1,0,3:0:0:0:
10,243,180872,6,0,P|111:225|155:132,1,189.999994926453,2|2,1:2|0:3,0:0:0:0:
304,94,181153,1,0,0:0:0:0:
368,167,181247,2,0,P|279:138|236:56,1,189.999994926453,10|2,1:2|0:3,0:0:0:0:
56,56,181528,1,0,3:0:0:0:
108,45,181622,6,0,L|16:-3,1,94.9999974632264,0|0,1:0|0:0,0:0:0:0:
3,3,181809,1,2,0:2:0:0:
202,132,181997,2,0,L|225:29,1,94.9999974632264,10|0,1:2|0:0,0:0:0:0:
211,17,182184,1,2,0:2:0:0:
352,41,182278,6,0,L|245:102,1,94.9999974632264,0|2,3:0|1:2,0:0:0:0:
447,149,182465,2,0,L|349:120,1,94.9999974632264,0|2,3:0|0:2,0:0:0:0:
345,108,182653,1,0,0:0:0:0:
304,225,182747,2,0,P|336:188|386:160,1,94.9999974632264,10|0,1:2|0:0,0:0:0:0:
476,169,182934,1,2,0:2:0:0:
110,63,183122,6,0,P|188:135|226:223,1,189.999994926453,2|2,1:2|0:3,0:0:0:0:
76,268,183403,1,0,0:0:0:0:
122,296,183497,2,0,P|179:209|280:217,1,189.999994926453,10|2,1:2|0:3,0:0:0:0:
415,307,183778,1,0,3:0:0:0:
420,354,183872,6,0,P|375:299|361:246,1,94.9999974632264,2|0,1:2|3:0,0:0:0:0:
500,137,184059,2,0,P|480:185|444:232,1,94.9999974632264,2|0,0:2|0:0,0:0:0:0:
241,269,184247,1,10,1:2:0:0:
110,225,184434,1,2,0:2:0:0:
155,249,184528,1,0,3:0:0:0:
50,278,184622,6,0,L|78:181,1,94.9999974632264,2|0,1:2|0:0,0:0:0:0:
214,169,184809,1,2,0:3:0:0:
84,36,184997,2,0,L|11:97,1,94.9999974632264,10|0,1:2|0:0,0:0:0:0:
67,113,185184,2,0,L|65:218,1,94.9999974632264,2|0,0:2|3:0,0:0:0:0:
146,47,185372,6,0,L|99:161,1,94.9999974632264,2|0,1:2|3:0,0:0:0:0:
233,103,185559,1,2,0:2:0:0:
201,81,185653,1,0,0:0:0:0:
232,6,185747,2,0,L|251:199,1,189.999994926453,10|2,1:2|0:3,0:0:0:0:
417,147,186028,1,0,3:0:0:0:
422,202,186122,6,0,L|379:108,1,94.9999974632264,2|0,1:2|0:0,0:0:0:0:
465,38,186309,1,2,0:3:0:0:
270,231,186497,2,0,L|247:323,1,94.9999974632264,10|0,1:2|0:0,0:0:0:0:
279,292,186684,2,0,L|298:384,1,94.9999974632264,2|0,0:2|3:0,0:0:0:0:
195,189,186872,6,0,L|227:283,1,94.9999974632264,2|0,1:2|3:0,0:0:0:0:
152,320,187059,1,2,0:2:0:0:
191,291,187153,1,0,0:0:0:0:
70,239,187247,2,0,L|240:361,1,189.999994926453,10|2,1:2|0:3,0:0:0:0:
419,321,187528,1,0,3:0:0:0:
501,243,187622,6,0,L|440:332,1,94.9999974632264,2|0,1:2|0:0,0:0:0:0:
369,213,187809,1,2,0:3:0:0:
381,34,187997,2,0,L|407:141,1,94.9999974632264,10|0,1:2|0:0,0:0:0:0:
372,156,188184,1,2,0:2:0:0:
328,123,188278,1,0,3:0:0:0:
258,215,188372,6,0,L|347:150,1,94.9999974632264,2|0,1:2|3:0,0:0:0:0:
149,38,188559,2,0,L|180:134,1,94.9999974632264,2|0,0:2|0:0,0:0:0:0:
24,325,188747,2,0,L|75:225,1,94.9999974632264,10|0,1:2|0:0,0:0:0:0:
413,230,188934,5,2,0:3:0:0:
309,118,189028,1,0,3:0:0:0:
367,57,189122,2,0,P|347:179|305:261,1,209.999993591309,4|0,1:2|0:0,0:0:0:0:
362,53,189497,2,0,P|346:181|316:266,1,209.999993591309,4|0,1:2|0:0,0:0:0:0:
116,348,189872,5,8,1:0:0:0:
171,299,189965,1,0,3:0:0:0:
195,307,190059,1,2,3:0:0:0:
289,266,190153,1,8,0:1:0:0:
259,311,190247,2,0,L|224:211,1,85.0000016212464,8|0,3:1|0:0,0:0:0:0:
259,348,190434,2,0,L|245:261,1,85.0000016212464,8|0,1:3|0:0,0:0:0:0:
0,106,190622,1,0,1:0:0:0:
