osu file format v14

[General]
AudioFilename: audio.mp3
AudioLeadIn: 0
PreviewTime: 166610
Countdown: 0
SampleSet: Soft
StackLeniency: 0
Mode: 0
LetterboxInBreaks: 0
WidescreenStoryboard: 1

[Editor]
Bookmarks: 1610,10610,22610,34610,46610,58610,70610,82610,94610,106610,118610,130610,142610,154610,166610,178610,190610
DistanceSpacing: 0.8
BeatDivisor: 4
GridSize: 32
TimelineZoom: 1.6

[Metadata]
Title:Hysteric Night Girl -Awakening- (feat. Such)
TitleUnicode:ヒステリックナイトガール -Awakening- (feat. Such)
Artist:PSYQUI
ArtistUnicode:PSYQUI
Creator:Luminiscental
Version:Insane
Source:
Tags:electronic japanese speed garage edm innocent future core jpop j-pop tech wacca lam megarex mrx-034 coffee cup mocha sf nm6 nm 6 nikolomara nik
BeatmapID:3851000
BeatmapSetID:1580891

[Difficulty]
HPDrainRate:4
CircleSize:4
OverallDifficulty:7
ApproachRate:8.5
SliderMultiplier:1.4
SliderTickRate:1

[Events]
//Background and Video events
0,0,"bg.jpg",0,0
//Break Periods
2,118822,129947
//Storyboard Layer 0 (Background)
//Storyboard Layer 1 (Fail)
//Storyboard Layer 2 (Pass)
//Storyboard Layer 3 (Foreground)
//Storyboard Layer 4 (Overlay)
//Storyboard Sound Samples

[TimingPoints]
1622,375,4,2,0,50,1,0
1622,-100,4,2,0,50,0,0
7622,-100,4,2,0,60,0,0
9122,-100,4,2,0,70,0,0
9872,-100,4,2,0,80,0,0
10622,-76.9230769230769,4,2,0,80,0,0
10809,-76.9230769230769,4,2,0,70,0,0
22622,-100,4,2,0,60,0,0
34059,-100,4,2,0,70,0,0
34622,-76.9230769230769,4,2,0,70,0,0
40247,-62.5,4,2,0,70,0,0
40622,-76.9230769230769,4,2,0,70,0,0
45872,-76.9230769230769,4,2,0,80,0,0
46622,-125,4,2,0,60,0,0
52622,-125,4,2,0,50,0,0
54122,-100,4,2,0,62,0,0
55622,-100,4,2,0,75,0,0
56372,-100,4,2,0,85,0,0
58434,-100,4,2,0,70,0,0
58622,-100,4,2,0,90,0,0
67622,-76.9230769230769,4,2,0,90,0,0
67809,-76.9230769230769,4,2,0,75,0,0
70622,-76.9230769230769,4,2,0,70,0,0
76622,-76.9230769230769,4,2,0,77,0,0
81122,-62.5,4,2,0,80,0,0
82622,-76.9230769230769,4,2,0,90,0,0
87122,-62.5,4,2,0,90,0,0
87872,-76.9230769230769,4,2,0,90,0,0
88247,-76.9230769230769,4,2,0,70,0,0
88622,-76.9230769230769,4,2,0,90,0,0
91622,-76.9230769230769,4,2,0,100,0,0
94622,-62.5,4,2,0,100,0,1
94715,-62.5,4,2,0,85,0,1
103622,-76.9230769230769,4,2,0,70,0,0
106622,-62.5,4,2,0,85,0,1
115622,-62.5,4,2,0,95,0,1
117309,-125,4,2,0,75,0,1
117684,-125,4,2,0,65,0,1
118153,-100,4,2,0,65,0,0
118622,-100,4,2,0,80,0,0
130622,-100,4,2,0,50,0,0
136622,-100,4,2,0,60,0,0
138122,-100,4,2,0,70,0,0
139622,-100,4,2,0,80,0,0
142622,-100,4,2,0,90,0,0
151622,-76.9230769230769,4,2,0,75,0,0
154622,-76.9230769230769,4,2,0,70,0,0
165122,-76.9230769230769,4,2,0,80,0,0
166622,-62.5,4,2,0,80,0,1
166715,-62.5,4,2,0,75,0,1
175622,-76.9230769230769,4,2,0,80,0,0
175715,-76.9230769230769,4,2,0,60,0,0
178622,-62.5,4,2,0,70,0,1
187622,-62.5,4,2,0,75,0,1
189122,-62.5,4,2,0,80,0,1
189872,-100,4,2,0,85,0,0

[Colours]
Combo1 : 188,84,222
Combo2 : 134,50,186
Combo3 : 211,53,124
Combo4 : 54,44,182
Combo5 : 228,210,156
Combo6 : 248,120,213

[HitObjects]
70,48,1622,6,0,P|96:58|112:80,3,35,0|2|2|2,1:0|2:3|2:3|2:3,2:0:0:0:
114,104,1997,1,2,0:3:0:0:
278,167,2372,2,0,P|251:138|247:102,2,70,8|2|0,0:1|0:3|0:0,0:0:0:0:
75,193,3122,1,0,0:0:0:0:
156,195,3309,2,0,P|137:209|114:216,2,35,2|2|2,0:3|0:3|0:3,0:0:0:0:
316,251,3872,2,0,P|284:217|251:205,1,70,8|2,0:1|0:3,0:0:0:0:
255,248,4434,1,0,1:0:0:0:
301,122,4622,6,0,P|316:130|325:144,3,35,0|2|2|2,1:0|0:3|0:3|0:3,0:0:0:0:
310,174,4997,1,2,0:3:0:0:
224,31,5372,2,0,P|194:67|188:104,2,70,8|2|0,0:1|0:3|0:0,0:0:0:0:
449,114,6122,2,0,L|369:103,1,70,2|2,0:3|0:3,0:0:0:0:
291,46,6497,2,0,L|212:61,1,70,2|2,0:3|0:3,0:0:0:0:
102,144,6872,1,8,0:1:0:0:
270,101,7153,1,0,1:0:0:0:
397,202,7434,1,0,1:0:0:0:
437,288,7622,6,0,P|397:271|374:234,1,70,4|2,1:2|0:3,0:0:0:0:
282,215,7903,1,2,0:3:0:0:
304,199,7997,2,0,L|287:272,1,70,2|2,0:3|0:3,0:0:0:0:
146,299,8372,2,0,P|187:258|228:253,1,70,8|2,0:1|0:3,0:0:0:0:
254,348,8653,1,2,0:3:0:0:
239,331,8747,2,0,L|164:345,1,70,2|2,0:3|0:3,0:0:0:0:
3,260,9122,6,0,P|47:260|73:284,1,70,4|2,1:2|0:3,0:0:0:0:
182,305,9403,1,2,0:3:0:0:
161,292,9497,2,0,P|206:263|237:268,1,70,2|2,0:3|0:3,0:0:0:0:
322,311,9778,1,2,0:3:0:0:
301,296,9872,1,8,1:1:0:0:
402,236,10059,1,0,1:0:0:0:
421,362,10247,1,8,1:1:0:0:
215,166,10622,6,0,B|274:136|274:136|276:172,1,90.9999958343508,4|2,1:0|0:3,0:0:0:0:
174,78,10997,2,0,B|109:40|109:40|114:71,1,90.9999958343508,8|2,1:2|0:2,0:0:0:0:
121,102,11278,2,0,P|88:132|35:150,1,90.9999958343508,2|0,3:2|3:0,0:0:0:0:
17,194,11559,1,2,3:2:0:0:
26,233,11653,1,2,3:2:0:0:
58,251,11747,1,8,1:2:0:0:
174,213,11934,2,0,P|205:222|220:241,1,45.4999979171754,2|0,0:2|0:0,0:0:0:0:
230,319,12122,6,0,B|271:265|271:265|237:267,1,90.9999958343508,0|2,1:0|0:3,0:0:0:0:
349,345,12497,2,0,B|411:322|411:322|403:354,1,90.9999958343508,8|2,1:2|0:2,0:0:0:0:
424,382,12778,2,0,P|476:372|498:333,1,90.9999958343508,2|0,3:2|3:0,0:0:0:0:
480,302,13059,1,2,3:2:0:0:
472,263,13153,1,2,3:2:0:0:
492,232,13247,1,8,1:2:0:0:
466,120,13434,2,0,P|436:128|414:148,1,45.4999979171754,2|0,0:2|0:0,0:0:0:0:
381,238,13622,6,0,B|341:180|341:180|370:190,1,90.9999958343508,0|2,1:0|0:3,0:0:0:0:
276,73,13997,2,0,B|276:113|276:113|208:77,1,90.9999958343508,8|2,1:2|0:2,0:0:0:0:
113,111,14278,1,2,3:2:0:0:
98,142,14372,2,0,P|134:137|158:123,1,45.4999979171754,0|0,1:0|3:0,0:0:0:0:
197,139,14559,1,2,3:2:0:0:
226,158,14653,1,2,3:2:0:0:
243,195,14747,1,8,1:2:0:0:
310,298,14934,2,0,P|291:278|263:274,1,45.4999979171754,2|0,0:2|0:0,0:0:0:0:
174,305,15122,6,0,B|232:274|232:274|216:306,1,90.9999958343508,0|2,1:0|0:3,0:0:0:0:
37,275,15497,2,0,B|20:266|20:266|109:252,1,90.9999958343508,8|2,1:2|0:3,0:0:0:0:
128,283,15778,1,0,3:0:0:0:
144,323,15872,1,2,1:2:0:0:
191,329,15965,1,2,3:2:0:0:
228,352,16059,1,2,3:2:0:0:
258,333,16153,1,0,3:0:0:0:
298,345,16247,1,14,1:2:0:0:
435,238,16434,6,0,P|415:217|381:213,1,45.4999979171754,2|0,0:3|0:0,0:0:0:0:
317,246,16622,2,0,B|334:254|334:254|363:183,1,90.9999958343508,4|2,1:3|0:3,0:0:0:0:
237,103,16997,2,0,B|271:150|271:150|280:119,1,90.9999958343508,8|2,1:2|0:2,0:0:0:0:
300,82,17278,2,0,P|352:75|396:105,1,90.9999958343508,2|0,3:2|3:0,0:0:0:0:
419,118,17559,1,2,3:2:0:0:
456,112,17653,1,2,3:2:0:0:
482,79,17747,1,8,1:2:0:0:
356,0,17934,2,0,P|382:21|391:51,1,45.4999979171754,2|0,0:2|0:0,0:0:0:0:
337,136,18122,6,0,B|296:76|296:76|331:78,1,90.9999958343508,0|2,1:0|0:3,0:0:0:0:
193,59,18497,2,0,B|228:10|228:10|185:29,1,90.9999958343508,8|2,1:2|0:2,0:0:0:0:
149,33,18778,2,0,P|171:81|166:128,1,90.9999958343508,2|0,3:2|3:0,0:0:0:0:
128,141,19059,1,2,3:2:0:0:
93,131,19153,1,2,3:2:0:0:
78,94,19247,1,8,1:2:0:0:
0,152,19434,2,0,P|29:159|49:176,1,45.4999979171754,2|0,0:2|0:0,0:0:0:0:
62,261,19622,6,0,B|82:193|82:193|82:228,1,90.9999958343508,0|2,1:0|0:3,0:0:0:0:
154,327,19997,2,0,B|138:296|138:296|149:355,1,90.9999958343508,8|2,1:2|0:2,0:0:0:0:
190,376,20278,1,2,3:2:0:0:
221,366,20372,2,0,P|243:343|249:311,1,45.4999979171754,0|0,1:0|3:0,0:0:0:0:
244,280,20559,1,2,3:2:0:0:
260,253,20653,1,2,3:2:0:0:
302,257,20747,1,8,1:2:0:0:
332,136,20934,2,0,P|314:162|307:184,1,45.4999979171754,2|0,0:2|0:0,0:0:0:0:
327,230,21122,6,0,B|334:209|334:209|399:233,1,90.9999958343508,0|2,1:0|0:3,0:0:0:0:
480,355,21497,2,0,B|503:292|503:292|483:306,1,90.9999958343508,8|2,1:2|0:3,0:0:0:0:
451,318,21778,1,0,3:0:0:0:
446,353,21872,1,0,1:0:0:0:
470,129,22247,1,8,0:1:0:0:
446,353,22622,5,4,1:2:0:0:
394,251,22997,1,8,1:2:0:0:
323,331,23372,1,0,1:0:0:0:
301,320,23466,1,0,3:0:0:0:
353,225,23653,1,0,3:0:0:0:
210,238,23934,1,2,3:3:0:0:
230,251,24028,1,0,3:0:0:0:
197,298,24122,5,0,1:0:0:0:
70,201,24497,1,8,1:2:0:0:
21,343,24872,1,0,1:0:0:0:
42,324,24965,1,0,3:0:0:0:
161,310,25153,1,0,3:0:0:0:
150,282,25247,1,8,1:2:0:0:
42,208,25434,1,2,3:3:0:0:
60,188,25528,1,0,3:0:0:0:
60,230,25622,5,0,1:0:0:0:
232,147,25997,1,8,1:2:0:0:
75,73,26372,1,0,1:0:0:0:
85,93,26465,1,0,3:0:0:0:
187,27,26653,1,0,3:0:0:0:
176,49,26747,1,8,1:2:0:0:
53,23,26934,1,2,3:3:0:0:
80,42,27028,1,0,3:0:0:0:
39,56,27122,5,0,1:0:0:0:
165,39,27309,1,2,0:3:0:0:
267,103,27497,1,8,1:2:0:0:
185,46,27684,1,2,0:3:0:0:
301,34,27872,1,0,1:0:0:0:
282,53,27965,1,0,3:0:0:0:
395,91,28153,1,0,3:0:0:0:
502,39,28340,1,0,3:0:0:0:
485,14,28434,2,0,L|469:58,1,35,2|0,3:3|0:0,0:0:0:0:
508,158,28622,5,0,1:0:0:0:
341,234,28997,1,8,1:2:0:0:
417,154,29372,1,0,1:0:0:0:
405,132,29465,1,0,3:0:0:0:
304,207,29653,1,0,3:0:0:0:
465,285,29934,1,2,3:3:0:0:
453,249,30028,1,0,3:0:0:0:
501,278,30122,5,0,1:0:0:0:
386,312,30309,1,2,3:3:0:0:
501,278,30497,1,8,1:2:0:0:
358,264,30684,2,0,L|416:280,1,35,2|0,0:3|0:0,0:0:0:0:
427,357,30872,1,0,1:0:0:0:
401,384,30965,2,0,L|355:378,1,35,0|2,3:0|0:3,0:0:0:0:
228,305,31153,1,0,3:0:0:0:
258,337,31247,1,8,1:2:0:0:
301,317,31340,1,0,3:0:0:0:
331,341,31434,1,2,3:3:0:0:
131,358,31622,5,0,1:0:0:0:
302,280,31997,1,8,1:2:0:0:
161,232,32372,1,0,1:0:0:0:
145,203,32466,1,0,3:0:0:0:
272,171,32653,1,0,3:0:0:0:
286,141,32747,1,8,1:2:0:0:
386,223,32934,1,2,3:3:0:0:
410,200,33028,1,0,3:0:0:0:
422,258,33122,5,0,1:0:0:0:
495,165,33309,1,2,0:3:0:0:
380,78,33497,1,8,1:2:0:0:
497,129,33684,1,2,0:3:0:0:
424,33,33872,1,0,1:0:0:0:
390,62,33965,1,0,3:0:0:0:
347,46,34059,2,0,L|336:15,2,23.3333333333333,10|8|8,3:3|0:3|0:3,0:0:0:0:
324,91,34247,1,8,1:1:0:0:
213,55,34434,1,10,3:3:0:0:
198,7,34528,1,8,3:3:0:0:
165,31,34622,6,0,P|205:46|259:54,1,90.9999958343508,4|2,1:2|0:3,0:0:0:0:
378,86,34997,2,0,P|321:88|266:105,1,90.9999958343508,8|2,1:2|0:3,0:0:0:0:
216,187,35372,1,0,1:0:0:0:
190,161,35465,1,0,3:0:0:0:
154,180,35559,2,0,P|181:226|217:196,2,90.9999958343508,2|8|2,0:2|1:2|0:3,0:0:0:0:
52,87,36122,6,0,P|68:113|74:145,1,45.4999979171754,0|0,1:0|0:0,0:0:0:0:
35,156,36309,2,0,P|18:184|11:214,1,45.4999979171754,2|0,0:3|0:0,0:0:0:0:
65,225,36497,1,8,1:2:0:0:
88,239,36590,2,0,P|104:265|105:289,1,45.4999979171754,0|2,0:0|0:3,0:0:0:0:
60,310,36778,1,0,3:0:0:0:
46,341,36872,1,0,1:0:0:0:
68,372,36965,1,0,3:0:0:0:
111,373,37059,2,0,P|135:353|165:343,1,45.4999979171754,2|0,0:3|0:0,0:0:0:0:
238,382,37247,1,8,1:2:0:0:
304,228,37434,6,0,P|264:213|264:260,1,90.9999958343508,2|0,0:2|1:0,0:0:0:0:
177,164,37809,2,0,P|223:153|226:197,1,90.9999958343508,2|8,0:2|1:2,0:0:0:0:
322,341,38184,1,2,0:3:0:0:
353,353,38278,2,0,P|404:331|438:306,1,90.9999958343508,0|0,3:0|3:0,0:0:0:0:
421,154,38559,1,2,0:2:0:0:
409,182,38653,1,0,0:0:0:0:
423,214,38747,2,0,P|404:232|373:232,1,45.4999979171754,8|0,1:2|0:0,0:0:0:0:
331,172,38934,2,0,P|315:154|271:151,1,45.4999979171754,2|2,0:2|3:2,0:0:0:0:
230,215,39122,5,0,1:0:0:0:
279,108,39309,1,2,0:3:0:0:
409,58,39497,1,10,1:2:0:0:
414,91,39590,1,0,3:0:0:0:
436,110,39684,1,2,3:3:0:0:
469,110,39778,1,0,3:0:0:0:
506,257,39965,5,2,3:2:0:0:
484,229,40059,1,2,3:3:0:0:
447,219,40153,1,0,3:0:0:0:
415,245,40247,2,0,B|484:267|461:379|521:378,1,168,10|0,1:2|3:0,0:0:0:0:
512,346,40622,6,0,P|458:354|405:378,1,90.9999958343508,2|2,1:2|0:3,0:0:0:0:
302,303,40997,2,0,P|366:317|402:336,1,90.9999958343508,8|2,1:2|0:3,0:0:0:0:
325,188,41372,1,0,1:0:0:0:
350,215,41465,1,0,3:0:0:0:
391,200,41559,2,0,P|375:149|334:168,2,90.9999958343508,2|8|2,0:2|1:2|0:3,0:0:0:0:
263,253,42122,6,0,P|240:262|224:282,1,45.4999979171754,0|0,1:0|0:0,0:0:0:0:
146,294,42309,2,0,P|169:276|183:244,1,45.4999979171754,2|0,0:3|0:0,0:0:0:0:
172,181,42497,1,8,1:2:0:0:
150,172,42590,2,0,P|158:200|192:223,1,45.4999979171754,0|2,0:0|0:2,0:0:0:0:
257,166,42778,2,0,P|269:138|288:119,1,45.4999979171754,0|0,3:0|1:0,0:0:0:0:
333,119,42965,5,2,3:2:0:0:
368,103,43059,1,2,3:2:0:0:
386,74,43153,1,2,3:2:0:0:
271,47,43340,5,2,3:2:0:0:
229,38,43434,1,2,3:2:0:0:
208,6,43528,1,2,3:2:0:0:
85,74,43809,6,0,P|88:35|125:49,1,90.9999958343508,2|8,0:2|1:2,0:0:0:0:
126,101,44090,2,0,P|109:151|111:199,1,90.9999958343508,0|0,0:0|3:0,0:0:0:0:
146,222,44372,1,0,1:0:0:0:
176,234,44465,2,0,P|193:259|197:293,1,45.4999979171754,0|2,3:0|0:3,0:0:0:0:
174,323,44653,1,0,3:0:0:0:
148,345,44747,1,8,1:2:0:0:
58,265,44934,6,0,P|76:265|70:304,1,45.4999979171754,2|0,3:2|3:0,0:0:0:0:
19,353,45122,1,0,1:0:0:0:
89,244,45309,1,2,0:2:0:0:
215,298,45497,1,8,1:2:0:0:
262,180,45684,1,2,0:2:0:0:
351,277,45872,5,4,1:2:0:0:
354,234,45965,1,0,3:0:0:0:
388,210,46059,1,0,3:0:0:0:
433,200,46153,1,0,3:0:0:0:
453,162,46246,1,8,1:2:0:0:
510,333,46622,6,0,P|487:358|456:355,1,56,6|2,1:2|1:3,0:0:0:0:
395,299,47184,1,2,1:3:0:0:
395,299,47559,1,2,1:3:0:0:
395,299,47934,1,2,1:3:0:0:
328,222,48122,6,0,P|301:220|280:238,1,56,2|2,1:2|1:3,0:0:0:0:
250,328,48684,1,2,1:3:0:0:
250,328,49059,1,2,1:3:0:0:
250,328,49434,1,2,1:3:0:0:
186,266,49622,6,0,P|209:234|232:227,1,56,2|2,1:2|1:3,0:0:0:0:
316,234,50184,1,2,1:3:0:0:
316,234,50559,1,2,1:3:0:0:
316,234,50934,1,2,1:3:0:0:
283,131,51122,6,0,P|252:103|224:96,1,56,2|2,1:2|1:3,0:0:0:0:
144,124,51684,1,2,1:3:0:0:
260,64,52059,1,2,1:3:0:0:
408,97,52434,1,2,1:3:0:0:
462,25,52622,6,0,L|454:91,1,56,12|2,1:2|0:3,0:0:0:0:
473,178,52997,2,0,L|476:101,1,56,8|2,1:2|0:3,0:0:0:0:
420,33,53372,2,0,L|426:98,1,56,8|2,1:2|0:3,0:0:0:0:
442,194,53747,2,0,L|450:124,1,56,8|2,1:2|0:3,0:0:0:0:
301,85,54122,6,0,L|318:4,1,70,8|2,1:2|0:3,0:0:0:0:
334,202,54497,2,0,L|315:110,1,70,8|2,1:2|0:3,0:0:0:0:
260,92,54872,2,0,L|272:8,1,70,8|2,1:2|0:3,0:0:0:0:
296,205,55247,2,0,L|282:111,1,70,8|2,1:2|0:3,0:0:0:0:
145,122,55622,5,8,1:2:0:0:
165,37,55809,1,10,0:3:0:0:
102,142,55997,1,8,1:2:0:0:
64,47,56184,1,10,0:3:0:0:
9,171,56372,5,8,1:2:0:0:
41,192,56465,1,8,0:2:0:0:
63,228,56559,1,8,0:2:0:0:
65,266,56653,1,8,0:2:0:0:
46,303,56747,1,8,1:2:0:0:
43,345,56840,1,8,0:2:0:0:
71,373,56934,1,2,1:3:0:0:
488,334,58622,6,0,P|450:311|381:290,1,105,6|0,1:2|0:0,0:0:0:0:
312,287,58997,2,0,P|375:280|425:257,1,105,2|0,1:2|0:0,0:0:0:0:
397,175,59372,2,0,P|429:205|444:238,1,70,2|0,1:2|0:0,0:0:0:0:
271,288,59747,2,0,P|295:263|312:232,1,70,2|0,1:2|0:0,0:0:0:0:
208,81,60122,6,0,P|258:98|305:141,1,105,2|0,1:2|0:0,0:0:0:0:
350,125,60497,2,0,P|305:107|241:108,1,105,2|0,1:2|0:0,0:0:0:0:
136,144,60872,2,0,P|166:108|175:75,1,70,2|0,1:2|0:0,0:0:0:0:
119,226,61247,2,0,P|99:191|97:153,1,70,2|0,1:2|0:0,0:0:0:0:
222,226,61622,6,0,P|203:270|156:314,1,105,2|0,1:2|0:0,0:0:0:0:
76,314,61997,2,0,P|124:289|178:286,1,105,2|0,1:2|0:0,0:0:0:0:
275,348,62372,2,0,P|246:326|212:321,1,70,2|0,1:2|0:0,0:0:0:0:
63,357,62747,2,0,P|100:324|104:289,1,70,2|0,1:2|0:0,0:0:0:0:
17,192,63122,6,0,P|65:179|119:206,1,105,2|0,1:2|0:0,0:0:0:0:
101,236,63497,2,0,P|159:260|217:236,1,105,2|0,1:2|0:0,0:0:0:0:
200,217,63872,2,0,P|248:198|278:205,1,70,2|0,1:2|0:0,0:0:0:0:
311,227,64153,1,2,0:2:0:0:
343,205,64247,2,0,P|325:194|306:192,1,35,2|2,1:2|0:2,0:0:0:0:
192,55,64622,6,0,P|247:79|280:135,1,105,0|0,1:2|0:0,0:0:0:0:
356,125,64997,2,0,P|320:94|258:83,1,105,2|0,1:2|0:0,0:0:0:0:
161,87,65372,2,0,P|192:53|198:15,1,70,2|0,1:2|0:0,0:0:0:0:
87,21,65747,2,0,P|119:52|121:86,1,70,2|0,1:2|0:0,0:0:0:0:
11,227,66122,6,0,P|34:186|37:121,1,105,2|0,1:2|0:0,0:0:0:0:
136,119,66497,2,0,P|78:112|37:72,1,105,2|2,1:2|0:2,0:0:0:0:
55,1,66872,2,0,P|79:29|82:65,2,70,2|2|2,1:2|0:2|1:2,0:0:0:0:
354,127,67622,6,0,B|319:70|319:70|317:102,1,90.9999958343508,4|2,1:2|0:3,0:0:0:0:
458,0,67997,2,0,B|415:54|415:54|421:10,1,90.9999958343508,8|2,1:2|0:2,0:0:0:0:
381,7,68278,2,0,P|332:6|291:44,1,90.9999958343508,2|0,3:2|3:0,0:0:0:0:
294,67,68559,1,2,3:2:0:0:
264,86,68653,1,2,3:2:0:0:
233,78,68747,1,8,1:2:0:0:
107,19,68934,2,0,P|136:32|155:61,1,45.4999979171754,2|0,0:2|3:0,0:0:0:0:
135,142,69122,6,0,B|113:78|113:78|111:115,1,90.9999958343508,0|2,1:0|0:3,0:0:0:0:
52,233,69497,2,0,B|71:197|71:197|62:256,1,90.9999958343508,8|2,1:2|0:3,0:0:0:0:
73,275,69778,1,0,3:0:0:0:
89,309,69872,1,2,1:2:0:0:
122,312,69965,1,2,3:2:0:0:
141,339,70059,1,2,3:2:0:0:
181,335,70153,1,0,3:0:0:0:
204,361,70247,1,14,1:2:0:0:
306,295,70434,6,0,P|334:286|357:286,1,45.4999979171754,2|0,0:3|3:0,0:0:0:0:
422,347,70622,2,0,P|365:328|338:306,1,90.9999958343508,4|2,1:3|0:3,0:0:0:0:
176,247,70997,2,0,P|236:215|255:186,1,90.9999958343508,8|2,1:2|0:3,0:0:0:0:
242,170,71278,1,0,3:0:0:0:
247,134,71372,1,0,1:0:0:0:
282,118,71465,1,0,3:0:0:0:
394,39,71653,6,0,P|377:25|347:25,1,45.4999979171754,0|8,0:0|1:2,0:0:0:0:
269,95,71934,1,2,3:3:0:0:
234,89,72028,1,0,3:0:0:0:
207,54,72122,2,0,P|158:55|125:78,1,90.9999958343508,0|2,1:0|0:3,0:0:0:0:
5,159,72497,2,0,P|58:167|91:200,1,90.9999958343508,8|2,1:2|0:3,0:0:0:0:
84,227,72778,1,0,3:0:0:0:
109,261,72872,1,0,1:0:0:0:
149,261,72965,1,0,3:0:0:0:
223,363,73153,6,0,P|205:380|173:387,1,45.4999979171754,0|8,0:0|1:2,0:0:0:0:
85,284,73434,1,2,0:3:0:0:
0,356,73622,1,0,1:0:0:0:
56,241,73809,5,2,0:3:0:0:
190,301,73997,1,8,1:2:0:0:
292,244,74184,1,2,0:3:0:0:
286,209,74278,1,0,3:0:0:0:
255,186,74372,2,0,P|222:174|205:146,1,45.4999979171754,0|0,1:0|3:0,0:0:0:0:
212,47,74559,1,2,0:3:0:0:
248,64,74653,1,0,0:0:0:0:
262,99,74747,1,8,1:2:0:0:
350,34,74934,2,0,P|374:59|380:86,1,45.4999979171754,2|0,3:3|3:0,0:0:0:0:
397,175,75122,6,0,P|406:100|419:67,1,90.9999958343508,0|2,1:0|0:3,0:0:0:0:
388,281,75497,2,0,P|370:224|347:189,1,90.9999958343508,8|2,1:2|0:3,0:0:0:0:
468,361,75872,1,0,1:0:0:0:
441,336,75965,1,0,3:0:0:0:
409,332,76059,2,0,P|385:338|364:354,1,45.4999979171754,2|0,0:3|0:0,0:0:0:0:
274,360,76247,2,0,P|223:329|198:282,1,90.9999958343508,8|2,1:2|0:3,0:0:0:0:
117,218,76528,5,0,3:0:0:0:
95,238,76622,2,0,L|240:270,1,136.499993751526,2|0,1:2|0:0,0:0:0:0:
362,334,76997,1,8,1:2:0:0:
261,241,77184,1,2,0:3:0:0:
424,203,77372,1,0,1:0:0:0:
411,235,77465,1,0,3:0:0:0:
375,251,77559,2,0,P|348:236|334:213,1,45.4999979171754,2|0,0:3|0:0,0:0:0:0:
264,125,77747,2,0,P|306:166|357:179,1,90.9999958343508,8|2,1:2|0:3,0:0:0:0:
474,70,78028,5,0,3:0:0:0:
462,98,78122,2,0,L|314:122,1,136.499993751526,2|0,1:2|0:0,0:0:0:0:
214,35,78497,1,8,1:2:0:0:
293,135,78684,1,2,0:3:0:0:
114,127,78872,1,0,1:0:0:0:
136,108,78965,1,0,3:0:0:0:
169,112,79059,2,0,P|194:128|201:150,1,45.4999979171754,2|0,0:3|0:0,0:0:0:0:
219,254,79247,2,0,P|203:211|158:177,1,90.9999958343508,8|2,1:2|0:3,0:0:0:0:
63,107,79528,5,0,3:0:0:0:
31,125,79622,2,0,L|78:-5,1,136.499993751526,2|0,1:2|0:0,0:0:0:0:
198,80,79997,1,8,1:2:0:0:
113,9,80184,1,2,0:3:0:0:
60,147,80372,1,0,1:0:0:0:
76,177,80465,1,0,3:0:0:0:
105,192,80559,2,0,P|135:183|149:165,1,45.4999979171754,2|0,0:3|0:0,0:0:0:0:
241,206,80747,2,0,P|179:212|162:245,1,90.9999958343508,8|2,1:2|0:3,0:0:0:0:
227,336,81028,5,0,3:0:0:0:
251,312,81122,2,0,L|422:342,1,168,2|0,1:1|0:0,0:0:0:0:
372,311,81497,2,0,L|203:355,1,168,2|0,1:1|0:0,0:0:0:0:
218,256,81872,5,8,0:1:0:0:
245,239,81965,1,8,0:3:0:0:
297,263,82059,1,8,0:2:0:0:
346,251,82153,1,8,3:2:0:0:
395,239,82247,1,8,1:1:0:0:
280,221,82434,1,4,0:3:0:0:
471,346,82622,6,0,B|459:309|459:309|461:257|446:189,1,136.499993751526,4|0,1:3|0:0,0:0:0:0:
477,260,82997,2,0,B|476:222|476:222|469:172|441:102,1,136.499993751526,0|0,1:0|0:0,0:0:0:0:
364,160,83372,1,0,1:0:0:0:
406,37,83559,2,0,P|382:57|366:80,1,45.4999979171754,2|0,3:2|0:0,0:0:0:0:
344,180,83747,1,0,1:0:0:0:
355,46,83934,2,0,P|333:70|326:91,1,45.4999979171754,2|0,3:2|0:0,0:0:0:0:
306,211,84122,6,0,B|276:176|276:176|246:185|208:182,1,90.9999958343508,2|8,1:2|0:1,0:0:0:0:
183,218,84403,1,0,3:0:0:0:
146,197,84497,2,0,B|143:195|171:180|171:180|155:205|149:236,1,90.9999958343508,0|0,1:0|0:0,0:0:0:0:
175,271,84778,1,0,3:0:0:0:
143,310,84872,1,0,1:0:0:0:
185,338,84965,1,0,3:0:0:0:
224,324,85059,1,2,3:2:0:0:
259,339,85153,1,2,3:2:0:0:
99,303,85434,5,8,3:1:0:0:
58,302,85528,1,8,3:1:0:0:
30,349,85622,2,0,P|52:339|74:314,1,45.4999979171754,2|0,1:2|0:0,0:0:0:0:
79,218,85809,1,0,3:0:0:0:
47,194,85903,1,0,3:0:0:0:
39,153,85997,2,0,P|51:126|69:114,1,45.4999979171754,2|0,1:2|0:0,0:0:0:0:
153,64,86184,1,8,3:1:0:0:
193,78,86278,1,0,3:0:0:0:
231,57,86372,2,0,P|259:47|278:27,1,45.4999979171754,2|0,1:2|0:0,0:0:0:0:
370,33,86559,1,0,3:0:0:0:
405,43,86653,1,0,3:0:0:0:
424,89,86747,5,2,1:2:0:0:
408,127,86840,1,0,3:0:0:0:
429,170,86934,1,0,3:0:0:0:
407,211,87028,1,0,3:0:0:0:
421,259,87122,2,0,P|363:251|383:305,1,112,2|8,1:2|0:1,0:0:0:0:
471,364,87403,2,0,P|483:336|486:303,1,56,8|0,3:1|1:0,0:0:0:0:
394,197,87684,1,2,3:2:0:0:
473,341,87872,2,0,P|495:355|521:362,1,45.4999979171754,8|0,1:0|0:0,0:0:0:0:
355,384,88247,5,8,1:2:0:0:
433,314,88434,1,0,1:0:0:0:
242,346,88622,2,0,B|239:332|227:324|227:324|263:331|292:328,1,90.9999958343508,6|8,1:2|0:2,0:0:0:0:
327,261,88903,2,0,P|302:273|288:287,1,45.4999979171754,2|0,3:2|1:0,0:0:0:0:
175,334,89090,2,0,P|192:348|213:356,2,45.4999979171754,0|10|0,3:0|0:2|0:0,0:0:0:0:
86,312,89372,5,2,1:2:0:0:
70,278,89465,1,0,3:0:0:0:
87,249,89559,1,8,3:2:0:0:
103,219,89653,1,0,3:0:0:0:
89,191,89747,2,0,P|117:192|138:201,1,45.4999979171754,0|0,1:0|0:0,0:0:0:0:
224,223,89934,6,0,P|202:209|183:181,1,45.4999979171754,10|0,3:2|0:0,0:0:0:0:
190,110,90122,1,2,1:2:0:0:
178,69,90215,1,0,3:0:0:0:
136,68,90309,2,0,P|146:94|169:113,1,45.4999979171754,8|0,3:2|0:0,0:0:0:0:
283,126,90497,5,2,1:2:0:0:
302,93,90590,1,0,3:0:0:0:
340,83,90684,1,8,3:2:0:0:
376,114,90778,2,0,P|358:140|341:151,1,45.4999979171754,0|0,3:0|1:0,0:0:0:0:
289,220,90965,5,2,3:2:0:0:
303,253,91059,1,8,3:2:0:0:
334,274,91153,2,0,P|361:263|379:244,1,45.4999979171754,0|0,3:0|1:0,0:0:0:0:
452,187,91340,5,2,3:2:0:0:
483,181,91434,2,0,P|474:213|459:233,1,45.4999979171754,8|0,3:2|0:0,0:0:0:0:
335,215,91622,6,0,L|391:227,1,45.4999979171754,2|8,1:2|0:2,0:0:0:0:
403,214,91809,2,0,L|347:213,1,45.4999979171754,10|8,3:2|0:2,0:0:0:0:
218,196,91997,6,0,L|274:187,1,45.4999979171754,2|10,1:2|0:2,0:0:0:0:
272,204,92184,2,0,L|222:183,1,45.4999979171754,8|10,3:2|0:2,0:0:0:0:
112,210,92372,6,0,L|162:202,1,45.4999979171754,0|10,1:0|0:2,0:0:0:0:
173,212,92559,2,0,L|121:201,1,45.4999979171754,10|8,3:2|0:2,0:0:0:0:
7,162,92747,6,0,L|57:171,1,45.4999979171754,2|10,1:2|0:2,0:0:0:0:
62,167,92934,2,0,L|2:174,1,45.4999979171754,8|10,3:2|0:2,0:0:0:0:
256,192,93122,12,8,94247,1:2:0:0:
194,18,94434,5,0,1:0:0:0:
327,80,94622,2,0,P|301:63|267:54,1,56,6|0,1:1|0:0,0:0:0:0:
152,49,94809,1,2,0:3:0:0:
154,94,94997,2,0,P|188:108|222:106,1,56,10|0,1:1|0:0,0:0:0:0:
311,85,95184,1,2,0:3:0:0:
349,97,95278,2,0,P|369:124|374:151,1,56,2|0,3:1|1:0,0:0:0:0:
295,189,95465,2,0,P|274:220|266:257,1,56,2|2,3:1|0:3,0:0:0:0:
327,325,95653,1,2,3:1:0:0:
344,292,95747,1,10,1:1:0:0:
216,327,95934,1,2,3:1:0:0:
465,324,96215,5,2,3:1:0:0:
482,358,96309,2,0,P|446:346|423:324,1,56,2|0,3:1|0:0,0:0:0:0:
351,263,96497,2,0,P|302:308|227:316,1,112,10|2,1:1|0:3,0:0:0:0:
130,252,96778,1,2,3:1:0:0:
108,277,96872,2,0,P|185:260|222:175,1,168,2|0,1:1|0:0,0:0:0:0:
203,86,97247,2,0,P|178:34|232:30,1,112,10|2,1:1|0:3,0:0:0:0:
467,77,97622,6,0,P|437:91|407:93,1,56,2|0,1:1|0:0,0:0:0:0:
312,60,97809,1,2,0:3:0:0:
298,26,97997,2,0,P|332:40|352:60,1,56,10|0,1:1|0:0,0:0:0:0:
421,140,98184,1,2,0:3:0:0:
392,160,98278,2,0,P|372:185|367:215,1,56,2|0,3:1|1:0,0:0:0:0:
467,245,98465,2,0,P|493:273|497:295,1,56,2|2,3:1|0:3,0:0:0:0:
415,358,98653,1,2,3:1:0:0:
396,330,98747,1,10,1:1:0:0:
494,236,98934,1,2,3:1:0:0:
385,127,99122,6,0,P|322:150|276:244,1,168,2|0,1:1|0:0,0:0:0:0:
180,336,99497,2,0,P|110:301|78:211,1,168,10|0,1:1|0:0,0:0:0:0:
122,117,99872,1,2,1:1:0:0:
131,83,99965,1,0,3:0:0:0:
112,47,100059,1,2,0:3:0:0:
75,43,100153,1,0,3:0:0:0:
50,76,100247,1,10,1:1:0:0:
144,145,100434,5,2,3:3:0:0:
175,120,100528,1,0,3:0:0:0:
214,124,100622,2,0,P|246:140|272:163,1,56,2|0,1:1|0:0,0:0:0:0:
328,262,100809,1,2,0:3:0:0:
359,221,100997,2,0,P|324:223|299:237,1,56,10|0,1:1|0:0,0:0:0:0:
247,333,101184,1,2,0:3:0:0:
234,302,101278,2,0,P|251:281|282:272,1,56,2|0,3:1|1:0,0:0:0:0:
368,321,101465,2,0,P|395:345|421:355,1,56,2|2,3:1|0:3,0:0:0:0:
498,307,101653,1,2,3:1:0:0:
470,275,101747,1,10,1:1:0:0:
362,355,101934,1,2,3:1:0:0:
280,191,102215,5,2,3:1:0:0:
251,221,102309,2,0,P|218:214|189:189,1,56,2|0,3:1|0:0,0:0:0:0:
137,126,102497,2,0,P|174:189|164:247,1,112,10|2,1:1|0:3,0:0:0:0:
78,289,102778,1,2,3:1:0:0:
103,310,102872,2,0,P|191:318|241:383,1,168,2|0,1:1|0:0,0:0:0:0:
342,341,103247,2,0,P|398:336|388:295,1,112,10|2,1:1|0:3,0:0:0:0:
334,205,103528,5,0,3:0:0:0:
318,240,103622,2,0,B|294:172|294:172|312:179,1,90.9999958343508,0|2,1:0|0:3,0:0:0:0:
453,163,103997,2,0,B|471:91|471:91|453:107,1,90.9999958343508,8|2,1:2|0:3,0:0:0:0:
414,105,104278,2,0,P|380:63|334:52,1,90.9999958343508,0|0,3:0|3:0,0:0:0:0:
299,65,104559,1,2,0:3:0:0:
266,47,104653,1,0,3:0:0:0:
261,16,104747,1,8,1:2:0:0:
141,17,104934,2,0,P|167:31|180:52,1,45.4999979171754,2|0,0:3|3:0,0:0:0:0:
139,138,105122,6,0,B|164:68|164:68|168:94,1,90.9999958343508,0|2,1:0|0:3,0:0:0:0:
104,230,105497,2,0,B|71:209|71:209|106:255,1,90.9999958343508,8|2,1:2|0:3,0:0:0:0:
154,260,105778,1,0,3:0:0:0:
178,234,105872,1,0,1:0:0:0:
217,227,105965,2,0,P|242:236|257:247,1,45.4999979171754,0|2,3:0|0:3,0:0:0:0:
327,328,106153,1,0,3:0:0:0:
360,327,106247,2,0,P|342:301|339:277,2,45.4999979171754,8|0|2,1:2|3:0|0:3,0:0:0:0:
482,320,106528,5,0,3:0:0:0:
457,337,106622,2,0,P|427:325|398:293,1,56,2|0,1:1|0:0,0:0:0:0:
447,209,106809,1,2,0:3:0:0:
467,182,106997,2,0,P|447:155|406:148,1,56,10|0,1:1|0:0,0:0:0:0:
329,169,107184,1,2,0:3:0:0:
315,202,107278,2,0,P|289:176|279:146,1,56,2|0,3:1|1:0,0:0:0:0:
211,73,107465,2,0,P|239:48|275:39,1,56,2|2,3:1|0:3,0:0:0:0:
380,80,107653,1,2,3:1:0:0:
361,45,107747,1,10,1:1:0:0:
298,138,107934,1,2,3:1:0:0:
115,104,108215,5,2,3:1:0:0:
126,142,108309,2,0,P|152:117|163:80,1,56,2|0,3:1|0:0,0:0:0:0:
44,42,108497,2,0,P|83:85|81:160,1,112,10|2,1:1|0:3,0:0:0:0:
23,199,108778,1,2,3:1:0:0:
23,236,108872,2,0,P|68:191|179:177,1,168,2|0,1:1|0:0,0:0:0:0:
236,246,109247,2,0,P|290:218|294:253,1,112,10|2,1:1|0:3,0:0:0:0:
354,329,109622,6,0,P|332:308|291:295,1,56,2|0,1:1|0:0,0:0:0:0:
206,342,109809,1,2,0:3:0:0:
172,324,109997,2,0,P|197:294|231:277,1,56,10|0,1:1|0:0,0:0:0:0:
314,262,110184,1,2,0:3:0:0:
335,234,110278,2,0,P|319:203|300:186,1,56,2|0,3:1|1:0,0:0:0:0:
196,160,110465,2,0,P|215:126|249:106,1,56,2|2,3:1|0:3,0:0:0:0:
332,102,110653,1,2,3:1:0:0:
359,82,110747,2,0,P|343:58|310:41,1,56,10|0,1:1|0:0,0:0:0:0:
235,27,110934,2,0,P|221:58|186:77,1,56,2|0,3:1|0:0,0:0:0:0:
101,52,111122,6,0,P|119:116|210:173,1,168,2|0,1:1|0:0,0:0:0:0:
308,205,111497,2,0,P|234:210|172:296,1,168,10|0,1:1|0:0,0:0:0:0:
87,356,111872,1,2,1:1:0:0:
59,324,111965,1,0,3:0:0:0:
70,290,112059,1,2,0:3:0:0:
105,276,112153,1,0,3:0:0:0:
136,298,112247,1,10,1:1:0:0:
227,359,112434,5,2,3:3:0:0:
268,361,112528,1,0,3:0:0:0:
298,332,112622,2,0,P|318:306|347:292,1,56,2|0,1:1|0:0,0:0:0:0:
459,304,112809,1,2,0:3:0:0:
496,289,112997,2,0,P|469:270|432:263,1,56,10|0,1:1|0:0,0:0:0:0:
352,208,113184,1,2,0:3:0:0:
329,176,113278,2,0,P|360:159|387:156,1,56,2|0,3:1|1:0,0:0:0:0:
464,119,113465,2,0,P|436:90|405:79,1,56,2|2,3:1|0:3,0:0:0:0:
326,9,113653,1,2,3:1:0:0:
344,42,113747,2,0,P|327:71|295:92,1,56,10|0,1:1|0:0,0:0:0:0:
216,73,113934,2,0,P|242:81|262:100,1,56,2|0,3:1|0:0,0:0:0:0:
277,292,114215,5,2,3:1:0:0:
279,258,114309,2,0,P|256:242|220:237,1,56,2|0,3:1|0:0,0:0:0:0:
152,294,114497,2,0,P|103:255|104:189,1,112,10|2,1:1|0:3,0:0:0:0:
163,114,114778,1,2,3:1:0:0:
139,82,114872,2,0,P|65:88|20:178,1,168,2|0,1:1|0:0,0:0:0:0:
30,291,115247,2,0,P|79:238|131:236,1,112,10|2,1:1|0:3,0:0:0:0:
236,277,115528,5,0,3:0:0:0:
275,291,115622,2,0,P|302:279|323:258,1,56,2|0,1:1|0:0,0:0:0:0:
373,152,115809,1,2,0:3:0:0:
351,117,115997,2,0,P|354:153|367:190,1,56,10|0,1:1|0:0,0:0:0:0:
463,246,116184,1,2,0:3:0:0:
436,222,116278,2,0,P|452:191|482:180,1,56,2|0,3:1|1:0,0:0:0:0:
512,111,116465,2,0,P|480:92|473:55,1,56,2|2,3:1|0:3,0:0:0:0:
484,4,116653,1,2,3:1:0:0:
461,29,116747,1,10,1:1:0:0:
354,5,116934,1,2,3:1:0:0:
274,87,117122,1,2,1:1:0:0:
352,148,117309,6,0,L|363:104,1,28,2|0,0:3|3:0,0:0:0:0:
341,181,117684,6,0,L|329:141,1,28,2|0,0:3|3:0,0:0:0:0:
350,222,118059,6,0,L|364:186,1,28,2|0,0:3|3:0,0:0:0:0:
130,261,118622,1,4,1:0:0:0:
121,361,130622,6,0,P|145:354|160:333,3,35,0|2|2|2,1:0|0:3|0:3|0:3,0:0:0:0:
195,352,130997,1,2,0:3:0:0:
347,342,131372,2,0,P|320:306|291:292,2,70,8|2|2,0:1|0:3|0:3,0:0:0:0:
221,223,132122,5,2,0:3:0:0:
198,296,132309,2,0,P|189:274|189:247,2,35,2|2|2,0:3|0:3|0:3,0:0:0:0:
353,276,132872,2,0,P|313:244|304:213,1,70,8|2,0:1|0:3,0:0:0:0:
367,238,133434,1,2,1:3:0:0:
234,159,133622,6,0,P|239:180|260:210,3,35,2|2|2|2,1:3|0:3|0:3|0:3,0:0:0:0:
289,209,133997,2,0,P|322:170|353:165,1,70,2|0,0:3|0:0,0:0:0:0:
433,176,134372,2,0,P|386:195|378:223,1,70,8|2,0:1|0:3,0:0:0:0:
378,312,134747,2,0,P|382:271|406:257,1,70
507,361,135122,5,2,0:3:0:0:
425,310,135309,1,2,0:3:0:0:
316,371,135497,2,0,P|280:351|263:320,1,70,2|2,0:3|0:3,0:0:0:0:
381,281,135872,5,8,0:1:0:0:
257,175,136153,1,2,1:3:0:0:
107,237,136434,1,2,1:3:0:0:
46,155,136622,6,0,P|96:171|116:202,1,70,4|2,1:2|0:3,0:0:0:0:
207,216,136903,1,2,0:3:0:0:
180,213,136997,2,0,P|151:177|152:143,1,70,2|2,0:3|0:3,0:0:0:0:
227,73,137372,2,0,P|226:45|195:26,3,35,8|2|2|2,0:1|0:3|0:3|0:3,0:0:0:0:
186,9,137747,2,0,P|154:51|128:52,1,70,2|2,0:3|0:3,0:0:0:0:
24,158,138122,6,0,P|61:124|111:126,1,70,4|2,1:2|0:3,0:0:0:0:
171,163,138403,1,2,0:3:0:0:
196,167,138497,2,0,P|176:122|152:109,1,70,2|2,0:3|0:3,0:0:0:0:
89,56,138778,1,2,0:3:0:0:
62,72,138872,2,0,P|38:62|28:45,3,35,8|2|2|2,0:1|0:3|0:3|0:3,0:0:0:0:
26,8,139247,1,2,0:3:0:0:
105,33,139622,5,0,1:0:0:0:
156,93,139809,1,8,3:0:0:0:
191,54,139934,2,0,L|186:29,1,23.3333333333333,8|8,1:0|1:0,0:0:0:0:
269,59,140090,1,8,3:0:0:0:
226,28,140184,2,0,L|234:-7,2,35,8|8|8,3:0|3:0|1:0,0:0:0:0:
283,119,140497,5,8,3:0:0:0:
311,53,140622,1,8,3:0:0:0:
374,88,140747,1,4,3:0:0:0:
412,26,140872,1,4,3:0:0:0:
477,54,140997,1,8,1:0:0:0:
256,192,141122,12,0,141872,1:0:0:0:
488,314,142622,6,0,P|446:267|397:254,1,105,6|0,1:2|0:0,0:0:0:0:
294,236,142997,2,0,P|350:263|381:320,1,105,2|0,1:2|0:0,0:0:0:0:
306,369,143372,2,0,P|336:330|365:325,1,70,2|0,1:2|0:0,0:0:0:0:
213,312,143747,2,0,P|254:336|294:333,1,70,2|0,1:2|0:0,0:0:0:0:
390,243,144122,6,0,P|342:238|301:191,1,105,2|0,1:2|0:0,0:0:0:0:
194,155,144497,2,0,P|238:173|272:235,1,105,2|0,1:2|0:0,0:0:0:0:
155,307,144872,2,0,P|188:277|198:251,1,70,2|0,1:2|0:0,0:0:0:0:
145,141,145247,2,0,P|168:115|201:105,1,70,2|0,1:2|0:0,0:0:0:0:
345,135,145622,6,0,P|302:88|302:22,1,105,2|0,1:2|0:0,0:0:0:0:
218,0,145997,2,0,P|274:9|320:38,1,105,2|0,1:2|0:0,0:0:0:0:
421,67,146372,2,0,P|451:33|458:0,1,70,2|0,1:2|0:0,0:0:0:0:
494,146,146747,2,0,P|487:112|471:81,1,70,2|0,1:2|0:0,0:0:0:0:
312,100,147122,6,0,P|291:152|234:185,1,105,2|0,1:2|0:0,0:0:0:0:
198,116,147497,2,0,P|166:76|102:56,1,105,2|0,1:2|0:0,0:0:0:0:
10,139,147872,2,0,P|53:116|89:135,1,70,2|0,1:2|0:0,0:0:0:0:
92,157,148153,1,2,0:2:0:0:
98,197,148247,2,0,P|120:211|140:200,1,35,2|2,1:2|0:2,0:0:0:0:
341,260,148622,6,0,P|303:223|249:222,1,105,2|0,1:2|0:0,0:0:0:0:
173,298,148997,2,0,P|202:272|208:209,1,105,2|0,1:2|0:0,0:0:0:0:
63,154,149372,2,0,P|100:175|117:204,1,70,2|0,1:2|0:0,0:0:0:0:
252,258,149747,2,0,P|204:244|191:216,1,70,2|0,1:2|0:0,0:0:0:0:
62,290,150122,6,0,P|107:285|151:324,1,105,2|0,1:2|0:0,0:0:0:0:
235,312,150497,2,0,P|269:348|334:342,1,105,2|0,1:2|0:0,0:0:0:0:
452,322,150872,2,0,P|421:339|405:369,2,70,2|2|2,1:2|0:2|1:2,0:0:0:0:
207,243,151622,6,0,B|205:214|205:214|246:276,1,90.9999958343508,4|2,1:2|0:3,0:0:0:0:
339,176,151997,2,0,B|320:194|320:194|335:129,1,90.9999958343508,8|2,1:2|0:2,0:0:0:0:
372,103,152278,2,0,P|341:58|298:45,1,90.9999958343508,2|0,3:2|3:0,0:0:0:0:
264,63,152559,1,2,3:2:0:0:
223,53,152653,1,2,3:2:0:0:
209,19,152747,1,8,1:2:0:0:
89,36,152934,2,0,P|115:42|133:55,1,45.4999979171754,2|0,0:2|3:0,0:0:0:0:
151,149,153122,6,0,B|126:85|126:85|120:106,1,90.9999958343508,0|2,1:0|0:3,0:0:0:0:
69,234,153497,2,0,B|46:213|46:213|117:247,1,90.9999958343508,8|2,1:2|0:3,0:0:0:0:
139,264,153778,1,0,3:0:0:0:
169,235,153872,1,2,1:2:0:0:
208,246,153965,1,2,3:2:0:0:
229,218,154059,1,2,0:2:0:0:
262,236,154153,1,0,3:0:0:0:
291,206,154247,2,0,P|317:204|342:212,1,45.4999979171754,14|0,1:2|0:0,0:0:0:0:
377,192,154434,2,0,P|397:207|412:232,1,45.4999979171754,2|0,0:3|3:0,0:0:0:0:
404,318,154622,6,0,P|354:287|307:287,1,90.9999958343508,4|2,1:3|0:3,0:0:0:0:
162,361,154997,2,0,P|121:319|109:284,1,90.9999958343508,8|2,1:2|0:3,0:0:0:0:
140,252,155278,1,0,3:0:0:0:
147,219,155372,1,0,1:0:0:0:
130,194,155465,1,0,3:0:0:0:
34,107,155653,2,0,P|65:107|86:120,1,45.4999979171754,0|8,0:0|1:2,0:0:0:0:
194,147,155934,5,2,3:3:0:0:
221,128,156028,1,0,3:0:0:0:
206,84,156122,2,0,P|262:80|300:108,1,90.9999958343508,0|2,1:0|0:3,0:0:0:0:
386,193,156497,2,0,P|382:132|402:96,1,90.9999958343508,8|2,1:2|0:3,0:0:0:0:
435,100,156778,1,0,3:0:0:0:
459,71,156872,1,0,1:0:0:0:
444,38,156965,1,0,3:0:0:0:
317,14,157153,6,0,P|346:26|355:44,1,45.4999979171754,0|8,0:0|1:2,0:0:0:0:
307,129,157434,1,2,0:3:0:0:
218,36,157622,1,0,1:0:0:0:
104,131,157809,5,2,0:3:0:0:
205,67,157997,1,8,1:2:0:0:
285,166,158184,1,2,0:3:0:0:
250,172,158278,1,0,3:0:0:0:
242,216,158372,2,0,P|257:243|279:257,1,45.4999979171754,0|0,1:0|3:0,0:0:0:0:
372,237,158559,1,2,0:3:0:0:
399,251,158653,1,0,0:0:0:0:
406,282,158747,1,8,1:2:0:0:
289,352,158934,2,0,P|310:332|332:323,1,45.4999979171754,2|0,3:3|3:0,0:0:0:0:
437,383,159122,6,0,P|388:360|345:353,1,90.9999958343508,0|2,1:0|0:3,0:0:0:0:
168,323,159497,2,0,P|225:318|283:287,1,90.9999958343508,8|2,1:2|0:3,0:0:0:0:
75,222,159872,1,0,1:0:0:0:
106,233,159965,1,0,3:0:0:0:
126,264,160059,2,0,P|130:288|153:314,1,45.4999979171754,2|0,0:3|0:0,0:0:0:0:
239,282,160247,2,0,P|273:240|325:222,1,90.9999958343508,8|2,1:2|3:3,0:0:0:0:
433,234,160528,5,0,3:0:0:0:
413,205,160622,2,0,L|277:176,1,136.499993751526,2|0,1:2|0:0,0:0:0:0:
145,222,160997,1,8,1:2:0:0:
243,152,161184,1,2,0:3:0:0:
82,139,161372,1,0,1:0:0:0:
89,167,161465,1,0,3:0:0:0:
117,187,161559,2,0,P|143:192|170:181,1,45.4999979171754,2|0,0:3|0:0,0:0:0:0:
239,43,161747,2,0,P|208:81|164:100,1,90.9999958343508,8|2,1:2|3:3,0:0:0:0:
71,50,162028,5,0,3:0:0:0:
55,76,162122,2,0,L|195:62,1,136.499993751526,2|0,1:2|0:0,0:0:0:0:
312,118,162497,1,8,1:2:0:0:
214,34,162684,1,2,0:3:0:0:
355,34,162872,1,0,1:0:0:0:
332,13,162965,1,0,3:0:0:0:
297,14,163059,2,0,P|269:26|253:54,1,45.4999979171754,2|0,0:3|0:0,0:0:0:0:
337,149,163247,2,0,P|349:100|387:82,1,90.9999958343508,8|2,1:2|3:3,0:0:0:0:
494,117,163528,5,0,3:0:0:0:
482,88,163622,2,0,L|426:224,1,136.499993751526,2|0,1:2|0:0,0:0:0:0:
449,324,163997,2,0,L|460:233,1,90.9999958343508,8|2,1:2|0:3,0:0:0:0:
307,170,164372,1,0,1:0:0:0:
288,197,164465,1,0,3:0:0:0:
299,231,164559,1,2,0:3:0:0:
335,245,164653,1,0,0:0:0:0:
345,281,164747,1,8,1:2:0:0:
222,373,164934,5,2,3:3:0:0:
337,320,165122,2,0,P|305:323|277:334,1,45.4999979171754,4|0,1:2|0:0,0:0:0:0:
255,309,165309,2,0,P|229:326|205:355,1,45.4999979171754,2|0,3:3|0:0,0:0:0:0:
133,374,165497,2,0,P|101:365|86:348,1,45.4999979171754,12|0,1:2|0:0,0:0:0:0:
62,348,165684,2,0,P|51:319|55:294,1,45.4999979171754,2|0,3:3|3:0,0:0:0:0:
99,225,165872,1,4,1:2:0:0:
91,195,165965,1,0,3:0:0:0:
64,182,166059,2,0,P|41:199|30:225,1,45.4999979171754,2|0,3:3|0:0,0:0:0:0:
94,281,166247,2,0,P|106:265|136:254,1,45.4999979171754,12|0,1:2|0:0,0:0:0:0:
242,271,166434,5,2,3:3:0:0:
279,280,166528,1,0,3:0:0:0:
315,262,166622,2,0,P|330:237|332:204,1,56,6|0,1:1|0:0,0:0:0:0:
280,114,166809,1,2,0:3:0:0:
268,79,166997,2,0,P|302:93|323:116,1,56,8|0,1:2|0:0,0:0:0:0:
415,157,167184,1,2,0:3:0:0:
443,141,167278,2,0,P|424:113|396:105,1,56,0|0,3:0|1:0,0:0:0:0:
322,54,167465,2,0,P|304:84|279:96,1,56,0|2,3:0|0:3,0:0:0:0:
191,51,167653,1,0,3:0:0:0:
169,70,167747,2,0,P|179:103|199:126,1,56,10|0,1:1|0:0,0:0:0:0:
86,101,167934,2,0,P|109:120|154:130,1,56,2|0,3:1|0:0,0:0:0:0:
209,215,168122,5,2,1:1:0:0:
175,198,168215,1,0,3:0:0:0:
143,216,168309,2,0,P|139:248|155:274,1,56,2|0,3:3|0:0,0:0:0:0:
237,298,168497,2,0,P|226:338|197:362,1,56,8|0,1:2|0:0,0:0:0:0:
125,354,168684,1,2,3:3:0:0:
98,336,168778,1,0,3:0:0:0:
70,358,168872,2,0,P|123:379|178:333,1,112,2|2,1:1|0:3,0:0:0:0:
273,332,169153,1,0,3:0:0:0:
251,312,169247,2,0,P|310:286|352:310,1,112,10|2,1:1|0:3,0:0:0:0:
511,367,169622,6,0,P|498:337|475:310,1,56,2|0,1:1|0:0,0:0:0:0:
374,291,169809,1,2,0:1:0:0:
351,264,169997,2,0,P|378:250|408:248,1,56,8|0,1:2|0:0,0:0:0:0:
503,217,170184,1,2,0:3:0:0:
479,239,170278,2,0,P|448:224|432:196,1,56,0|0,3:0|1:0,0:0:0:0:
373,121,170465,2,0,P|393:148|397:183,1,56,0|2,3:0|0:3,0:0:0:0:
330,237,170653,1,0,3:0:0:0:
300,209,170747,1,8,1:2:0:0:
200,263,170934,1,0,3:0:0:0:
126,160,171122,6,0,P|182:180|204:232,1,112,2|2,1:1|0:3,0:0:0:0:
287,108,171497,2,0,P|228:103|188:152,1,112,10|2,1:1|0:3,0:0:0:0:
114,198,171778,1,0,3:0:0:0:
85,173,171872,1,2,1:1:0:0:
81,141,171965,2,0,P|99:111|125:101,1,56,0|2,3:0|0:3,0:0:0:0:
198,89,172153,1,0,3:0:0:0:
213,58,172247,1,8,1:2:0:0:
300,9,172434,6,0,P|326:20|345:42,1,56,2|0,3:1|3:0,0:0:0:0:
377,134,172622,2,0,P|360:104|330:83,1,56,2|0,1:1|0:0,0:0:0:0:
220,85,172809,1,2,0:3:0:0:
205,56,172997,2,0,P|236:66|256:99,1,56,8|0,1:2|0:0,0:0:0:0:
223,180,173184,1,2,0:3:0:0:
241,202,173278,2,0,P|266:194|289:167,1,56,0|0,3:0|1:0,0:0:0:0:
375,153,173465,2,0,P|344:164|331:187,1,56,0|2,3:0|0:3,0:0:0:0:
334,284,173653,1,0,3:0:0:0:
354,260,173747,2,0,P|386:268|408:292,1,56,10|0,1:1|0:0,0:0:0:0:
463,349,173934,2,0,P|431:358|410:383,1,56,2|0,3:3|0:0,0:0:0:0:
312,373,174122,5,2,1:1:0:0:
284,347,174215,1,0,3:0:0:0:
243,360,174309,2,0,P|207:357|188:342,1,56,2|0,3:3|0:0,0:0:0:0:
146,259,174497,2,0,P|110:262|84:277,1,56,8|0,1:2|0:0,0:0:0:0:
9,311,174684,1,2,3:3:0:0:
2,344,174778,1,0,3:0:0:0:
27,369,174872,2,0,P|51:313|30:254,1,112,0|2,1:0|0:3,0:0:0:0:
0,162,175153,1,0,3:0:0:0:
15,133,175247,2,0,P|82:145|136:194,1,112,8|2,1:2|0:3,0:0:0:0:
220,221,175528,5,0,3:0:0:0:
238,193,175622,2,0,B|257:173|257:173|249:247,1,90.9999958343508,4|2,1:2|0:3,0:0:0:0:
170,85,175997,2,0,B|129:136|129:136|183:123,1,90.9999958343508,8|2,1:2|0:3,0:0:0:0:
197,119,176278,1,0,0:0:0:0:
216,88,176372,1,0,1:0:0:0:
255,89,176465,1,0,3:0:0:0:
348,29,176653,2,0,L|306:11,1,45.4999979171754,0|8,3:0|1:2,0:0:0:0:
148,12,176934,5,2,3:3:0:0:
182,21,177028,1,0,3:0:0:0:
198,57,177122,2,0,B|190:83|190:83|257:43,1,90.9999958343508,0|2,1:0|0:3,0:0:0:0:
419,100,177497,2,0,B|391:118|391:118|373:62,1,90.9999958343508,8|2,1:2|0:3,0:0:0:0:
263,140,177872,1,0,1:0:0:0:
297,149,177965,1,0,3:0:0:0:
324,178,178059,2,0,P|327:199|339:217,2,30.3333319447836,10|8|8,0:2|0:1|0:1,0:0:0:0:
392,127,178247,1,8,1:1:0:0:
493,164,178434,5,8,0:1:0:0:
458,171,178528,1,8,0:1:0:0:
444,205,178622,2,0,P|461:237|483:253,1,56,4|0,1:2|0:0,0:0:0:0:
502,342,178809,1,2,0:3:0:0:
481,368,178997,2,0,P|445:358|423:340,1,56,8|0,1:2|0:0,0:0:0:0:
379,260,179184,1,2,0:3:0:0:
358,238,179278,2,0,P|324:248|310:274,1,56,0|0,3:0|1:0,0:0:0:0:
329,354,179465,2,0,P|296:349|264:329,1,56,0|2,3:0|0:3,0:0:0:0:
223,244,179653,1,2,3:2:0:0:
205,270,179747,1,10,1:2:0:0:
132,200,179934,1,2,3:2:0:0:
46,267,180122,5,0,1:0:0:0:
13,245,180215,1,0,3:0:0:0:
6,213,180309,2,0,P|27:188|55:174,1,56,2|0,3:3|0:0,0:0:0:0:
153,161,180497,2,0,P|132:133|105:116,1,56,8|0,1:2|0:0,0:0:0:0:
34,13,180684,1,2,3:3:0:0:
24,40,180778,1,0,3:0:0:0:
39,65,180872,2,0,P|96:36|150:36,1,112,2|2,1:2|0:3,0:0:0:0:
243,54,181153,1,0,3:0:0:0:
225,81,181247,2,0,P|287:74|312:28,1,112,10|2,1:2|0:3,0:0:0:0:
512,68,181622,6,0,P|484:52|449:49,1,56,0|0,1:0|0:0,0:0:0:0:
370,114,181809,2,0,L|350:57,1,56,2|0,3:3|0:0,0:0:0:0:
321,62,181997,2,0,L|321:5,1,56,8|0,1:2|0:0,0:0:0:0:
241,98,182184,2,0,L|263:152,1,56,2|0,3:3|0:0,0:0:0:0:
279,137,182372,2,0,L|270:208,1,56,0|0,1:0|0:0,0:0:0:0:
181,183,182559,1,2,3:3:0:0:
160,207,182653,1,2,3:2:0:0:
177,234,182747,2,0,L|166:166,1,56,10|0,1:2|0:0,0:0:0:0:
142,109,182934,2,0,L|131:163,1,56,2|0,3:2|0:0,0:0:0:0:
70,281,183122,5,2,1:2:0:0:
145,249,183309,1,2,0:3:0:0:
247,326,183497,1,10,1:2:0:0:
280,253,183684,1,2,0:3:0:0:
383,305,183872,1,2,1:2:0:0:
402,276,183965,1,0,3:0:0:0:
391,244,184059,1,2,0:3:0:0:
359,226,184153,1,0,3:0:0:0:
328,246,184247,1,10,1:2:0:0:
237,150,184434,6,0,P|273:159|296:176,1,56,2|0,3:3|3:0,0:0:0:0:
411,165,184622,2,0,L|282:210,1,112,0|2,1:0|0:3,0:0:0:0:
97,105,184997,2,0,L|160:120,1,56,8|0,1:2|0:0,0:0:0:0:
190,94,185184,2,0,L|128:103,1,56,2|0,3:3|0:0,0:0:0:0:
42,192,185372,2,0,L|70:135,1,56,0|0,1:0|0:0,0:0:0:0:
33,113,185559,2,0,L|38:176,1,56,2|0,3:3|0:0,0:0:0:0:
100,257,185747,1,10,1:2:0:0:
148,153,185934,1,2,0:2:0:0:
5,161,186122,6,0,L|129:116,1,112,0|2,1:0|0:3,0:0:0:0:
353,112,186497,2,0,L|296:93,1,56,8|0,1:2|0:0,0:0:0:0:
264,79,186684,2,0,L|320:63,1,56,2|0,3:3|0:0,0:0:0:0:
471,17,186872,2,0,L|447:70,1,56,2|0,1:2|0:0,0:0:0:0:
426,53,187059,2,0,L|442:109,1,56,2|0,3:3|0:0,0:0:0:0:
512,189,187247,1,10,1:2:0:0:
383,216,187434,5,2,3:3:0:0:
417,224,187528,1,0,3:0:0:0:
419,261,187622,2,0,L|303:292,1,112,0|2,1:0|0:3,0:0:0:0:
191,289,187903,1,0,0:0:0:0:
157,311,187997,2,0,L|181:249,1,56,8|0,1:2|0:0,0:0:0:0:
122,218,188184,2,0,L|133:274,1,56,2|0,3:3|0:0,0:0:0:0:
179,338,188372,2,0,L|184:271,1,56,0|0,1:0|0:0,0:0:0:0:
92,198,188559,2,0,L|113:256,1,56,2|2,3:3|0:2,0:0:0:0:
196,359,188747,2,0,L|216:295,1,56,10|0,1:2|0:0,0:0:0:0:
240,151,188934,5,2,3:2:0:0:
273,163,189028,1,0,3:0:0:0:
289,194,189122,2,0,L|91:241,1,168,6|0,1:0|0:0,0:0:0:0:
158,187,189497,2,0,L|333:222,1,168,6|0,1:0|0:0,0:0:0:0:
464,176,189872,5,8,0:1:0:0:
448,144,189965,1,8,0:3:0:0:
412,131,190059,1,8,0:2:0:0:
380,107,190153,1,8,3:2:0:0:
378,66,190247,1,8,1:1:0:0:
481,33,190434,1,4,1:3:0:0:
285,2,190622,1,4,1:0:0:0:
