osu file format v14

[General]
AudioFilename: audio.mp3
AudioLeadIn: 0
PreviewTime: 166610
Countdown: 0
SampleSet: Soft
StackLeniency: 0
Mode: 0
LetterboxInBreaks: 0
WidescreenStoryboard: 1

[Editor]
Bookmarks: 1610,10610,22610,34610,46610,58610,70610,82610,94610,106610,118610,130610,142610,154610,166610,178610,190610
DistanceSpacing: 0.8
BeatDivisor: 4
GridSize: 32
TimelineZoom: 1.6

[Metadata]
Title:Hysteric Night Girl -Awakening- (feat. Such)
TitleUnicode:ヒステリックナイトガール -Awakening- (feat. Such)
Artist:PSYQUI
ArtistUnicode:PSYQUI
Creator:Luminiscental
Version:Extra
Source:
Tags:electronic japanese speed garage edm innocent future core jpop j-pop tech wacca lam megarex mrx-034 coffee cup mocha sf nm6 nm 6 nikolomara nik
BeatmapID:3698760
BeatmapSetID:1580891

[Difficulty]
HPDrainRate:5
CircleSize:4
OverallDifficulty:8
ApproachRate:9.3
SliderMultiplier:1.6
SliderTickRate:1

[Events]
//Background and Video events
0,0,"bg.jpg",0,0
//Break Periods
2,118822,130068
//Storyboard Layer 0 (Background)
//Storyboard Layer 1 (Fail)
//Storyboard Layer 2 (Pass)
//Storyboard Layer 3 (Foreground)
//Storyboard Layer 4 (Overlay)
//Storyboard Sound Samples

[TimingPoints]
1622,375,4,2,0,50,1,0
1622,-100,4,2,0,50,0,0
7622,-100,4,2,0,60,0,0
9122,-100,4,2,0,70,0,0
9872,-100,4,2,0,80,0,0
10622,-66.6666666666667,4,2,0,80,0,0
10809,-66.6666666666667,4,2,0,70,0,0
22622,-66.6666666666667,4,2,0,60,0,0
34059,-66.6666666666667,4,2,0,70,0,0
34809,-50,4,2,0,70,0,0
45872,-50,4,2,0,80,0,0
46622,-66.6666666666667,4,2,0,60,0,0
52622,-250,4,2,0,50,0,0
52997,-166.666666666667,4,2,0,50,0,0
53372,-111.111111111111,4,2,0,50,0,0
53747,-74.0740740740741,4,2,0,50,0,0
54122,-66.6666666666667,4,2,0,62,0,0
54497,-55.5555555555555,4,2,0,62,0,0
54872,-43.4782608695652,4,2,0,62,0,0
55247,-33.3333333333333,4,2,0,62,0,0
55622,-33.3333333333333,4,2,0,75,0,0
56372,-33.3333333333333,4,2,0,85,0,0
58434,-33.3333333333333,4,2,0,70,0,0
58622,-66.6666666666667,4,2,0,90,0,0
67809,-66.6666666666667,4,2,0,75,0,0
70622,-55.5555555555556,4,2,0,70,0,0
76622,-43.4782608695652,4,2,0,77,0,0
76997,-55.5555555555555,4,2,0,77,0,0
78122,-43.4782608695652,4,2,0,77,0,0
78497,-55.5555555555555,4,2,0,77,0,0
79622,-43.4782608695652,4,2,0,77,0,0
79997,-55.5555555555555,4,2,0,77,0,0
81122,-47.6190476190476,4,2,0,80,0,0
81497,-40,4,2,0,80,0,0
82622,-100,4,2,0,90,0,0
83372,-66.6666666666667,4,2,0,90,0,0
83559,-43.4782608695652,4,2,0,90,0,0
83747,-66.6666666666667,4,2,0,90,0,0
83934,-43.4782608695652,4,2,0,90,0,0
88247,-43.4782608695652,4,2,0,70,0,0
88622,-43.4782608695652,4,2,0,90,0,0
91622,-43.4782608695652,4,2,0,100,0,0
94622,-47.6190476190476,4,2,0,100,0,1
94715,-47.6190476190476,4,2,0,85,0,1
103622,-55.5555555555556,4,2,0,70,0,0
106622,-43.4782608695652,4,2,0,85,0,1
115622,-43.4782608695652,4,2,0,95,0,1
117309,-43.4782608695652,4,2,0,75,0,1
117684,-43.4782608695652,4,2,0,65,0,1
118153,-100,4,2,0,65,0,0
118622,-100,4,2,0,80,0,0
130622,-100,4,2,0,50,0,0
136622,-100,4,2,0,60,0,0
138122,-100,4,2,0,70,0,0
139622,-100,4,2,0,80,0,0
142622,-66.6666666666667,4,2,0,90,0,0
151622,-66.6666666666667,4,2,0,75,0,0
154622,-55.5555555555556,4,2,0,70,0,0
160622,-43.4782608695652,4,2,0,70,0,0
160997,-55.5555555555555,4,2,0,70,0,0
162122,-43.4782608695652,4,2,0,70,0,0
162497,-55.5555555555555,4,2,0,70,0,0
163622,-43.4782608695652,4,2,0,70,0,0
163997,-55.5555555555555,4,2,0,70,0,0
165122,-47.6190476190476,4,2,0,80,0,0
166622,-47.6190476190476,4,2,0,80,0,1
166715,-47.6190476190476,4,2,0,75,0,1
175622,-55.5555555555555,4,2,0,80,0,0
175715,-55.5555555555555,4,2,0,60,0,0
178622,-47.6190476190476,4,2,0,70,0,1
187622,-47.6190476190476,4,2,0,75,0,1
189122,-47.6190476190476,4,2,0,80,0,1
189497,-40,4,2,0,80,0,1
189872,-100,4,2,0,85,0,0

[Colours]
Combo1 : 188,84,222
Combo2 : 134,50,186
Combo3 : 211,53,124
Combo4 : 54,44,182
Combo5 : 228,210,156
Combo6 : 248,120,213

[HitObjects]
126,34,1622,6,0,P|116:59|112:84,3,40,2|2|2|2,1:2|0:3|0:3|0:3,0:0:0:0:
129,101,1997,1,2,0:3:0:0:
210,212,2372,2,0,P|166:194|119:190,2,80,8|2|0,0:1|0:3|0:0,0:0:0:0:
355,51,3122,5,2,0:2:0:0:
441,22,3309,2,0,P|426:46|398:59,2,40,2|2|2,0:3|0:3|0:3,0:0:0:0:
484,151,3872,2,0,P|461:112|431:112,1,80,8|2,0:1|0:3,0:0:0:0:
354,189,4247,2,0,P|381:151|417:161,1,80,2|0,0:3|1:0,0:0:0:0:
450,358,4622,6,0,P|433:378|409:387,3,40,2|2|2|2,1:2|0:3|0:3|0:3,0:0:0:0:
385,369,4997,1,2,0:3:0:0:
154,360,5372,2,0,P|200:317|241:315,1,80,8|2,0:1|0:3,0:0:0:0:
332,339,5747,1,0,0:0:0:0:
55,264,6122,6,0,P|13:240|-14:214,1,80,2|2,0:2|0:3,0:0:0:0:
224,230,6497,2,0,P|159:221|131:222,1,80,2|2,0:3|0:3,0:0:0:0:
297,303,6872,1,8,0:1:0:0:
331,280,6965,1,2,0:3:0:0:
365,279,7059,1,2,0:3:0:0:
392,291,7153,2,0,P|418:294|435:286,1,40,2|0,1:3|0:0,0:0:0:0:
510,304,7434,2,0,P|522:284|527:257,1,40,2|0,1:3|0:0,0:0:0:0:
404,36,7622,6,0,P|382:54|372:80,1,40,6|2,1:2|0:3,0:0:0:0:
340,189,7809,1,2,0:3:0:0:
323,157,7903,1,2,0:3:0:0:
300,130,7997,1,2,0:3:0:0:
173,127,8184,2,0,P|202:114|220:94,1,40,2|2,0:3|0:3,0:0:0:0:
75,10,8372,6,0,P|100:31|112:56,1,40,8|2,0:1|0:3,0:0:0:0:
66,172,8559,1,2,0:3:0:0:
54,139,8653,1,2,0:3:0:0:
58,113,8747,1,2,0:3:0:0:
185,172,8934,2,0,P|159:185|144:203,1,40,2|2,0:3|0:3,0:0:0:0:
46,349,9122,6,0,P|64:327|90:313,1,40,6|2,1:2|0:3,0:0:0:0:
229,297,9309,1,2,0:3:0:0:
279,298,9403,1,2,0:3:0:0:
316,309,9497,1,2,0:3:0:0:
454,369,9684,1,2,0:3:0:0:
485,382,9778,1,2,0:3:0:0:
512,384,9872,5,8,1:2:0:0:
512,384,10059,1,0,1:0:0:0:
512,384,10247,1,8,1:2:0:0:
396,234,10622,6,0,L|461:345,1,120.000004577637,4|2,1:0|0:3,0:0:0:0:
458,60,10997,2,0,B|480:54|480:54|476:91,1,60.0000022888184,8|0,1:2|0:0,0:0:0:0:
405,139,11184,1,2,0:2:0:0:
391,119,11278,2,0,L|256:101,1,120.000004577637,2|0,0:2|0:0,0:0:0:0:
150,191,11559,1,2,0:2:0:0:
163,171,11653,2,0,L|294:142,1,120.000004577637,2|0,0:2|0:0,0:0:0:0:
361,201,11934,2,0,L|287:181,1,60.0000022888184,2|0,0:2|0:0,0:0:0:0:
58,38,12122,5,0,1:0:0:0:
221,95,12309,1,2,0:3:0:0:
44,75,12497,2,0,B|39:44|39:44|71:61,1,60.0000022888184,8|0,1:2|0:0,0:0:0:0:
260,110,12684,1,2,0:2:0:0:
249,83,12778,2,0,L|201:203,1,120.000004577637,2|0,0:2|0:0,0:0:0:0:
311,243,13059,1,2,0:2:0:0:
283,231,13153,2,0,L|340:343,1,120.000004577637,2|0,0:2|0:0,0:0:0:0:
432,346,13434,2,0,L|376:316,1,60.0000022888184,2|0,0:2|0:0,0:0:0:0:
142,382,13622,6,0,B|189:385|189:385|271:343,1,120.000004577637,0|2,1:0|0:3,0:0:0:0:
487,164,13997,2,0,B|469:199|469:199|466:164,1,60.0000022888184,8|0,1:2|0:0,0:0:0:0:
435,71,14184,1,2,3:2:0:0:
460,51,14278,1,2,3:2:0:0:
467,21,14372,2,0,L|343:1,1,120.000004577637,0|2,1:0|0:2,0:0:0:0:
219,69,14653,1,2,3:2:0:0:
210,91,14747,2,0,L|330:36,1,120.000004577637,8|2,1:2|0:2,0:0:0:0:
493,100,15028,5,0,3:0:0:0:
497,132,15122,2,0,L|464:265,1,120.000004577637,0|2,1:0|0:3,0:0:0:0:
102,38,15497,2,0,B|62:53|62:53|83:60,1,60.0000022888184,8|0,1:2|0:0,0:0:0:0:
170,103,15684,1,2,3:3:0:0:
187,138,15778,1,0,3:0:0:0:
166,176,15872,2,0,L|90:156,1,60.0000022888184,2|2,1:2|0:2,0:0:0:0:
5,239,16059,2,0,L|77:228,1,60.0000022888184,2|0,0:2|0:0,0:0:0:0:
364,266,16247,2,0,L|309:396,1,120.000004577637,14|2,1:2|0:3,0:0:0:0:
130,384,16528,5,0,3:0:0:0:
117,358,16622,2,0,L|244:378,1,120.000004577637,4|2,1:3|0:3,0:0:0:0:
22,306,16997,2,0,B|11:301|11:301|53:280,1,60.0000022888184,8|0,1:2|0:0,0:0:0:0:
199,277,17184,1,0,0:2:0:0:
178,257,17278,2,0,L|198:122,1,120.000004577637,0|0,0:2|0:0,0:0:0:0:
256,21,17559,1,0,0:2:0:0:
224,29,17653,2,0,L|154:145,1,120.000004577637,0|0,0:2|0:0,0:0:0:0:
71,144,17934,2,0,L|141:105,1,60.0000022888184,0|0,0:2|0:0,0:0:0:0:
308,125,18122,5,0,1:0:0:0:
134,84,18309,1,2,0:3:0:0:
353,113,18497,2,0,B|336:77|336:77|330:108,1,60.0000022888184,8|0,1:2|0:0,0:0:0:0:
338,213,18684,1,2,0:2:0:0:
360,228,18778,2,0,L|476:191,1,120.000004577637,2|0,0:2|0:0,0:0:0:0:
478,309,19059,1,2,0:2:0:0:
480,277,19153,2,0,L|371:360,1,120.000004577637,2|0,0:2|0:0,0:0:0:0:
286,252,19434,2,0,L|344:265,1,60.0000022888184,2|0,0:2|0:0,0:0:0:0:
501,376,19622,6,0,B|431:382|431:382|369:362,1,120.000004577637,0|2,1:0|0:3,0:0:0:0:
330,176,19997,2,0,B|300:144|300:144|292:172,1,60.0000022888184,8|0,1:2|0:0,0:0:0:0:
261,290,20184,1,2,3:2:0:0:
286,299,20278,1,2,3:2:0:0:
303,323,20372,2,0,L|182:385,1,120.000004577637,0|2,1:0|0:2,0:0:0:0:
135,283,20653,1,2,3:2:0:0:
148,307,20747,2,0,L|36:263,1,120.000004577637,8|2,1:2|0:2,0:0:0:0:
26,108,21028,5,0,3:0:0:0:
48,123,21122,2,0,L|88:258,1,120.000004577637,0|2,1:0|0:3,0:0:0:0:
472,97,21497,2,0,B|483:95|483:95|437:77,1,60.0000022888184,8|0,1:2|0:0,0:0:0:0:
277,52,21684,1,2,3:2:0:0:
326,63,21778,1,2,3:2:0:0:
354,102,21872,1,0,1:0:0:0:
449,35,22247,1,8,0:1:0:0:
233,294,22622,5,4,1:2:0:0:
500,362,22997,1,8,1:2:0:0:
277,268,23372,1,0,1:0:0:0:
293,303,23465,1,0,3:0:0:0:
357,195,23653,2,0,B|361:169|361:169|336:191,1,60.0000022888184,0|8,3:0|1:2,0:0:0:0:
250,313,23934,5,2,3:3:0:0:
220,289,24028,1,0,3:0:0:0:
258,274,24122,1,0,1:0:0:0:
30,356,24497,1,8,1:2:0:0:
241,224,24872,1,0,1:0:0:0:
216,198,24965,2,0,L|286:168,1,60.0000022888184,0|2,3:0|0:3,0:0:0:0:
388,165,25153,1,0,3:0:0:0:
414,130,25247,2,0,L|338:109,1,60.0000022888184,8|0,1:2|0:0,0:0:0:0:
240,70,25434,5,2,3:3:0:0:
259,26,25528,1,0,3:0:0:0:
286,61,25622,1,0,1:0:0:0:
12,18,25997,1,8,1:2:0:0:
345,64,26371,1,0,1:0:0:0:
326,100,26465,1,0,3:0:0:0:
175,127,26653,2,0,B|204:144|204:144|212:114,1,60.0000022888184,0|8,3:0|1:2,0:0:0:0:
302,242,26934,5,2,3:3:0:0:
317,197,27028,1,0,3:0:0:0:
350,235,27122,1,2,1:2:0:0:
391,136,27309,2,0,L|376:72,1,60.0000022888184,2|0,3:3|0:0,0:0:0:0:
465,186,27497,1,10,1:2:0:0:
405,54,27684,2,0,L|420:-26,1,60.0000022888184,2|0,3:3|0:0,0:0:0:0:
282,104,27872,1,2,1:2:0:0:
253,74,27965,2,0,L|287:15,1,60.0000022888184,2|2,3:2|0:3,0:0:0:0:
162,100,28153,2,0,L|210:151,1,60.0000022888184,2|8,3:2|1:2,0:0:0:0:
94,51,28340,1,2,3:2:0:0:
79,93,28434,2,0,L|95:167,1,60.0000022888184,2|0,3:3|0:0,0:0:0:0:
235,37,28622,5,0,1:0:0:0:
210,317,28997,1,8,1:2:0:0:
171,87,29372,1,0,1:0:0:0:
210,111,29465,1,0,3:0:0:0:
344,65,29653,2,0,B|320:31|320:31|311:63,1,60.0000022888184,0|8,3:0|1:2,0:0:0:0:
331,216,29934,5,2,3:3:0:0:
335,166,30028,1,0,3:0:0:0:
373,195,30122,1,0,1:0:0:0:
147,153,30309,1,2,3:3:0:0:
373,195,30497,1,8,1:2:0:0:
165,110,30684,2,0,L|208:170,1,60.0000022888184,2|0,3:3|0:0,0:0:0:0:
230,332,30872,5,0,1:0:0:0:
269,302,30965,1,0,3:0:0:0:
317,316,31059,1,2,3:3:0:0:
361,288,31153,1,0,3:0:0:0:
408,311,31247,1,8,1:2:0:0:
442,271,31340,1,0,3:0:0:0:
489,301,31434,1,2,3:3:0:0:
262,230,31622,5,0,1:0:0:0:
512,190,31997,1,8,1:2:0:0:
360,123,32184,1,2,0:3:0:0:
386,149,32278,1,0,0:0:0:0:
427,138,32372,1,0,1:0:0:0:
449,104,32465,2,0,L|388:46,1,60.0000022888184,0|2,3:0|0:3,0:0:0:0:
268,39,32653,2,0,B|305:26|305:26|298:66,1,60.0000022888184,0|8,3:0|1:2,0:0:0:0:
231,166,32934,5,2,3:3:0:0:
198,132,33028,1,0,3:0:0:0:
181,176,33122,1,2,1:2:0:0:
114,105,33309,2,0,L|126:47,1,60.0000022888184,2|0,3:3|0:0,0:0:0:0:
142,253,33497,1,10,1:2:0:0:
100,148,33684,2,0,L|94:89,1,60.0000022888184,2|0,3:3|0:0,0:0:0:0:
178,277,33872,1,2,1:2:0:0:
57,2,34059,6,0,L|17:11,2,40.000001525879,10|8|8,3:3|0:3|0:3,0:0:0:0:
0,34,34247,1,12,1:2:0:0:
94,202,34434,5,10,3:3:0:0:
42,193,34528,1,8,3:3:0:0:
1,223,34622,1,4,1:0:0:0:
127,308,34809,2,0,B|107:253|107:253|194:316,1,160,2|8,0:3|1:2,0:0:0:0:
320,295,35184,5,2,0:3:0:0:
363,279,35278,1,0,3:0:0:0:
400,313,35372,2,0,L|325:342,1,80,0|0,1:0|3:0,0:0:0:0:
489,348,35559,2,0,L|405:339,1,80,2|0,0:3|0:0,0:0:0:0:
245,252,35747,1,8,1:2:0:0:
21,152,35934,5,2,0:3:0:0:
62,138,36028,1,2,3:2:0:0:
99,157,36122,2,0,L|125:241,1,80,2|0,1:2|0:0,0:0:0:0:
222,81,36309,2,0,L|201:161,1,80,2|0,0:3|0:0,0:0:0:0:
51,30,36497,1,10,1:2:0:0:
50,68,36590,2,0,L|119:138,1,80,2|2,0:2|0:3,0:0:0:0:
296,10,36778,2,0,L|245:82,2,80,2|0|0,3:2|1:0|3:0,0:0:0:0:
103,87,37059,2,0,L|121:9,1,80,2|0,0:3|0:0,0:0:0:0:
290,85,37247,1,8,1:2:0:0:
63,109,37434,6,0,P|68:73|119:78,1,80,2|0,0:3|3:0,0:0:0:0:
244,216,37622,1,0,1:0:0:0:
329,220,37809,2,0,P|317:185|268:199,1,80,2|0,0:3|0:0,0:0:0:0:
190,351,37997,1,8,1:2:0:0:
118,258,38184,5,2,0:3:0:0:
93,279,38278,2,0,L|255:323,1,160,0|0,3:0|3:0,0:0:0:0:
472,189,38559,6,0,P|510:220|532:205,1,80,2|0,0:3|0:0,0:0:0:0:
476,79,38747,1,8,1:2:0:0:
385,222,38934,2,0,P|428:220|447:254,1,80,2|0,0:3|3:0,0:0:0:0:
386,384,39122,1,0,1:0:0:0:
386,384,39309,1,2,0:3:0:0:
54,173,39497,5,10,1:2:0:0:
106,194,39590,1,2,0:2:0:0:
142,166,39684,1,2,0:3:0:0:
172,175,39778,1,2,3:2:0:0:
398,103,39965,5,2,3:2:0:0:
362,114,40059,1,2,0:3:0:0:
318,88,40153,1,2,0:2:0:0:
255,94,40247,2,0,P|330:125|422:138,1,160,10|2,1:2|0:3,0:0:0:0:
472,13,40528,5,0,3:0:0:0:
512,19,40622,2,0,P|478:41|440:53,1,80,2|0,1:2|0:0,0:0:0:0:
359,16,40809,1,2,0:3:0:0:
111,104,40997,2,0,B|232:69|232:69|177:44,2,160,8|2|0,1:2|0:3|1:0,0:0:0:0:
14,30,41465,1,0,3:0:0:0:
8,5,41559,2,0,P|53:-2|65:24,1,80,2|0,0:3|0:0,0:0:0:0:
21,169,41747,1,8,1:2:0:0:
27,128,41934,6,0,L|63:223,1,80,2|0,0:3|3:0,0:0:0:0:
142,244,42122,2,0,L|88:307,1,80,0|0,1:0|0:0,0:0:0:0:
0,384,42309,2,0,L|89:339,1,80,2|0,0:3|0:0,0:0:0:0:
281,351,42497,1,8,1:2:0:0:
318,364,42590,2,0,P|356:335|332:297,1,80,0|2,0:0|0:3,0:0:0:0:
480,207,42778,2,0,L|440:282,1,80,0|0,3:0|1:0,0:0:0:0:
302,161,42965,5,2,3:2:0:0:
342,182,43059,1,2,0:2:0:0:
365,226,43153,1,2,0:2:0:0:
198,141,43340,5,2,0:2:0:0:
287,135,43434,1,2,0:2:0:0:
359,183,43528,1,2,3:2:0:0:
92,10,43809,6,0,P|117:50|147:38,1,80,2|0,0:3|0:0,0:0:0:0:
401,13,43997,1,8,1:2:0:0:
363,29,44090,2,0,L|322:127,1,80,0|2,0:0|0:3,0:0:0:0:
190,208,44278,1,2,3:2:0:0:
159,186,44372,2,0,L|246:135,2,80,0|0|2,1:0|3:0|0:3,0:0:0:0:
64,161,44653,1,2,0:2:0:0:
43,132,44747,1,8,1:2:0:0:
64,25,44934,6,0,P|109:32|106:63,1,80,2|0,0:3|3:0,0:0:0:0:
17,268,45122,1,0,1:0:0:0:
50,197,45309,6,0,P|2:212|12:253,1,80,2|0,0:3|0:0,0:0:0:0:
196,376,45497,1,8,1:2:0:0:
127,315,45684,6,0,L|224:334,1,80,2|0,0:3|3:0,0:0:0:0:
451,347,45872,1,2,1:2:0:0:
454,346,45965,1,2,0:2:0:0:
457,345,46059,1,2,0:2:0:0:
460,344,46153,1,2,0:2:0:0:
463,343,46247,1,8,1:2:0:0:
463,343,46622,6,0,P|415:343|366:276,1,120.000004577637,6|2,1:2|1:3,0:0:0:0:
368,292,47184,1,2,1:3:0:0:
368,292,47559,1,2,1:3:0:0:
368,292,47934,1,2,1:3:0:0:
258,218,48122,6,0,P|200:226|167:274,1,120.000004577637,2|2,1:2|1:3,0:0:0:0:
167,273,48684,1,2,1:3:0:0:
167,273,49059,1,2,1:3:0:0:
167,273,49434,1,2,1:3:0:0:
39,96,49622,6,0,P|75:51|133:46,1,120.000004577637,2|2,1:2|1:3,0:0:0:0:
132,43,50184,1,2,1:3:0:0:
132,43,50559,1,2,1:3:0:0:
132,43,50934,1,2,1:3:0:0:
127,223,51122,6,0,P|163:268|221:273,1,120.000004577637,2|2,1:2|1:3,0:0:0:0:
220,273,51684,1,2,1:3:0:0:
199,249,52059,1,2,1:3:0:0:
127,223,52434,1,2,1:3:0:0:
31,262,52622,6,0,L|0:265,1,32,12|2,1:2|0:3,0:0:0:0:
47,270,52997,2,0,L|0:265,1,47.9999985351563,8|2,1:2|0:3,0:0:0:0:
71,253,53372,2,0,L|0:265,1,71.9999978027344,8|2,1:2|0:3,0:0:0:0:
107,276,53747,2,0,L|0:265,1,108.000000411987,8|2,1:2|0:3,0:0:0:0:
288,197,54122,6,0,L|147:214,1,120.000004577637,8|2,1:2|0:3,0:0:0:0:
313,227,54497,2,0,L|165:211,1,143.999995605469,8|2,1:2|0:3,0:0:0:0:
351,185,54872,2,0,L|157:213,1,184.000003509522,8|2,1:2|0:3,0:0:0:0:
408,237,55247,2,0,L|167:211,1,240.000009155274,8|2,1:2|0:3,0:0:0:0:
496,167,55622,5,8,1:2:0:0:
411,21,55809,1,8,0:2:0:0:
345,166,55997,1,8,1:2:0:0:
245,34,56184,1,8,0:2:0:0:
149,137,56372,5,8,1:2:0:0:
170,157,56465,1,8,0:2:0:0:
185,196,56559,1,8,0:2:0:0:
184,245,56653,1,8,0:2:0:0:
162,306,56747,1,8,1:2:0:0:
119,360,56840,1,8,0:2:0:0:
45,381,56934,1,0,1:0:0:0:
256,192,57122,12,0,58434,0:0:0:0:
490,110,58622,6,0,P|429:88|340:18,1,180.000006866455,6|0,1:2|0:0,0:0:0:0:
324,71,58997,2,0,P|242:34|152:26,1,180.000006866455,2|0,1:2|0:0,0:0:0:0:
111,0,59372,2,0,P|66:44|-12:68,1,120.000004577637,2|0,1:2|0:0,0:0:0:0:
202,29,59747,2,0,P|137:63|84:69,1,120.000004577637,2|0,1:2|0:0,0:0:0:0:
314,221,60122,6,0,P|358:155|384:43,1,180.000006866455,2|0,1:2|0:0,0:0:0:0:
450,281,60497,2,0,P|409:216|385:103,1,180.000006866455,2|0,1:2|0:0,0:0:0:0:
202,112,60872,2,0,P|256:143|304:194,1,120.000004577637,2|0,1:2|0:0,0:0:0:0:
87,125,61247,2,0,P|166:144|221:140,1,120.000004577637,2|0,1:2|0:0,0:0:0:0:
379,377,61622,6,0,P|322:336|201:309,1,180.000006866455,2|0,1:2|0:0,0:0:0:0:
238,253,61997,2,0,P|166:289|55:310,1,180.000006866455,2|0,1:2|0:0,0:0:0:0:
4,257,62372,2,0,P|62:273|83:218,1,120.000004577637,2|0,1:2|0:0,0:0:0:0:
189,201,62747,2,0,P|135:216|108:168,1,120.000004577637,2|0,1:2|0:0,0:0:0:0:
385,126,63122,6,0,P|369:214|362:315,1,180.000006866455,2|0,1:2|0:0,0:0:0:0:
424,101,63497,2,0,P|386:182|368:287,1,180.000006866455,2|0,1:2|0:0,0:0:0:0:
500,83,63872,2,0,P|446:121|412:177,1,120.000004577637,2|0,1:2|0:0,0:0:0:0:
414,340,64153,1,2,0:2:0:0:
375,350,64247,2,0,P|389:324|412:305,1,60.0000022888184,2|2,1:2|0:2,0:0:0:0:
81,47,64622,6,0,P|126:98|238:119,1,180.000006866455,2|0,1:2|0:0,0:0:0:0:
382,120,64997,2,0,P|299:109|241:26,1,180.000006866455,2|0,1:2|0:0,0:0:0:0:
35,198,65372,2,0,P|44:139|61:82,1,120.000004577637,2|0,1:2|0:0,0:0:0:0:
23,121,65747,2,0,P|52:60|91:9,1,120.000004577637,2|0,1:2|0:0,0:0:0:0:
407,283,66122,6,0,P|347:235|230:225,1,180.000006866455,2|0,1:2|0:0,0:0:0:0:
356,199,66497,2,0,P|261:202|181:144,1,180.000006866455,2|2,1:2|0:2,0:0:0:0:
42,125,66872,2,0,P|108:143|165:186,2,120.000004577637,2|2|2,1:2|0:2|1:2,0:0:0:0:
140,51,67434,1,2,0:3:0:0:
347,225,67622,6,0,L|303:282,1,60.0000022888184,4|0,1:0|0:0,0:0:0:0:
211,243,67809,1,2,0:2:0:0:
196,212,67903,2,0,L|268:82,1,120.000004577637,2|0,0:2|0:0,0:0:0:0:
204,21,68184,1,2,0:2:0:0:
188,53,68278,2,0,L|210:117,2,60.0000022888184,2|0|0,3:2|1:0|3:0,0:0:0:0:
56,87,68559,1,2,0:2:0:0:
54,60,68653,2,0,L|122:99,1,60.0000022888184,2|8,0:2|1:2,0:0:0:0:
452,120,68934,2,0,L|519:83,1,60.0000022888184,2|0,0:2|3:0,0:0:0:0:
392,27,69122,5,0,1:0:0:0:
386,72,69215,1,0,0:0:0:0:
423,111,69309,2,0,L|450:182,1,60.0000022888184,2|0,0:3|0:0,0:0:0:0:
300,189,69497,2,0,L|273:305,1,120.000004577637,8|2,1:2|0:3,0:0:0:0:
140,349,69778,1,0,3:0:0:0:
110,333,69872,2,0,L|173:315,1,60.0000022888184,2|2,1:2|3:2,0:0:0:0:
322,297,70059,2,0,L|263:283,1,60.0000022888184,2|0,0:2|0:0,0:0:0:0:
427,315,70247,2,0,L|277:351,1,120.000004577637,14|2,1:2|0:3,0:0:0:0:
46,196,70528,5,0,3:0:0:0:
30,221,70622,2,0,B|117:250|117:250|76:175,1,143.999995605469,4|2,1:3|0:3,0:0:0:0:
266,83,70997,2,0,B|263:135|263:135|208:51,1,143.999995605469,8|2,1:2|0:3,0:0:0:0:
40,32,71278,1,0,3:0:0:0:
25,61,71372,2,0,L|101:34,1,71.9999978027344,0|0,1:0|3:0,0:0:0:0:
253,62,71559,1,2,0:3:0:0:
258,29,71653,1,0,0:0:0:0:
305,58,71747,1,8,1:2:0:0:
473,123,71934,5,2,0:3:0:0:
496,89,72028,1,0,3:0:0:0:
512,136,72122,2,0,B|445:50|445:50|449:104,1,143.999995605469,0|2,1:0|0:3,0:0:0:0:
276,232,72497,2,0,B|303:133|303:133|312:174,1,143.999995605469,8|2,1:2|0:3,0:0:0:0:
466,267,72778,1,0,3:0:0:0:
467,230,72872,2,0,L|410:289,1,71.9999978027344,0|0,1:0|3:0,0:0:0:0:
260,353,73059,1,2,0:3:0:0:
281,336,73153,1,0,0:0:0:0:
332,367,73247,1,8,1:2:0:0:
310,257,73434,1,2,0:3:0:0:
116,338,73622,1,0,1:0:0:0:
69,201,73809,6,0,B|79:206|79:206|-4:224,1,71.9999978027344,2|0,0:3|0:0,0:0:0:0:
164,146,73997,2,0,B|180:138|180:138|101:119,1,71.9999978027344,8|0,1:2|0:0,0:0:0:0:
267,234,74184,2,0,B|251:223|251:223|180:257,1,71.9999978027344,2|0,0:3|3:0,0:0:0:0:
319,135,74372,2,0,B|365:150|365:150|361:127,1,71.9999978027344,0|0,1:0|3:0,0:0:0:0:
450,50,74559,1,2,0:3:0:0:
414,27,74653,1,0,0:0:0:0:
473,13,74747,2,0,L|498:95,1,71.9999978027344,8|0,1:2|0:0,0:0:0:0:
479,240,74934,5,2,0:3:0:0:
506,209,75028,1,0,3:0:0:0:
512,267,75122,2,0,L|435:245,1,71.9999978027344,0|0,1:0|0:0,0:0:0:0:
294,101,75309,1,2,0:3:0:0:
471,264,75497,2,0,L|391:263,1,71.9999978027344,8|0,1:2|0:0,0:0:0:0:
209,170,75684,1,2,0:3:0:0:
452,287,75872,2,0,L|382:317,1,71.9999978027344,0|0,1:0|3:0,0:0:0:0:
208,296,76059,1,2,0:3:0:0:
237,271,76153,1,0,0:0:0:0:
267,317,76247,2,0,B|217:328|217:328|250:343,1,71.9999978027344,8|0,1:2|0:0,0:0:0:0:
356,357,76434,5,2,0:3:0:0:
394,330,76528,1,0,3:0:0:0:
448,357,76622,2,0,P|384:277|308:219,1,184.000003509522,2|2,1:2|0:3,0:0:0:0:
74,118,76903,1,0,0:0:0:0:
45,151,76997,2,0,L|79:214,1,71.9999978027344,8|0,1:2|0:0,0:0:0:0:
124,104,77184,2,0,L|114:175,1,71.9999978027344,2|0,0:3|3:0,0:0:0:0:
206,151,77372,1,0,1:0:0:0:
245,168,77465,1,0,3:0:0:0:
264,201,77559,2,0,L|292:113,1,71.9999978027344,2|0,0:3|0:0,0:0:0:0:
426,288,77747,2,0,L|369:107,1,143.999995605469,8|2,1:2|0:3,0:0:0:0:
477,0,78028,5,0,3:0:0:0:
486,34,78122,2,0,P|455:107|379:178,1,184.000003509522,2|2,1:2|0:3,0:0:0:0:
129,236,78403,5,0,0:0:0:0:
123,199,78497,2,0,L|185:140,1,71.9999978027344,8|0,1:2|0:0,0:0:0:0:
267,261,78684,2,0,L|177:240,1,71.9999978027344,2|0,0:3|3:0,0:0:0:0:
62,329,78872,1,0,1:0:0:0:
98,310,78965,1,0,3:0:0:0:
134,333,79059,2,0,L|170:253,1,71.9999978027344,2|0,0:3|0:0,0:0:0:0:
390,334,79247,2,0,L|249:267,1,143.999995605469,8|2,1:2|0:3,0:0:0:0:
512,304,79528,5,0,3:0:0:0:
479,327,79622,2,0,P|393:296|320:233,1,184.000003509522,2|2,1:2|0:3,0:0:0:0:
274,106,79903,1,0,0:0:0:0:
308,121,79997,2,0,L|380:69,1,71.9999978027344,8|0,1:2|0:0,0:0:0:0:
506,34,80184,2,0,L|431:11,1,71.9999978027344,2|0,0:3|3:0,0:0:0:0:
206,24,80372,1,0,1:0:0:0:
251,42,80465,1,0,3:0:0:0:
263,34,80559,1,2,0:3:0:0:
312,18,80653,1,0,0:0:0:0:
328,29,80747,1,8,1:2:0:0:
30,102,80934,5,2,0:3:0:0:
52,77,81028,1,0,3:0:0:0:
0,79,81122,2,0,B|28:136|187:209|217:129|207:84|151:68,1,251.999992309571,2|0,1:0|0:0,0:0:0:0:
36,162,81497,2,0,B|68:245|175:283|272:231|286:177|209:168,1,300,2|0,1:0|0:0,0:0:0:0:
90,278,81872,5,8,0:1:0:0:
140,299,81965,1,8,0:3:0:0:
151,293,82059,1,8,0:2:0:0:
195,298,82153,1,8,3:2:0:0:
226,338,82247,1,8,1:2:0:0:
226,338,82434,1,4,1:3:0:0:
493,172,82622,6,0,P|506:229|520:314,1,120,4|0,1:0|0:0,0:0:0:0:
462,123,82997,2,0,P|508:203|526:263,1,120,2|0,1:2|0:0,0:0:0:0:
482,78,83372,6,0,P|484:42|492:7,1,60.0000022888184,2|0,1:2|0:0,0:0:0:0:
382,241,83559,2,0,P|411:211|442:149,1,92.0000017547608,2|0,3:2|0:0,0:0:0:0:
463,59,83747,6,0,P|451:31|445:2,1,60.0000022888184,2|0,1:2|0:0,0:0:0:0:
359,256,83934,2,0,P|378:212|387:143,1,92.0000017547608,2|0,3:2|0:0,0:0:0:0:
297,22,84122,6,0,P|300:65|259:79,1,92.0000017547608,2|0,1:2|0:0,0:0:0:0:
103,70,84309,1,8,3:1:0:0:
66,49,84403,1,0,3:0:0:0:
13,74,84497,6,0,P|24:106|86:91,1,92.0000017547608,2|0,1:2|0:0,0:0:0:0:
255,156,84684,1,0,3:0:0:0:
211,138,84778,1,0,3:0:0:0:
163,170,84872,5,2,1:2:0:0:
198,190,84965,1,0,3:0:0:0:
212,239,85059,1,0,3:0:0:0:
249,270,85153,2,0,B|279:241|279:241|219:265,1,92.0000017547608,2|0,3:2|1:0,0:0:0:0:
62,349,85434,5,8,3:1:0:0:
26,315,85528,1,8,3:1:0:0:
27,371,85622,2,0,P|72:347|112:314,1,92.0000017547608,2|0,1:2|0:0,0:0:0:0:
275,276,85809,5,0,3:0:0:0:
250,307,85903,1,0,3:0:0:0:
229,249,85997,2,0,P|272:268|319:304,1,92.0000017547608,2|0,1:2|0:0,0:0:0:0:
469,280,86184,5,8,3:1:0:0:
434,263,86278,1,0,3:0:0:0:
453,319,86372,2,0,P|483:278|497:214,1,92.0000017547608,2|0,1:2|0:0,0:0:0:0:
424,43,86559,5,0,3:0:0:0:
466,27,86653,1,0,3:0:0:0:
512,65,86747,5,2,1:2:0:0:
457,57,86840,1,0,3:0:0:0:
398,58,86934,1,0,3:0:0:0:
338,72,87028,1,0,3:0:0:0:
263,86,87122,6,0,P|157:64|70:28,1,184.000003509522,2|8,1:2|0:1,0:0:0:0:
101,70,87403,2,0,P|48:59|6:56,1,92.0000017547608,8|0,3:1|1:0,0:0:0:0:
44,11,87684,1,2,3:2:0:0:
141,252,87872,6,0,P|134:170|81:222,2,184.000003509522,8|0|8,1:1|0:0|0:2,0:0:0:0:
57,235,88434,1,0,1:0:0:0:
380,316,88622,6,0,B|386:342|383:372|383:372|356:298|382:242,1,184.000003509522,4|8,1:0|0:0,0:0:0:0:
491,271,88903,2,0,B|508:291|508:291|505:249|482:215,1,92.0000017547608,2|0,3:2|1:0,0:0:0:0:
332,188,89090,1,0,3:0:0:0:
348,211,89184,2,0,B|365:224|407:194|412:158,1,92.0000017547608,10|0,3:2|0:0,0:0:0:0:
453,41,89372,5,0,1:0:0:0:
412,3,89465,1,0,3:0:0:0:
464,12,89559,1,10,3:2:0:0:
506,61,89653,1,0,3:0:0:0:
463,106,89747,2,0,P|417:93|368:56,1,92.0000017547608,2|0,1:2|0:0,0:0:0:0:
228,53,89934,6,0,B|235:76|235:76|267:42|259:3,1,92.0000017547608,10|0,3:2|0:0,0:0:0:0:
114,147,90122,1,2,1:2:0:0:
161,131,90215,1,0,3:0:0:0:
203,164,90309,2,0,P|218:143|166:127,1,92.0000017547608,8|0,3:2|0:0,0:0:0:0:
81,302,90497,5,2,1:2:0:0:
44,273,90590,1,0,3:0:0:0:
46,317,90684,1,8,3:2:0:0:
76,337,90778,2,0,P|121:327|171:289,1,92.0000017547608,0|0,3:0|1:0,0:0:0:0:
348,162,90965,5,2,3:2:0:0:
327,123,91059,1,8,3:2:0:0:
384,146,91153,2,0,P|401:193|434:235,1,92.0000017547608,0|0,3:0|1:0,0:0:0:0:
508,59,91340,5,2,3:2:0:0:
488,11,91434,2,0,P|454:0|459:59,1,92.0000017547608,8|0,3:2|0:0,0:0:0:0:
500,154,91622,5,2,1:2:0:0:
502,156,91715,1,8,3:2:0:0:
504,158,91809,1,10,3:2:0:0:
506,160,91903,1,8,3:2:0:0:
452,216,91997,5,2,1:2:0:0:
450,214,92090,1,10,3:2:0:0:
448,212,92184,1,8,3:2:0:0:
446,210,92278,1,10,3:2:0:0:
374,244,92372,5,0,1:0:0:0:
376,246,92465,1,10,3:2:0:0:
378,248,92559,1,10,3:2:0:0:
380,250,92653,1,8,3:2:0:0:
340,319,92747,5,2,1:2:0:0:
338,317,92840,1,10,3:2:0:0:
336,315,92934,1,10,3:2:0:0:
334,313,93028,1,10,3:2:0:0:
283,370,93122,5,2,1:2:0:0:
283,370,93309,1,2,0:2:0:0:
283,370,93497,1,2,0:2:0:0:
283,370,93590,1,2,0:2:0:0:
283,370,93778,1,2,0:2:0:0:
283,370,93965,1,2,0:2:0:0:
283,370,94059,1,2,0:2:0:0:
283,370,94153,1,2,0:2:0:0:
283,370,94247,1,8,0:1:0:0:
375,345,94434,5,0,1:0:0:0:
24,310,94622,2,0,P|64:295|114:283,1,83.9999974365235,6|0,1:0|0:0,0:0:0:0:
285,257,94809,1,2,0:3:0:0:
312,236,94997,2,0,P|273:228|220:227,1,83.9999974365235,10|0,1:1|0:0,0:0:0:0:
53,291,95184,1,2,0:3:0:0:
26,260,95278,2,0,P|75:275|108:292,1,83.9999974365235,2|0,3:1|1:0,0:0:0:0:
101,185,95465,2,0,P|66:149|44:106,1,83.9999974365235,2|2,3:1|0:3,0:0:0:0:
218,239,95653,1,2,3:1:0:0:
187,233,95747,2,0,P|201:190|241:188,1,83.9999974365235,10|0,1:1|0:0,0:0:0:0:
409,289,95934,2,0,P|431:333|445:376,1,83.9999974365235,2|0,3:1|0:0,0:0:0:0:
430,167,96215,5,2,3:1:0:0:
443,280,96309,2,0,P|413:242|394:195,1,83.9999974365235,2|0,3:1|0:0,0:0:0:0:
262,41,96497,2,0,P|302:53|331:87,1,83.9999974365235,10|0,1:1|0:0,0:0:0:0:
447,140,96684,1,2,3:3:0:0:
412,106,96778,1,2,3:1:0:0:
359,174,96872,2,0,P|369:83|399:-2,1,167.999994873047,2|2,3:1|0:3,0:0:0:0:
222,150,97153,1,0,0:0:0:0:
237,110,97247,2,0,P|279:212|290:286,1,167.999994873047,10|2,1:1|0:3,0:0:0:0:
512,33,97622,6,0,P|472:45|430:53,1,83.9999974365235,2|0,1:1|0:0,0:0:0:0:
184,30,97809,1,2,0:3:0:0:
167,4,97997,2,0,P|219:14|256:31,1,83.9999974365235,10|0,1:1|0:0,0:0:0:0:
426,156,98184,1,2,0:3:0:0:
457,139,98278,2,0,P|445:106|374:111,1,83.9999974365235,2|0,3:1|1:0,0:0:0:0:
334,181,98465,2,0,P|316:226|268:228,1,83.9999974365235,2|2,3:1|0:3,0:0:0:0:
142,97,98653,1,2,3:1:0:0:
174,100,98747,2,0,P|198:133|218:170,1,83.9999974365235,10|0,1:1|0:0,0:0:0:0:
273,314,98934,2,0,P|250:354|216:392,1,83.9999974365235,2|0,3:1|0:0,0:0:0:0:
0,304,99122,6,0,P|104:314|185:192,1,251.999992309571,2|0,1:1|0:0,0:0:0:0:
381,149,99497,2,0,P|317:147|196:11,1,251.999992309571,10|0,1:1|0:0,0:0:0:0:
0,6,99872,1,2,1:1:0:0:
44,53,99965,1,0,3:0:0:0:
107,58,100059,1,2,0:3:0:0:
159,26,100153,1,0,3:0:0:0:
217,53,100247,1,10,1:1:0:0:
426,52,100434,5,2,3:3:0:0:
397,18,100528,1,0,3:0:0:0:
453,14,100622,2,0,P|426:57|392:93,1,83.9999974365235,2|0,1:1|0:0,0:0:0:0:
179,141,100809,1,2,0:3:0:0:
144,128,100997,2,0,P|195:119|249:118,1,83.9999974365235,10|0,1:1|0:0,0:0:0:0:
440,181,101184,1,2,0:3:0:0:
461,132,101278,2,0,P|416:160|383:191,1,83.9999974365235,2|0,3:1|1:0,0:0:0:0:
387,74,101465,2,0,P|405:39|417:-6,1,83.9999974365235,2|2,3:1|0:3,0:0:0:0:
263,143,101653,1,2,3:1:0:0:
272,112,101747,2,0,P|308:118|303:162,1,83.9999974365235,10|0,1:1|0:0,0:0:0:0:
81,199,101934,2,0,P|30:189|-9:171,1,83.9999974365235,2|0,3:1|0:0,0:0:0:0:
207,264,102215,5,2,3:1:0:0:
104,237,102309,2,0,P|153:230|201:231,1,83.9999974365235,0|0,3:1|0:0,0:0:0:0:
503,324,102497,2,0,P|462:299|446:249,1,83.9999974365235,10|0,1:1|0:0,0:0:0:0:
320,290,102684,1,2,3:3:0:0:
358,273,102778,1,2,3:1:0:0:
393,345,102872,2,0,P|302:316|190:316,1,167.999994873047,2|2,1:1|0:3,0:0:0:0:
150,272,103153,1,0,0:0:0:0:
81,325,103247,2,0,P|178:301|236:262,1,167.999994873047,10|2,1:1|0:3,0:0:0:0:
321,128,103528,5,0,0:0:0:0:
369,147,103622,2,0,B|311:174|311:174|322:152,2,71.9999978027344,4|0|2,1:0|0:0|0:3,0:0:0:0:
74,87,103997,2,0,B|64:52|64:52|155:127,1,143.999995605469,8|2,1:2|0:3,0:0:0:0:
230,173,104278,1,0,0:0:0:0:
249,160,104372,1,0,1:0:0:0:
299,139,104465,1,0,3:0:0:0:
312,153,104559,1,2,0:3:0:0:
362,180,104653,1,0,3:0:0:0:
371,167,104747,1,8,1:2:0:0:
500,228,104934,2,0,B|462:191|462:191|463:234,1,71.9999978027344,2|0,0:3|0:0,0:0:0:0:
400,337,105122,5,0,1:0:0:0:
322,191,105309,1,2,0:3:0:0:
211,299,105497,2,0,B|184:299|184:299|242:276,1,71.9999978027344,8|0,1:2|0:0,0:0:0:0:
370,356,105684,2,0,B|342:312|342:312|312:293,1,71.9999978027344,2|0,0:3|0:0,0:0:0:0:
162,334,105872,1,0,1:0:0:0:
110,351,105965,1,0,3:0:0:0:
97,334,106059,1,2,0:3:0:0:
44,318,106153,1,0,3:0:0:0:
25,334,106247,2,0,B|6:338|6:338|-12:270,2,71.9999978027344,12|0|2,1:2|3:0|0:3,0:0:0:0:
175,237,106528,5,0,0:0:0:0:
145,203,106622,2,0,P|197:209|245:225,1,92.0000017547608,2|0,1:1|0:0,0:0:0:0:
465,300,106809,1,2,0:3:0:0:
489,260,106997,2,0,P|438:278|390:306,1,92.0000017547608,10|0,1:1|0:0,0:0:0:0:
240,322,107184,1,2,0:3:0:0:
223,286,107278,2,0,P|267:315|303:357,1,92.0000017547608,2|0,3:1|1:0,0:0:0:0:
298,210,107465,2,0,P|273:166|238:133,1,92.0000017547608,2|2,3:1|0:3,0:0:0:0:
109,177,107653,1,2,3:1:0:0:
113,138,107747,2,0,P|151:143|154:192,1,92.0000017547608,10|0,1:1|0:0,0:0:0:0:
35,299,107934,2,0,P|0:340|-24:384,1,92.0000017547608,2|0,3:1|0:0,0:0:0:0:
119,201,108215,5,2,3:1:0:0:
66,297,108309,2,0,P|110:264|146:223,1,92.0000017547608,2|0,3:1|0:0,0:0:0:0:
135,62,108497,2,0,P|143:22|195:12,1,92.0000017547608,10|0,1:1|0:0,0:0:0:0:
304,143,108684,1,2,3:3:0:0:
271,115,108778,1,2,3:1:0:0:
246,188,108872,2,0,P|300:100|320:2,1,184.000003509522,2|2,1:1|0:3,0:0:0:0:
116,140,109153,1,0,0:0:0:0:
129,103,109247,2,0,P|199:179|231:272,1,184.000003509522,10|2,1:1|0:3,0:0:0:0:
512,64,109622,6,0,P|472:50|421:36,1,92.0000017547608,2|0,1:1|0:0,0:0:0:0:
228,34,109809,1,2,0:3:0:0:
200,23,109997,2,0,P|249:11|306:7,1,92.0000017547608,10|0,1:1|0:0,0:0:0:0:
472,109,110184,1,2,0:3:0:0:
501,94,110278,2,0,P|481:44|432:34,1,92.0000017547608,2|0,3:1|1:0,0:0:0:0:
395,162,110465,2,0,P|412:206|368:239,1,92.0000017547608,2|2,3:1|0:3,0:0:0:0:
172,157,110653,1,2,3:1:0:0:
154,186,110747,2,0,P|203:173|249:168,1,92.0000017547608,10|0,1:1|0:0,0:0:0:0:
423,240,110934,2,0,P|377:253|331:278,1,92.0000017547608,2|0,3:1|0:0,0:0:0:0:
26,348,111122,6,0,P|131:316|332:372,1,276.000005264282,2|0,1:1|0:0,0:0:0:0:
490,179,111497,2,0,P|354:205|245:310,1,276.000005264282,10|0,1:1|0:0,0:0:0:0:
41,241,111872,1,2,1:1:0:0:
16,185,111965,1,0,3:0:0:0:
43,130,112059,1,2,0:3:0:0:
99,108,112153,1,0,3:0:0:0:
87,45,112247,1,10,1:1:0:0:
209,229,112434,5,2,3:3:0:0:
186,200,112528,1,0,3:0:0:0:
186,259,112622,2,0,P|221:229|255:184,1,92.0000017547608,2|0,1:1|0:0,0:0:0:0:
319,0,112809,1,2,0:3:0:0:
345,24,112997,2,0,P|342:75|333:119,1,92.0000017547608,10|0,1:1|0:0,0:0:0:0:
226,257,113184,1,2,0:3:0:0:
192,241,113278,2,0,P|235:213|281:196,1,92.0000017547608,2|0,3:1|1:0,0:0:0:0:
455,127,113465,2,0,P|406:110|366:90,1,92.0000017547608,2|2,3:1|0:3,0:0:0:0:
483,239,113653,1,2,3:1:0:0:
486,204,113747,2,0,P|464:169|412:188,1,92.0000017547608,10|0,1:1|0:0,0:0:0:0:
311,333,113934,2,0,P|278:363|236:388,1,92.0000017547608,2|0,3:1|0:0,0:0:0:0:
473,342,114215,5,2,3:1:0:0:
349,340,114309,2,0,P|396:322|448:317,1,92.0000017547608,2|0,3:1|0:0,0:0:0:0:
512,152,114497,2,0,P|450:174|456:218,1,92.0000017547608,10|0,1:1|0:0,0:0:0:0:
333,215,114684,1,2,3:3:0:0:
368,204,114778,1,2,3:1:0:0:
409,272,114872,2,0,P|293:221|210:215,1,184.000003509522,2|2,1:1|0:3,0:0:0:0:
176,147,115153,1,0,0:0:0:0:
157,243,115247,2,0,P|223:150|244:72,1,184.000003509522,10|2,1:1|0:3,0:0:0:0:
81,32,115528,5,0,3:0:0:0:
90,1,115622,2,0,P|132:28|173:73,1,92.0000017547608,2|0,1:1|0:0,0:0:0:0:
288,245,115809,1,2,0:3:0:0:
327,237,115997,2,0,P|295:203|240:169,1,92.0000017547608,10|0,1:1|0:0,0:0:0:0:
67,171,116184,1,2,0:3:0:0:
48,138,116278,2,0,P|99:137|150:147,1,92.0000017547608,2|0,3:1|1:0,0:0:0:0:
316,44,116465,2,0,P|274:74|218:98,1,92.0000017547608,2|2,3:1|0:3,0:0:0:0:
408,151,116653,1,2,3:1:0:0:
385,126,116747,2,0,P|401:85|459:91,1,92.0000017547608,10|0,1:1|0:0,0:0:0:0:
512,259,116934,2,0,P|488:217|438:233,1,92.0000017547608,2|0,3:1|0:0,0:0:0:0:
511,381,117122,1,2,1:1:0:0:
478,349,117309,5,0,3:0:0:0:
384,369,117403,1,0,1:0:0:0:
336,343,117684,5,0,3:0:0:0:
292,263,117778,1,0,1:0:0:0:
253,232,118059,5,0,3:0:0:0:
162,261,118153,1,0,1:0:0:0:
162,261,118622,5,4,1:0:0:0:
209,323,130622,6,0,P|227:303|254:296,3,40,2|2|2|2,1:2|0:3|0:3|0:3,0:0:0:0:
271,302,130997,1,2,0:3:0:0:
429,339,131372,2,0,P|476:312|492:281,2,80,8|2|0,0:1|0:3|0:0,0:0:0:0:
463,157,132122,5,2,0:2:0:0:
382,162,132309,2,0,P|402:143|443:133,2,40,2|2|2,0:3|0:3|0:3,0:0:0:0:
241,46,132872,2,0,P|292:60|323:91,1,80,8|2,0:1|0:3,0:0:0:0:
206,19,133247,2,0,P|161:60|151:96,1,80,0|0,0:0|1:0,0:0:0:0:
500,92,133622,6,0,P|474:75|466:52,3,40,2|2|2|2,1:2|0:3|0:3|0:3,0:0:0:0:
477,33,133997,2,0,P|428:10|380:18,1,80,2|0,0:3|0:0,0:0:0:0:
247,152,134372,1,8,0:1:0:0:
300,29,134559,1,2,0:3:0:0:
160,114,134747,2,0,P|211:119|258:103,1,80
12,16,135122,6,0,P|66:39|96:66,1,80,2|2,0:2|0:3,0:0:0:0:
105,46,135497,2,0,P|135:96|146:132,1,80,2|0,0:3|0:0,0:0:0:0:
98,266,135872,1,8,0:1:0:0:
107,313,135965,1,2,0:3:0:0:
130,340,136059,1,2,0:3:0:0:
161,352,136153,2,0,P|187:347|209:330,1,40,0|0,1:0|0:0,0:0:0:0:
276,371,136434,2,0,P|289:344|291:315,1,40,0|2,1:0|0:3,0:0:0:0:
185,125,136622,6,0,P|199:152|224:175,1,40,6|0,1:2|0:0,0:0:0:0:
353,221,136809,1,2,0:3:0:0:
327,194,136903,1,2,0:3:0:0:
293,185,136997,1,2,0:3:0:0:
313,47,137184,2,0,P|300:71|283:89,1,40,2|2,0:3|0:3,0:0:0:0:
73,110,137372,6,0,P|89:83|113:69,1,40,8|0,0:1|0:0,0:0:0:0:
267,57,137559,1,2,0:3:0:0:
219,46,137653,1,2,0:3:0:0:
186,62,137747,1,2,0:3:0:0:
352,18,137934,2,0,P|378:37|388:62,1,40,2|2,0:3|0:3,0:0:0:0:
504,263,138122,6,0,P|487:241|453:237,1,40,2|0,1:2|0:0,0:0:0:0:
277,265,138309,1,2,0:3:0:0:
324,253,138403,1,2,0:3:0:0:
349,229,138497,1,2,0:3:0:0:
207,161,138684,2,0,P|230:174|242:197,1,40,2|2,0:3|0:3,0:0:0:0:
190,381,138872,6,0,P|174:362|145:351,1,40,8|0,0:1|0:0,0:0:0:0:
12,244,139059,1,2,0:3:0:0:
18,288,139153,1,2,0:3:0:0:
47,315,139247,1,2,0:3:0:0:
497,356,139622,1,4,1:2:0:0:
410,364,139809,5,8,3:0:0:0:
488,333,139934,1,8,1:0:0:0:
494,336,139997,1,8,1:0:0:0:
498,274,140090,5,8,3:0:0:0:
447,302,140184,1,8,3:0:0:0:
444,262,140278,1,8,3:0:0:0:
474,233,140372,1,8,1:0:0:0:
511,144,140497,5,8,3:0:0:0:
469,214,140622,1,8,3:0:0:0:
427,110,140747,1,4,3:0:0:0:
448,192,140872,1,4,3:0:0:0:
495,60,140997,1,12,1:2:0:0:
256,192,141122,12,0,141872,1:0:0:0:
1,67,142622,6,0,P|88:89|156:149,1,180.000006866455,2|0,1:2|0:0,0:0:0:0:
190,115,142997,2,0,P|276:156|374:145,1,180.000006866455,2|0,1:2|0:0,0:0:0:0:
488,227,143372,2,0,P|426:192|363:183,1,120.000004577637,2|0,1:2|0:0,0:0:0:0:
512,292,143747,2,0,P|468:249|411:223,1,120.000004577637,2|0,1:2|0:0,0:0:0:0:
89,351,144122,6,0,P|162:298|202:202,1,180.000006866455,2|0,1:2|0:0,0:0:0:0:
389,259,144497,2,0,P|308:247|189:289,1,180.000006866455,2|0,1:2|0:0,0:0:0:0:
42,125,144872,2,0,P|92:165|118:222,1,120.000004577637,2|0,1:2|0:0,0:0:0:0:
165,46,145247,2,0,P|130:107|122:167,1,120.000004577637,2|0,1:2|0:0,0:0:0:0:
434,318,145622,6,0,P|379:248|263:212,1,180.000006866455,2|0,1:2|0:0,0:0:0:0:
303,111,145997,2,0,P|270:179|154:237,1,180.000006866455,2|0,1:2|0:0,0:0:0:0:
47,183,146372,2,0,P|112:183|138:240,1,120.000004577637,2|0,1:2|0:0,0:0:0:0:
19,307,146747,2,0,P|79:307|104:253,1,120.000004577637,2|0,1:2|0:0,0:0:0:0:
406,60,147122,6,0,P|319:102|186:93,1,180.000006866455,2|0,1:2|0:0,0:0:0:0:
447,136,147497,2,0,P|343:140|246:122,1,180.000006866455,2|0,1:2|0:0,0:0:0:0:
378,224,147872,2,0,P|293:191|250:155,1,120.000004577637,2|0,1:2|0:0,0:0:0:0:
158,14,148153,1,2,0:2:0:0:
137,44,148247,2,0,P|147:73|191:103,1,60.0000022888184,2|2,1:2|0:2,0:0:0:0:
450,221,148622,6,0,P|494:297|519:391,1,180.000006866455,2|0,1:2|0:0,0:0:0:0:
326,265,148997,2,0,P|418:329|514:339,1,180.000006866455,2|0,1:2|0:0,0:0:0:0:
225,371,149372,2,0,P|278:322|302:268,1,120.000004577637,2|0,1:2|0:0,0:0:0:0:
111,353,149747,2,0,P|179:348|229:323,1,120.000004577637,2|0,1:2|0:0,0:0:0:0:
460,39,150122,6,0,P|393:76|334:177,1,180.000006866455,2|0,1:2|0:0,0:0:0:0:
185,173,150497,2,0,P|253:115|366:94,1,180.000006866455,2|2,1:2|0:2,0:0:0:0:
506,223,150872,2,0,P|451:186|425:127,2,120.000004577637,2|2|2,1:2|0:2|1:2,0:0:0:0:
495,54,151434,1,2,0:3:0:0:
296,228,151622,6,0,L|321:162,1,60.0000022888184,0|0,1:0|0:0,0:0:0:0:
250,42,151809,1,2,0:2:0:0:
231,68,151903,2,0,L|376:46,1,120.000004577637,2|0,0:2|0:0,0:0:0:0:
511,142,152184,1,2,0:2:0:0:
495,118,152278,2,0,L|427:98,2,60.0000022888184,2|0|0,3:2|1:0|3:0,0:0:0:0:
397,261,152559,1,2,0:2:0:0:
426,259,152653,2,0,L|480:198,1,60.0000022888184,2|8,0:2|1:2,0:0:0:0:
242,230,152934,2,0,L|271:302,1,60.0000022888184,2|0,0:2|3:0,0:0:0:0:
155,383,153122,5,0,1:0:0:0:
116,365,153215,1,0,0:0:0:0:
111,323,153309,2,0,L|186:343,1,60.0000022888184,2|0,0:3|0:0,0:0:0:0:
346,244,153497,2,0,L|239:177,1,120.000004577637,8|2,1:2|0:3,0:0:0:0:
107,92,153778,1,0,3:0:0:0:
94,118,153872,2,0,L|22:133,1,60.0000022888184,2|2,1:2|3:2,0:0:0:0:
214,74,154059,2,0,L|144:46,1,60.0000022888184,2|0,0:2|0:0,0:0:0:0:
347,3,154247,2,0,L|302:129,1,120.000004577637,14|2,1:2|0:3,0:0:0:0:
495,223,154528,5,0,3:0:0:0:
512,252,154622,2,0,B|490:290|490:290|416:201,1,143.999995605469,4|2,1:3|0:3,0:0:0:0:
261,203,154997,2,0,B|241:163|241:163|327:215,1,143.999995605469,8|2,1:2|0:3,0:0:0:0:
384,345,155278,1,0,3:0:0:0:
413,325,155372,2,0,L|341:300,1,71.9999978027344,0|0,1:0|3:0,0:0:0:0:
182,348,155559,1,2,0:3:0:0:
143,317,155652,1,0,0:0:0:0:
131,351,155746,1,8,1:2:0:0:
54,221,155934,5,2,0:3:0:0:
22,259,156028,1,0,3:0:0:0:
23,212,156122,2,0,B|81:213|81:213|33:305,1,143.999995605469,0|2,1:0|0:3,0:0:0:0:
257,173,156497,2,0,B|153:127|153:127|198:122,1,143.999995605469,8|2,1:2|0:3,0:0:0:0:
331,65,156778,1,0,3:0:0:0:
330,25,156872,2,0,L|277:90,1,71.9999978027344,0|0,1:0|3:0,0:0:0:0:
153,120,157059,1,2,0:3:0:0:
109,92,157153,1,0,0:0:0:0:
96,116,157247,1,8,1:2:0:0:
176,22,157434,1,2,0:3:0:0:
296,168,157622,1,0,1:0:0:0:
457,23,157809,6,0,B|475:31|475:31|410:51,1,71.9999978027344,2|0,0:3|0:0,0:0:0:0:
287,120,157997,2,0,B|304:98|304:98|346:148,1,71.9999978027344,8|0,1:2|0:0,0:0:0:0:
463,173,158184,2,0,B|414:213|414:213|448:223,1,71.9999978027344,2|0,0:3|3:0,0:0:0:0:
294,302,158372,2,0,B|322:260|322:260|322:292,1,71.9999978027344,0|0,1:0|3:0,0:0:0:0:
498,357,158559,1,2,0:3:0:0:
451,333,158653,1,0,0:0:0:0:
418,348,158747,2,0,L|441:264,1,71.9999978027344,8|0,1:2|0:0,0:0:0:0:
438,18,158934,5,2,0:3:0:0:
466,55,159028,1,0,3:0:0:0:
487,30,159122,2,0,L|434:92,1,71.9999978027344,0|0,1:0|0:0,0:0:0:0:
253,144,159309,1,2,0:3:0:0:
469,73,159497,2,0,L|386:121,1,71.9999978027344,8|0,1:2|0:0,0:0:0:0:
178,80,159684,1,2,0:3:0:0:
384,77,159872,2,0,L|298:52,1,71.9999978027344,0|0,1:0|3:0,0:0:0:0:
96,99,160059,1,2,0:3:0:0:
114,59,160153,1,0,0:0:0:0:
71,87,160247,2,0,B|85:40|85:40|53:74,1,71.9999978027344,8|0,1:2|0:0,0:0:0:0:
59,209,160434,5,2,0:3:0:0:
47,254,160528,1,0,3:0:0:0:
11,252,160622,2,0,P|96:210|196:193,1,184.000003509522,2|2,1:2|0:3,0:0:0:0:
445,225,160903,1,0,0:0:0:0:
473,251,160997,2,0,L|445:185,1,71.9999978027344,8|0,1:2|0:0,0:0:0:0:
400,298,161184,2,0,L|420:204,1,71.9999978027344,2|0,0:3|3:0,0:0:0:0:
270,246,161372,1,0,1:0:0:0:
324,246,161465,1,0,3:0:0:0:
301,223,161559,2,0,L|230:270,1,71.9999978027344,2|0,0:3|0:0,0:0:0:0:
144,338,161747,2,0,L|219:203,1,143.999995605469,8|2,1:2|0:3,0:0:0:0:
67,164,162028,5,0,3:0:0:0:
50,199,162122,2,0,P|146:191|230:151,1,184.000003509522,2|2,1:2|0:3,0:0:0:0:
464,36,162403,1,0,0:0:0:0:
485,69,162497,2,0,L|403:50,1,71.9999978027344,8|0,1:2|0:0,0:0:0:0:
269,39,162684,2,0,L|350:-6,1,71.9999978027344,2|2,0:3|3:3,0:0:0:0:
488,175,162872,1,0,1:0:0:0:
512,145,162965,1,0,3:0:0:0:
503,110,163059,2,0,L|409:91,1,71.9999978027344,2|0,0:3|0:0,0:0:0:0:
269,197,163247,2,0,L|331:51,1,143.999995605469,8|2,1:2|0:3,0:0:0:0:
503,214,163528,5,0,3:0:0:0:
467,237,163622,2,0,P|379:218|291:172,1,184.000003509522,2|2,1:2|0:3,0:0:0:0:
87,43,163903,1,0,0:0:0:0:
72,76,163997,2,0,L|157:44,1,71.9999978027344,8|0,1:2|0:0,0:0:0:0:
266,85,164184,2,0,L|290:-4,1,71.9999978027344,2|0,0:3|3:0,0:0:0:0:
149,135,164372,1,0,1:0:0:0:
200,160,164465,1,0,3:0:0:0:
217,210,164559,1,2,0:3:0:0:
169,242,164653,1,0,3:0:0:0:
154,294,164747,1,8,1:2:0:0:
384,370,164934,5,2,0:3:0:0:
360,329,165028,1,0,3:0:0:0:
413,346,165122,2,0,P|367:324|318:313,1,83.9999974365235,4|0,1:2|0:0,0:0:0:0:
472,263,165309,2,0,P|433:290|377:304,1,83.9999974365235,2|0,0:3|0:0,0:0:0:0:
127,278,165497,6,0,P|148:313|179:341,1,83.9999974365235,12|0,1:2|0:0,0:0:0:0:
91,262,165684,2,0,P|104:222|139:176,1,83.9999974365235,2|0,0:3|3:0,0:0:0:0:
392,86,165872,5,4,1:2:0:0:
346,72,165965,1,0,3:0:0:0:
336,102,166059,2,0,P|376:88|420:56,1,83.9999974365235,2|0,0:3|0:0,0:0:0:0:
512,260,166247,6,0,P|472:237|436:192,1,83.9999974365235,12|0,1:2|0:0,0:0:0:0:
258,53,166434,1,2,0:3:0:0:
226,45,166528,1,0,3:0:0:0:
155,82,166622,6,0,P|183:49|239:22,1,83.9999974365235,6|0,1:0|0:0,0:0:0:0:
375,68,166809,1,2,0:3:0:0:
432,0,166997,2,0,P|375:18|363:57,1,83.9999974365235,8|0,1:2|0:0,0:0:0:0:
499,168,167184,1,2,0:3:0:0:
460,200,167278,2,0,P|407:168|383:132,1,83.9999974365235,0|0,3:0|1:0,0:0:0:0:
250,17,167465,2,0,P|288:33|322:58,1,83.9999974365235,0|2,3:0|0:3,0:0:0:0:
350,222,167653,1,0,3:0:0:0:
367,193,167747,2,0,P|333:151|280:154,1,83.9999974365235,10|0,1:1|0:0,0:0:0:0:
164,227,167934,2,0,P|207:218|237:161,1,83.9999974365235,2|0,3:1|0:0,0:0:0:0:
393,297,168122,5,2,1:1:0:0:
392,340,168215,1,0,3:0:0:0:
353,360,168309,2,0,P|313:346|278:323,1,83.9999974365235,2|0,3:3|0:0,0:0:0:0:
126,192,168497,2,0,P|163:231|162:284,1,83.9999974365235,8|0,1:2|0:0,0:0:0:0:
85,353,168684,1,2,3:3:0:0:
35,333,168778,1,0,3:0:0:0:
5,368,168872,2,0,P|100:380|166:325,1,167.999994873047,2|2,1:1|0:3,0:0:0:0:
312,179,169153,1,0,0:0:0:0:
378,233,169247,2,0,P|283:212|231:136,1,167.999994873047,10|2,1:1|0:3,0:0:0:0:
20,17,169528,5,0,0:0:0:0:
25,52,169622,2,0,P|64:79|122:96,1,83.9999974365235,2|0,1:1|0:0,0:0:0:0:
299,47,169809,2,0,P|280:14|226:21,1,83.9999974365235,2|0,0:1|0:0,0:0:0:0:
280,87,169997,1,8,1:2:0:0:
408,18,170184,1,2,0:3:0:0:
424,42,170278,2,0,P|394:84|358:111,1,83.9999974365235,0|0,3:0|1:0,0:0:0:0:
222,64,170465,2,0,P|202:25|157:16,1,83.9999974365235,0|2,3:0|0:3,0:0:0:0:
64,113,170653,1,0,3:0:0:0:
83,90,170747,2,0,P|105:125|120:164,1,83.9999974365235,8|0,1:2|0:0,0:0:0:0:
223,203,170934,2,0,P|202:248|197:297,1,83.9999974365235,2|0,3:3|0:0,0:0:0:0:
40,382,171122,6,0,P|100:307|193:302,1,167.999994873047,2|2,1:1|0:3,0:0:0:0:
452,304,171497,2,0,P|376:228|292:236,1,167.999994873047,10|2,1:1|0:3,0:0:0:0:
100,232,171778,1,0,3:0:0:0:
129,251,171872,2,0,P|177:231|214:196,1,83.9999974365235,2|0,1:1|3:0,0:0:0:0:
308,130,172059,1,2,0:3:0:0:
363,131,172153,1,0,3:0:0:0:
399,175,172247,1,8,1:2:0:0:
333,38,172434,5,2,0:1:0:0:
288,16,172528,1,0,0:0:0:0:
227,77,172622,2,0,P|267:56|324:44,1,83.9999974365235,2|0,1:1|0:0,0:0:0:0:
512,65,172809,1,2,0:3:0:0:
415,21,172997,2,0,P|460:34|467:85,1,83.9999974365235,8|0,1:2|0:0,0:0:0:0:
373,181,173184,1,2,0:3:0:0:
402,161,173278,2,0,P|365:135|319:126,1,83.9999974365235,0|0,3:0|1:0,0:0:0:0:
177,67,173465,2,0,P|217:46|253:11,1,83.9999974365235,0|2,3:0|0:3,0:0:0:0:
237,155,173653,1,0,3:0:0:0:
195,159,173747,2,0,P|167:127|151:78,1,83.9999974365235,10|0,1:1|0:0,0:0:0:0:
49,24,173934,2,0,P|92:54|109:106,1,83.9999974365235,2|0,3:3|0:0,0:0:0:0:
7,231,174122,2,0,P|3:195|47:176,1,83.9999974365235,2|0,1:1|3:0,0:0:0:0:
243,287,174309,2,0,P|228:337|189:360,1,83.9999974365235,2|0,3:3|0:0,0:0:0:0:
87,261,174497,2,0,P|120:257|146:304,1,83.9999974365235,8|0,1:2|0:0,0:0:0:0:
225,371,174684,1,2,0:3:0:0:
254,384,174778,1,0,3:0:0:0:
282,361,174872,1,0,1:0:0:0:
327,324,174965,1,0,3:0:0:0:
357,334,175059,1,2,0:3:0:0:
388,371,175153,1,0,3:0:0:0:
429,371,175247,2,0,P|384:353|332:347,1,83.9999974365235,8|0,1:2|0:0,0:0:0:0:
0,310,175434,5,2,1:3:0:0:
55,325,175528,1,0,1:0:0:0:
92,367,175622,1,4,1:0:0:0:
426,251,175997,1,8,1:2:0:0:
398,113,176184,2,0,P|368:143|352:174,1,71.9999978027344,2|0,0:3|0:0,0:0:0:0:
271,268,176372,5,0,1:0:0:0:
299,254,176465,2,0,B|303:232|303:232|257:260,1,71.9999978027344,0|2,3:0|0:3,0:0:0:0:
156,324,176653,1,0,3:0:0:0:
124,307,176747,1,8,1:2:0:0:
135,126,176934,5,2,3:3:0:0:
147,167,177028,1,0,3:0:0:0:
102,157,177122,1,0,1:0:0:0:
17,216,177309,1,2,0:3:0:0:
255,104,177497,1,8,1:2:0:0:
342,156,177684,2,0,P|318:123|282:97,1,71.9999978027344,2|0,0:3|0:0,0:0:0:0:
18,45,177872,5,2,1:2:0:0:
58,60,177965,1,2,0:2:0:0:
103,40,178059,2,0,P|121:27|160:16,2,47.9999985351563,10|8|8,0:2|0:1|0:1,0:0:0:0:
233,82,178247,1,10,1:2:0:0:
504,48,178434,5,8,0:1:0:0:
458,26,178528,1,8,0:1:0:0:
409,60,178622,2,0,P|457:48|493:19,1,83.9999974365235,4|0,1:2|0:0,0:0:0:0:
324,0,178809,1,0,0:3:0:0:
505,149,178997,2,0,P|474:113|425:92,1,83.9999974365235,8|0,1:2|0:0,0:0:0:0:
334,219,179184,1,2,0:3:0:0:
308,189,179278,2,0,P|324:152|378:164,1,83.9999974365235,0|0,3:0|1:0,0:0:0:0:
504,285,179465,2,0,P|471:256|411:248,1,83.9999974365235,0|2,3:0|0:3,0:0:0:0:
293,320,179653,1,0,3:0:0:0:
311,357,179747,2,0,P|335:320|342:264,1,83.9999974365235,8|0,1:2|0:0,0:0:0:0:
218,242,179934,2,0,P|227:197|255:158,1,83.9999974365235,2|0,3:3|0:0,0:0:0:0:
131,320,180122,5,0,1:0:0:0:
78,282,180215,1,0,3:0:0:0:
39,306,180309,2,0,P|77:329|130:324,1,83.9999974365235,2|0,3:3|0:0,0:0:0:0:
251,191,180497,2,0,P|281:219|301:256,1,83.9999974365235,8|0,1:2|0:0,0:0:0:0:
409,333,180684,1,2,3:3:0:0:
453,294,180778,1,0,3:0:0:0:
489,312,180872,2,0,P|392:335|322:288,1,167.999994873047,2|2,1:2|0:3,0:0:0:0:
180,216,181153,1,0,0:0:0:0:
164,249,181247,2,0,P|259:217|288:147,1,167.999994873047,10|2,1:2|0:3,0:0:0:0:
0,23,181622,6,0,P|44:30|83:50,1,83.9999974365235,0|0,1:0|0:0,0:0:0:0:
257,112,181809,1,2,3:3:0:0:
232,69,181903,1,0,0:0:0:0:
182,75,181997,2,0,P|222:43|231:5,1,83.9999974365235,8|0,1:2|0:0,0:0:0:0:
374,0,182184,2,0,P|355:35|312:59,1,83.9999974365235,2|0,3:3|0:0,0:0:0:0:
143,42,182372,1,0,1:0:0:0:
92,17,182465,1,0,0:0:0:0:
56,43,182559,2,0,P|97:61|164:69,1,83.9999974365235,2|0,3:3|0:0,0:0:0:0:
343,143,182747,2,0,P|312:101|268:78,1,83.9999974365235,8|0,1:2|0:0,0:0:0:0:
0,109,182934,2,0,P|45:109|98:90,1,83.9999974365235,2|0,3:3|0:0,0:0:0:0:
390,118,183122,6,0,P|368:163|335:207,1,83.9999974365235,2|0,1:2|0:0,0:0:0:0:
150,296,183309,1,2,0:3:0:0:
445,194,183497,2,0,P|398:193|348:207,1,83.9999974365235,10|0,1:2|0:0,0:0:0:0:
153,343,183684,1,2,0:3:0:0:
412,206,183872,2,0,P|399:255|368:306,1,83.9999974365235,2|0,1:2|0:0,0:0:0:0:
176,373,184059,1,2,3:3:0:0:
137,331,184153,1,0,0:0:0:0:
104,347,184247,2,0,P|153:350|195:338,1,83.9999974365235,10|0,1:2|0:0,0:0:0:0:
303,215,184434,2,0,P|313:180|343:201,1,83.9999974365235,2|0,3:3|0:0,0:0:0:0:
512,329,184622,6,0,P|432:294|356:226,1,167.999994873047,0|2,1:0|0:3,0:0:0:0:
245,74,184903,1,0,0:0:0:0:
236,113,184997,2,0,P|282:90|316:53,1,83.9999974365235,8|0,1:2|0:0,0:0:0:0:
511,31,185184,2,0,P|466:17|430:-15,1,83.9999974365235,2|0,3:3|0:0,0:0:0:0:
203,122,185372,2,0,P|237:94|266:52,1,83.9999974365235,0|0,1:0|0:0,0:0:0:0:
460,67,185559,1,2,3:3:0:0:
423,46,185653,1,0,0:0:0:0:
377,129,185747,2,0,P|477:94|504:22,1,167.999994873047,10|2,1:2|0:3,0:0:0:0:
80,23,186122,6,0,P|162:57|196:134,1,167.999994873047,0|2,1:0|0:3,0:0:0:0:
68,340,186403,1,0,0:0:0:0:
41,316,186497,2,0,P|77:297|122:288,1,83.9999974365235,8|0,1:2|0:0,0:0:0:0:
305,301,186684,2,0,P|260:281|224:246,1,83.9999974365235,2|0,3:3|0:0,0:0:0:0:
0,317,186872,2,0,P|28:287|67:265,1,83.9999974365235,2|0,1:2|0:0,0:0:0:0:
254,236,187059,1,2,3:3:0:0:
273,201,187153,1,0,0:0:0:0:
333,252,187247,2,0,P|253:287|217:364,1,167.999994873047,10|2,1:2|0:3,0:0:0:0:
502,330,187528,5,0,0:0:0:0:
512,366,187622,2,0,P|445:312|429:214,1,167.999994873047,0|2,1:0|0:3,0:0:0:0:
242,124,187903,1,0,0:0:0:0:
229,156,187997,2,0,P|288:138|328:109,1,83.9999974365235,8|0,1:2|0:0,0:0:0:0:
512,129,188184,2,0,P|473:114|424:110,1,83.9999974365235,2|0,3:3|0:0,0:0:0:0:
148,182,188372,2,0,P|189:153|220:109,1,83.9999974365235,0|0,1:0|0:0,0:0:0:0:
414,92,188559,2,0,P|363:102|329:120,1,83.9999974365235,2|0,3:3|0:0,0:0:0:0:
74,237,188747,2,0,P|98:195|104:142,1,83.9999974365235,8|0,1:2|0:0,0:0:0:0:
58,12,188934,5,2,3:3:0:0:
32,50,189028,1,0,3:0:0:0:
0,0,189122,2,0,B|-7:63|86:210|154:160|170:116|132:73,1,251.999992309571,2|0,1:1|0:0,0:0:0:0:
2,107,189497,2,0,B|-16:194|52:284|162:293|203:255|143:206,1,300,2|0,1:1|0:0,0:0:0:0:
77,305,189872,5,8,0:1:0:0:
117,328,189965,1,8,0:3:0:0:
135,324,190059,1,8,0:2:0:0:
196,324,190153,1,8,3:2:0:0:
228,367,190247,1,8,1:1:0:0:
228,367,190434,1,4,1:3:0:0:
0,384,190622,1,4,1:0:0:0:
