osu file format v14

[General]
AudioFilename: audio.mp3
AudioLeadIn: 0
PreviewTime: 92040
Countdown: 0
SampleSet: Soft
StackLeniency: 0.7
Mode: 0
LetterboxInBreaks: 0
WidescreenStoryboard: 1

[Editor]
Bookmarks: 540,9540,21540,33540,45540,57540,66540,69540,81540,93540,102540,105540,117540,129540,138540,141540,153540,165540,174540,177540,189540
DistanceSpacing: 1
BeatDivisor: 2
GridSize: 4
TimelineZoom: 1.900001

[Metadata]
Title:Hysteric Night Girl -Awakening- (feat. Such)
TitleUnicode:ヒステリックナイトガール -Awakening- (feat. Such)
Artist:PSYQUI
ArtistUnicode:PSYQUI
Creator:Jiysea
Version:Normal
Source:
Tags:electronic japanese speed garage EDM Innocent future core jpop j-pop tech wacca LAM megarex mrx-034 LeCandy Amateurre
BeatmapID:3097647
BeatmapSetID:1508329

[Difficulty]
HPDrainRate:3
CircleSize:2.8
OverallDifficulty:4
ApproachRate:5
SliderMultiplier:1.2
SliderTickRate:1

[Events]
//Background and Video events
0,0,"hysteric night girl.jpg",0,0
//Break Periods
2,117740,128340
//Storyboard Layer 0 (Background)
//Storyboard Layer 1 (Fail)
//Storyboard Layer 2 (Pass)
//Storyboard Layer 3 (Foreground)
//Storyboard Layer 4 (Overlay)
//Storyboard Sound Samples

[TimingPoints]
540,375,4,2,2,65,1,0
540,-111.111111111111,4,2,2,65,0,0
8790,-111.111111111111,4,2,1,65,0,0
9540,-100,4,2,1,75,0,0
21540,-111.111111111111,4,2,1,65,0,0
33540,-111.111111111111,4,2,1,70,0,0
57540,-100,4,2,1,75,0,0
81540,-100,4,2,1,80,0,0
90540,-100,4,2,1,85,0,0
93540,-90.9090909090909,4,2,1,85,0,1
102540,-100,4,2,1,85,0,0
105540,-90.9090909090909,4,2,1,85,0,1
116040,-90.9090909090909,4,2,1,85,0,0
129540,-111.111111111111,4,2,2,65,0,0
138540,-111.111111111111,4,2,5,50,0,0
140790,-111.111111111111,4,2,5,50,0,0
141540,-100,4,2,1,75,0,0
165540,-90.9090909090909,4,2,1,85,0,1
174540,-100,4,2,1,85,0,0
177540,-90.9090909090909,4,2,1,85,0,1
188040,-100,4,2,1,85,0,0

[Colours]
Combo1 : 96,155,111
Combo2 : 110,225,145

[HitObjects]
0,88,540,6,0,P|33:58|101:50,1,107.999996704102,2|2,1:2|0:0,0:0:0:0:
200,40,1290,2,0,P|233:70|301:78,1,107.999996704102,10|2,0:2|0:0,0:0:0:0:
396,40,2040,1,2,0:0:0:0:
480,108,2415,2,0,B|498:1,2,107.999996704102,2|10|2,0:0|0:2|0:0,0:0:0:0:
512,152,3352,1,0,1:0:0:0:
512,152,3540,6,0,P|496:212|453:242,1,107.999996704102,2|2,1:2|0:0,0:0:0:0:
424,340,4290,2,0,P|364:324|333:281,1,107.999996704102,10|2,0:2|0:0,0:0:0:0:
256,220,5040,2,0,L|149:201,1,107.999996704102,2|2,0:0|0:0,0:0:0:0:
52,244,5790,2,0,P|60:292|37:323,2,80.9999975280763,10|0|0,0:2|1:2|1:2,0:0:0:0:
24,196,6540,6,0,L|5:89,1,107.999996704102,2|2,1:2|0:0,0:0:0:0:
100,40,7290,2,0,P|152:37|193:3,1,107.999996704102,10|2,0:2|0:0,0:0:0:0:
292,60,8040,1,2,1:2:0:0:
292,60,8415,1,2,0:0:0:0:
392,16,8790,2,0,L|445:6,2,53.9999983520508,10|2|10,0:2|1:2|0:2,0:0:0:0:
380,136,9540,6,0,P|438:139|474:185,1,120,4|8,1:2|1:2,0:0:0:0:
508,304,10290,1,0,1:2:0:0:
508,304,10477,2,0,L|448:314,1,60,2|8,0:0|1:2,0:0:0:0:
412,360,10852,1,2,0:0:0:0:
352,347,11040,2,0,P|308:308|250:307,1,120,0|8,1:2|1:2,0:0:0:0:
148,372,11790,1,0,1:2:0:0:
148,372,11977,2,0,L|89:361,1,60,2|8,0:0|1:2,0:0:0:0:
48,316,12352,1,2,0:0:0:0:
76,260,12540,6,0,L|195:239,2,120,0|8|0,1:2|1:2|1:2,0:0:0:0:
56,204,13477,2,0,P|69:177|70:148,1,60,2|8,0:0|1:2,0:0:0:0:
60,28,14040,2,0,P|108:62|167:60,1,120,0|8,1:2|1:2,0:0:0:0:
224,44,14602,1,2,0:0:0:0:
276,72,14790,2,0,L|265:131,1,60,0|2,1:2|0:0,0:0:0:0:
304,176,15165,1,8,1:2:0:0:
412,232,15540,6,0,P|470:229|506:183,1,120,4|8,1:2|1:2,0:0:0:0:
488,68,16290,1,0,1:2:0:0:
488,68,16477,2,0,L|428:58,1,60,2|8,0:0|1:2,0:0:0:0:
384,16,16852,1,2,0:0:0:0:
324,28,17040,2,0,L|205:47,1,120,0|8,1:2|1:2,0:0:0:0:
96,20,17790,1,0,1:2:0:0:
96,20,17977,2,0,P|72:37|62:65,1,60,2|8,0:0|1:2,0:0:0:0:
68,124,18352,1,2,0:0:0:0:
40,176,18540,6,0,P|98:169|142:207,2,120,0|8|0,1:2|1:2|1:2,0:0:0:0:
4,224,19477,2,0,L|14:283,1,60,2|8,0:0|1:2,0:0:0:0:
108,356,20040,2,0,P|156:321|215:323,1,120,0|8,1:2|1:2,0:0:0:0:
268,300,20602,1,2,0:0:0:0:
320,328,20790,2,0,L|438:348,1,120,2|8,1:2|0:2,0:0:0:0:
500,259,21540,6,0,P|503:207|469:167,1,107.999996704102,6|10,1:2|1:2,0:0:0:0:
380,108,22290,1,2,1:2:0:0:
280,152,22665,2,0,L|270:205,1,53.9999983520508,10|2,1:2|0:0,0:0:0:0:
220,224,23040,2,0,P|191:219|165:198,1,53.9999983520508,2|2,1:2|0:0,0:0:0:0:
124,180,23415,2,0,L|105:73,2,107.999996704102,10|2|10,1:2|1:2|1:2,0:0:0:0:
52,260,24540,6,0,P|101:277|127:324,1,107.999996704102,2|10,1:2|1:2,0:0:0:0:
172,352,25102,1,0,0:0:0:0:
224,340,25290,2,0,L|330:321,1,107.999996704102,2|10,1:2|1:2,0:0:0:0:
403,243,26040,2,0,P|450:269|466:319,2,107.999996704102,2|10|0,1:2|1:2|1:2,0:0:0:0:
360,216,26977,1,0,0:0:0:0:
376,164,27165,2,0,P|389:141|413:128,1,53.9999983520508,8|0,1:2|0:0,0:0:0:0:
436,80,27540,6,0,L|329:61,1,107.999996704102,2|10,1:2|1:2,0:0:0:0:
240,0,28290,1,2,1:2:0:0:
140,44,28665,2,0,P|163:56|177:79,1,53.9999983520508,10|2,1:2|0:0,0:0:0:0:
212,120,29040,2,0,L|202:173,1,53.9999983520508,2|2,1:2|0:0,0:0:0:0:
168,216,29415,2,0,P|116:228|68:205,2,107.999996704102,10|2|10,1:2|1:2|1:2,0:0:0:0:
260,268,30540,6,0,P|311:255|359:278,1,107.999996704102,2|10,1:2|1:2,0:0:0:0:
400,316,31102,1,2,0:0:0:0:
452,308,31290,1,2,1:2:0:0:
508,216,31665,1,8,1:2:0:0:
452,124,32040,2,0,L|470:17,2,107.999996704102,2|10|0,1:2|1:2|1:2,0:0:0:0:
404,144,32977,1,0,0:0:0:0:
352,160,33165,2,0,P|328:147|314:124,1,53.9999983520508,8|0,1:2|0:0,0:0:0:0:
292,76,33540,5,6,1:2:0:0:
196,44,33915,1,10,1:2:0:0:
196,44,34290,2,0,L|142:53,1,53.9999983520508,2|2,1:2|0:0,0:0:0:0:
104,88,34665,2,0,L|50:78,1,53.9999983520508,10|2,1:2|0:0,0:0:0:0:
12,116,35040,1,2,1:2:0:0:
72,204,35415,2,0,P|117:175|169:180,2,107.999996704102,10|2|8,1:2|1:2|1:2,0:0:0:0:
44,308,36540,6,0,L|97:298,1,53.9999983520508,2|2,1:2|0:0,0:0:0:0:
148,320,36915,2,0,P|193:348|245:343,1,107.999996704102,10|2,1:2|1:2,0:0:0:0:
296,320,37477,1,2,0:0:0:0:
336,284,37665,2,0,L|345:230,1,53.9999983520508,10|2,1:2|0:0,0:0:0:0:
396,212,38040,1,2,1:2:0:0:
480,144,38415,2,0,P|429:126|401:81,1,107.999996704102,10|0,1:2|1:2,0:0:0:0:
316,16,39165,1,10,1:2:0:0:
228,76,39540,5,2,1:2:0:0:
124,80,39915,1,10,1:2:0:0:
124,80,40290,2,0,P|119:106|130:130,1,53.9999983520508,2|2,1:2|0:0,0:0:0:0:
112,180,40665,2,0,P|127:201|152:211,1,53.9999983520508,10|2,1:2|0:0,0:0:0:0:
188,252,41040,1,2,1:2:0:0:
292,224,41415,2,0,L|310:117,2,107.999996704102,10|2|8,1:2|1:2|1:2,0:0:0:0:
352,316,42540,6,0,L|405:306,1,53.9999983520508,0|2,1:2|0:0,0:0:0:0:
440,264,42915,1,10,1:2:0:0:
496,172,43290,2,0,L|486:118,1,53.9999983520508,2|0,1:2|0:0,0:0:0:0:
448,80,43665,2,0,P|423:69|397:73,1,53.9999983520508,8|0,1:2|0:0,0:0:0:0:
352,44,44040,1,2,1:2:0:0:
248,68,44415,1,10,1:2:0:0:
148,32,44790,2,0,L|129:138,1,107.999996704102,6|10,1:2|1:2,0:0:0:0:
28,176,45540,6,0,B|82:157|128:202|128:202|177:253|236:231,1,215.999993408203,4|10,1:2|1:2,0:0:0:0:
296,324,46665,1,2,0:0:0:0:
340,292,46852,2,0,P|363:279|390:277,1,53.9999983520508,2|0,0:0|1:2,0:0:0:0:
444,276,47227,2,0,L|425:382,2,107.999996704102,2|2|2,0:0|0:0|0:0,0:0:0:0:
512,192,48352,1,2,0:0:0:0:
484,144,48540,6,0,P|450:102|398:90,1,107.999996704102,2|2,1:2|0:0,0:0:0:0:
308,32,49290,2,0,P|274:73|222:85,1,107.999996704102,10|2,1:2|0:0,0:0:0:0:
176,56,49852,2,0,L|122:46,1,53.9999983520508,2|0,0:0|1:2,0:0:0:0:
72,68,50227,1,2,0:0:0:0:
0,148,50602,2,0,L|9:201,1,53.9999983520508,2|8,0:0|1:2,0:0:0:0:
120,320,51352,1,2,0:0:0:0:
160,356,51540,6,0,P|201:323|254:323,1,107.999996704102,12|8,1:2|1:2,0:0:0:0:
348,268,52290,2,0,P|389:300|442:300,1,107.999996704102,8|8,1:2|1:2,0:0:0:0:
492,204,53040,2,0,L|385:185,2,107.999996704102,8|8|8,1:2|1:2|1:2,0:0:0:0:
448,104,54165,1,8,1:2:0:0:
352,56,54540,5,10,1:2:0:0:
304,155,54915,1,10,1:2:0:0:
205,107,55290,1,10,1:2:0:0:
248,7,55665,2,0,L|194:16,1,53.9999983520508,10|6,1:2|1:2,0:0:0:0:
4,330,57540,6,0,P|54:300|110:315,1,120,6|2,1:2|1:2,0:0:0:0:
216,256,58290,2,0,P|266:286|322:271,1,120,2|2,1:2|1:2,0:0:0:0:
432,324,59040,1,2,1:2:0:0:
504,228,59415,1,2,1:2:0:0:
408,156,59790,2,0,B|432:36,1,120,2|2,1:2|1:2,0:0:0:0:
312,56,60540,6,0,P|254:41|212:0,2,120,2|2|2,1:2|1:2|1:2,0:0:0:0:
292,176,61665,1,2,1:2:0:0:
172,196,62040,1,2,1:2:0:0:
104,96,62415,1,2,1:2:0:0:
4,160,62790,2,0,L|14:219,1,60,2|2,1:2|0:0,0:0:0:0:
64,252,63165,2,0,L|53:311,1,60,2|0,1:2|0:0,0:0:0:0:
92,356,63540,6,0,P|140:323|198:331,1,120,2|2,1:2|1:2,0:0:0:0:
312,372,64290,1,2,1:2:0:0:
404,296,64665,1,2,1:2:0:0:
328,204,65040,2,0,L|209:183,2,120,2|2|2,1:2|1:2|1:2,0:0:0:0:
368,160,65977,1,2,0:2:0:0:
408,116,66165,1,2,1:2:0:0:
504,48,66540,6,0,P|468:2|410:0,1,120,4|8,1:2|1:2,0:0:0:0:
308,60,67290,1,0,1:2:0:0:
308,60,67477,2,0,L|248:50,1,60,2|8,0:0|1:2,0:0:0:0:
192,72,67852,1,2,0:0:0:0:
212,128,68040,2,0,P|253:170|256:228,1,120,0|8,1:2|1:2,0:0:0:0:
140,256,68790,1,0,1:2:0:0:
92,220,68977,1,2,0:0:0:0:
32,228,69165,1,8,1:2:0:0:
0,344,69540,6,0,L|59:333,1,60,6|0,1:2|0:0,0:0:0:0:
112,360,69915,2,0,L|171:370,1,60,10|0,1:2|0:0,0:0:0:0:
224,344,70290,1,2,1:2:0:0:
344,364,70665,1,10,1:2:0:0:
460,328,71040,2,0,P|478:305|481:275,1,60,2|0,1:2|0:0,0:0:0:0:
440,232,71415,2,0,P|421:209|418:179,1,60,10|0,1:2|0:0,0:0:0:0:
456,132,71790,1,2,1:2:0:0:
404,24,72165,1,10,1:2:0:0:
288,44,72540,5,0,1:2:0:0:
288,44,72727,2,0,L|228:33,2,60,2|10|2,0:0|1:2|0:0,0:0:0:0:
316,96,73290,1,2,1:2:0:0:
228,178,73665,2,0,L|168:167,1,60,10|2,1:2|0:0,0:0:0:0:
124,128,74040,6,0,L|5:107,1,120,2|10,1:2|1:2,0:0:0:0:
4,228,74790,2,0,L|63:238,1,60,2|2,1:2|0:0,0:0:0:0:
100,284,75165,1,10,1:2:0:0:
192,364,75540,6,0,P|250:365|291:324,1,120,2|10,1:2|1:2,0:0:0:0:
312,268,76102,1,2,0:0:0:0:
372,276,76290,2,0,L|431:286,2,60,2|2|10,1:2|0:0|1:2,0:0:0:0:
380,156,77040,2,0,P|380:97|337:57,1,120,2|10,1:2|1:2,0:0:0:0:
276,60,77602,1,2,0:0:0:0:
232,100,77790,2,0,L|242:159,2,60,2|2|10,1:2|0:0|1:2,0:0:0:0:
132,36,78540,6,0,L|13:15,1,120,2|10,1:2|1:2,0:0:0:0:
4,76,79102,1,2,0:0:0:0:
48,116,79290,2,0,P|83:162|80:221,1,120,2|10,1:2|1:2,0:0:0:0:
20,324,80040,5,4,1:2:0:0:
128,376,80415,1,4,1:2:0:0:
236,320,80790,1,8,0:2:0:0:
468,384,81540,6,0,L|447:265,1,120,6|2,1:2|1:2,0:0:0:0:
464,148,82290,2,0,P|492:156|509:180,2,60,2|2|2,1:2|0:0|1:2,0:0:0:0:
420,120,82852,1,2,0:0:0:0:
420,120,83040,2,0,L|440:1,1,120,2|2,1:2|1:2,0:0:0:0:
320,8,83790,2,0,P|290:6|262:17,1,60,2|2,1:2|0:0,0:0:0:0:
212,52,84165,2,0,P|182:53|154:42,1,60,2|2,1:2|0:2,0:0:0:0:
104,8,84540,6,0,L|81:134,1,120,2|2,1:2|1:2,0:0:0:0:
48,240,85290,2,0,P|99:211|157:220,1,120,2|2,1:2|1:2,0:0:0:0:
224,320,86040,2,0,L|135:335,2,90,2|2|2,1:2|0:0|0:0,0:0:0:0:
272,356,86790,1,2,1:2:0:0:
372,288,87165,2,0,P|399:299|416:323,1,60,8|0,0:2|1:2,0:0:0:0:
460,368,87540,6,0,L|480:249,1,120,14|10,1:2|1:2,0:0:0:0:
428,144,88290,2,0,P|455:132|472:108,1,60,10|10,1:2|0:2,0:0:0:0:
456,52,88665,2,0,P|444:24|420:7,1,60,10|10,1:2|0:2,0:0:0:0:
364,32,89040,6,0,L|245:11,1,120,10|10,1:2|1:2,0:0:0:0:
200,52,89602,1,10,0:2:0:0:
160,96,89790,2,0,L|170:155,2,60,10|10|10,1:2|0:2|1:2,0:0:0:0:
100,80,90352,1,10,0:2:0:0:
256,192,90540,12,4,92040,1:2:0:0:
4,68,93540,6,0,P|68:69|122:32,1,132.00000402832,6|10,1:2|1:2,0:0:0:0:
188,16,94102,1,0,0:0:0:0:
240,56,94290,2,0,L|251:120,1,66.0000020141602,0|0,1:2|0:0,0:0:0:0:
304,160,94665,1,10,1:2:0:0:
291,224,94852,1,2,0:0:0:0:
344,268,95040,2,0,P|408:266|462:303,2,132.00000402832,2|10|2,1:2|1:2|1:2,0:0:0:0:
240,352,96165,1,10,1:2:0:0:
112,324,96540,6,0,L|89:194,1,132.00000402832,2|10,1:2|1:2,0:0:0:0:
32,164,97102,1,0,0:0:0:0:
60,104,97290,2,0,L|124:92,2,66.0000020141602,0|0|10,1:2|0:0|1:2,0:0:0:0:
20,60,97852,1,2,0:0:0:0:
20,60,98040,2,0,L|149:37,1,132.00000402832,2|10,1:2|1:2,0:0:0:0:
260,112,98790,1,2,1:2:0:0:
388,80,99165,2,0,L|399:15,1,66.0000020141602,10|0,1:2|0:0,0:0:0:0:
464,0,99540,6,0,P|505:48|496:112,1,132.00000402832,2|10,1:2|1:2,0:0:0:0:
448,156,100102,1,0,0:0:0:0:
392,188,100290,2,0,P|376:216|374:249,1,66.0000020141602,0|0,1:2|0:0,0:0:0:0:
388,312,100665,1,10,1:2:0:0:
322,323,100852,1,2,0:0:0:0:
264,296,101040,2,0,L|134:273,2,132.00000402832,2|10|2,1:2|1:2|1:2,0:0:0:0:
296,168,102165,1,10,1:2:0:0:
240,60,102540,6,0,P|182:57|146:11,1,120,4|8,1:2|1:2,0:0:0:0:
36,48,103290,1,0,1:2:0:0:
36,48,103477,2,0,L|46:108,1,60,2|8,0:0|1:2,0:0:0:0:
92,144,103852,1,2,0:0:0:0:
104,204,104040,2,0,P|60:243|2:244,1,120,0|8,1:2|1:2,0:0:0:0:
20,364,104790,1,0,1:2:0:0:
76,380,104977,1,2,0:0:0:0:
132,364,105165,1,8,1:2:0:0:
240,288,105540,6,0,P|305:287|358:324,1,132.00000402832,6|10,1:2|1:2,0:0:0:0:
420,304,106102,1,0,0:0:0:0:
480,276,106290,2,0,L|491:212,1,66.0000020141602,0|0,1:2|0:0,0:0:0:0:
464,152,106665,1,10,1:2:0:0:
407,124,106852,1,2,0:0:0:0:
368,68,107040,2,0,P|430:53|473:4,2,132.00000402832,2|10|2,1:2|1:2|1:2,0:0:0:0:
244,28,108165,1,10,1:2:0:0:
116,60,108540,6,0,P|75:110|82:174,1,132.00000402832,2|10,1:2|1:2,0:0:0:0:
56,236,109102,1,0,0:0:0:0:
96,288,109290,2,0,L|108:352,2,66.0000020141602,0|0|10,1:2|0:0|1:2,0:0:0:0:
164,272,109852,1,2,0:0:0:0:
164,272,110040,2,0,P|220:239|285:245,1,132.00000402832,2|10,1:2|1:2,0:0:0:0:
388,324,110790,1,2,1:2:0:0:
496,248,111165,2,0,L|507:183,1,66.0000020141602,10|0,1:2|0:0,0:0:0:0:
476,124,111540,6,0,P|413:134|364:92,1,132.00000402832,2|10,1:2|1:2,0:0:0:0:
332,36,112102,1,0,0:0:0:0:
268,24,112290,2,0,P|245:47|235:78,1,66.0000020141602,0|0,1:2|0:0,0:0:0:0:
184,124,112665,1,10,1:2:0:0:
203,186,112852,1,2,0:0:0:0:
224,248,113040,2,0,L|354:225,2,132.00000402832,2|10|2,1:2|1:2|1:2,0:0:0:0:
124,336,114165,1,10,1:2:0:0:
24,252,114540,6,0,L|47:122,1,132.00000402832,2|10,1:2|1:2,0:0:0:0:
96,80,115102,1,0,0:0:0:0:
156,52,115290,2,0,P|184:36|217:34,1,66.0000020141602,0|0,1:2|0:0,0:0:0:0:
264,80,115665,1,10,1:2:0:0:
325,97,115852,1,2,0:0:0:0:
392,84,116040,5,4,1:2:0:0:
512,384,117540,1,6,1:2:0:0:
444,0,129540,6,0,P|414:33|406:101,1,107.999996704102,6|2,1:2|0:0,0:0:0:0:
472,180,130290,2,0,P|502:213|510:281,1,107.999996704102,10|2,0:2|0:0,0:0:0:0:
436,352,131040,1,2,0:0:0:0:
340,304,131415,2,0,B|358:197,2,107.999996704102,2|10|2,0:0|0:2|0:0,0:0:0:0:
304,344,132352,1,0,1:0:0:0:
304,344,132540,6,0,P|250:313|199:322,1,107.999996704102,0|2,1:2|0:0,0:0:0:0:
104,352,133290,2,0,L|95:299,1,53.9999983520508,10|2,0:2|0:0,0:0:0:0:
56,260,133665,2,0,L|65:207,1,53.9999983520508,2|2,0:0|0:0,0:0:0:0:
96,160,134040,2,0,P|149:156|188:121,1,107.999996704102,2|2,0:0|0:0,0:0:0:0:
292,96,134790,2,0,L|372:82,2,80.9999975280763,10|0|2,0:2|1:2|1:2,0:0:0:0:
268,48,135540,6,0,L|375:29,1,107.999996704102,6|2,1:2|0:0,0:0:0:0:
428,20,136102,1,2,0:0:0:0:
472,48,136290,2,0,P|477:74|469:100,1,53.9999983520508,10|2,0:2|0:0,0:0:0:0:
444,148,136665,1,2,0:0:0:0:
372,228,137040,6,0,L|478:247,1,107.999996704102,2|2,1:2|0:0,0:0:0:0:
496,296,137602,1,2,0:0:0:0:
460,336,137790,2,0,L|407:327,1,53.9999983520508,10|2,0:2|0:0,0:0:0:0:
364,360,138165,1,2,0:0:0:0:
256,192,138540,12,12,139915,0:2:0:0:
92,88,140790,5,2,0:1:0:0:
92,88,141540,6,0,L|210:67,1,120,6|2,1:2|1:2,0:0:0:0:
308,136,142290,2,0,P|365:122|394:72,1,120,2|2,1:2|1:2,0:0:0:0:
508,112,143040,1,2,1:2:0:0:
484,228,143415,1,2,1:2:0:0:
460,344,143790,2,0,B|342:323,1,120,2|2,1:2|1:2,0:0:0:0:
256,240,144540,6,0,P|270:183|318:149,2,120,2|2|2,1:2|1:2|1:2,0:0:0:0:
204,348,145665,1,2,1:2:0:0:
100,288,146040,1,2,1:2:0:0:
60,176,146415,1,2,1:2:0:0:
132,80,146790,2,0,P|157:63|185:55,1,60,2|2,1:2|0:0,0:0:0:0:
236,20,147165,2,0,P|261:37|289:45,1,60,2|0,1:2|0:0,0:0:0:0:
340,80,147540,6,0,P|382:39|440:37,1,120,2|2,1:2|1:2,0:0:0:0:
504,140,148290,1,2,1:2:0:0:
404,208,148665,1,2,1:2:0:0:
392,328,149040,2,0,L|511:307,2,120,2|2|2,1:2|1:2|1:2,0:0:0:0:
352,372,149977,1,2,0:2:0:0:
292,368,150165,1,2,1:2:0:0:
184,320,150540,6,0,L|163:202,1,120,4|8,1:2|1:2,0:0:0:0:
71,132,151290,1,0,1:2:0:0:
71,132,151477,2,0,P|41:128|15:113,1,60,2|8,0:0|1:2,0:0:0:0:
8,52,151852,1,2,0:0:0:0:
60,20,152040,2,0,L|178:-1,1,120,0|8,1:2|1:2,0:0:0:0:
288,52,152790,1,0,1:2:0:0:
300,112,152977,1,2,0:0:0:0:
264,160,153165,1,8,1:2:0:0:
164,228,153540,6,0,L|175:287,1,60,6|0,1:2|0:0,0:0:0:0:
220,328,153915,2,0,P|245:345|274:348,1,60,10|0,1:2|0:0,0:0:0:0:
328,320,154290,1,2,1:2:0:0:
444,356,154665,1,10,1:2:0:0:
508,256,155040,2,0,L|498:197,1,60,2|0,1:2|0:0,0:0:0:0:
456,156,155415,2,0,L|397:146,1,60,10|0,1:2|0:0,0:0:0:0:
348,180,155790,1,2,1:2:0:0:
240,128,156165,1,10,1:2:0:0:
136,76,156540,5,0,1:2:0:0:
136,76,156727,2,0,L|147:16,2,60,2|10|2,0:0|1:2|0:0,0:0:0:0:
88,112,157290,1,2,1:2:0:0:
15,207,157665,2,0,P|14:236|30:261,1,60,10|2,1:2|0:0,0:0:0:0:
80,296,158040,6,0,P|136:280|189:305,1,120,2|10,1:2|1:2,0:0:0:0:
300,348,158790,2,0,L|290:289,1,60,2|2,1:2|0:0,0:0:0:0:
332,248,159165,1,10,1:2:0:0:
400,148,159540,6,0,P|456:164|509:139,1,120,2|10,1:2|1:2,0:0:0:0:
508,80,160102,1,2,0:0:0:0:
452,60,160290,2,0,L|442:1,2,60,2|2|10,1:2|0:0|1:2,0:0:0:0:
332,60,161040,2,0,L|214:39,1,120,2|10,1:2|1:2,0:0:0:0:
160,68,161602,1,2,0:0:0:0:
112,104,161790,2,0,L|53:94,2,60,2|2|10,1:2|0:0|1:2,0:0:0:0:
204,184,162540,6,0,L|293:168,2,90,2|2|2,1:2|0:0|0:0,0:0:0:0:
172,236,163290,2,0,P|128:242|96:273,2,90,2|2|2,1:2|0:0|0:0,0:0:0:0:
212,280,164040,5,6,1:2:0:0:
304,360,164415,1,12,1:2:0:0:
420,332,164790,1,4,1:2:0:0:
464,224,165165,1,12,1:2:0:0:
464,224,165540,6,0,P|418:179|406:115,1,132.00000402832,6|10,1:2|1:2,0:0:0:0:
356,72,166102,1,0,0:0:0:0:
304,112,166290,2,0,L|240:123,1,66.0000020141602,0|0,1:2|0:0,0:0:0:0:
216,184,166665,1,10,1:2:0:0:
179,235,166852,1,2,0:0:0:0:
132,280,167040,2,0,L|2:257,2,132.00000402832,2|10|2,1:2|1:2|1:2,0:0:0:0:
236,364,168165,1,10,1:2:0:0:
368,348,168540,6,0,P|384:285|356:227,1,132.00000402832,2|10,1:2|1:2,0:0:0:0:
308,180,169102,1,0,0:0:0:0:
332,116,169290,2,0,P|359:98|391:93,2,66.0000020141602,0|0|10,1:2|0:0|1:2,0:0:0:0:
288,76,169852,1,2,0:0:0:0:
288,76,170040,2,0,L|159:53,1,132.00000402832,2|10,1:2|1:2,0:0:0:0:
44,116,170790,2,0,P|-2:160|0:224,1,132.00000402832,2|8,1:2|1:2,0:0:0:0:
44,280,171352,1,0,0:0:0:0:
44,280,171540,6,0,L|174:257,1,132.00000402832,2|10,1:2|1:2,0:0:0:0:
228,296,172102,1,0,0:0:0:0:
296,300,172290,2,0,P|312:328|314:361,1,66.0000020141602,0|0,1:2|0:0,0:0:0:0:
380,372,172665,1,10,1:2:0:0:
445,383,172852,1,2,0:0:0:0:
488,336,173040,2,0,L|511:206,2,132.00000402832,2|10|2,1:2|1:2|1:2,0:0:0:0:
384,252,174165,1,10,1:2:0:0:
391,132,174540,6,0,P|444:109|462:53,1,120,4|8,1:2|1:2,0:0:0:0:
360,4,175290,1,0,1:2:0:0:
360,4,175477,2,0,L|300:14,1,60,2|8,0:0|1:2,0:0:0:0:
244,28,175852,1,2,0:0:0:0:
216,80,176040,2,0,L|98:59,1,120,0|8,1:2|1:2,0:0:0:0:
12,144,176790,1,0,1:2:0:0:
24,204,176977,1,10,0:2:0:0:
36,264,177165,1,8,1:2:0:0:
144,336,177540,6,0,P|209:337|262:300,1,132.00000402832,6|10,1:2|1:2,0:0:0:0:
308,252,178102,1,0,0:0:0:0:
284,188,178290,2,0,L|273:123,1,66.0000020141602,0|0,1:2|0:0,0:0:0:0:
332,92,178665,1,10,1:2:0:0:
388,119,178852,1,2,0:0:0:0:
404,184,179040,2,0,P|466:169|509:120,2,132.00000402832,2|10|2,1:2|1:2|1:2,0:0:0:0:
372,312,180165,1,10,1:2:0:0:
248,344,180540,5,2,1:2:0:0:
248,344,180727,2,0,L|183:333,2,66.0000020141602,2|10|2,0:0|1:2|0:0,0:0:0:0:
260,280,181290,2,0,P|246:250|220:230,1,66.0000020141602,2|2,1:2|0:0,0:0:0:0:
180,176,181665,1,10,1:2:0:0:
156,114,181852,1,2,0:0:0:0:
92,96,182040,6,0,L|222:73,1,132.00000402832,2|10,1:2|1:2,0:0:0:0:
336,8,182790,1,2,1:2:0:0:
448,80,183165,2,0,L|459:145,1,66.0000020141602,10|2,1:2|0:0,0:0:0:0:
492,200,183540,6,0,P|429:190|380:232,1,132.00000402832,2|10,1:2|1:2,0:0:0:0:
360,296,184102,1,2,0:0:0:0:
300,320,184290,2,0,P|277:297|246:287,1,66.0000020141602,2|2,1:2|0:0,0:0:0:0:
180,296,184665,1,10,1:2:0:0:
76,216,185040,6,0,P|136:193|157:132,1,132.00000402832,2|10,1:2|1:2,0:0:0:0:
212,96,185602,2,0,L|223:31,2,66.0000020141602,2|2|2,0:0|1:2|0:0,0:0:0:0:
264,136,186165,1,10,1:2:0:0:
356,232,186540,6,0,L|486:209,1,132.00000402832,2|10,1:2|1:2,0:0:0:0:
508,272,187102,1,2,0:0:0:0:
464,320,187290,2,0,P|431:322|403:338,1,66.0000020141602,2|2,1:2|0:2,0:0:0:0:
348,372,187665,2,0,P|315:370|287:354,1,66.0000020141602,10|0,1:2|0:0,0:0:0:0:
240,316,188040,5,4,1:2:0:0:
124,292,188415,1,4,1:2:0:0:
20,352,188790,2,0,B|10:296|10:296|13:292|13:292|3:233,1,120,8|8,0:2|0:2,0:0:0:0:
74,137,189540,5,6,1:2:0:0:
