osu file format v14

[General]
AudioFilename: audio.mp3
AudioLeadIn: 0
PreviewTime: 92040
Countdown: 0
SampleSet: Soft
StackLeniency: 0.6
Mode: 0
LetterboxInBreaks: 0
WidescreenStoryboard: 1

[Editor]
Bookmarks: 540,9540,21540,33540,45540,57540,66540,69540,81540,93540,102540,105540,117540,129540,138540,141540,150540,153540,165540,174540,177540,189540
DistanceSpacing: 1
BeatDivisor: 4
GridSize: 16
TimelineZoom: 2.9

[Metadata]
Title:Hysteric Night Girl -Awakening- (feat. Such)
TitleUnicode:ヒステリックナイトガール -Awakening- (feat. Such)
Artist:PSYQUI
ArtistUnicode:PSYQUI
Creator:Jiysea
Version:LeCandy's Another
Source:
Tags:electronic japanese speed garage EDM Innocent future core jpop j-pop tech wacca LAM megarex mrx-034 LeCandy Amateurre
BeatmapID:3113401
BeatmapSetID:1508329

[Difficulty]
HPDrainRate:5.4
CircleSize:4
OverallDifficulty:8.4
ApproachRate:9.4
SliderMultiplier:2.2
SliderTickRate:1

[Events]
//Background and Video events
0,0,"hysteric night girl.jpg",0,0
//Break Periods
2,117740,126000
//Storyboard Layer 0 (Background)
//Storyboard Layer 1 (Fail)
//Storyboard Layer 2 (Pass)
//Storyboard Layer 3 (Foreground)
//Storyboard Layer 4 (Overlay)
//Storyboard Sound Samples

[TimingPoints]
540,375,4,2,2,65,1,0
540,-166.666666666667,4,2,2,65,0,0
8790,-166.666666666667,4,2,1,65,0,0
9540,-76.9230769230769,4,2,1,75,0,0
9821,-76.9230769230769,4,2,1,5,0,0
9915,-100,4,2,1,75,0,0
12540,-83.3333333333333,4,2,1,75,0,0
12821,-83.3333333333333,4,2,1,5,0,0
12915,-90.9090909090909,4,2,1,75,0,0
13290,-100,4,2,1,75,0,0
14321,-100,4,2,1,5,0,0
14415,-100,4,2,1,75,0,0
14696,-100,4,2,1,5,0,0
14790,-100,4,2,1,75,0,0
15071,-100,4,2,1,5,0,0
15165,-100,4,2,1,75,0,0
15540,-83.3333333333333,4,2,1,75,0,0
15821,-83.3333333333333,4,2,1,5,0,0
15915,-100,4,2,1,75,0,0
18540,-83.3333333333333,4,2,1,75,0,0
18821,-83.3333333333333,4,2,1,5,0,0
18915,-90.9090909090909,4,2,1,75,0,0
19290,-100,4,2,1,75,0,0
20321,-100,4,2,1,5,0,0
20415,-100,4,2,1,75,0,0
20696,-100,4,2,1,5,0,0
20790,-100,4,2,1,75,0,0
21071,-100,4,2,1,5,0,0
21165,-100,4,2,1,75,0,0
21540,-111.111111111111,4,2,1,65,0,0
21821,-111.111111111111,4,2,1,5,0,0
21915,-111.111111111111,4,2,1,65,0,0
23321,-111.111111111111,4,2,1,5,0,0
23415,-111.111111111111,4,2,1,65,0,0
24821,-111.111111111111,4,2,1,5,0,0
24915,-111.111111111111,4,2,1,65,0,0
27821,-111.111111111111,4,2,1,5,0,0
27915,-111.111111111111,4,2,1,65,0,0
30821,-111.111111111111,4,2,1,5,0,0
30915,-111.111111111111,4,2,1,65,0,0
32321,-111.111111111111,4,2,1,5,0,0
32415,-111.111111111111,4,2,1,65,0,0
33165,-90.9090909090908,4,2,1,65,0,0
33540,-100,4,2,1,70,0,0
34290,-100,4,2,1,70,0,0
38040,-90.9090909090909,4,2,1,70,0,0
38415,-100,4,2,1,70,0,0
39821,-100,4,2,1,5,0,0
39915,-100,4,2,1,70,0,0
40290,-100,4,2,1,70,0,0
41321,-100,4,2,1,5,0,0
41415,-100,4,2,1,70,0,0
42258,-100,4,2,1,5,0,0
42352,-100,4,2,1,70,0,0
42540,-90.9090909090909,4,2,1,70,0,0
43008,-111.111111111111,4,2,1,70,0,0
43383,-100,4,2,1,70,0,0
44321,-100,4,2,1,5,0,0
44415,-100,4,2,1,70,0,0
45446,-100,4,2,1,5,0,0
45540,-161.913283895052,4,2,1,65,0,0
47040,-128.893866831463,4,2,1,65,0,0
48540,-211.434861402598,4,2,1,65,0,0
50040,-257.595201275656,4,2,1,65,0,0
51540,-257.595201275655,4,2,1,65,0,0
52290,-204.831571410547,4,2,1,65,0,0
53040,-170.008469458301,4,2,1,65,0,0
53790,-145.305332308417,4,2,1,65,0,0
57540,-72.0354189196979,4,2,1,75,0,0
57821,-72.0354189196979,4,2,1,5,0,0
57915,-72.0354189196979,4,2,1,75,0,0
58196,-72.0354189196979,4,2,1,5,0,0
58290,-531.332718310953,4,2,1,75,0,0
58571,-531.332718310953,4,2,1,5,0,0
58665,-531.332718310953,4,2,1,75,0,0
58946,-531.332718310953,4,2,1,5,0,0
59040,-67.1140939597315,4,2,1,75,0,0
59321,-67.1140939597315,4,2,1,5,0,0
59415,-67.1140939597315,4,2,1,75,0,0
59696,-67.1140939597315,4,2,1,5,0,0
59790,-526.315789473684,4,2,1,75,0,0
60071,-526.315789473684,4,2,1,5,0,0
60165,-526.315789473684,4,2,1,75,0,0
60446,-526.315789473684,4,2,1,5,0,0
60540,-62.8930817610063,4,2,1,75,0,0
60821,-62.8930817610063,4,2,1,5,0,0
60915,-526.315789473684,4,2,1,75,0,0
61196,-526.315789473684,4,2,1,5,0,0
61290,-59.5238095238095,4,2,1,75,0,0
61571,-59.5238095238095,4,2,1,5,0,0
61665,-526.315789473684,4,2,1,75,0,0
61946,-526.315789473684,4,2,1,5,0,0
62040,-98.0392156862745,4,2,1,75,0,0
62321,-98.0392156862745,4,2,1,5,0,0
62415,-89.2857142857143,4,2,1,75,0,0
62696,-89.2857142857143,4,2,1,5,0,0
62790,-89.2857142857143,4,2,1,75,0,0
63540,-161.290322580645,4,2,1,75,0,0
63821,-161.290322580645,4,2,1,5,0,0
63915,-161.290322580645,4,2,1,75,0,0
64196,-161.290322580645,4,2,1,5,0,0
64290,-147.058823529412,4,2,1,75,0,0
64571,-147.058823529412,4,2,1,5,0,0
64665,-147.058823529412,4,2,1,75,0,0
64946,-147.058823529412,4,2,1,5,0,0
65040,-135.135135135135,4,2,1,75,0,0
65321,-135.135135135135,4,2,1,5,0,0
65415,-135.135135135135,4,2,1,75,0,0
65696,-135.135135135135,4,2,1,5,0,0
65790,-135.135135135135,4,2,1,75,0,0
66446,-135.135135135135,4,2,1,5,0,0
66540,-87.719298245614,4,2,1,75,0,0
66821,-87.719298245614,4,2,1,5,0,0
66915,-96.1538461538461,4,2,1,75,0,0
68133,-96.1538461538461,4,2,1,5,0,0
68227,-96.1538461538461,4,2,1,75,0,0
68508,-96.1538461538461,4,2,1,5,0,0
68602,-96.1538461538461,4,2,1,75,0,0
69071,-96.1538461538461,4,2,1,5,0,0
69165,-96.1538461538461,4,2,1,75,0,0
69540,-76.9230769230769,4,2,1,75,0,0
69633,-76.9230769230769,4,2,1,5,0,0
69727,-76.9230769230769,4,2,1,75,0,0
70008,-76.9230769230769,4,2,1,5,0,0
70102,-76.9230769230769,4,2,1,75,0,0
70383,-76.9230769230769,4,2,1,5,0,0
70477,-76.9230769230769,4,2,1,75,0,0
71133,-76.9230769230769,4,2,1,5,0,0
71227,-76.9230769230769,4,2,1,75,0,0
71508,-76.9230769230769,4,2,1,5,0,0
71602,-76.9230769230769,4,2,1,75,0,0
71883,-76.9230769230769,4,2,1,5,0,0
71977,-76.9230769230769,4,2,1,75,0,0
72165,-100,4,2,1,75,0,0
72540,-76.9230769230769,4,2,1,75,0,0
73008,-76.9230769230769,4,2,1,5,0,0
73102,-76.9230769230769,4,2,1,75,0,0
73290,-76.9230769230769,4,2,1,75,0,0
73758,-76.9230769230769,4,2,1,5,0,0
73852,-76.9230769230769,4,2,1,75,0,0
74040,-76.9230769230769,4,2,1,75,0,0
74321,-76.9230769230769,4,2,1,5,0,0
74415,-90.9090909090909,4,2,1,75,0,0
74696,-90.9090909090909,4,2,1,5,0,0
74790,-76.9230769230769,4,2,1,75,0,0
75540,-71.4285714285714,4,2,1,75,0,0
75915,-76.9230769230769,4,2,1,75,0,0
76946,-76.9230769230769,4,2,1,5,0,0
77040,-76.9230769230769,4,2,1,75,0,0
79665,-83.3333333333333,4,2,1,75,0,0
79758,-83.3333333333333,4,2,1,5,0,0
79852,-83.3333333333333,4,2,1,75,0,0
80040,-66.6666666666667,4,2,1,75,0,0
80977,-76.9230769230769,4,2,1,75,0,0
81540,-71.4285714285714,4,2,1,80,0,0
81821,-71.4285714285714,4,2,1,5,0,0
81915,-90.9090909090909,4,2,1,80,0,0
82383,-90.9090909090909,4,2,1,5,0,0
82477,-90.9090909090909,4,2,1,80,0,0
82665,-90.9090909090909,4,2,1,80,0,0
82758,-90.9090909090909,4,2,1,5,0,0
82852,-90.9090909090909,4,2,1,80,0,0
86040,-94.3396226415094,4,2,1,80,0,0
86790,-108.695652173913,4,2,1,80,0,0
87071,-108.695652173913,4,2,1,5,0,0
87165,-108.695652173913,4,2,1,80,0,0
87352,-250,4,2,1,80,0,0
87446,-250,4,2,1,5,0,0
87540,-90.9090909090909,4,2,1,80,0,0
90540,-250,4,2,1,85,0,0
90915,-166.666666666667,4,2,1,85,0,0
91290,-100,4,2,1,90,0,0
91665,-91.0809550076829,4,2,1,90,0,0
91758,-111.111111111111,4,2,1,90,0,0
91852,-142.857142857143,4,2,1,90,0,0
91946,-200,4,2,1,90,0,0
93540,-62.5,4,2,1,85,0,0
93821,-62.5,4,2,1,5,0,0
93915,-71.4285714285714,4,2,1,85,0,0
94758,-71.4285714285714,4,2,1,5,0,0
94852,-71.4285714285714,4,2,1,85,0,0
95040,-71.4285714285714,4,2,1,85,0,0
95977,-71.4285714285714,4,2,1,85,0,0
96258,-71.4285714285714,4,2,1,5,0,0
96352,-71.4285714285714,4,2,1,85,0,0
96540,-55.5555555555556,4,2,1,85,0,0
96915,-71.4285714285714,4,2,1,85,0,0
97758,-71.4285714285714,4,2,1,5,0,0
97852,-71.4285714285714,4,2,1,85,0,0
98040,-71.4285714285714,4,2,1,85,0,0
99540,-66.6666666666667,4,2,1,85,0,0
100290,-71.4285714285714,4,2,1,85,0,0
100758,-71.4285714285714,4,2,1,5,0,0
100852,-71.4285714285714,4,2,1,85,0,0
101227,-250,4,2,1,85,0,0
101415,-71.4285714285714,4,2,1,85,0,0
102540,-62.5,4,2,1,85,0,0
103290,-76.9230769230769,4,2,1,85,0,0
104133,-76.9230769230769,4,2,1,5,0,0
104227,-76.9230769230769,4,2,1,85,0,0
104508,-76.9230769230769,4,2,1,5,0,0
104602,-76.9230769230769,4,2,1,85,0,0
105540,-66.6666666666667,4,2,1,85,0,0
105821,-66.6666666666667,4,2,1,5,0,0
105915,-71.4285714285714,4,2,1,85,0,0
106758,-71.4285714285714,4,2,1,5,0,0
106852,-71.4285714285714,4,2,1,85,0,0
107040,-71.4285714285714,4,2,1,85,0,0
107977,-71.4285714285714,4,2,1,85,0,0
108258,-71.4285714285714,4,2,1,5,0,0
108352,-71.4285714285714,4,2,1,85,0,0
108540,-60.6060606060606,4,2,1,85,0,0
109196,-71.4285714285714,4,2,1,85,0,0
109758,-71.4285714285714,4,2,1,5,0,0
109852,-71.4285714285714,4,2,1,85,0,0
110040,-71.4285714285714,4,2,1,85,0,0
111540,-62.5,4,2,1,85,0,0
111915,-66.6666666666667,4,2,1,85,0,0
112196,-71.4285714285714,4,2,1,85,0,0
112758,-71.4285714285714,4,2,1,5,0,0
112852,-71.4285714285714,4,2,1,85,0,0
113227,-250,4,2,1,85,0,0
113415,-71.4285714285714,4,2,1,85,0,0
114540,-66.6666666666667,4,2,1,85,0,0
115196,-71.4285714285714,4,2,1,85,0,0
115758,-71.4285714285714,4,2,1,5,0,0
115852,-71.4285714285714,4,2,1,85,0,0
116040,-113.636363636364,4,2,1,85,0,0
126540,-113.636363636364,4,2,1,50,0,0
129446,-113.636363636364,4,2,1,5,0,0
129540,-147.058823529412,4,2,2,65,0,0
131040,-172.413793103449,4,2,2,65,0,0
132540,-147.058823529412,4,2,2,65,0,0
138540,-147.058823529412,4,2,5,50,0,0
139008,-128.205128205128,4,2,5,50,0,0
140040,-147.058823529412,4,2,5,65,0,0
140696,-147.058823529412,4,2,5,5,0,0
140790,-147.058823529412,4,2,5,65,0,0
141540,-70.4960885101914,4,2,1,75,0,0
141821,-70.4960885101914,4,2,1,5,0,0
141915,-70.4960885101914,4,2,1,75,0,0
142196,-70.4960885101914,4,2,1,5,0,0
142290,-531.332718310953,4,2,1,75,0,0
142571,-531.332718310953,4,2,1,5,0,0
142665,-531.332718310953,4,2,1,75,0,0
142946,-531.332718310953,4,2,1,5,0,0
143040,-67.1140939597315,4,2,1,75,0,0
143321,-67.1140939597315,4,2,1,5,0,0
143415,-67.1140939597315,4,2,1,75,0,0
143696,-67.1140939597315,4,2,1,5,0,0
143790,-526.315789473684,4,2,1,75,0,0
144071,-526.315789473684,4,2,1,5,0,0
144165,-526.315789473684,4,2,1,75,0,0
144446,-526.315789473684,4,2,1,5,0,0
144540,-62.8930817610063,4,2,1,75,0,0
144821,-62.8930817610063,4,2,1,5,0,0
144915,-526.315789473684,4,2,1,75,0,0
145196,-526.315789473684,4,2,1,5,0,0
145290,-59.5238095238095,4,2,1,75,0,0
145571,-59.5238095238095,4,2,1,5,0,0
145665,-526.315789473684,4,2,1,75,0,0
145946,-526.315789473684,4,2,1,5,0,0
146040,-98.0392156862745,4,2,1,75,0,0
146321,-98.0392156862745,4,2,1,5,0,0
146415,-89.2857142857143,4,2,1,75,0,0
146696,-89.2857142857143,4,2,1,5,0,0
146790,-89.2857142857143,4,2,1,75,0,0
147540,-161.290322580645,4,2,1,75,0,0
147821,-161.290322580645,4,2,1,5,0,0
147915,-161.290322580645,4,2,1,75,0,0
148196,-161.290322580645,4,2,1,5,0,0
148290,-147.058823529412,4,2,1,75,0,0
148571,-147.058823529412,4,2,1,5,0,0
148665,-147.058823529412,4,2,1,75,0,0
148946,-147.058823529412,4,2,1,5,0,0
149040,-135.135135135135,4,2,1,75,0,0
149321,-135.135135135135,4,2,1,5,0,0
149415,-135.135135135135,4,2,1,75,0,0
149696,-135.135135135135,4,2,1,5,0,0
149790,-135.135135135135,4,2,1,75,0,0
150446,-135.135135135135,4,2,1,5,0,0
150540,-87.719298245614,4,2,1,75,0,0
150821,-87.719298245614,4,2,1,5,0,0
150915,-96.1538461538461,4,2,1,75,0,0
151758,-96.1538461538461,4,2,1,5,0,0
151852,-96.1538461538461,4,2,1,75,0,0
152133,-96.1538461538461,4,2,1,5,0,0
152227,-96.1538461538461,4,2,1,75,0,0
152508,-96.1538461538461,4,2,1,5,0,0
152602,-96.1538461538461,4,2,1,75,0,0
153540,-71.4285714285714,4,2,1,75,0,0
153633,-71.4285714285714,4,2,1,5,0,0
153727,-71.4285714285714,4,2,1,75,0,0
154008,-71.4285714285714,4,2,1,5,0,0
154102,-71.4285714285714,4,2,1,75,0,0
154383,-71.4285714285714,4,2,1,5,0,0
154477,-71.4285714285714,4,2,1,75,0,0
155133,-71.4285714285714,4,2,1,5,0,0
155227,-71.4285714285714,4,2,1,75,0,0
155508,-71.4285714285714,4,2,1,5,0,0
155602,-71.4285714285714,4,2,1,75,0,0
155883,-71.4285714285714,4,2,1,5,0,0
155977,-71.4285714285714,4,2,1,75,0,0
156165,-100,4,2,1,75,0,0
156915,-71.4285714285714,4,2,1,75,0,0
157008,-71.4285714285714,4,2,1,5,0,0
157102,-71.4285714285714,4,2,1,75,0,0
157290,-71.4285714285714,4,2,1,75,0,0
157758,-71.4285714285714,4,2,1,5,0,0
157852,-71.4285714285714,4,2,1,75,0,0
158040,-66.6666666666667,4,2,1,75,0,0
158321,-66.6666666666667,4,2,1,5,0,0
158415,-76.9230769230769,4,2,1,75,0,0
158790,-71.4285714285714,4,2,1,75,0,0
159540,-64.5161290322581,4,2,1,75,0,0
159915,-71.4285714285714,4,2,1,75,0,0
162165,-68.9655172413793,4,2,1,75,0,0
162446,-68.9655172413793,4,2,1,5,0,0
162540,-68.9655172413793,4,2,1,75,0,0
162915,-71.4285714285714,4,2,1,75,0,0
163665,-83.3333333333333,4,2,1,75,0,0
163946,-83.3333333333333,4,2,1,5,0,0
164040,-58.8235294117647,4,2,1,75,0,0
164321,-58.8235294117647,4,2,1,5,0,0
164415,-58.8235294117647,4,2,1,75,0,0
164602,-62.5,4,2,1,75,0,0
164696,-62.5,4,2,1,5,0,0
164790,-62.5,4,2,1,75,0,0
164977,-66.6666666666667,4,2,1,75,0,0
165071,-66.6666666666667,4,2,1,5,0,0
165165,-232.841631103561,4,2,1,75,0,0
165446,-232.841631103561,4,2,1,5,0,0
165540,-62.5,4,2,1,85,0,0
165821,-62.5,4,2,1,5,0,0
165915,-71.4285714285714,4,2,1,85,0,0
166758,-71.4285714285714,4,2,1,5,0,0
166852,-71.4285714285714,4,2,1,85,0,0
167040,-71.4285714285714,4,2,1,85,0,0
167977,-71.4285714285714,4,2,1,85,0,0
168258,-71.4285714285714,4,2,1,5,0,0
168352,-71.4285714285714,4,2,1,85,0,0
168540,-58.8235294117647,4,2,1,85,0,0
168915,-71.4285714285714,4,2,1,85,0,0
169758,-71.4285714285714,4,2,1,5,0,0
169852,-71.4285714285714,4,2,1,85,0,0
170040,-62.5,4,2,1,85,0,0
170790,-71.4285714285714,4,2,1,85,0,0
170977,-71.4285714285714,4,2,1,85,0,0
171165,-71.4285714285714,4,2,1,85,0,0
171540,-63.2911392405063,4,2,1,85,0,0
172196,-71.4285714285714,4,2,1,85,0,0
172758,-71.4285714285714,4,2,1,5,0,0
172852,-71.4285714285714,4,2,1,85,0,0
173227,-249.754891526806,4,2,1,85,0,0
173415,-71.4285714285714,4,2,1,85,0,0
174540,-83.3333333333333,4,2,1,85,0,0
177540,-66.6666666666667,4,2,1,85,0,0
177821,-66.6666666666667,4,2,1,5,0,0
177915,-71.4285714285714,4,2,1,85,0,0
178758,-71.4285714285714,4,2,1,5,0,0
178852,-71.4285714285714,4,2,1,85,0,0
179040,-71.4285714285714,4,2,1,85,0,0
179977,-71.4285714285714,4,2,1,85,0,0
180258,-71.4285714285714,4,2,1,5,0,0
180352,-71.4285714285714,4,2,1,85,0,0
180540,-66.6666666666667,4,2,1,85,0,0
180915,-71.4285714285714,4,2,1,85,0,0
182321,-71.4285714285714,4,2,1,5,0,0
182415,-71.4285714285714,4,2,1,85,0,0
182790,-71.4285714285714,4,2,1,85,0,0
183540,-64.5161290322581,4,2,1,85,0,0
183915,-71.4285714285714,4,2,1,85,0,0
184946,-71.4285714285714,4,2,1,5,0,0
185040,-71.4285714285714,4,2,1,85,0,0
187665,-83.3333333333333,4,2,1,85,0,0
188040,-64.1025641025641,4,2,1,85,0,0
188321,-64.1025641025641,4,2,1,5,0,0
188415,-64.1025641025641,4,2,1,85,0,0
188696,-64.1025641025641,4,2,1,5,0,0
188790,-94.3396226415094,4,2,1,85,0,0
189258,-94.3396226415094,4,2,1,5,0,0
189352,-94.3396226415094,4,2,1,85,0,0

[Colours]
Combo1 : 163,126,148
Combo2 : 224,73,158

[HitObjects]
448,305,540,6,0,P|451:289|459:269,2,32.99999899292,2|0|0,1:2|0:2|0:2,0:0:0:0:
309,370,915,2,0,P|266:344|268:291,1,98.9999969787599,2|0,0:0|0:0,0:0:0:0:
322,251,1290,2,0,P|320:211|306:174,1,65.9999979858399,10|0,0:2|0:0,0:0:0:0:
138,278,1665,2,0,P|128:246|128:213,1,65.9999979858399,2|0,0:0|0:0,0:0:0:0:
183,152,1946,5,0,0:0:0:0:
183,152,2040,2,0,P|194:119|220:78,1,65.9999979858399,2|0,0:0|0:0,0:0:0:0:
65,166,2415,2,0,P|50:137|29:113,1,65.9999979858399,2|0,0:0|0:0,0:0:0:0:
108,12,2790,2,0,P|112:46|117:91,1,65.9999979858399,10|0,0:2|0:0,0:0:0:0:
115,77,3071,1,0,0:0:0:0:
115,77,3165,1,0,0:0:0:0:
250,214,3352,6,0,P|263:206|299:199,1,32.99999899292,0|0,1:0|0:0,0:0:0:0:
341,150,3540,2,0,P|341:116|355:61,1,65.9999979858399,2|0,1:2|0:2,0:0:0:0:
492,212,3915,2,0,P|492:261|481:309,1,98.9999969787599,2|0,0:0|0:0,0:0:0:0:
414,345,4290,2,0,P|384:325|384:286,1,65.9999979858399,10|0,0:2|0:0,0:0:0:0:
420,171,4665,2,0,P|423:122|435:74,1,98.9999969787599,2|0,0:0|0:0,0:0:0:0:
333,0,5040,6,0,B|292:-6|273:32|278:33|281:37|269:74|228:70,1,131.99999597168,2|2,0:0|0:0,0:0:0:0:
70,36,5602,1,0,0:0:0:0:
70,36,5696,1,0,0:0:0:0:
70,36,5790,2,0,P|105:47|114:121,2,98.9999969787599,10|0|0,0:2|1:2|1:2,0:0:0:0:
0,270,6540,6,0,P|64:281|136:313,1,131.99999597168,2|2,1:2|0:0,0:0:0:0:
259,239,7102,1,0,0:0:0:0:
259,239,7290,2,0,P|279:261|275:306,1,65.9999979858399,10|0,0:2|0:0,0:0:0:0:
172,239,7665,2,0,P|183:202|187:173,1,65.9999979858399,2|0,0:0|0:0,0:0:0:0:
377,384,8040,6,0,P|389:316|409:257,1,131.99999597168,2|2,1:2|0:0,0:0:0:0:
282,121,8790,2,0,P|277:136|273:152,1,32.99999899292,10|0,0:2|0:0,0:0:0:0:
294,232,8977,1,2,1:2:0:0:
256,44,9165,1,10,0:2:0:0:
44,228,9540,6,0,B|115:215|131:283|124:288|119:293|133:364|206:347,1,214.49999018097,4|0,1:2|0:0,0:0:0:0:
293,232,9915,2,0,P|347:217|401:208,1,110,8|2,1:2|0:0,0:0:0:0:
443,144,10196,1,0,3:0:0:0:
385,72,10290,5,0,1:2:0:0:
368,66,10383,1,0,3:0:0:0:
349,75,10477,2,0,P|333:102|340:136,1,55,2|0,0:0|3:0,0:0:0:0:
481,222,10665,2,0,P|489:265|423:318,1,110,8|2,1:2|3:2,0:0:0:0:
193,350,11040,6,0,P|147:321|149:261,1,110,0|0,1:2|0:0,0:0:0:0:
273,382,11321,1,0,0:0:0:0:
273,382,11415,2,0,P|278:336|293:274,1,110,8|2,1:2|0:0,0:0:0:0:
204,191,11696,1,0,3:0:0:0:
204,191,11790,2,0,P|213:216|218:243,1,55,0|0,1:2|3:0,0:0:0:0:
424,255,11977,2,0,P|399:266|376:281,1,55,2|0,0:0|3:0,0:0:0:0:
330,145,12165,2,0,P|345:88|352:36,1,110,8|2,1:2|3:2,0:0:0:0:
398,258,12540,6,0,B|377:269|377:269|310:198|217:226,1,197.99999395752,0|0,1:2|0:0,0:0:0:0:
36,107,12915,2,0,P|26:159|147:165,1,181.500005538941,8|0,1:2|3:0,0:0:0:0:
200,136,13290,1,0,1:2:0:0:
209,118,13383,1,0,3:0:0:0:
207,96,13477,2,0,P|183:61|145:52,1,55,2|0,0:0|3:0,0:0:0:0:
127,192,13665,2,0,P|142:244|146:323,1,110,8|0,1:2|3:0,0:0:0:0:
436,362,14040,5,0,1:2:0:0:
422,358,14134,1,0,0:0:0:0:
402,357,14228,2,0,P|376:364|353:379,1,55,2|0,0:0|0:0,0:0:0:0:
236,270,14415,1,8,1:2:0:0:
250,267,14509,1,0,0:0:0:0:
277,268,14603,2,0,P|303:275|327:289,1,55,2|0,0:0|3:0,0:0:0:0:
485,247,14790,6,0,P|495:163|518:84,1,165,0|0,1:2|3:0,0:0:0:0:
393,229,15165,1,8,1:2:0:0:
383,211,15258,1,0,0:0:0:0:
365,192,15352,1,0,3:0:0:0:
338,175,15446,1,0,3:0:0:0:
341,95,15540,6,0,B|278:76|257:136|263:141|267:146|247:209|183:187,1,197.99999395752,4|0,1:2|0:0,0:0:0:0:
18,91,15915,2,0,P|37:142|46:196,1,110,8|2,1:2|0:0,0:0:0:0:
122,233,16196,1,0,3:0:0:0:
127,140,16290,5,0,1:2:0:0:
126,123,16383,1,0,3:0:0:0:
119,102,16477,2,0,P|105:66|87:38,1,55,2|0,0:0|3:0,0:0:0:0:
232,175,16665,2,0,P|223:120|205:68,1,110,8|2,1:2|3:2,0:0:0:0:
0,263,17040,6,0,P|45:267|69:337,1,110,0|0,1:2|0:0,0:0:0:0:
242,384,17321,1,0,0:0:0:0:
242,384,17415,2,0,P|287:380|311:310,1,110,8|2,1:2|0:0,0:0:0:0:
240,254,17696,1,0,3:0:0:0:
240,254,17790,2,0,P|236:226|229:200,1,55,0|0,1:2|3:0,0:0:0:0:
385,288,17977,2,0,P|378:261|374:234,1,55,2|0,0:0|3:0,0:0:0:0:
158,350,18165,2,0,P|152:295|140:237,1,110,8|2,1:2|3:2,0:0:0:0:
6,11,18540,6,0,B|58:-13|91:50|84:53|78:63|100:128|172:103,1,197.99999395752,0|0,1:2|0:0,0:0:0:0:
0,93,18915,2,0,P|82:55|170:32,1,181.500005538941,8|0,1:2|3:0,0:0:0:0:
376,79,19290,1,0,1:2:0:0:
391,71,19383,1,0,3:0:0:0:
401,50,19477,2,0,P|395:20|361:6,1,55,2|0,0:0|3:0,0:0:0:0:
213,166,19665,2,0,P|264:145|318:137,1,110,8|0,1:2|3:0,0:0:0:0:
121,353,20040,5,0,1:2:0:0:
104,357,20134,1,0,0:0:0:0:
78,348,20228,2,0,P|64:317|76:275,1,55,2|0,0:0|0:0,0:0:0:0:
276,242,20415,1,8,1:2:0:0:
288,255,20509,1,0,0:0:0:0:
293,281,20603,2,0,P|273:308|230:319,1,55,2|0,0:0|0:0,0:0:0:0:
70,171,20790,6,0,P|58:89|34:10,1,165,2|0,1:2|0:0,0:0:0:0:
70,171,21165,1,8,0:2:0:0:
512,45,21540,6,0,B|463:31|443:80|446:82|450:85|432:130|371:114,1,148.49999546814,6|0,1:2|0:0,0:0:0:0:
303,95,21915,2,0,P|324:139|334:188,1,98.9999969787599,10|2,1:2|0:0,0:0:0:0:
416,209,22196,1,0,3:0:0:0:
416,209,22290,2,0,P|403:230|396:258,1,49.4999984893799,2|0,1:2|3:0,0:0:0:0:
357,332,22477,2,0,P|362:358|365:384,1,49.4999984893799,2|2,0:0|3:2,0:0:0:0:
294,271,22665,1,10,1:2:0:0:
294,271,22758,1,2,0:0:0:0:
294,271,22852,2,0,P|281:249|264:231,1,49.4999984893799,2|2,3:2|3:2,0:0:0:0:
69,162,23040,6,0,P|139:125|103:37,1,148.49999546814,2|0,1:2|0:0,0:0:0:0:
52,152,23415,2,0,P|65:199|72:248,1,98.9999969787599,10|2,1:2|0:0,0:0:0:0:
143,297,23696,1,2,3:2:0:0:
143,296,23790,2,0,P|152:273|157:249,1,49.4999984893799,2|0,1:2|3:0,0:0:0:0:
1,288,23977,2,0,P|15:307|34:324,1,49.4999984893799,2|0,0:0|3:2,0:0:0:0:
103,373,24165,1,8,1:2:0:0:
231,155,24352,5,0,0:0:0:0:
231,155,24446,1,0,3:2:0:0:
231,155,24540,2,0,B|278:137|300:186|297:187|293:190|314:234|374:215,1,148.49999546814,2|0,1:2|0:0,0:0:0:0:
427,176,24915,2,0,P|434:127|448:79,1,98.9999969787599,10|0,1:2|0:0,0:0:0:0:
418,0,25196,1,2,3:2:0:0:
418,0,25290,2,0,P|399:12|380:37,1,49.4999984893799,2|0,1:2|3:0,0:0:0:0:
301,44,25477,2,0,P|302:66|314:95,1,49.4999984893799,2|2,0:0|3:2,0:0:0:0:
427,176,25665,1,10,1:2:0:0:
445,193,25758,2,0,P|451:243|395:280,1,98.9999969787599,2|2,0:0|3:2,0:0:0:0:
262,364,26040,6,0,P|256:339|247:316,1,49.4999984893799,2|0,1:2|0:0,0:0:0:0:
336,284,26227,2,0,P|345:305|352:330,1,49.4999984893799
181,256,26415,2,0,P|113:277|105:347,1,148.49999546814,10|0,1:2|3:0,0:0:0:0:
266,229,26790,1,0,1:2:0:0:
266,229,26883,1,0,3:0:0:0:
266,228,26977,2,0,P|269:203|277:180,1,49.4999984893799,0|2,0:0|3:2,0:0:0:0:
112,164,27165,2,0,P|115:140|123:117,1,49.4999984893799,8|2,1:2|0:0,0:0:0:0:
283,10,27352,5,0,3:0:0:0:
283,10,27446,1,2,3:2:0:0:
283,10,27540,2,0,P|349:10|386:93,1,148.49999546814,2|0,1:2|0:0,0:0:0:0:
512,147,27915,2,0,P|434:153|363:174,1,148.49999546814,10|2,1:2|3:2,0:0:0:0:
243,304,28290,5,2,1:2:0:0:
224,311,28383,2,0,P|183:288|198:219,1,98.9999969787599,2|2,3:2|3:2,0:0:0:0:
249,173,28665,1,8,1:2:0:0:
261,164,28758,1,2,0:2:0:0:
411,352,28946,5,2,3:2:0:0:
411,352,29040,2,0,P|433:343|448:323,1,49.4999984893799,2|0,1:2|0:0,0:0:0:0:
443,243,29227,1,2,0:0:0:0:
291,85,29415,5,10,1:2:0:0:
270,75,29508,2,0,P|221:84|180:113,1,98.9999969787599,2|2,0:0|3:2,0:0:0:0:
83,153,29790,1,2,1:2:0:0:
83,153,29883,1,0,3:0:0:0:
83,153,29977,2,0,P|86:128|93:104,1,49.4999984893799,2|0,0:0|3:0,0:0:0:0:
0,16,30165,2,0,P|11:38|18:61,1,49.4999984893799,8|2,1:2|0:0,0:0:0:0:
66,237,30352,5,0,0:0:0:0:
66,237,30445,1,2,3:2:0:0:
66,237,30540,2,0,B|108:265|142:225|140:222|137:218|168:180|221:214,1,148.49999546814,2|0,1:2|0:0,0:0:0:0:
296,344,30915,2,0,P|319:336|343:331,1,49.4999984893799,10|2,1:2|0:2,0:0:0:0:
193,291,31102,2,0,P|216:283|240:278,1,49.4999984893799,2|2,0:2|3:2,0:0:0:0:
456,277,31290,5,2,1:2:0:0:
459,273,31383,1,2,3:2:0:0:
462,269,31477,1,0,0:0:0:0:
465,265,31571,1,2,3:2:0:0:
468,261,31665,2,0,P|449:244|433:225,1,49.4999984893799,8|2,1:2|0:0,0:0:0:0:
472,384,31852,2,0,P|453:367|437:348,1,49.4999984893799,0|2,3:0|3:2,0:0:0:0:
324,246,32040,6,0,P|342:174|367:104,1,148.49999546814,2|0,1:2|0:0,0:0:0:0:
240,13,32415,2,0,P|229:59|262:93,1,98.9999969787599,10|0,1:2|0:0,0:0:0:0:
436,53,32696,1,0,3:0:0:0:
436,53,32790,2,0,P|462:50|497:38,1,49.4999984893799,0|0,1:2|3:0,0:0:0:0:
351,42,32977,2,0,P|343:56|338:72,2,32.99999899292
419,149,33165,2,0,P|361:159|332:210,1,121.000003692627,8|0,1:2|3:0,0:0:0:0:
189,372,33446,5,0,3:0:0:0:
164,379,33540,2,0,P|116:354|100:303,1,110,6|0,1:2|0:0,0:0:0:0:
6,40,33915,2,0,B|53:17|81:72|74:74|70:77|95:122|148:105,1,165,10|0,1:2|3:0,0:0:0:0:
195,182,34290,1,2,1:2:0:0:
195,182,34383,1,0,3:0:0:0:
194,182,34477,2,0,P|219:172|246:167,1,55,2|0,0:0|3:0,0:0:0:0:
309,105,34665,1,10,1:2:0:0:
309,105,34758,1,0,0:0:0:0:
309,105,34852,2,0,P|334:114|361:119,1,55,2|0,3:2|3:0,0:0:0:0:
503,32,35040,6,0,P|453:53|443:109,1,110,2|2,1:2|0:0,0:0:0:0:
327,237,35321,1,0,0:0:0:0:
311,245,35415,2,0,P|261:223|251:167,1,110,10|0,1:2|0:0,0:0:0:0:
206,92,35696,1,2,3:2:0:0:
206,92,35790,2,0,P|213:65|216:38,1,55,2|0,1:2|3:2,0:0:0:0:
341,141,35977,2,0,P|344:113|351:87,1,55,2|0,0:0|3:0,0:0:0:0:
298,22,36165,1,8,1:2:0:0:
486,170,36352,5,0,3:0:0:0:
486,170,36446,1,2,3:2:0:0:
486,170,36540,2,0,P|475:221|467:287,1,110,2|2,1:2|0:0,0:0:0:0:
327,332,36821,1,0,0:0:0:0:
308,345,36915,2,0,P|319:294|327:228,1,110,10|0,1:2|0:0,0:0:0:0:
272,166,37196,5,2,3:2:0:0:
272,166,37290,2,0,P|296:152|323:146,1,55,2|0,1:2|3:0,0:0:0:0:
402,109,37477,1,2,0:0:0:0:
402,109,37571,1,0,3:2:0:0:
402,109,37665,2,0,P|409:82|410:55,1,55,10|2,1:2|0:0,0:0:0:0:
442,235,37852,2,0,P|419:219|399:199,1,55,2|2,3:2|3:2,0:0:0:0:
256,70,38040,6,0,P|199:83|173:135,1,121.000003692627,2|0,1:2|0:0,0:0:0:0:
22,26,38321,1,0,0:0:0:0:
3,31,38415,2,0,P|-19:79|13:124,1,110,10|2,1:2|0:0,0:0:0:0:
172,215,38696,5,2,3:2:0:0:
172,215,38790,2,0,P|162:235|155:266,1,55,0|0,1:2|3:2,0:0:0:0:
0,261,38977,2,0,P|18:274|39:297,1,55,2|2,0:0|3:2,0:0:0:0:
281,360,39165,5,10,1:2:0:0:
287,354,39258,1,0,0:0:0:0:
294,349,39352,1,0,3:0:0:0:
301,344,39445,1,0,3:0:0:0:
221,317,39540,6,0,B|268:294|296:349|289:351|285:354|310:399|363:382,1,165,2|0,1:2|0:0,0:0:0:0:
503,233,39915,2,0,B|456:210|428:265|435:267|438:270|414:315|359:296,1,165,10|0,1:2|3:2,0:0:0:0:
297,245,40290,5,2,1:2:0:0:
297,245,40383,1,0,3:0:0:0:
297,245,40477,2,0,P|291:218|282:191,1,55,2|0,0:0|3:0,0:0:0:0:
169,125,40665,2,0,P|189:144|206:166,1,55,10|0,1:2|0:0,0:0:0:0:
336,132,40852,2,0,P|342:105|351:79,1,55,2|0,0:0|3:0,0:0:0:0:
120,21,41040,6,0,P|50:57|54:140,1,165,2|0,1:2|0:0,0:0:0:0:
282,192,41415,1,10,1:2:0:0:
298,206,41508,2,0,P|302:258|260:291,1,110,2|2,0:0|3:2,0:0:0:0:
202,119,41790,1,2,1:2:0:0:
205,110,41884,1,0,3:2:0:0:
208,102,41978,1,0,0:0:0:0:
211,93,42071,1,0,3:0:0:0:
226,22,42165,2,0,P|252:28|271:48,1,55,8|0,1:2|0:0,0:0:0:0:
187,204,42352,5,2,3:2:0:0:
177,187,42446,1,0,3:2:0:0:
147,168,42540,2,0,B|89:153|71:216|78:217|83:219|65:271|6:263,1,181.500005538941,0|0,1:2|0:0,0:0:0:0:
110,384,42915,1,10,1:2:0:0:
126,368,43008,2,0,P|131:313|144:263,1,98.9999969787599,2|0,0:0|3:0,0:0:0:0:
32,47,43290,5,2,1:2:0:0:
17,62,43383,2,0,P|11:116|0:170,1,110,2|2,3:2|3:2,0:0:0:0:
97,152,43665,1,8,1:2:0:0:
110,135,43758,2,0,P|112:103|105:76,1,55,2|0,0:0|0:0,0:0:0:0:
324,3,43946,5,0,3:2:0:0:
358,0,44040,2,0,P|419:49|404:130,1,165,2|0,1:2|0:0,0:0:0:0:
232,195,44415,2,0,P|267:153|319:139,1,110,10|0,1:2|0:0,0:0:0:0:
396,297,44696,1,0,0:0:0:0:
410,289,44790,2,0,P|423:263|421:237,1,55,6|0,1:2|0:0,0:0:0:0:
313,322,44977,1,0,0:0:0:0:
290,321,45071,1,2,0:0:0:0:
260,279,45165,2,0,B|313:272|323:330|317:330|313:332|323:379|377:378,1,165,10|0,1:2|0:0,0:0:0:0:
475,384,45540,6,0,P|489:249|512:115,1,271.750402076457,4|10,1:2|1:2,0:0:0:0:
95,154,47040,6,0,B|-5:70|97:-72|226:33|170:137,1,341.366144567873,0|8,1:2|1:2,0:0:0:0:
433,59,48540,6,0,B|370:30|336:91|346:96|354:101|324:171|264:144,1,208.101918256253,2|10,1:2|1:2,0:0:0:0:
8,306,50040,6,0,B|48:280|85:332|78:337|72:343|105:388|156:367,1,170.810626380188,0|8,1:2|1:2,0:0:0:0:
500,32,51540,6,0,P|464:54|448:97,1,85.4053131900939,12|8,1:2|1:2,0:0:0:0:
344,123,52290,2,0,P|346:174|381:217,1,107.405316600121,8|8,1:2|1:2,0:0:0:0:
505,324,53040,2,0,P|446:298|384:310,1,129.40531832063,8|8,1:2|1:2,0:0:0:0:
220,384,53790,2,0,P|271:346|301:263,1,151.405321793225,8|8,1:2|1:2,0:0:0:0:
115,46,54540,5,10,1:2:0:0:
110,56,54727,1,10,0:2:0:0:
106,67,54915,1,10,1:2:0:0:
103,78,55102,1,10,0:2:0:0:
140,231,55290,5,10,1:2:0:0:
144,215,55383,1,8,0:2:0:0:
136,195,55477,1,10,0:2:0:0:
92,165,55571,1,8,0:2:0:0:
29,145,55665,1,10,1:2:0:0:
3,73,55758,1,8,0:2:0:0:
40,0,55852,5,6,1:2:0:0:
491,348,57540,6,0,B|434:389|387:316|398:310|408:304|367:237|303:273,1,229.053998665089,6|0,1:2|0:0,0:0:0:0:
480,243,57915,2,0,B|416:215|385:296|397:301|408:304|382:378|312:356,1,229.053998665089,2|0,1:2|0:0,0:0:0:0:
205,333,58290,6,0,L|175:338,1,31.0539891825204,2|0,1:2|0:0,0:0:0:0:
157,355,58665,2,0,L|187:350,1,31.0539891825204,2|0,1:2|0:0,0:0:0:0:
328,161,59040,6,0,B|284:179|284:179|167:74|167:74|128:88,1,245.849986682626,2|0,1:2|0:0,0:0:0:0:
305,34,59415,2,0,B|257:34|257:34|189:176|189:176|147:177,1,245.849986682626,2|0,1:2|0:0,0:0:0:0:
70,141,59790,6,0,L|40:146,1,31.3499996173096,2|0,1:2|0:0,0:0:0:0:
16,160,60165,2,0,L|46:155,1,31.3499996173096,2|0,1:2|0:0,0:0:0:0:
257,36,60540,6,0,B|308:94|234:157|224:147|217:136|149:192|199:258,1,262.350000400314,2|0,1:2|0:0,0:0:0:0:
189,272,60915,2,0,P|176:261|169:247,1,31.3499996173096,2|0,1:2|0:0,0:0:0:0:
156,34,61290,6,0,B|120:107|213:150|219:137|224:124|309:161|277:241,1,277.199991540528,2|0,1:2|0:0,0:0:0:0:
285,255,61665,2,0,P|293:241|297:226,1,31.3499996173096,2|0,1:2|0:0,0:0:0:0:
389,53,62040,6,0,B|378:5|334:-15|334:-15|390:-5|405:55,1,168.300001027222,2|0,1:2|0:0,0:0:0:0:
439,120,62415,2,0,B|489:137|533:112|533:112|495:159|448:135,1,184.800002255859,2|0,1:2|0:0,0:0:0:0:
360,128,62790,2,0,P|316:148|307:235,1,123.200001503906,2|2,1:2|0:0,0:0:0:0:
256,287,63071,2,0,P|278:312|308:320,2,61.6000007519531,2|2|2,0:0|1:2|0:2,0:0:0:0:
197,116,63540,6,0,P|200:65|178:19,1,102.299995941467,2|0,1:2|0:0,0:0:0:0:
98,36,63915,2,0,P|95:87|116:133,1,102.299995941467,2|0,1:2|0:0,0:0:0:0:
136,279,64290,6,0,P|97:318|43:334,1,112.200000684814,2|0,1:2|0:0,0:0:0:0:
0,268,64665,2,0,P|38:229|91:212,1,112.200000684814,2|0,1:2|0:0,0:0:0:0:
251,177,65040,6,0,P|312:182|361:216,1,122.100002980957,2|0,1:2|0:0,0:0:0:0:
336,297,65415,2,0,P|276:292|226:258,1,122.100002980957,2|0,1:2|0:0,0:0:0:0:
168,191,65790,6,0,P|152:155|156:115,1,81.4000019873047,2|2,1:2|0:2,0:0:0:0:
429,164,66165,2,0,P|440:102|412:48,1,122.100002980957,2|0,1:2|0:0,0:0:0:0:
299,219,66540,6,0,B|356:210|371:272|363:276|359:278|371:332|431:331,1,188.099997703857,4|0,1:2|0:0,0:0:0:0:
276,301,66915,2,0,P|215:310|152:332,1,114.399999301758,8|2,1:2|0:0,0:0:0:0:
81,348,67196,5,0,3:2:0:0:
68,354,67290,2,0,P|39:348|15:334,1,57.1999996508789,0|0,1:2|3:0,0:0:0:0:
94,265,67477,2,0,P|72:247|58:223,1,57.1999996508789,2|0,0:0|3:0,0:0:0:0:
177,232,67665,2,0,P|167:205|167:176,1,57.1999996508789,8|0,1:2|0:0,0:0:0:0:
77,130,67852,1,0,3:0:0:0:
61,130,67946,1,0,3:2:0:0:
44,118,68040,6,0,P|33:91|33:63,1,57.1999996508789,0|0,1:2|0:0,0:0:0:0:
102,1,68227,1,2,0:0:0:0:
118,1,68321,1,0,0:0:0:0:
135,13,68415,2,0,P|146:40|146:68,1,57.1999996508789,8|0,1:2|0:0,0:0:0:0:
232,113,68602,1,2,0:2:0:0:
244,125,68696,1,0,3:2:0:0:
265,135,68790,6,0,P|349:121|380:31,1,171.599998952637,0|0,1:2|3:0,0:0:0:0:
503,159,69165,5,8,1:2:0:0:
506,167,69258,1,0,0:0:0:0:
509,175,69352,1,0,3:2:0:0:
512,183,69446,1,0,3:0:0:0:
449,222,69540,6,0,P|425:196|423:160,1,71.4999967269899,6|0,1:2|0:0,0:0:0:0:
467,94,69727,1,0,0:0:0:0:
512,284,69915,6,0,P|501:317|471:336,1,71.4999967269899,10|0,1:2|0:0,0:0:0:0:
392,332,70102,1,0,0:0:0:0:
348,143,70290,6,0,P|358:109|388:90,1,71.4999967269899,2|0,1:2|3:0,0:0:0:0:
467,94,70477,1,0,0:0:0:0:
392,332,70665,5,10,1:2:0:0:
380,343,70758,1,0,0:0:0:0:
351,354,70852,1,0,3:0:0:0:
309,338,70946,1,0,3:0:0:0:
288,291,71040,6,0,P|282:255|275:220,1,71.4999967269899,2|0,1:2|0:0,0:0:0:0:
260,145,71227,1,0,0:0:0:0:
111,52,71415,6,0,P|135:80|150:111,1,71.4999967269899,10|0,1:2|0:0,0:0:0:0:
193,182,71602,1,0,0:0:0:0:
374,6,71790,6,0,P|359:38|349:72,1,71.4999967269899,2|0,1:2|3:0,0:0:0:0:
336,149,71977,1,0,0:0:0:0:
242,36,72165,6,0,P|247:63|250:90,1,55,10|0,1:2|0:0,0:0:0:0:
279,244,72352,2,0,P|284:271|288:299,1,55,0|0,3:0|3:0,0:0:0:0:
263,167,72540,1,0,1:2:0:0:
13,295,72727,5,2,0:0:0:0:
13,295,72821,1,0,0:0:0:0:
13,295,72915,2,0,P|21:336|23:382,1,71.4999967269899,10|0,1:2|0:0,0:0:0:0:
107,350,73102,2,0,P|103:314|96:279,1,71.4999967269899,2|0,0:0|3:0,0:0:0:0:
190,184,73290,2,0,P|186:148|179:113,1,71.4999967269899,2|0,1:2|3:0,0:0:0:0:
96,129,73477,2,0,P|104:170|106:216,1,71.4999967269899,2|0,0:0|3:0,0:0:0:0:
249,254,73665,2,0,P|257:295|259:341,1,71.4999967269899,10|0,1:2|0:0,0:0:0:0:
343,309,73852,2,0,P|339:273|332:238,1,71.4999967269899,2|0,3:2|3:0,0:0:0:0:
453,81,74040,6,0,B|398:47|353:111|364:117|373:123|334:187|273:152,1,214.49999018097,2|0,1:2|0:0,0:0:0:0:
167,257,74415,2,0,P|159:160|140:74,1,181.500005538941,10|0,1:2|3:0,0:0:0:0:
241,22,74790,5,2,1:2:0:0:
241,22,74883,1,0,3:0:0:0:
241,22,74977,2,0,P|277:33|294:65,1,71.4999967269899,2|0,0:0|3:0,0:0:0:0:
381,233,75165,2,0,P|456:215|451:142,1,142.99999345398,10|2,1:2|3:2,0:0:0:0:
242,130,75446,5,0,3:2:0:0:
225,123,75540,2,0,B|179:104|155:156|159:158|162:160|138:207|89:187,1,153.999995300293,2|0,1:2|0:0,0:0:0:0:
34,240,75821,1,0,0:0:0:0:
34,240,75915,2,0,P|30:275|22:310,1,71.4999967269899,10|0,1:2|0:0,0:0:0:0:
60,347,76102,2,0,P|71:313|78:278,1,71.4999967269899,2|0,0:0|3:0,0:0:0:0:
198,249,76290,2,0,P|194:284|186:319,1,71.4999967269899,2|0,1:2|3:0,0:0:0:0:
224,356,76477,2,0,P|235:322|242:287,1,71.4999967269899,2|0,0:0|3:0,0:0:0:0:
319,167,76665,6,0,B|380:155|397:226|391:229|387:229|405:294|472:282,1,214.49999018097,10|0,1:2|3:0,0:0:0:0:
512,139,77040,2,0,P|493:68|482:-6,1,142.99999345398,2|0,1:2|0:0,0:0:0:0:
404,48,77321,1,0,0:0:0:0:
404,48,77415,2,0,P|366:60|298:59,1,71.4999967269899,10|0,1:2|0:0,0:0:0:0:
386,82,77602,2,0,P|350:88|314:85,1,71.4999967269899,2|0,0:0|3:0,0:0:0:0:
247,21,77790,2,0,P|208:29|149:64,1,71.4999967269899,2|0,1:2|3:0,0:0:0:0:
214,0,77977,2,0,P|179:12|150:33,1,71.4999967269899,2|0,0:0|3:0,0:0:0:0:
54,142,78165,6,0,P|116:162|121:250,1,142.99999345398,10|0,1:2|0:0,0:0:0:0:
248,380,78446,1,0,3:0:0:0:
275,384,78540,2,0,P|337:364|342:276,1,142.99999345398,2|0,1:2|0:0,0:0:0:0:
292,186,78821,1,0,0:0:0:0:
273,201,78915,2,0,P|263:234|265:269,1,71.4999967269899,10|0,1:2|0:0,0:0:0:0:
450,219,79102,2,0,P|452:254|443:288,1,71.4999967269899,2|0,0:0|3:0,0:0:0:0:
366,154,79290,5,2,1:2:0:0:
370,147,79383,1,0,3:0:0:0:
375,142,79477,1,0,0:0:0:0:
380,136,79571,1,0,3:0:0:0:
450,110,79665,2,0,P|476:123|512:132,1,65.9999979858399,10|0,1:2|0:0,0:0:0:0:
292,186,79852,2,0,P|265:170|226:160,1,65.9999979858399,2|0,3:2|3:2,0:0:0:0:
367,57,80040,6,0,B|387:37|393:8|393:8|339:349,2,330.000012588501,4|4|8,1:2|1:2|0:2,0:0:0:0:
438,258,80977,1,8,0:2:0:0:
438,258,81071,1,8,0:2:0:0:
438,258,81165,2,0,P|469:242|483:210,2,71.4999967269899,8|0|0,0:2|0:0|1:2,0:0:0:0:
191,52,81540,6,0,B|125:30|91:108|104:112|114:116|88:189|19:167,1,230.99999295044,6|0,1:2|0:0,0:0:0:0:
3,159,81915,1,2,1:2:0:0:
186,138,82102,1,0,0:0:0:0:
186,138,82196,1,0,0:0:0:0:
186,138,82290,2,0,P|215:130|245:127,1,60.5000018463135,2|0,1:2|0:0,0:0:0:0:
297,72,82477,6,0,P|310:45|321:17,1,60.5000018463135,2|0,0:0|0:0,0:0:0:0:
317,146,82665,2,0,P|334:171|356:193,1,60.5000018463135,2|0,1:2|0:0,0:0:0:0:
258,202,82852,2,0,P|247:231|243:261,1,60.5000018463135,2|0,0:0|0:0,0:0:0:0:
407,357,83040,6,0,P|417:297|439:241,1,121.000003692627,2|2,1:2|0:2,0:0:0:0:
512,99,83321,1,2,0:2:0:0:
512,99,83415,2,0,P|443:110|433:177,1,121.000003692627,2|2,1:2|0:0,0:0:0:0:
492,263,83696,1,2,0:0:0:0:
492,263,83790,2,0,P|462:260|439:241,2,60.5000018463135,2|0|2,1:2|0:0|0:0,0:0:0:0:
368,354,84071,1,2,0:0:0:0:
368,354,84165,2,0,P|355:326|360:297,2,60.5000018463135,2|0|2,1:2|0:0|0:2,0:0:0:0:
136,381,84446,5,2,0:2:0:0:
124,372,84540,2,0,P|99:363|64:363,1,60.5000018463135,2|2,1:2|0:0,0:0:0:0:
264,262,84727,2,0,P|253:290|229:307,1,60.5000018463135,2|2,0:2|0:0,0:0:0:0:
25,274,84915,2,0,P|114:286|202:309,1,181.500005538941,2|0,1:2|0:0,0:0:0:0:
343,155,85290,6,0,P|327:183|322:218,1,60.5000018463135,2|0,1:2|0:0,0:0:0:0:
193,226,85477,2,0,P|176:198|148:176,1,60.5000018463135,2|2,0:0|0:0,0:0:0:0:
14,50,85665,5,2,1:2:0:0:
40,35,85758,1,2,0:0:0:0:
94,46,85852,1,2,0:0:0:0:
115,114,85946,1,2,0:0:0:0:
63,172,86040,6,0,P|48:85|25:1,2,174.900000266876,2|2|2,1:2|0:0|0:0,0:0:0:0:
3,378,86790,2,0,P|69:350|28:266,1,151.799994904175,2|0,1:2|0:0,0:0:0:0:
3,378,87165,1,8,0:2:0:0:
137,69,87352,6,0,L|141:47,1,22,0|0,1:2|0:0,0:0:0:0:
241,140,87540,5,14,1:2:0:0:
247,136,87633,1,0,3:0:0:0:
251,128,87727,2,0,P|218:128|186:139,1,60.5000018463135,8|0,3:2|3:0,0:0:0:0:
39,71,87915,5,10,1:2:0:0:
32,67,88008,1,0,3:0:0:0:
23,68,88102,2,0,P|39:95|65:118,1,60.5000018463135,8|0,3:2|3:0,0:0:0:0:
78,262,88290,5,10,1:2:0:0:
79,271,88383,1,0,3:0:0:0:
84,278,88477,2,0,P|99:250|106:216,1,60.5000018463135,10|2,3:2|3:2,0:0:0:0:
223,258,88665,2,0,P|198:236|179:207,1,60.5000018463135,10|0,1:2|3:0,0:0:0:0:
168,381,88852,2,0,P|167:348|160:307,1,60.5000018463135,10|2,3:2|3:2,0:0:0:0:
325,335,89040,5,10,1:2:0:0:
318,334,89133,1,0,3:0:0:0:
311,329,89227,2,0,P|340:314|373:309,1,60.5000018463135,10|2,3:2|3:2,0:0:0:0:
352,189,89415,5,10,1:2:0:0:
349,182,89508,1,0,3:2:0:0:
350,173,89602,2,0,P|377:190|398:216,1,60.5000018463135,10|2,3:2|3:2,0:0:0:0:
495,147,89790,5,10,1:2:0:0:
499,140,89883,1,0,3:2:0:0:
507,137,89977,2,0,P|505:169|493:200,1,60.5000018463135,10|2,3:2|3:2,0:0:0:0:
350,173,90165,2,0,P|377:190|398:216,1,60.5000018463135,10|0,1:2|3:2,0:0:0:0:
311,329,90352,2,0,P|340:314|373:309,1,60.5000018463135,10|2,3:2|3:2,0:0:0:0:
483,307,90540,6,0,L|500:310,6,11,10|0|8|0|8|0|8,1:2|0:0|0:2|0:0|0:2|0:0|0:2,0:0:0:0:
374,290,90915,2,0,L|402:295,6,16.49999949646,10|0|8|0|8|0|8,1:2|0:0|0:2|0:0|0:2|0:0|0:2,0:0:0:0:
231,267,91290,2,0,L|261:272,6,27.5,10|0|8|0|8|0|8,1:2|0:0|0:2|0:0|0:2|0:0|0:2,0:0:0:0:
40,234,91665,6,0,L|9:229,1,30.1929199659948,10|0,1:2|0:0,0:0:0:0:
60,219,91758,2,0,L|65:189,1,24.74999924469,8|0,0:2|0:0,0:0:0:0:
74,240,91852,2,0,L|104:245,1,19.2499994125366,8|0,0:2|0:0,0:0:0:0:
54,253,91946,2,0,L|49:277,1,13.75,8|0,0:2|0:0,0:0:0:0:
57,237,92040,5,4,1:2:0:0:
468,211,93540,6,0,B|388:244|347:170|360:163|374:156|336:74|258:103,1,264,6|0,1:2|0:0,0:0:0:0:
464,123,93915,2,0,P|388:137|317:167,1,153.999995300293,10|0,1:2|0:0,0:0:0:0:
111,291,94196,2,0,P|107:252|96:216,1,76.9999976501466,2|0,3:2|1:2,0:0:0:0:
22,199,94383,5,2,3:2:0:0:
18,169,94477,1,0,0:0:0:0:
29,156,94571,1,2,3:2:0:0:
1,84,94665,2,0,P|27:57|64:55,1,76.9999976501466,10|0,1:2|0:0,0:0:0:0:
139,34,94852,2,0,P|166:60|168:97,1,76.9999976501466,2|0,3:2|3:0,0:0:0:0:
282,293,95040,5,2,1:2:0:0:
297,301,95133,1,2,0:0:0:0:
329,301,95227,2,0,P|362:283|373:246,1,76.9999976501466,2|0,0:0|0:0,0:0:0:0:
201,301,95415,2,0,P|155:243|186:177,1,153.999995300293,10|0,1:2|0:0,0:0:0:0:
242,117,95696,1,2,3:2:0:0:
266,112,95790,2,0,P|304:128|316:162,1,76.9999976501466,2|0,1:2|3:2,0:0:0:0:
458,289,95977,1,0,0:0:0:0:
472,306,96071,1,0,3:2:0:0:
481,318,96165,2,0,P|483:280|489:235,1,76.9999976501466,10|0,1:2|0:0,0:0:0:0:
321,377,96352,2,0,P|326:338|328:300,1,76.9999976501466,0|0,3:2|3:2,0:0:0:0:
161,99,96540,6,0,B|102:81|69:131|79:136|91:140|50:200|-9:177,1,197.99999395752,2|0,1:2|0:0,0:0:0:0:
145,23,96821,1,0,0:0:0:0:
173,15,96915,2,0,P|231:46|232:134,1,153.999995300293,10|0,1:2|0:0,0:0:0:0:
83,247,97196,5,2,3:2:0:0:
67,258,97290,1,0,1:2:0:0:
59,285,97383,2,0,P|82:317|103:367,1,76.9999976501466,2|0,3:2|0:0,0:0:0:0:
316,348,97571,1,2,3:2:0:0:
296,347,97665,2,0,P|260:360|230:385,1,76.9999976501466,10|0,1:2|0:0,0:0:0:0:
183,271,97852,2,0,P|178:230|165:179,1,76.9999976501466,2|0,3:2|3:0,0:0:0:0:
375,88,98040,6,0,P|432:110|425:209,1,153.999995300293,2|0,1:2|0:0,0:0:0:0:
387,250,98321,1,0,0:0:0:0:
277,107,98415,2,0,P|267:46|356:3,1,153.999995300293,10|0,1:2|0:0,0:0:0:0:
409,18,98696,1,0,3:2:0:0:
243,173,98790,2,0,P|205:180|169:194,1,76.9999976501466,2|0,1:2|3:2,0:0:0:0:
81,13,98977,2,0,P|73:50|59:86,1,76.9999976501466,0|0,0:0|3:2,0:0:0:0:
12,236,99165,5,10,1:2:0:0:
0,269,99258,1,0,0:0:0:0:
13,293,99352,1,0,3:2:0:0:
27,298,99446,1,0,3:2:0:0:
95,340,99540,6,0,B|144:311|170:354|168:359|168:362|196:403|245:378,1,165.000006294251,2|0,1:2|0:0,0:0:0:0:
442,249,99821,1,0,0:0:0:0:
411,225,99915,2,0,B|354:212|343:261|346:265|347:268|333:316|279:307,1,165.000006294251,10|0,1:2|0:0,0:0:0:0:
95,253,100196,6,0,P|90:212|80:172,1,82.5000031471254,2|0,3:2|1:2,0:0:0:0:
268,224,100383,2,0,P|258:183|253:143,1,76.9999976501466,2|0,3:2|0:0,0:0:0:0:
147,46,100571,1,2,3:2:0:0:
127,74,100665,2,0,P|137:110|172:124,1,76.9999976501466,10|0,1:2|0:0,0:0:0:0:
360,0,100852,2,0,P|384:68|333:121,1,153.999995300293,2|2,3:2|1:2,0:0:0:0:
136,225,101133,5,2,0:0:0:0:
124,237,101227,2,0,P|115:253|112:273,1,22,2|0,0:0|0:0,0:0:0:0:
12,220,101415,2,0,P|127:232|235:272,1,230.99999295044,10|2,1:2|3:2,0:0:0:0:
449,310,101790,5,2,1:2:0:0:
492,297,101884,1,0,3:0:0:0:
501,272,101978,2,0,P|497:234|467:210,1,76.9999976501466,0|0,0:0|3:2,0:0:0:0:
306,306,102165,1,10,1:2:0:0:
294,350,102259,1,0,0:0:0:0:
311,369,102353,2,0,P|345:384|381:370,1,76.9999976501466,0|0,3:0|3:0,0:0:0:0:
377,135,102540,6,0,B|365:87|421:68|424:73|426:77|485:49|463:-8,2,176,4|2|8,1:2|0:0|1:2,0:0:0:0:
377,135,103102,1,2,0:0:0:0:
53,280,103290,5,0,1:2:0:0:
43,276,103383,1,0,3:2:0:0:
18,281,103477,1,2,0:0:0:0:
0,303,103571,1,0,3:0:0:0:
11,353,103665,2,0,P|59:353|168:398,1,142.99999345398,8|2,1:2|3:2,0:0:0:0:
309,254,104040,6,0,P|318:219|308:185,1,71.4999967269899,0|0,1:2|0:0,0:0:0:0:
257,122,104227,1,2,0:0:0:0:
84,204,104415,6,0,P|74:169|84:135,1,71.4999967269899,8|0,1:2|0:0,0:0:0:0:
136,72,104602,1,2,0:0:0:0:
187,302,104790,5,0,1:2:0:0:
186,294,104883,1,0,3:2:0:0:
193,294,104977,1,2,0:0:0:0:
194,301,105071,1,0,3:2:0:0:
246,366,105165,5,8,1:2:0:0:
305,378,105258,1,0,0:0:0:0:
331,344,105352,1,0,3:0:0:0:
328,331,105446,1,0,3:0:0:0:
246,243,105540,6,0,B|319:208|360:273|350:278|347:287|386:353|464:319,1,247.500009441376,6|0,1:2|0:0,0:0:0:0:
512,147,105915,2,0,P|483:134|399:214,1,153.999995300293,10|0,1:2|0:0,0:0:0:0:
179,316,106196,2,0,P|174:277|164:240,1,76.9999976501466,2|0,3:2|1:2,0:0:0:0:
162,163,106383,5,2,3:2:0:0:
167,145,106477,1,0,0:0:0:0:
194,129,106571,1,2,3:2:0:0:
251,74,106665,2,0,P|274:103|271:141,1,76.9999976501466,10|0,1:2|0:0,0:0:0:0:
322,202,106852,2,0,P|307:236|273:253,1,76.9999976501466,2|0,3:2|3:0,0:0:0:0:
71,374,107040,5,2,1:2:0:0:
54,382,107133,1,2,0:0:0:0:
19,379,107227,2,0,P|-3:349|1:310,1,76.9999976501466,2|0,0:0|0:0,0:0:0:0:
178,372,107415,2,0,P|212:306|160:242,1,153.999995300293,10|0,1:2|0:0,0:0:0:0:
27,157,107696,5,2,3:2:0:0:
13,144,107790,2,0,P|-1:107|0:68,1,76.9999976501466,2|0,1:2|3:2,0:0:0:0:
188,8,107977,1,0,0:0:0:0:
204,13,108071,1,0,3:2:0:0:
223,30,108165,2,0,P|236:65|237:104,1,76.9999976501466,10|0,1:2|0:0,0:0:0:0:
111,25,108352,2,0,P|92:58|86:96,1,76.9999976501466,0|0,3:0|3:2,0:0:0:0:
363,277,108540,6,0,B|421:299|439:248|435:243|435:240|456:190|513:205,1,181.500001730919,2|0,1:2|0:0,0:0:0:0:
368,24,108821,1,0,0:0:0:0:
388,18,108915,2,0,P|354:103|333:191,1,181.500001730919,10|0,1:2|0:0,0:0:0:0:
205,326,109196,5,2,3:2:0:0:
193,340,109290,1,0,1:2:0:0:
166,351,109383,2,0,P|130:324|148:251,1,76.9999976501466,2|0,3:2|0:0,0:0:0:0:
183,116,109571,1,2,0:0:0:0:
208,112,109665,2,0,P|243:138|225:211,1,76.9999976501466,10|0,1:2|0:0,0:0:0:0:
49,263,109852,2,0,P|54:219|126:198,1,76.9999976501466,2|0,3:2|3:0,0:0:0:0:
307,236,110040,6,0,B|351:218|377:269|372:270|368:275|391:327|446:307,1,153.999995300293,2|0,1:2|0:0,0:0:0:0:
452,238,110321,1,0,0:0:0:0:
400,58,110415,2,0,B|356:40|330:91|335:92|339:97|316:149|261:129,1,153.999995300293,10|0,1:2|0:0,0:0:0:0:
208,112,110696,1,0,3:0:0:0:
413,140,110790,2,0,P|450:130|488:127,1,76.9999976501466,2|0,1:2|3:0,0:0:0:0:
231,28,110977,2,0,P|194:35|156:39,1,76.9999976501466,0|0,0:0|3:0,0:0:0:0:
315,50,111165,5,10,1:2:0:0:
343,79,111259,1,0,0:0:0:0:
341,112,111352,1,0,3:0:0:0:
326,124,111446,1,0,3:0:0:0:
288,190,111540,6,0,B|239:167|207:221|212:225|217:231|186:286|127:259,1,176,2|0,1:2|0:0,0:0:0:0:
33,58,111821,1,0,0:0:0:0:
14,95,111915,2,0,B|17:142|73:143|74:137|76:131|132:130|138:188,1,165.000006294251,10|0,1:2|0:0,0:0:0:0:
334,264,112196,6,0,P|340:302|351:339,1,76.9999976501466,2|0,3:2|1:0,0:0:0:0:
131,309,112383,2,0,P|140:346|145:384,1,76.9999976501466,2|0,3:2|0:0,0:0:0:0:
273,213,112571,1,2,3:2:0:0:
283,195,112665,2,0,P|278:157|237:127,1,76.9999976501466,10|0,1:2|0:0,0:0:0:0:
61,284,112852,2,0,P|17:224|48:157,1,153.999995300293,2|2,3:2|1:2,0:0:0:0:
192,39,113133,5,2,0:0:0:0:
211,42,113227,2,0,P|221:46|230:52,1,22,2|0,0:0|0:0,0:0:0:0:
317,8,113415,2,0,B|249:-24|205:49|211:53|221:58|183:121|103:86,1,230.99999295044,10|2,1:2|3:2,0:0:0:0:
305,109,113790,5,2,1:2:0:0:
352,126,113884,1,0,3:0:0:0:
361,159,113978,2,0,P|352:197|321:222,1,76.9999976501466,0|0,0:0|3:0,0:0:0:0:
50,81,114165,1,10,1:2:0:0:
40,30,114259,1,0,0:0:0:0:
64,6,114353,2,0,P|101:-6|138:8,1,76.9999976501466,0|0,3:0|3:0,0:0:0:0:
244,173,114540,6,0,P|215:250|201:331,1,165.000006294251,2|0,1:2|0:0,0:0:0:0:
31,360,114821,1,0,0:0:0:0:
0,329,114915,2,0,P|9:253|85:250,1,165.000006294251,10|0,1:2|0:0,0:0:0:0:
253,384,115196,2,0,P|292:375|308:327,1,76.9999976501466,2|0,3:2|1:2,0:0:0:0:
269,278,115383,5,2,3:2:0:0:
265,255,115477,1,0,0:0:0:0:
254,228,115571,1,2,3:2:0:0:
152,176,115665,2,0,P|166:213|173:252,1,76.9999976501466,10|0,1:2|0:0,0:0:0:0:
405,226,115852,2,0,P|375:253|351:282,1,76.9999976501466,2|0,3:2|3:0,0:0:0:0:
313,27,116040,6,0,B|220:-60|112:-21|102:73|89:137|261:219|359:189|287:68|368:-57|548:29|557:77|556:165|537:187|456:185|415:173|397:75,1,774.400023632813,4|6,1:2|1:2,0:0:0:0:
256,192,126540,12,0,129446,0:0:0:0:
414,329,129540,6,0,B|375:309|342:340|345:346|349:350|316:379|277:354,2,149.600000913086,6|2|10,1:2|0:0|0:2,0:0:0:0:
414,329,130665,1,0,0:0:0:0:
360,212,131040,6,0,P|354:148|346:85,1,127.600003894043,2|2,0:0|0:0,0:0:0:0:
429,75,131790,2,0,P|434:138|442:201,1,127.600003894043,10|2,0:2|0:0,0:0:0:0:
442,201,132352,1,0,1:0:0:0:
269,154,132540,6,0,P|218:159|188:251,1,149.600000913086,0|2,1:2|0:0,0:0:0:0:
155,384,133102,1,0,0:0:0:0:
155,383,133290,2,0,P|151:345|138:310,1,74.800000456543,10|2,0:2|0:0,0:0:0:0:
70,260,133665,2,0,P|33:253|0:238,1,74.800000456543,0|2,0:0|0:0,0:0:0:0:
50,83,134040,6,0,P|87:90|120:105,1,74.800000456543,2|0,0:0|0:0,0:0:0:0:
181,45,134415,2,0,P|218:38|251:23,1,74.800000456543,2|0,0:0|0:0,0:0:0:0:
407,128,134790,5,10,0:2:0:0:
320,185,135071,1,0,1:2:0:0:
248,109,135352,1,2,1:2:0:0:
437,47,135540,6,0,P|491:93|486:165,1,149.600000913086,6|2,1:2|0:0,0:0:0:0:
438,236,136102,1,2,0:0:0:0:
438,235,136290,2,0,P|439:273|447:309,1,74.800000456543,10|2,0:2|0:0,0:0:0:0:
383,365,136665,2,0,P|351:345|338:311,1,74.800000456543,2|0,0:0|0:0,0:0:0:0:
234,183,137040,6,0,P|232:108|216:35,1,149.600000913086,2|2,1:2|0:0,0:0:0:0:
314,63,137602,1,2,0:0:0:0:
314,63,137790,2,0,P|313:101|320:137,1,74.800000456543,10|2,0:2|0:0,0:0:0:0:
151,173,138165,2,0,P|149:117|137:63,1,112.200000684814,2|0,0:0|0:0,0:0:0:0:
241,186,138540,5,4,1:2:0:0:
241,186,138727,2,0,L|238:161,2,24.9333334855143,8|8|8,0:2|0:2|0:2,0:0:0:0:
315,225,138915,1,8,0:2:0:0:
324,224,139008,2,0,P|343:245|350:284,2,42.9000014401246,8|8|8,0:3|0:2|0:2,0:0:0:0:
324,343,139290,1,8,0:2:0:0:
237,365,139415,1,8,0:3:0:0:
180,301,139540,1,0,1:0:0:0:
171,294,139665,2,0,P|175:265|200:235,1,57.2000019201661,4|4,0:3|1:3,0:0:0:0:
263,289,139915,1,12,0:2:0:0:
263,289,140040,6,0,P|182:188|59:148,1,261.8000015979
59,148,140790,1,2,0:1:0:0:
500,31,141540,6,0,B|525:97|432:138|426:126|422:116|353:143|372:206,1,234.055547023868,6|0,1:2|0:0,0:0:0:0:
387,13,141915,2,0,B|340:66|416:134|425:125|432:116|489:164|452:218,1,234.055547023868,2|0,1:2|0:0,0:0:0:0:
404,265,142290,6,0,L|397:294,1,31.0539891825204,2|0,1:2|0:0,0:0:0:0:
379,311,142665,2,0,L|385:281,1,31.0539891825204,2|0,1:2|0:0,0:0:0:0:
270,82,143040,6,0,B|289:125|289:125|187:245|187:245|203:284,1,245.849986682626,2|0,1:2|0:0,0:0:0:0:
132,117,143415,2,0,B|135:164|135:164|282:220|282:220|287:262,1,245.849986682626,2|0,1:2|0:0,0:0:0:0:
262,337,143790,6,0,L|268:367,1,31.3499996173096,2|0,1:2|0:0,0:0:0:0:
287,383,144165,2,0,L|280:353,1,31.3499996173096,2|0,1:2|0:0,0:0:0:0:
217,155,144540,6,0,B|143:131|116:224|129:229|142:231|118:317|37:297,1,262.350000400314,2|0,1:2|0:0,0:0:0:0:
30,312,144915,2,0,P|45:318|61:319,1,31.3499996173096,2|0,1:2|0:0,0:0:0:0:
268,220,145290,6,0,B|216:282|139:214|148:203|158:194|89:131|30:192,1,277.199991540528,2|0,1:2|0:0,0:0:0:0:
14,193,145665,2,0,P|24:179|35:169,1,31.3499996173096,2|0,1:2|0:0,0:0:0:0:
300,24,146040,6,0,B|321:29|319:55|319:55|255:-7|169:29,1,168.300001027222,2|0,1:2|0:0,0:0:0:0:
135,108,146415,2,0,B|110:119|113:144|113:144|168:78|265:104,1,184.800002255859,2|0,1:2|0:0,0:0:0:0:
311,140,146790,2,0,B|312:150|312:150|375:158|393:234,1,123.200001503906,2|2,1:2|0:0,0:0:0:0:
464,270,147071,2,0,P|457:303|436:324,2,61.6000007519531,2|2|2,0:0|1:2|0:2,0:0:0:0:
0,357,147540,6,0,P|50:366|98:384,1,102.299995941467,2|0,1:2|0:0,0:0:0:0:
17,279,147915,2,0,P|67:286|115:304,1,102.299995941467,2|0,1:2|0:0,0:0:0:0:
304,295,148290,6,0,P|247:303|194:322,1,112.200000684814,2|0,1:2|0:0,0:0:0:0:
281,214,148665,2,0,P|226:222|174:242,1,112.200000684814,2|0,1:2|0:0,0:0:0:0:
7,145,149040,6,0,P|67:154|124:175,1,122.100002980957,2|0,1:2|0:0,0:0:0:0:
28,63,149415,2,0,P|88:72|145:92,1,122.100002980957,2|0,1:2|0:0,0:0:0:0:
206,151,149790,6,0,P|226:116|227:76,1,81.4000019873047,2|2,1:2|0:2,0:0:0:0:
469,237,150165,2,0,P|470:176|501:124,1,122.100002980957,2|0,1:2|0:0,0:0:0:0:
270,0,150540,6,0,B|327:-9|342:53|335:57|330:59|342:113|402:112,1,188.099997703857,4|0,1:2|0:0,0:0:0:0:
358,266,150915,2,0,P|411:247|468:236,1,114.399999301758,8|2,1:2|0:0,0:0:0:0:
310,193,151196,5,0,3:0:0:0:
295,195,151290,2,0,P|276:216|271:246,1,57.1999996508789,0|0,1:2|3:0,0:0:0:0:
201,284,151477,2,0,P|209:311|214:339,1,57.1999996508789,2|0,0:0|3:0,0:0:0:0:
120,282,151665,2,0,P|111:255|86:235,1,57.1999996508789,8|0,1:2|0:0,0:0:0:0:
7,160,151852,1,0,3:0:0:0:
0,147,151946,1,0,3:2:0:0:
5,128,152040,6,0,P|22:104|53:94,1,57.1999996508789,0|0,1:2|0:0,0:0:0:0:
137,22,152227,1,2,0:0:0:0:
149,14,152321,1,0,0:0:0:0:
168,19,152415,2,0,P|192:35|202:67,1,57.1999996508789,8|0,1:2|0:0,0:0:0:0:
244,177,152602,1,2,0:2:0:0:
252,164,152696,1,0,3:2:0:0:
269,161,152790,6,0,B|321:153|334:209|328:213|323:215|334:263|389:263,1,171.599998952637,0|0,1:2|3:2,0:0:0:0:
492,136,153165,5,8,1:2:0:0:
495,128,153258,1,0,0:0:0:0:
498,120,153352,1,0,3:2:0:0:
501,112,153446,1,0,3:0:0:0:
444,67,153540,6,0,P|417:90|412:137,1,76.9999976501466,6|0,1:2|0:0,0:0:0:0:
443,201,153727,1,0,0:0:0:0:
277,381,153915,6,0,P|250:358|245:311,1,76.9999976501466,10|0,1:2|0:0,0:0:0:0:
276,247,154102,1,0,0:0:0:0:
114,178,154290,6,0,P|87:201|82:248,1,76.9999976501466,2|0,1:2|3:0,0:0:0:0:
113,312,154477,1,0,0:0:0:0:
323,149,154665,5,10,1:2:0:0:
322,135,154758,1,0,0:0:0:0:
330,115,154852,1,0,3:0:0:0:
371,101,154946,1,0,3:0:0:0:
420,116,155040,6,0,P|461:116|500:76,1,76.9999976501466,2|0,1:2|0:0,0:0:0:0:
512,23,155227,1,0,0:0:0:0:
171,111,155415,6,0,P|212:110|251:150,1,76.9999976501466,10|0,1:2|0:0,0:0:0:0:
263,204,155602,1,0,0:0:0:0:
466,285,155790,6,0,P|424:284|385:324,1,76.9999976501466,2|0,1:2|3:0,0:0:0:0:
374,378,155977,1,0,0:0:0:0:
367,49,156165,6,0,P|361:75|358:103,1,55,10|0,1:2|0:0,0:0:0:0:
316,313,156352,2,0,P|320:285|325:258,1,55,0|0,3:0|3:0,0:0:0:0:
343,181,156540,1,0,1:2:0:0:
41,57,156727,5,2,0:0:0:0:
41,57,156821,1,0,0:0:0:0:
41,57,156915,2,0,P|78:54|109:76,1,76.9999976501466,10|0,1:2|0:0,0:0:0:0:
175,19,157102,2,0,P|195:52|193:90,1,76.9999976501466,2|0,0:0|3:0,0:0:0:0:
99,289,157290,2,0,P|79:257|81:219,1,76.9999976501466,2|0,1:2|3:0,0:0:0:0:
0,189,157477,2,0,P|17:156|51:138,1,76.9999976501466,2|0,0:0|3:0,0:0:0:0:
273,119,157665,2,0,P|256:152|221:169,1,76.9999976501466,10|0,1:2|0:0,0:0:0:0:
236,254,157852,2,0,P|198:255|166:234,1,76.9999976501466,2|0,3:2|3:0,0:0:0:0:
135,155,158040,6,0,B|177:99|255:144|247:154|241:164|316:209|364:140,1,247.500009441376,2|0,1:2|0:0,0:0:0:0:
483,0,158415,2,0,P|456:103|442:210,1,214.49999018097,10|0,1:2|3:0,0:0:0:0:
424,384,158790,5,2,1:2:0:0:
437,378,158883,1,0,3:0:0:0:
455,351,158977,1,2,0:0:0:0:
446,293,159071,1,0,3:0:0:0:
381,258,159165,2,0,P|308:269|300:366,1,153.999995300293,10|2,1:2|3:2,0:0:0:0:
76,382,159446,5,0,3:0:0:0:
49,383,159540,2,0,P|-16:336|-2:257,1,170.500001300812,2|0,1:2|0:0,0:0:0:0:
52,166,159821,1,0,0:0:0:0:
52,166,159915,2,0,P|47:127|36:90,1,76.9999976501466,10|0,1:2|0:0,0:0:0:0:
128,106,160102,2,0,P|117:68|101:34,1,76.9999976501466,2|0,0:0|3:2,0:0:0:0:
199,56,160290,2,0,P|210:93|215:132,1,76.9999976501466,2|0,1:2|3:0,0:0:0:0:
262,0,160477,2,0,P|278:33|289:71,1,76.9999976501466,2|0,0:0|3:0,0:0:0:0:
127,106,160665,6,0,P|242:112|347:159,1,230.99999295044,10|0,1:2|3:0,0:0:0:0:
491,11,161040,2,0,P|442:24|442:130,1,153.999995300293,2|0,1:2|0:0,0:0:0:0:
486,188,161321,1,0,0:0:0:0:
486,188,161415,2,0,P|464:220|452:262,1,76.9999976501466,10|0,1:2|0:0,0:0:0:0:
375,238,161602,2,0,P|361:273|357:317,1,76.9999976501466,2|0,0:0|3:0,0:0:0:0:
292,370,161790,2,0,P|270:337|258:296,1,76.9999976501466,2|0,1:2|3:0,0:0:0:0:
181,320,161977,2,0,P|167:284|163:240,1,76.9999976501466,2|0,0:0|3:0,0:0:0:0:
210,107,162165,6,0,B|137:81|109:163|115:165|121:168|98:239|22:220,1,239.250007301331,10|0,1:2|3:0,0:0:0:0:
76,88,162540,2,0,B|124:80|143:132|138:134|133:136|151:190|210:176,1,159.500004867554,2|0,1:2|0:0,0:0:0:0:
280,161,162821,1,2,0:0:0:0:
300,172,162915,2,0,P|316:211|306:266,1,76.9999976501466,8|0,1:2|0:0,0:0:0:0:
75,292,163102,2,0,P|59:253|69:198,1,76.9999976501466,2|0,0:0|3:0,0:0:0:0:
209,324,163290,5,2,1:2:0:0:
205,331,163384,1,0,3:0:0:0:
202,337,163478,1,0,0:0:0:0:
198,344,163571,1,2,3:2:0:0:
131,384,163665,2,0,P|127:351|120:319,1,65.9999979858399,8|0,1:2|0:0,0:0:0:0:
295,351,163852,2,0,P|288:319|284:286,1,65.9999979858399,2|0,3:2|3:0,0:0:0:0:
159,62,164040,5,6,1:2:0:0:
159,62,164227,2,0,P|168:104|175:160,1,93.500001783371
364,182,164415,5,12,1:2:0:0:
364,182,164602,2,0,P|373:224|381:278,1,88,0|0,0:0|3:0,0:0:0:0:
488,74,164790,5,4,1:2:0:0:
488,74,164977,2,0,P|496:112|503:159,1,82.5000031471254,0|0,0:0|3:0,0:0:0:0:
308,10,165165,2,0,P|315:45|320:80,1,70.863616909299,12|0,1:2|3:0,0:0:0:0:
267,163,165540,6,0,B|195:203|143:140|152:129|161:116|108:47|46:84,1,264,6|0,1:2|0:0,0:0:0:0:
0,229,165915,2,0,P|29:299|50:374,1,153.999995300293,10|0,1:2|0:0,0:0:0:0:
121,313,166196,2,0,P|113:275|96:241,1,76.9999976501466,2|0,3:2|1:2,0:0:0:0:
119,152,166383,5,2,3:2:0:0:
139,130,166477,1,0,0:0:0:0:
157,131,166571,1,2,3:2:0:0:
206,65,166665,2,0,P|243:70|266:98,1,76.9999976501466,10|0,1:2|0:0,0:0:0:0:
344,101,166852,2,0,P|358:135|345:172,1,76.9999976501466,2|0,3:2|3:0,0:0:0:0:
424,357,167040,5,2,1:2:0:0:
436,369,167133,1,2,0:2:0:0:
467,374,167227,2,0,P|500:356|512:316,1,76.9999976501466,2|0,0:0|0:0,0:0:0:0:
340,310,167415,2,0,P|263:320|191:345,1,153.999995300293,10|0,1:2|0:0,0:0:0:0:
117,295,167696,1,2,3:2:0:0:
97,282,167790,2,0,P|88:242|114:208,1,76.9999976501466,2|0,1:2|3:2,0:0:0:0:
234,127,167977,1,0,0:0:0:0:
247,121,168071,1,0,3:2:0:0:
266,99,168165,2,0,P|270:62|247:32,1,76.9999976501466,10|0,1:2|0:0,0:0:0:0:
100,69,168352,2,0,P|125:97|144:131,1,76.9999976501466,0|0,3:0|3:0,0:0:0:0:
382,0,168540,6,0,P|366:92|357:185,1,187.000003566742,2|0,1:2|0:0,0:0:0:0:
216,335,168821,1,0,0:0:0:0:
197,316,168915,2,0,P|194:250|270:205,1,153.999995300293,10|0,1:2|0:0,0:0:0:0:
453,110,169196,5,2,3:2:0:0:
465,114,169290,1,0,1:2:0:0:
484,133,169383,2,0,P|492:174|440:215,1,76.9999976501466,2|0,3:2|0:0,0:0:0:0:
441,297,169571,1,2,3:2:0:0:
420,306,169665,2,0,P|380:292|370:226,1,76.9999976501466,10|0,1:2|0:0,0:0:0:0:
347,173,169852,2,0,P|340:135|317:86,1,76.9999976501466,2|0,3:2|3:0,0:0:0:0:
173,15,170040,6,0,B|125:-8|98:47|99:50|106:52|80:113|20:91,1,176,2|0,1:2|0:0,0:0:0:0:
3,12,170321,1,0,0:0:0:0:
21,6,170415,2,0,B|71:-7|86:52|85:55|77:55|90:120|153:111,1,176,10|0,1:2|0:0,0:0:0:0:
232,181,170696,1,0,3:0:0:0:
210,174,170790,2,0,P|177:192|165:228,1,76.9999976501466,2|0,1:2|3:0,0:0:0:0:
86,267,170977,2,0,P|86:304|110:333,1,76.9999976501466,0|0,0:0|3:0,0:0:0:0:
306,234,171165,5,8,1:2:0:0:
340,227,171258,1,0,0:0:0:0:
354,204,171352,1,0,3:0:0:0:
352,190,171446,1,0,3:0:0:0:
306,135,171540,6,0,P|332:218|344:304,1,173.800004243164,2|0,1:2|0:0,0:0:0:0:
457,383,171821,1,0,0:0:0:0:
475,370,171915,2,0,P|501:287|513:201,1,173.800004243164,10|0,1:2|0:0,0:0:0:0:
388,110,172196,6,0,P|383:72|364:39,1,76.9999976501466,2|0,3:2|1:2,0:0:0:0:
225,161,172383,2,0,P|205:128|201:90,1,76.9999976501466,2|0,3:2|0:0,0:0:0:0:
334,182,172571,1,2,3:2:0:0:
342,205,172665,2,0,P|332:241|297:260,1,76.9999976501466,10|0,1:2|0:0,0:0:0:0:
218,351,172852,2,0,B|171:354|159:306|163:305|166:305|155:250|107:255,1,153.999995300293,2|2,3:2|1:2,0:0:0:0:
83,71,173133,5,2,0:2:0:0:
95,59,173227,2,0,P|101:50|105:40,1,22.0215907139088,2|0,0:0|0:0,0:0:0:0:
0,51,173415,2,0,P|113:62|198:136,1,230.99999295044,10|2,1:2|3:2,0:0:0:0:
294,99,173790,5,2,1:2:0:0:
327,72,173884,1,0,3:2:0:0:
325,43,173978,2,0,P|305:9|268:0,1,76.9999976501466,0|0,0:0|3:2,0:0:0:0:
136,180,174165,1,10,1:2:0:0:
143,220,174259,1,0,0:0:0:0:
168,234,174353,2,0,P|206:233|233:206,1,76.9999976501466,0|0,3:0|3:0,0:0:0:0:
105,38,174540,6,0,P|42:43|18:101,2,131.99999597168,4|2|8,1:2|0:0|1:2,0:0:0:0:
105,38,175102,1,2,0:0:0:0:
47,203,175290,5,0,1:2:0:0:
45,209,175383,1,0,3:2:0:0:
44,215,175477,1,2,0:2:0:0:
42,221,175571,1,0,3:0:0:0:
42,227,175665,2,0,P|92:244|109:322,1,131.99999597168,8|2,1:2|3:2,0:0:0:0:
187,384,175946,5,0,3:0:0:0:
187,384,176040,2,0,P|199:319|223:257,1,131.99999597168,0|2,1:2|0:0,0:0:0:0:
287,148,176321,1,0,0:0:0:0:
287,148,176415,2,0,P|225:169|160:180,1,131.99999597168,8|2,1:2|0:0,0:0:0:0:
306,232,176696,1,0,3:2:0:0:
306,232,176790,2,0,P|337:221|370:218,1,65.9999979858399,0|0,1:2|3:2,0:0:0:0:
347,80,176977,2,0,P|368:104|395:123,1,65.9999979858399,10|0,0:2|0:0,0:0:0:0:
512,208,177165,5,8,1:2:0:0:
512,208,177258,1,0,0:0:0:0:
512,208,177352,2,0,P|480:196|448:189,1,65.9999979858399,2|0,3:2|3:2,0:0:0:0:
287,148,177540,6,0,B|213:123|187:206|195:210|204:216|178:297|104:275,1,247.500009441376,6|0,1:2|0:0,0:0:0:0:
0,122,177915,2,0,P|15:170|137:155,1,153.999995300293,10|0,1:2|0:0,0:0:0:0:
155,111,178196,2,0,P|158:73|173:37,1,76.9999976501466,2|0,3:2|1:2,0:0:0:0:
251,2,178383,5,2,3:2:0:0:
270,7,178477,1,0,0:0:0:0:
293,30,178571,1,2,3:2:0:0:
296,108,178665,2,0,P|320:107|365:63,1,76.9999976501466,10|0,1:2|0:0,0:0:0:0:
438,138,178852,2,0,P|449:116|433:55,1,76.9999976501466,2|0,3:2|3:0,0:0:0:0:
320,191,179040,5,2,1:2:0:0:
310,206,179133,1,2,0:0:0:0:
284,218,179227,2,0,P|246:197|235:145,1,76.9999976501466,2|0,0:0|0:0,0:0:0:0:
414,261,179415,2,0,P|405:333|335:356,1,153.999995300293,10|0,1:2|0:0,0:0:0:0:
208,323,179696,5,2,3:2:0:0:
182,319,179790,2,0,P|149:347|139:389,1,76.9999976501466,2|0,1:2|3:0,0:0:0:0:
32,321,179977,1,0,0:0:0:0:
16,309,180071,1,0,3:0:0:0:
13,275,180165,2,0,P|38:239|79:224,1,76.9999976501466,10|0,1:2|0:0,0:0:0:0:
81,108,180352,2,0,P|123:116|152:152,1,76.9999976501466,0|0,3:0|3:2,0:0:0:0:
156,228,180540,1,2,1:2:0:0:
488,38,180727,5,0,0:0:0:0:
488,38,180821,1,0,0:0:0:0:
488,38,180915,2,0,P|453:27|418:43,1,76.9999976501466,10|0,1:2|0:0,0:0:0:0:
268,126,181102,2,0,P|292:155|329:162,1,76.9999976501466,2|0,0:0|3:0,0:0:0:0:
346,2,181290,2,0,P|326:32|330:70,1,76.9999976501466,2|0,1:2|3:0,0:0:0:0:
363,236,181477,2,0,P|398:223|417:190,1,76.9999976501466,2|0,0:0|3:0,0:0:0:0:
268,126,181665,2,0,P|292:155|329:162,1,76.9999976501466,10|0,1:2|0:0,0:0:0:0:
497,181,181852,2,0,P|496:143|470:115,1,76.9999976501466,2|0,3:2|3:0,0:0:0:0:
395,117,182040,6,0,P|421:229|423:344,1,230.99999295044,2|0,1:2|0:0,0:0:0:0:
140,384,182415,2,0,P|113:271|111:156,1,230.99999295044,10|0,1:2|3:0,0:0:0:0:
264,53,182790,5,2,1:2:0:0:
264,53,182883,1,0,3:0:0:0:
263,53,182977,2,0,P|265:87|212:122,1,76.9999976501466,2|0,0:2|3:0,0:0:0:0:
31,0,183165,2,0,P|-9:57|62:125,1,153.999995300293,10|2,1:2|3:2,0:0:0:0:
133,260,183446,5,0,3:0:0:0:
147,273,183540,2,0,B|198:289|223:235|219:233|216:231|241:182|292:203,1,170.500001300812,2|0,1:2|0:0,0:0:0:0:
369,245,183821,1,0,0:0:0:0:
369,245,183915,2,0,P|394:215|395:176,1,76.9999976501466,10|0,1:2|0:0,0:0:0:0:
506,182,184102,2,0,P|493:145|459:124,1,76.9999976501466,2|0,0:0|3:0,0:0:0:0:
284,200,184290,2,0,P|295:162|329:141,1,76.9999976501466,2|0,1:2|3:0,0:0:0:0:
268,49,184477,2,0,P|306:40|341:58,1,76.9999976501466,2|0,0:0|3:0,0:0:0:0:
358,168,184665,6,0,P|263:101|152:72,1,230.99999295044,10|0,1:2|3:0,0:0:0:0:
0,6,185040,2,0,P|54:32|40:121,1,153.999995300293,2|0,1:2|0:0,0:0:0:0:
1,193,185321,1,0,0:0:0:0:
1,193,185415,2,0,P|6:228|62:266,1,76.9999976501466,10|0,1:2|0:0,0:0:0:0:
70,330,185602,2,0,P|107:322|146:324,1,76.9999976501466,2|0,0:0|3:0,0:0:0:0:
281,267,185790,2,0,P|310:291|345:307,1,76.9999976501466,2|0,1:2|3:0,0:0:0:0:
376,384,185977,2,0,P|411:371|434:341,1,76.9999976501466,2|0,0:0|3:0,0:0:0:0:
473,251,186165,6,0,P|484:170|500:100,1,153.999995300293,10|0,1:2|3:0,0:0:0:0:
370,0,186446,1,0,3:0:0:0:
379,21,186540,2,0,P|368:102|351:171,1,153.999995300293,2|0,1:2|0:0,0:0:0:0:
281,267,186821,1,0,0:0:0:0:
255,272,186915,2,0,P|225:249|220:211,1,76.9999976501466,10|0,1:2|0:0,0:0:0:0:
143,179,187102,2,0,P|147:141|177:119,1,76.9999976501466,2|0,0:0|3:0,0:0:0:0:
362,278,187290,5,2,1:2:0:0:
367,284,187383,1,0,3:0:0:0:
372,290,187477,1,2,0:0:0:0:
377,296,187571,1,0,3:0:0:0:
383,301,187665,2,0,P|417:284|429:248,1,65.9999979858399,10|0,1:2|0:0,0:0:0:0:
511,233,187852,2,0,P|514:194|490:167,1,65.9999979858399,0|0,3:0|0:0,0:0:0:0:
423,19,188040,6,0,B|430:65|430:65|346:119|346:119|335:119|335:119|281:149|281:149|285:187,1,257.400008640747,4|0,1:2|0:0,0:0:0:0:
294,0,188415,2,0,B|272:41|272:41|335:119|335:119|346:123|346:123|388:168|388:168|373:203,1,257.400008640747,4|0,1:2|0:0,0:0:0:0:
318,264,188790,5,8,0:2:0:0:
341,121,188977,1,8,0:2:0:0:
341,121,189071,1,8,0:2:0:0:
341,121,189165,2,0,L|351:57,1,58.3000000889587,8|0,0:2|0:0,0:0:0:0:
373,202,189352,1,8,0:2:0:0:
100,76,189540,5,4,1:2:0:0:
