osu file format v14

[General]
AudioFilename: audio.mp3
AudioLeadIn: 0
PreviewTime: 92040
Countdown: 0
SampleSet: Soft
StackLeniency: 0.5
Mode: 0
LetterboxInBreaks: 0
WidescreenStoryboard: 1

[Editor]
Bookmarks: 540,9540,21540,33540,45540,57540,66540,69540,81540,93540,102540,105540,117540,129540,138540,141540,153540,165540,174540,177540,189540
DistanceSpacing: 1
BeatDivisor: 4
GridSize: 4
TimelineZoom: 1.900001

[Metadata]
Title:Hysteric Night Girl -Awakening- (feat. Such)
TitleUnicode:ヒステリックナイトガール -Awakening- (feat. Such)
Artist:PSYQUI
ArtistUnicode:PSYQUI
Creator:Jiysea
Version:Hard
Source:
Tags:electronic japanese speed garage EDM Innocent future core jpop j-pop tech wacca LAM megarex mrx-034 LeCandy Amateurre
BeatmapID:3102955
BeatmapSetID:1508329

[Difficulty]
HPDrainRate:4
CircleSize:3.2
OverallDifficulty:7
ApproachRate:8
SliderMultiplier:1.8
SliderTickRate:1

[Events]
//Background and Video events
0,0,"hysteric night girl.jpg",0,0
//Break Periods
2,117740,128790
//Storyboard Layer 0 (Background)
//Storyboard Layer 1 (Fail)
//Storyboard Layer 2 (Pass)
//Storyboard Layer 3 (Foreground)
//Storyboard Layer 4 (Overlay)
//Storyboard Sound Samples

[TimingPoints]
540,375,4,2,2,65,1,0
540,-125,4,2,2,65,0,0
8790,-125,4,2,1,65,0,0
9540,-100,4,2,1,75,0,0
21540,-111.111111111111,4,2,1,65,0,0
33540,-111.111111111111,4,2,1,70,0,0
45540,-125,4,2,1,65,0,0
51540,-111.111111111111,4,2,1,65,0,0
57540,-100,4,2,1,75,0,0
81540,-100,4,2,1,80,0,0
87540,-100,4,2,1,80,0,0
90540,-83.3333333333333,4,2,1,85,0,0
93165,-83.3333333333333,4,2,1,50,0,0
93540,-90.9090909090909,4,2,1,85,0,1
93821,-90.9090909090909,4,2,1,5,0,1
93915,-90.9090909090909,4,2,1,85,0,1
95321,-90.9090909090909,4,2,1,5,0,1
95415,-90.9090909090909,4,2,1,85,0,1
96071,-90.9090909090909,4,2,1,5,0,1
96165,-90.9090909090909,4,2,1,85,0,1
96446,-90.9090909090909,4,2,1,5,0,1
96540,-90.9090909090909,4,2,1,85,0,1
96821,-90.9090909090909,4,2,1,5,0,1
96915,-90.9090909090909,4,2,1,85,0,1
99821,-90.9090909090909,4,2,1,5,0,1
99915,-90.9090909090909,4,2,1,85,0,1
101321,-90.9090909090909,4,2,1,5,0,1
101415,-90.9090909090909,4,2,1,85,0,1
102071,-90.9090909090909,4,2,1,5,0,1
102165,-90.9090909090909,4,2,1,85,0,1
102446,-90.9090909090909,4,2,1,5,0,1
102540,-100,4,2,1,85,0,0
105540,-90.9090909090909,4,2,1,85,0,1
105821,-90.9090909090909,4,2,1,5,0,1
105915,-90.9090909090909,4,2,1,85,0,1
107321,-90.9090909090909,4,2,1,5,0,1
107415,-90.9090909090909,4,2,1,85,0,1
108071,-90.9090909090909,4,2,1,5,0,1
108165,-90.9090909090909,4,2,1,85,0,1
108446,-90.9090909090909,4,2,1,5,0,1
108540,-90.9090909090909,4,2,1,85,0,1
108821,-90.9090909090909,4,2,1,5,0,1
108915,-90.9090909090909,4,2,1,85,0,1
111821,-90.9090909090909,4,2,1,5,0,1
111915,-90.9090909090909,4,2,1,85,0,1
113321,-90.9090909090909,4,2,1,5,0,1
113415,-90.9090909090909,4,2,1,85,0,1
114071,-90.9090909090909,4,2,1,5,0,1
114165,-90.9090909090909,4,2,1,85,0,1
114446,-90.9090909090909,4,2,1,5,0,1
114540,-90.9090909090909,4,2,1,85,0,1
114821,-90.9090909090909,4,2,1,5,0,1
114915,-90.9090909090909,4,2,1,85,0,1
116040,-90.9090909090909,4,2,1,85,0,0
129540,-125,4,2,2,65,0,0
138540,-100,4,2,5,50,0,0
141540,-100,4,2,1,75,0,0
165540,-90.9090909090909,4,2,1,85,0,1
165821,-90.9090909090909,4,2,1,5,0,1
165915,-90.9090909090909,4,2,1,85,0,1
167321,-90.9090909090909,4,2,1,5,0,1
167415,-90.9090909090909,4,2,1,85,0,1
168071,-90.9090909090909,4,2,1,5,0,1
168165,-90.9090909090909,4,2,1,85,0,1
168446,-90.9090909090909,4,2,1,5,0,1
168540,-90.9090909090909,4,2,1,85,0,1
168821,-90.9090909090909,4,2,1,5,0,1
168915,-90.9090909090909,4,2,1,85,0,1
171071,-90.9090909090909,4,2,1,5,0,1
171165,-90.9090909090909,4,2,1,85,0,1
171821,-90.9090909090909,4,2,1,5,0,1
171915,-90.9090909090909,4,2,1,85,0,1
173321,-90.9090909090909,4,2,1,5,0,1
173415,-90.9090909090909,4,2,1,85,0,1
174071,-90.9090909090909,4,2,1,5,0,1
174165,-90.9090909090909,4,2,1,85,0,1
174446,-90.9090909090909,4,2,1,5,0,1
174540,-100,4,2,1,85,0,0
177540,-90.9090909090909,4,2,1,85,0,1
177821,-90.9090909090909,4,2,1,5,0,1
177915,-90.9090909090909,4,2,1,85,0,1
179321,-90.9090909090909,4,2,1,5,0,1
179415,-90.9090909090909,4,2,1,85,0,1
180071,-90.9090909090909,4,2,1,5,0,1
180165,-90.9090909090909,4,2,1,85,0,1
180446,-90.9090909090909,4,2,1,5,0,1
180540,-90.9090909090909,4,2,1,85,0,1
183821,-90.9090909090909,4,2,1,5,0,1
183915,-90.9090909090909,4,2,1,85,0,1
184946,-90.9090909090909,4,2,1,5,0,1
185040,-90.9090909090909,4,2,1,85,0,1
185321,-90.9090909090909,4,2,1,5,0,1
185415,-90.9090909090909,4,2,1,85,0,1
186446,-90.9090909090909,4,2,1,5,0,1
186540,-90.9090909090909,4,2,1,85,0,1
186821,-90.9090909090909,4,2,1,5,0,1
186915,-90.9090909090909,4,2,1,85,0,1
187946,-90.9090909090909,4,2,1,5,0,1
188040,-90.9090909090909,4,2,1,85,0,0

[Colours]
Combo1 : 179,165,111
Combo2 : 249,215,96

[HitObjects]
52,72,540,6,0,L|87:65,3,36,2|0|0|0,1:2|0:2|0:2|0:2,0:0:0:0:
116,84,915,2,0,L|186:96,1,72,2|0,0:0|0:0,0:0:0:0:
263,59,1290,2,0,P|317:59|361:29,1,108,10|0,0:2|0:0,0:0:0:0:
400,20,1665,1,2,0:0:0:0:
504,140,2040,5,2,0:0:0:0:
428,164,2227,2,0,L|421:199,1,36
448,228,2415,2,0,P|469:255|471:291,1,72,2|0,0:0|0:0,0:0:0:0:
412,344,2790,2,0,L|270:369,1,144,10|2,0:2|0:0,0:0:0:0:
192,352,3352,1,0,1:0:0:0:
112,326,3540,6,0,L|77:319,3,36,2|0|0|0,1:2|0:2|0:2|0:2,0:0:0:0:
40,320,3915,2,0,L|27:249,1,72,2|0,0:0|0:0,0:0:0:0:
56,168,4290,2,0,P|102:142|151:160,1,108,10|0,0:2|0:0,0:0:0:0:
160,192,4665,1,2,0:0:0:0:
312,144,5040,6,0,L|337:2,1,144,2|2,0:0|0:0,0:0:0:0:
456,104,5790,2,0,L|474:210,2,108,10|0|0,0:2|1:2|1:2,0:0:0:0:
388,200,6540,6,0,L|381:235,3,36,2|0|0|0,1:2|0:2|0:2|0:2,0:0:0:0:
392,272,6915,2,0,P|426:281|451:306,1,72,2|0,0:0|0:0,0:0:0:0:
392,376,7290,2,0,L|285:357,1,108,10|0,0:2|0:0,0:0:0:0:
268,320,7665,1,2,0:0:0:0:
116,368,8040,2,0,P|79:307|12:286,1,144,2|2,1:2|0:0,0:0:0:0:
12,286,8790,6,0,L|24:215,2,72,10|2|10,0:2|1:2|0:2,0:0:0:0:
100,108,9540,6,0,L|84:19,1,90,4|0,1:2|0:0,0:0:0:0:
180,44,9915,2,0,P|216:68|260:63,1,90,8|2,1:2|0:0,0:0:0:0:
352,20,10290,2,0,L|396:27,3,45,0|0|2|0,1:2|3:0|0:0|3:0,0:0:0:0:
436,56,10665,2,0,L|451:144,1,90,8|2,1:2|3:2,0:0:0:0:
512,256,11040,6,0,P|475:231|431:234,1,90,0|0,1:2|0:0,0:0:0:0:
412,320,11415,2,0,P|448:344|492:341,1,90,8|2,1:2|0:0,0:0:0:0:
332,260,11790,1,0,1:2:0:0:
332,260,11883,1,0,3:0:0:0:
332,260,11977,2,0,L|324:304,1,45,2|0,0:0|3:0,0:0:0:0:
284,332,12165,2,0,L|195:347,1,90,8|2,1:2|3:2,0:0:0:0:
100,320,12540,6,0,P|66:292|58:248,1,90,0|2,1:2|0:2,0:0:0:0:
132,184,12915,2,0,P|166:156|174:112,1,90,8|0,1:2|0:0,0:0:0:0:
120,28,13290,2,0,L|164:21,3,45,0|0|2|0,1:2|3:0|0:0|3:0,0:0:0:0:
208,40,13665,2,0,P|250:56|293:47,1,90,8|2,1:2|3:2,0:0:0:0:
388,12,14040,6,0,L|372:101,1,90,0|2,1:2|0:0,0:0:0:0:
452,160,14415,2,0,P|486:188|494:232,1,90,8|2,1:2|0:0,0:0:0:0:
452,320,14790,1,0,1:2:0:0:
408,296,14883,1,0,3:0:0:0:
360,300,14977,1,2,0:0:0:0:
328,336,15071,1,0,3:0:0:0:
328,336,15165,6,0,L|239:320,1,90,8|0,1:2|3:0,0:0:0:0:
168,252,15540,6,0,P|123:252|90:281,1,90,4|0,1:2|0:0,0:0:0:0:
4,232,15915,2,0,P|34:200|37:156,1,90,8|2,1:2|0:0,0:0:0:0:
108,84,16290,2,0,L|101:40,3,45,0|0|2|0,1:2|3:0|0:0|3:0,0:0:0:0:
140,8,16665,2,0,L|228:23,1,90,8|2,1:2|3:2,0:0:0:0:
296,96,17040,6,0,P|252:104|223:137,1,90,0|0,1:2|0:0,0:0:0:0:
125,180,17415,2,0,P|133:222|166:251,1,90,8|2,1:2|0:0,0:0:0:0:
252,324,17790,1,0,1:2:0:0:
252,324,17883,1,0,3:0:0:0:
252,324,17977,2,0,L|296:316,1,45,2|0,0:0|3:0,0:0:0:0:
332,280,18165,2,0,L|421:295,1,90,8|2,1:2|3:2,0:0:0:0:
468,208,18540,6,0,P|502:180|510:136,1,90,0|2,1:2|0:2,0:0:0:0:
472,44,18915,2,0,L|383:28,1,90,8|0,1:2|0:0,0:0:0:0:
288,56,19290,2,0,P|286:78|294:99,3,45,0|0|2|0,1:2|3:0|0:0|3:0,0:0:0:0:
324,140,19665,2,0,P|332:183|316:224,1,90,8|2,1:2|3:2,0:0:0:0:
240,288,20040,6,0,L|151:304,1,90,0|2,1:2|0:0,0:0:0:0:
64,256,20415,2,0,P|72:212|106:184,1,90,8|2,1:2|0:0,0:0:0:0:
160,104,20790,1,2,1:2:0:0:
160,104,21165,1,8,0:2:0:0:
160,104,21540,6,0,L|239:89,1,80.9999975280763,6|2,1:2|0:0,0:0:0:0:
304,40,21915,2,0,L|383:54,1,80.9999975280763,10|2,1:2|0:0,0:0:0:0:
460,24,22290,2,0,P|483:56|483:96,1,80.9999975280763,2|2,1:2|0:0,0:0:0:0:
458,174,22665,2,0,L|497:181,3,40.4999987640381,10|2|2|2,1:2|0:0|0:0|0:2,0:0:0:0:
498,210,23040,6,0,L|418:224,1,80.9999975280763,2|2,1:2|0:0,0:0:0:0:
368,293,23415,2,0,P|334:271|294:272,1,80.9999975280763,10|2,1:2|0:0,0:0:0:0:
272,285,23696,1,2,0:2:0:0:
260,309,23790,2,0,L|180:294,1,80.9999975280763,2|2,1:2|0:0,0:0:0:0:
101,279,24165,1,10,1:2:0:0:
120,124,24540,6,0,P|157:110|184:80,1,80.9999975280763,2|2,1:2|0:0,0:0:0:0:
248,28,24915,1,10,1:2:0:0:
268,40,25008,2,0,L|275:79,2,40.4999987640381,2|0|2,0:0|0:0|0:2,0:0:0:0:
288,32,25290,2,0,P|318:6|358:6,1,80.9999975280763,2|2,1:2|0:0,0:0:0:0:
436,32,25665,1,10,1:2:0:0:
456,40,25758,2,0,L|471:119,1,80.9999975280763,2|2,0:0|0:2,0:0:0:0:
504,144,26040,6,0,B|465:150|426:123|441:114|403:87|347:102,2,161.999995056153,2|10|0,1:2|1:2|1:2,0:0:0:0:
504,224,26977,1,0,0:0:0:0:
448,284,27165,2,0,L|368:269,1,80.9999975280763,8|0,1:2|0:0,0:0:0:0:
288,276,27540,6,0,P|248:283|220:311,1,80.9999975280763,2|2,1:2|0:0,0:0:0:0:
148,348,27915,1,10,1:2:0:0:
72,316,28102,2,0,L|64:276,1,40.4999987640381,2|2,0:0|0:2,0:0:0:0:
59,246,28290,2,0,P|98:238|126:210,1,80.9999975280763,2|0,1:2|0:0,0:0:0:0:
99,133,28665,2,0,L|179:118,1,80.9999975280763,10|2,1:2|0:0,0:0:0:0:
256,140,29040,6,0,L|335:154,1,80.9999975280763,2|2,1:2|0:0,0:0:0:0:
420,168,29415,1,10,1:2:0:0:
432,184,29508,2,0,L|472:190,2,40.4999987640381,2|0|2,0:0|0:0|0:2,0:0:0:0:
428,204,29790,2,0,P|408:238|371:252,1,80.9999975280763,2|2,1:2|0:0,0:0:0:0:
296,284,30165,1,10,1:2:0:0:
165,373,30540,6,0,L|85:358,1,80.9999975280763,2|2,1:2|0:0,0:0:0:0:
52,284,30915,2,0,L|45:243,3,40.4999987640381,10|2|2|2,1:2|0:2|0:0|0:2,0:0:0:0:
44,220,31290,1,2,1:2:0:0:
64,208,31383,2,0,P|93:181|102:142,1,80.9999975280763,2|2,0:2|0:2,0:0:0:0:
108,116,31665,1,8,1:2:0:0:
168,60,31852,1,0,0:0:0:0:
244,92,32040,6,0,B|283:98|322:71|307:62|345:35|401:50,2,161.999995056153,2|10|0,1:2|1:2|1:2,0:0:0:0:
256,172,32977,1,0,0:0:0:0:
272,196,33071,1,0,0:0:0:0:
264,224,33165,2,0,P|232:247|218:284,1,80.9999975280763,8|0,1:2|0:0,0:0:0:0:
288,376,33540,6,0,B|367:362|367:362|371:365|371:365|446:352,1,161.999995056153,6|10,1:2|1:2,0:0:0:0:
446,352,34290,2,0,P|471:321|470:281,1,80.9999975280763,2|2,1:2|0:0,0:0:0:0:
420,208,34665,2,0,P|395:177|396:137,1,80.9999975280763,10|2,1:2|0:0,0:0:0:0:
456,72,35040,1,2,1:2:0:0:
392,12,35227,1,2,0:0:0:0:
312,52,35415,2,0,P|272:55|238:35,1,80.9999975280763,10|0,1:2|0:0,0:0:0:0:
200,12,35696,1,2,0:2:0:0:
160,28,35790,2,0,B|147:103|147:103|150:107|150:107|136:187,1,161.999995056153,2|8,1:2|1:2,0:0:0:0:
8,312,36540,6,0,P|40:289|80:289,1,80.9999975280763,2|2,1:2|0:0,0:0:0:0:
164,316,36915,2,0,P|211:352|268:340,1,121.499996292114,10|2,1:2|0:2,0:0:0:0:
292,300,37290,2,0,L|306:220,1,80.9999975280763,2|2,1:2|0:0,0:0:0:0:
344,192,37571,1,0,0:2:0:0:
384,208,37665,2,0,L|424:201,3,40.4999987640381,10|2|2|2,1:2|0:0|0:0|0:2,0:0:0:0:
452,164,38040,6,0,L|438:84,1,80.9999975280763,2|0,1:2|0:0,0:0:0:0:
356,52,38415,2,0,B|312:61|274:34|287:30|249:3|200:10,1,161.999995056153,10|0,1:2|1:2,0:0:0:0:
120,40,38977,1,2,0:0:0:0:
120,40,39071,1,2,0:2:0:0:
120,40,39165,2,0,P|84:57|68:93,1,80.9999975280763,10|0,1:2|0:0,0:0:0:0:
48,180,39540,6,0,B|92:189|130:162|117:158|155:131|204:138,1,161.999995056153,2|10,1:2|1:2,0:0:0:0:
199,137,40290,2,0,L|213:217,1,80.9999975280763,2|2,1:2|0:0,0:0:0:0:
288,268,40665,2,0,L|274:348,1,80.9999975280763,10|2,1:2|0:0,0:0:0:0:
360,368,41040,1,2,1:2:0:0:
440,328,41227,1,2,0:0:0:0:
440,240,41415,1,10,1:2:0:0:
420,220,41508,2,0,P|381:214|353:186,1,80.9999975280763,2|2,0:0|0:2,0:0:0:0:
344,156,41790,2,0,P|292:96|213:97,1,161.999995056153,2|8,1:2|1:2,0:0:0:0:
128,72,42352,2,0,L|120:111,1,40.4999987640381,2|0,0:2|0:2,0:0:0:0:
80,132,42540,6,0,L|94:211,1,80.9999975280763,0|2,1:2|0:0,0:0:0:0:
44,284,42915,1,10,1:2:0:0:
64,304,43008,2,0,P|95:328|134:326,1,80.9999975280763,2|0,0:0|0:0,0:0:0:0:
180,320,43290,2,0,L|259:334,1,80.9999975280763,2|0,1:2|0:0,0:0:0:0:
336,288,43665,2,0,L|415:273,1,80.9999975280763,8|0,1:2|0:0,0:0:0:0:
476,208,44040,5,2,1:2:0:0:
400,64,44415,1,10,1:2:0:0:
284,188,44790,1,6,1:2:0:0:
364,156,44977,1,0,0:0:0:0:
364,156,45071,1,2,0:0:0:0:
364,156,45165,2,0,P|348:119|314:98,1,80.9999975280763,10|0,1:2|0:0,0:0:0:0:
96,64,45540,6,0,B|132:92|132:92|227:67,2,144,4|2|10,1:2|0:0|1:2,0:0:0:0:
4,192,46665,1,2,0:0:0:0:
72,236,46852,2,0,L|59:307,1,72,2|0,0:0|1:2,0:0:0:0:
160,356,47227,2,0,L|147:285,1,72,2|0,0:0|0:0,0:0:0:0:
240,184,47602,2,0,L|227:255,1,72,2|8,0:0|1:2,0:0:0:0:
320,220,47977,2,0,L|307:291,1,72,2|0,0:0|0:0,0:0:0:0:
372,344,48352,1,2,0:0:0:0:
448,316,48540,6,0,P|480:300|494:268,1,72,2|0,1:2|0:0,0:0:0:0:
452,200,48915,2,0,P|420:184|406:152,1,72,2|2,0:0|0:0,0:0:0:0:
468,80,49290,2,0,B|401:68|401:68|396:71|396:71|327:59,1,144,10|2,1:2|0:0,0:0:0:0:
260,16,49852,2,0,P|228:32|214:64,1,72,2|0,0:0|1:2,0:0:0:0:
136,96,50227,2,0,P|152:128|184:142,1,72,2|0,0:0|0:0,0:0:0:0:
216,220,50602,2,0,P|248:204|262:172,1,72,2|8,0:0|1:2,0:0:0:0:
340,144,50977,1,0,0:0:0:0:
452,256,51352,1,2,0:0:0:0:
452,256,51540,6,0,P|373:264|312:316,1,161.999995056153,12|8,1:2|1:2,0:0:0:0:
200,316,52290,2,0,P|140:264|60:256,1,161.999995056153,8|8,1:2|1:2,0:0:0:0:
8,104,53040,2,0,L|88:90,1,80.9999975280763,8|2,1:2|0:0,0:0:0:0:
160,40,53415,2,0,L|240:54,1,80.9999975280763,8|2,1:2|0:0,0:0:0:0:
280,124,53790,2,0,L|360:110,1,80.9999975280763,8|2,1:2|0:0,0:0:0:0:
424,56,54165,2,0,L|504:70,1,80.9999975280763,8|2,1:2|0:0,0:0:0:0:
508,160,54540,5,10,1:2:0:0:
428,200,54727,1,10,0:2:0:0:
480,272,54915,1,10,1:2:0:0:
404,316,55102,1,10,0:2:0:0:
468,376,55290,2,0,L|507:383,6,40.4999987640381,10|8|10|8|10|8|6,1:2|0:2|0:2|0:2|1:2|0:2|1:2,0:0:0:0:
12,20,57540,6,0,B|72:4|112:46|86:52|131:85|185:66,1,180,6|2,1:2|1:2,0:0:0:0:
336,148,58290,2,0,B|291:132|246:165|273:170|232:213|172:197,1,180,2|2,1:2|1:2,0:0:0:0:
84,356,59040,2,0,P|139:290|225:301,2,180,2|2|2,1:2|1:2|1:2,0:0:0:0:
256,376,60165,1,2,1:2:0:0:
420,300,60540,6,0,B|435:217|435:217|439:214|439:214|455:125,1,180,2|2,1:2|1:2,0:0:0:0:
308,20,61290,2,0,B|324:109|324:109|328:112|328:112|343:195,1,180,2|2,1:2|1:2,0:0:0:0:
124,272,62040,2,0,P|165:195|250:171,1,180,2|2,1:2|1:2,0:0:0:0:
360,284,62790,1,2,1:2:0:0:
312,364,62977,1,2,0:0:0:0:
312,364,63071,1,2,0:0:0:0:
312,364,63165,2,0,L|223:348,1,90,2|0,1:2|0:0,0:0:0:0:
132,356,63540,6,0,P|126:271|47:236,1,180,2|2,1:2|1:2,0:0:0:0:
140,80,64290,2,0,P|217:117|286:66,1,180,2|2,1:2|1:2,0:0:0:0:
428,176,65040,2,0,P|357:224|367:309,1,180,2|2,1:2|1:2,0:0:0:0:
260,384,65790,2,0,L|244:295,2,90,2|2|2,1:2|0:2|1:2,0:0:0:0:
440,368,66540,6,0,L|456:279,1,90,4|2,1:2|0:0,0:0:0:0:
504,204,66915,2,0,P|485:165|444:148,1,90,8|2,1:2|0:0,0:0:0:0:
388,76,67290,2,0,L|344:83,3,45,0|0|2|0,1:2|3:0|0:0|3:0,0:0:0:0:
312,112,67665,2,0,L|224:97,1,90,8|2,1:2|0:0,0:0:0:0:
148,48,68040,6,0,P|104:56|75:90,1,90,0|2,1:2|0:0,0:0:0:0:
8,148,68415,2,0,P|16:190|50:219,1,90,8|2,1:2|0:2,0:0:0:0:
128,288,68790,1,0,1:2:0:0:
128,288,68883,1,0,3:0:0:0:
128,288,68977,2,0,L|172:280,1,45,2|0,0:0|3:0,0:0:0:0:
208,312,69165,2,0,L|297:327,1,90,8|0,1:2|3:2,0:0:0:0:
388,292,69540,5,6,1:2:0:0:
388,292,69727,1,0,0:0:0:0:
328,220,69915,1,10,1:2:0:0:
328,220,70102,1,0,0:0:0:0:
408,160,70290,2,0,L|452:152,3,45,2|0|0|0,1:2|3:0|0:0|3:0,0:0:0:0:
480,112,70665,2,0,P|478:68|447:37,1,90,10|0,1:2|3:0,0:0:0:0:
348,4,71040,5,2,1:2:0:0:
352,8,71227,1,0,0:0:0:0:
292,88,71415,1,10,1:2:0:0:
292,88,71602,1,0,0:0:0:0:
192,64,71790,2,0,L|184:108,3,45,2|0|0|0,1:2|3:0|0:0|3:0,0:0:0:0:
144,136,72165,2,0,P|100:134|70:102,1,90,10|0,1:2|3:0,0:0:0:0:
8,180,72540,5,0,1:2:0:0:
8,180,72727,2,0,L|15:224,1,45,2|0,0:0|0:0,0:0:0:0:
40,268,72915,2,0,P|70:236|113:234,1,90,10|2,1:2|0:0,0:0:0:0:
200,280,73290,2,0,L|184:368,1,90,2|2,1:2|0:0,0:0:0:0:
308,328,73665,2,0,L|292:239,1,90,10|2,1:2|0:0,0:0:0:0:
388,208,74040,6,0,P|457:154|473:67,2,180,2|10|2,1:2|1:2|1:2,0:0:0:0:
384,104,74977,1,2,0:0:0:0:
312,56,75165,1,10,1:2:0:0:
312,56,75258,1,2,0:0:0:0:
312,56,75352,1,2,3:2:0:0:
224,100,75540,6,0,B|141:85|141:85|137:89|137:89|48:73,1,180,2|10,1:2|1:2,0:0:0:0:
4,160,76102,1,2,0:0:0:0:
76,228,76290,2,0,P|117:211|141:174,1,90,2|2,1:2|0:0,0:0:0:0:
236,208,76665,2,0,P|219:249|228:292,1,90,10|0,1:2|0:0,0:0:0:0:
312,344,77040,6,0,B|365:355|406:323|382:313|428:284|486:297,1,180,2|10,1:2|1:2,0:0:0:0:
512,204,77602,1,2,0:0:0:0:
424,160,77790,2,0,P|390:132|386:88,1,90,2|2,1:2|0:0,0:0:0:0:
512,16,78165,2,0,P|508:60|474:88,1,90,10|0,1:2|0:0,0:0:0:0:
424,160,78540,6,0,B|409:247|409:247|412:251|412:251|397:336,1,180,2|10,1:2|1:2,0:0:0:0:
323,254,79102,1,2,0:0:0:0:
244,300,79290,2,0,P|167:256|78:262,1,180,2|10,1:2|1:2,0:0:0:0:
12,188,79852,1,2,0:2:0:0:
76,112,80040,5,4,1:2:0:0:
244,176,80415,1,4,1:2:0:0:
372,48,80790,1,8,0:2:0:0:
372,48,80977,2,0,L|380:4,2,45,8|8|8,0:2|0:2|0:2,0:0:0:0:
452,88,81352,1,0,1:2:0:0:
428,176,81540,6,0,B|443:259|443:259|447:262|447:262|463:351,2,180,6|2|2,1:2|1:2|1:2,0:0:0:0:
340,188,82477,1,2,0:0:0:0:
356,276,82665,2,0,L|340:365,1,90,2|2,1:2|0:0,0:0:0:0:
252,360,83040,6,0,P|218:332|173:328,1,90,2|2,1:2|0:2,0:0:0:0:
128,340,83321,1,2,0:2:0:0:
88,316,83415,2,0,L|72:227,1,90,2|2,1:2|0:0,0:0:0:0:
12,160,83790,2,0,P|39:126|83:122,1,90,2|2,1:2|0:0,0:0:0:0:
120,96,84071,2,0,L|128:52,1,45,2|2,0:0|1:2,0:0:0:0:
212,20,84352,1,2,0:2:0:0:
224,64,84446,1,2,0:2:0:0:
236,108,84540,6,0,P|275:86|319:90,1,90,2|2,1:2|0:2,0:0:0:0:
388,36,84915,2,0,P|410:75|406:119,1,90,2|2,1:2|0:2,0:0:0:0:
496,136,85290,2,0,P|484:179|450:207,1,90,2|2,1:2|0:0,0:0:0:0:
432,296,85665,2,0,P|393:274|349:278,1,90,2|2,1:2|0:0,0:0:0:0:
256,356,86040,6,0,B|197:346|197:346|192:349|192:349|124:337,2,135,2|2|2,1:2|0:0|0:0,0:0:0:0:
200,264,86790,1,2,1:2:0:0:
21,199,87165,1,8,0:2:0:0:
21,199,87352,1,0,1:2:0:0:
68,124,87540,6,0,L|112:116,3,45,14|0|8|0,1:2|3:0|3:2|3:0,0:0:0:0:
140,80,87915,2,0,L|184:88,3,45,10|0|8|0,1:2|3:0|3:2|3:0,0:0:0:0:
220,60,88290,1,10,1:2:0:0:
260,44,88383,1,0,3:0:0:0:
304,68,88477,2,0,L|312:112,1,45,10|2,0:2|3:2,0:0:0:0:
344,144,88665,2,0,L|336:188,3,45,10|0|10|2,1:2|3:0|0:2|3:2,0:0:0:0:
304,204,89040,5,10,1:2:0:0:
272,232,89133,1,0,3:0:0:0:
274,277,89227,2,0,L|318:284,1,45,10|2,3:2|3:2,0:0:0:0:
352,315,89415,2,0,L|396:307,3,45,10|0|10|2,1:2|3:2|0:2|3:2,0:0:0:0:
436,287,89790,2,0,L|444:243,3,45,10|0|10|2,1:2|3:2|0:2|3:2,0:0:0:0:
476,211,90165,2,0,L|468:167,3,45,10|0|10|2,1:2|3:2|0:2|3:2,0:0:0:0:
256,192,90540,12,4,92040,1:2:0:0:
53,291,93165,5,8,0:2:0:0:
53,291,93352,1,0,1:2:0:0:
16,368,93540,6,0,P|88:367|136:314,1,148.50000453186,6|0,1:2|0:0,0:0:0:0:
180,292,93915,2,0,L|277:309,1,99.0000030212403,10|0,1:2|0:0,0:0:0:0:
320,336,94196,2,0,L|329:385,1,49.5000015106202,2|0,3:2|1:2,0:0:0:0:
380,384,94383,2,0,P|428:378|462:343,1,99.0000030212403,2|2,3:2|3:2,0:0:0:0:
484,300,94665,1,10,1:2:0:0:
424,224,94852,1,2,0:0:0:0:
492,152,95040,5,2,1:2:0:0:
488,120,95133,1,2,0:0:0:0:
484,88,95227,2,0,L|435:79,1,49.5000015106202,2|0,0:0|0:0,0:0:0:0:
400,44,95415,2,0,P|332:21|271:59,1,148.50000453186,10|2,1:2|3:2,0:0:0:0:
224,68,95790,2,0,B|211:139|211:139|215:144|215:144|202:213,1,148.50000453186,2|0,1:2|3:2,0:0:0:0:
244,240,96165,2,0,B|174:252|174:252|170:249|170:249|99:262,1,148.50000453186,10|0,1:2|3:2,0:0:0:0:
88,212,96540,6,0,P|20:235|0:303,1,148.50000453186,2|0,1:2|0:0,0:0:0:0:
20,348,96915,2,0,L|117:365,1,99.0000030212403,10|0,1:2|0:0,0:0:0:0:
164,344,97196,1,2,3:2:0:0:
212,332,97290,1,0,1:2:0:0:
260,320,97383,2,0,L|357:337,1,99.0000030212403,2|2,3:2|3:2,0:0:0:0:
396,368,97665,1,10,1:2:0:0:
472,304,97852,1,2,0:0:0:0:
408,228,98040,5,2,1:2:0:0:
408,228,98227,2,0,L|399:179,1,49.5000015106202
440,152,98415,1,10,1:2:0:0:
440,152,98602,2,0,L|449:103,1,49.5000015106202,0|0,0:0|3:2,0:0:0:0:
416,64,98790,2,0,P|384:28|336:19,1,99.0000030212403,2|0,1:2|0:0,0:0:0:0:
296,48,99071,1,0,3:2:0:0:
264,84,99165,2,0,P|232:120|184:129,1,99.0000030212403,10|0,1:2|0:0,0:0:0:0:
88,96,99540,6,0,B|101:167|101:167|97:172|97:172|110:241,1,148.50000453186,2|0,1:2|0:0,0:0:0:0:
152,264,99915,2,0,P|199:252|243:273,1,99.0000030212403,10|0,1:2|0:0,0:0:0:0:
292,260,100196,2,0,L|301:211,1,49.5000015106202,2|0,3:2|1:2,0:0:0:0:
340,184,100383,2,0,P|387:196|431:175,1,99.0000030212403,2|2,3:2|3:2,0:0:0:0:
476,192,100665,1,10,1:2:0:0:
512,284,100852,1,2,0:0:0:0:
448,360,101040,5,2,1:2:0:0:
416,356,101133,1,2,0:0:0:0:
384,352,101227,2,0,L|335:361,1,49.5000015106202,2|0,0:0|0:0,0:0:0:0:
292,336,101415,2,0,P|227:305|211:235,1,148.50000453186,10|2,1:2|3:2,0:0:0:0:
172,208,101790,2,0,B|128:217|93:195|107:187|76:166|29:170,1,148.50000453186,2|0,1:2|3:2,0:0:0:0:
28,120,102165,2,0,B|72:129|107:107|93:99|124:78|171:82,1,148.50000453186,10|0,1:2|3:0,0:0:0:0:
188,40,102540,6,0,L|204:129,1,90,4|2,1:2|0:0,0:0:0:0:
292,172,102915,2,0,P|332:155|352:115,1,90,8|2,1:2|0:0,0:0:0:0:
452,120,103290,2,0,L|445:164,3,45,0|0|2|0,1:2|3:2|0:0|3:0,0:0:0:0:
484,196,103665,2,0,P|456:230|461:273,1,90,8|2,1:2|0:0,0:0:0:0:
404,356,104040,6,0,L|315:340,1,90,0|2,1:2|0:0,0:0:0:0:
220,368,104415,2,0,P|185:339|177:296,1,90,8|2,1:2|0:0,0:0:0:0:
124,228,104790,1,0,1:2:0:0:
124,228,104883,1,0,3:2:0:0:
124,228,104977,2,0,L|80:236,1,45,2|0,0:0|3:2,0:0:0:0:
40,208,105165,2,0,L|25:119,1,90,8|0,1:2|3:0,0:0:0:0:
8,20,105540,6,0,P|80:21|128:74,1,148.50000453186,6|0,1:2|0:0,0:0:0:0:
172,96,105915,2,0,P|218:108|262:86,1,99.0000030212403,10|0,1:2|0:0,0:0:0:0:
304,112,106196,2,0,L|313:161,1,49.5000015106202,2|0,3:2|1:2,0:0:0:0:
280,200,106383,2,0,P|250:238|251:286,1,99.0000030212403,2|2,3:2|3:2,0:0:0:0:
272,332,106665,1,10,1:2:0:0:
188,384,106852,1,2,0:0:0:0:
112,320,107040,5,2,1:2:0:0:
80,304,107133,1,2,0:0:0:0:
48,312,107227,2,0,L|39:263,1,49.5000015106202,2|0,0:0|0:0,0:0:0:0:
72,224,107415,2,0,B|84:153|84:153|81:148|81:148|93:78,1,148.50000453186,10|2,1:2|3:2,0:0:0:0:
144,72,107790,2,0,B|188:81|223:59|209:51|240:30|287:34,1,148.50000453186,2|0,1:2|3:2,0:0:0:0:
320,68,108165,2,0,B|364:59|399:81|385:89|416:110|463:106,1,148.50000453186,10|0,1:2|3:2,0:0:0:0:
488,144,108540,6,0,P|420:167|400:235,1,148.50000453186,2|0,1:2|0:0,0:0:0:0:
428,276,108915,2,0,L|331:293,1,99.0000030212403,10|0,1:2|0:0,0:0:0:0:
300,332,109196,1,2,3:2:0:0:
256,352,109290,1,0,1:2:0:0:
208,340,109383,2,0,P|168:311|151:265,1,99.0000030212403,2|2,3:2|0:0,0:0:0:0:
184,228,109665,1,10,1:2:0:0:
124,152,109852,1,2,0:0:0:0:
200,88,110040,5,2,1:2:0:0:
200,88,110227,2,0,P|222:77|246:74,1,49.5000015106202
296,100,110415,1,10,1:2:0:0:
296,100,110602,2,0,P|318:110|342:113,1,49.5000015106202,0|0,0:0|3:0,0:0:0:0:
392,104,110790,2,0,L|374:202,1,99.0000030212403,2|0,1:2|0:0,0:0:0:0:
404,244,111071,1,0,3:0:0:0:
436,280,111165,2,0,P|404:316|356:325,1,99.0000030212403,10|0,1:2|0:0,0:0:0:0:
267,367,111540,6,0,P|210:324|138:334,1,148.50000453186,2|0,1:2|0:0,0:0:0:0:
112,292,111915,2,0,P|64:283|31:247,1,99.0000030212403,10|0,1:2|0:0,0:0:0:0:
56,204,112196,2,0,L|65:155,1,49.5000015106202,2|0,3:2|1:2,0:0:0:0:
100,120,112383,2,0,L|82:22,1,99.0000030212403,2|2,3:2|3:2,0:0:0:0:
128,4,112665,1,10,1:2:0:0:
216,48,112852,1,2,0:0:0:0:
312,16,113040,5,2,1:2:0:0:
336,40,113133,1,2,0:0:0:0:
372,36,113227,2,0,L|421:27,1,49.5000015106202,2|0,0:0|0:0,0:0:0:0:
460,60,113415,2,0,P|513:108|511:180,1,148.50000453186,10|2,1:2|3:2,0:0:0:0:
472,208,113790,2,0,B|440:232|440:232|333:210,1,148.50000453186,2|0,1:2|3:0,0:0:0:0:
284,196,114165,2,0,B|260:228|260:228|281:334,1,148.50000453186,10|0,1:2|3:0,0:0:0:0:
244,368,114540,6,0,B|173:356|173:356|168:359|168:359|98:347,1,148.50000453186,2|0,1:2|0:0,0:0:0:0:
68,308,114915,2,0,P|88:264|75:217,1,99.0000030212403,10|0,1:2|0:0,0:0:0:0:
32,192,115196,2,0,L|23:143,1,49.5000015106202,2|0,3:2|1:2,0:0:0:0:
48,100,115383,2,0,P|86:70|134:73,1,99.0000030212403,2|2,3:2|3:2,0:0:0:0:
176,100,115665,1,10,1:2:0:0:
252,36,115852,1,2,0:0:0:0:
348,64,116040,5,4,1:2:0:0:
256,192,116133,12,6,117540,1:2:0:0:
64,368,129540,6,0,L|57:333,3,36,6|0|0|0,1:2|0:0|0:2|0:2,0:0:0:0:
24,308,129915,2,0,P|20:273|35:240,1,72,2|0,0:0|0:0,0:0:0:0:
100,192,130290,2,0,L|206:211,1,108,10|0,0:2|0:0,0:0:0:0:
232,180,130665,1,2,0:0:0:0:
296,324,131040,5,2,0:0:0:0:
364,284,131227,2,0,L|357:249,1,36
384,216,131415,2,0,L|455:229,1,72,2|0,0:0|0:0,0:0:0:0:
480,152,131790,2,0,P|416:123|390:57,1,144,10|2,0:2|0:0,0:0:0:0:
320,20,132352,1,0,1:0:0:0:
252,60,132540,6,0,L|217:67,3,36,0|0|0|0,1:2|0:2|0:2|0:2,0:0:0:0:
192,96,132915,2,0,P|172:126|141:142,1,72,2|0,0:0|0:0,0:0:0:0:
72,180,133290,2,0,P|94:207|96:243,1,72,10|2,0:2|0:0,0:0:0:0:
44,304,133665,1,2,0:0:0:0:
44,304,133852,1,2,0:0:0:0:
108,352,134040,6,0,B|152:360|185:331|172:327|200:304|247:315,1,144,2|2,0:0|0:0,0:0:0:0:
392,356,134790,2,0,P|442:372|490:349,2,108,10|0|2,0:2|1:2|1:2,0:0:0:0:
436,288,135540,6,0,L|443:253,3,36,6|0|0|0,1:2|0:0|0:0|0:0,0:0:0:0:
472,224,135915,2,0,L|459:153,1,72,2|2,0:0|0:0,0:0:0:0:
404,100,136290,2,0,P|375:80|339:78,1,72,10|2,0:2|0:0,0:0:0:0:
264,100,136665,1,2,0:0:0:0:
136,8,137040,6,0,B|123:77|123:77|126:81|126:81|115:149,1,144,2|2,1:2|0:0,0:0:0:0:
48,192,137602,1,2,0:0:0:0:
68,268,137790,2,0,P|93:293|128:300,1,72,10|2,0:2|0:0,0:0:0:0:
188,244,138165,2,0,P|213:219|248:212,1,72,2|0,0:0|0:0,0:0:0:0:
344,244,138540,5,0,0:0:0:0:
256,192,138633,12,12,139915,0:2:0:0:
0,52,140790,5,2,0:1:0:0:
0,52,141540,6,0,B|32:96|32:96|3:218,1,180,6|2,1:2|1:2,0:0:0:0:
144,360,142290,2,0,B|112:316|112:316|140:193,1,180,2|2,1:2|1:2,0:0:0:0:
268,40,143040,2,0,P|213:106|127:95,2,180,2|2|2,1:2|1:2|1:2,0:0:0:0:
460,84,144165,1,2,1:2:0:0:
504,276,144540,6,0,B|456:283|417:257|433:244|395:217|330:229,1,180,2|2,1:2|1:2,0:0:0:0:
184,352,145290,2,0,B|273:336|273:336|276:332|276:332|359:317,1,180,2|2,1:2|1:2,0:0:0:0:
300,84,146040,2,0,B|307:131|281:170|268:154|241:192|253:257,1,180,2|2,1:2|1:2,0:0:0:0:
436,352,146790,1,2,1:2:0:0:
488,272,146977,1,2,0:0:0:0:
488,272,147071,1,2,0:0:0:0:
488,271,147165,2,0,P|512:235|508:191,1,90,2|0,1:2|0:0,0:0:0:0:
452,108,147540,6,0,B|373:94|373:94|368:97|368:97|275:80,1,180,2|2,1:2|1:2,0:0:0:0:
92,0,148290,2,0,B|105:78|105:78|102:83|102:83|119:176,1,180,2|2,1:2|1:2,0:0:0:0:
212,352,149040,2,0,B|225:273|225:273|222:268|222:268|239:175,1,180,2|2,1:2|1:2,0:0:0:0:
380,36,149790,2,0,P|416:11|460:15,2,90,2|2|2,1:2|0:2|1:2,0:0:0:0:
488,204,150540,6,0,P|497:247|478:287,1,90,4|2,1:2|0:0,0:0:0:0:
408,344,150915,2,0,L|319:328,1,90,8|2,1:2|0:0,0:0:0:0:
248,268,151290,2,0,P|240:246|241:224,3,45,0|0|2|0,1:2|3:0|0:0|3:0,0:0:0:0:
272,192,151665,2,0,L|360:177,1,90,8|2,1:2|0:0,0:0:0:0:
420,108,152040,6,0,P|412:64|378:35,1,90,0|2,1:2|0:0,0:0:0:0:
296,0,152415,2,0,L|280:88,1,90,8|2,1:2|0:2,0:0:0:0:
204,128,152790,1,0,1:2:0:0:
204,128,152883,1,0,3:2:0:0:
204,128,152977,2,0,L|160:120,1,45,2|0,0:0|3:2,0:0:0:0:
116,136,153165,2,0,P|83:165|76:208,1,90,8|0,1:2|3:2,0:0:0:0:
144,276,153540,5,6,1:2:0:0:
144,276,153727,1,0,0:0:0:0:
104,360,153915,1,10,1:2:0:0:
104,360,154102,1,0,0:0:0:0:
192,384,154290,2,0,L|236:376,3,45,2|0|0|0,1:2|3:0|0:0|3:0,0:0:0:0:
268,344,154665,2,0,L|356:359,1,90,10|0,1:2|3:0,0:0:0:0:
428,304,155040,5,2,1:2:0:0:
432,308,155227,1,0,0:0:0:0:
500,248,155415,1,10,1:2:0:0:
500,248,155602,1,0,0:0:0:0:
456,160,155790,2,0,L|448:116,3,45,2|0|0|0,1:2|3:0|0:0|3:0,0:0:0:0:
408,96,156165,2,0,P|364:98|334:130,1,90,10|0,1:2|3:0,0:0:0:0:
260,180,156540,5,0,1:2:0:0:
260,180,156727,2,0,L|253:136,1,45,2|0,0:0|0:0,0:0:0:0:
212,116,156915,2,0,P|168:114|138:82,1,90,10|2,1:2|0:0,0:0:0:0:
68,28,157290,2,0,L|52:116,1,90,2|2,1:2|0:0,0:0:0:0:
20,200,157665,2,0,P|63:201|93:233,1,90,10|2,1:2|0:0,0:0:0:0:
128,316,158040,6,0,B|184:325|221:295|207:286|244:255|301:269,2,180,2|10|2,1:2|1:2|1:2,0:0:0:0:
276,352,158977,1,2,0:0:0:0:
368,332,159165,1,10,1:2:0:0:
368,332,159258,1,2,0:0:0:0:
368,332,159352,1,2,3:2:0:0:
384,236,159540,6,0,P|470:225|512:149,1,180,2|10,1:2|1:2,0:0:0:0:
464,76,160102,1,2,0:0:0:0:
380,44,160290,2,0,P|370:87|387:128,1,90,2|2,1:2|0:0,0:0:0:0:
308,172,160665,2,0,L|219:156,1,90,10|0,1:2|3:0,0:0:0:0:
148,100,161040,6,0,B|124:148|124:148|146:272,1,180,2|10,1:2|1:2,0:0:0:0:
160,360,161602,1,2,0:0:0:0:
68,360,161790,2,0,L|52:271,1,90,2|2,1:2|0:0,0:0:0:0:
0,196,162165,2,0,L|15:107,1,90,10|0,1:2|3:0,0:0:0:0:
88,52,162540,6,0,P|138:9|204:10,2,135,2|2|2,1:2|0:0|0:0,0:0:0:0:
172,88,163290,2,0,P|209:142|273:158,2,135,2|2|2,1:2|0:0|0:0,0:0:0:0:
260,68,164040,5,6,1:2:0:0:
436,100,164415,1,12,1:2:0:0:
396,276,164790,1,4,1:2:0:0:
224,248,165165,1,12,1:2:0:0:
224,248,165540,6,0,B|176:256|144:235|163:227|128:204|80:209,1,148.50000453186,6|0,1:2|0:0,0:0:0:0:
44,180,165915,2,0,P|20:137|32:90,1,99.0000030212403,10|0,1:2|0:0,0:0:0:0:
40,40,166196,2,0,L|89:31,1,49.5000015106202,2|0,3:2|1:2,0:0:0:0:
132,52,166383,2,0,P|180:46|214:11,1,99.0000030212403,2|2,3:2|3:2,0:0:0:0:
264,16,166665,1,10,1:2:0:0:
324,96,166852,1,2,0:0:0:0:
420,68,167040,5,2,1:2:0:0:
452,72,167133,1,2,0:2:0:0:
484,76,167227,2,0,L|493:125,1,49.5000015106202,2|0,0:0|0:0,0:0:0:0:
472,172,167415,2,0,P|406:201|390:271,1,148.50000453186,10|2,1:2|3:2,0:0:0:0:
423,307,167790,2,0,P|359:273|287:281,1,148.50000453186,2|0,1:2|3:2,0:0:0:0:
256,244,168165,2,0,P|183:235|119:270,1,148.50000453186,10|0,1:2|3:0,0:0:0:0:
84,308,168540,6,0,B|72:241|72:241|67:237|67:237|54:164,1,148.50000453186,2|0,1:2|0:0,0:0:0:0:
84,124,168915,2,0,P|123:151|171:146,1,99.0000030212403,10|0,1:2|0:0,0:0:0:0:
212,120,169196,1,2,3:2:0:0:
240,76,169290,1,0,1:2:0:0:
228,28,169383,2,0,L|325:45,1,99.0000030212403,2|2,3:2|3:2,0:0:0:0:
372,24,169665,1,10,1:2:0:0:
460,72,169852,1,2,0:0:0:0:
384,132,170040,5,2,1:2:0:0:
384,132,170227,2,0,L|393:181,1,49.5000015106202
440,212,170415,1,10,1:2:0:0:
440,212,170602,2,0,L|489:221,1,49.5000015106202,0|0,0:0|3:0,0:0:0:0:
508,268,170790,2,0,B|441:256|441:256|436:259|436:259|362:246,1,148.50000453186,2|0,1:2|3:0,0:0:0:0:
328,280,171165,2,0,P|306:323|262:344,1,99.0000030212403,8|0,1:2|0:0,0:0:0:0:
168,376,171540,6,0,P|171:304|119:254,1,148.50000453186,2|0,1:2|0:0,0:0:0:0:
108,208,171915,2,0,P|132:166|178:150,1,99.0000030212403,10|0,1:2|0:0,0:0:0:0:
216,116,172196,2,0,L|225:67,1,49.5000015106202,2|0,3:2|1:2,0:0:0:0:
184,36,172383,2,0,L|86:53,1,99.0000030212403,2|2,3:2|3:2,0:0:0:0:
68,100,172665,1,10,1:2:0:0:
8,176,172852,1,2,0:0:0:0:
68,256,173040,5,2,1:2:0:0:
100,252,173133,1,2,0:2:0:0:
132,248,173227,2,0,L|141:297,1,49.5000015106202,2|0,0:0|0:0,0:0:0:0:
188,316,173415,2,0,P|255:340|316:301,1,148.50000453186,10|2,1:2|3:2,0:0:0:0:
348,264,173790,2,0,B|372:224|372:224|348:115,1,148.50000453186,2|0,1:2|3:2,0:0:0:0:
372,80,174165,2,0,B|471:58|471:58|511:82,1,148.50000453186,10|0,1:2|3:0,0:0:0:0:
496,124,174540,6,0,L|512:213,1,90,4|2,1:2|0:0,0:0:0:0:
496,312,174915,2,0,P|456:328|413:314,1,90,8|2,1:2|0:0,0:0:0:0:
315,301,175290,2,0,L|271:294,3,45,0|0|2|0,1:2|3:2|0:0|3:0,0:0:0:0:
244,252,175665,2,0,L|228:163,1,90,8|2,1:2|0:0,0:0:0:0:
132,132,176040,6,0,P|95:156|51:152,1,90,0|2,1:2|0:0,0:0:0:0:
28,56,176415,2,0,P|65:32|109:36,1,90,8|2,1:2|0:0,0:0:0:0:
200,72,176790,2,0,L|289:88,1,90,0|10,1:2|0:2,0:0:0:0:
332,64,177071,1,0,0:0:0:0:
372,36,177165,2,0,L|387:125,1,90,8|2,1:2|3:2,0:0:0:0:
324,216,177540,6,0,P|396:217|444:270,1,148.50000453186,6|0,1:2|0:0,0:0:0:0:
484,300,177915,2,0,L|387:317,1,99.0000030212403,10|0,1:2|0:0,0:0:0:0:
336,308,178196,2,0,P|313:315|296:333,1,49.5000015106202,2|0,3:2|1:2,0:0:0:0:
256,360,178383,2,0,L|158:343,1,99.0000030212403,2|2,3:2|3:2,0:0:0:0:
112,360,178665,1,10,1:2:0:0:
60,276,178852,1,2,0:0:0:0:
128,204,179040,5,2,1:2:0:0:
160,220,179133,1,2,0:0:0:0:
168,252,179227,2,0,L|217:243,1,49.5000015106202,2|0,0:0|0:0,0:0:0:0:
260,208,179415,2,0,P|264:132|332:92,1,148.50000453186,10|2,1:2|3:2,0:0:0:0:
352,56,179790,2,0,B|423:69|423:69|426:73|426:73|496:85,1,148.50000453186,2|0,1:2|3:0,0:0:0:0:
480,132,180165,2,0,B|493:203|493:203|497:206|497:206|509:276,1,148.50000453186,10|0,1:2|3:2,0:0:0:0:
480,316,180540,5,2,1:2:0:0:
480,316,180727,2,0,P|457:307|432:307,1,49.5000015106202,2|0,0:0|0:0,0:0:0:0:
392,280,180915,2,0,L|295:297,1,99.0000030212403,10|2,1:2|0:0,0:0:0:0:
216,356,181290,1,2,1:2:0:0:
120,340,181477,1,2,0:0:0:0:
88,248,181665,2,0,L|105:151,1,99.0000030212403,10|2,1:2|0:0,0:0:0:0:
52,72,182040,5,2,1:2:0:0:
52,72,182227,2,0,P|60:49|75:30,1,49.5000015106202
128,16,182415,1,10,1:2:0:0:
128,16,182602,2,0,P|150:6|174:3,1,49.5000015106202,0|0,0:0|3:0,0:0:0:0:
216,32,182790,2,0,L|314:50,1,99.0000030212403,2|2,1:2|0:2,0:0:0:0:
408,20,183165,1,10,1:2:0:0:
412,48,183258,1,2,0:0:0:0:
416,76,183352,1,2,0:0:0:0:
496,160,183540,6,0,B|452:168|422:140|436:135|404:108|352:121,1,148.50000453186,2|0,1:2|0:0,0:0:0:0:
312,136,183915,2,0,P|281:173|278:222,1,99.0000030212403,10|2,1:2|0:0,0:0:0:0:
368,264,184290,1,2,1:2:0:0:
464,248,184477,1,2,0:0:0:0:
508,336,184665,2,0,B|437:348|437:348|433:353|433:353|364:365,1,148.50000453186,10|0,1:2|3:0,0:0:0:0:
320,344,185040,6,0,B|249:331|249:331|245:326|245:326|176:314,1,148.50000453186,2|0,1:2|0:0,0:0:0:0:
140,280,185415,2,0,P|105:246|108:198,1,99.0000030212403,10|2,1:2|0:0,0:0:0:0:
192,148,185790,1,2,1:2:0:0:
284,180,185977,1,2,0:0:0:0:
360,116,186165,2,0,B|392:140|392:140|498:119,1,148.50000453186,10|0,1:2|3:0,0:0:0:0:
504,68,186540,6,0,P|459:11|387:2,1,148.50000453186,2|0,1:2|0:0,0:0:0:0:
344,24,186915,1,10,1:2:0:0:
272,92,187102,1,2,0:0:0:0:
180,52,187290,1,2,1:2:0:0:
124,132,187477,1,2,0:2:0:0:
28,104,187665,2,0,B|19:147|48:181|53:167|74:199|66:247,1,148.50000453186,10|0,1:2|0:0,0:0:0:0:
56,292,188040,5,4,1:2:0:0:
244,348,188415,1,4,1:2:0:0:
388,211,188790,1,8,0:2:0:0:
388,211,188977,2,0,L|396:163,2,49.5000015106202,8|8|8,0:2|0:2|0:2,0:0:0:0:
464,276,189352,1,8,0:2:0:0:
360,384,189540,5,6,1:2:0:0:
