osu file format v14

[General]
AudioFilename: audio.mp3
AudioLeadIn: 0
PreviewTime: 92040
Countdown: 0
SampleSet: Soft
StackLeniency: 0.4
Mode: 0
LetterboxInBreaks: 0
WidescreenStoryboard: 0

[Editor]
Bookmarks: 540,9540,21540,33540,45540,57540,66540,69540,81540,93540,102540,105540,117540,129540,138540,141540,153540,165540,174540,177540,189540
DistanceSpacing: 1
BeatDivisor: 4
GridSize: 4
TimelineZoom: 2.9

[Metadata]
Title:Hysteric Night Girl -Awakening- (feat. Such)
TitleUnicode:ヒステリックナイトガール -Awakening- (feat. Such)
Artist:PSYQUI
ArtistUnicode:PSYQUI
Creator:Jiysea
Version:Expert
Source:
Tags:electronic japanese speed garage EDM Innocent future core jpop j-pop tech wacca LAM megarex mrx-034 LeCandy Amateurre
BeatmapID:3089024
BeatmapSetID:1508329

[Difficulty]
HPDrainRate:5
CircleSize:4
OverallDifficulty:9
ApproachRate:9.4
SliderMultiplier:3.2
SliderTickRate:1

[Events]
//Background and Video events
0,0,"hysteric night girl.jpg",0,0
//Break Periods
//Storyboard Layer 0 (Background)
//Storyboard Layer 1 (Fail)
//Storyboard Layer 2 (Pass)
//Storyboard Layer 3 (Foreground)
//Storyboard Layer 4 (Overlay)
//Storyboard Sound Samples

[TimingPoints]
540,375,4,2,2,65,1,0
540,-200,4,2,2,65,0,0
1196,-200,4,2,2,5,0,0
1290,-133.333333333333,4,2,2,65,0,0
1571,-133.333333333333,4,2,2,5,0,0
1665,-285.714285714286,4,2,2,65,0,0
1946,-285.714285714286,4,2,2,5,0,0
2040,-200,4,2,2,65,0,0
2696,-200,4,2,2,5,0,0
2790,-133.333333333333,4,2,2,65,0,0
3071,-133.333333333333,4,2,2,5,0,0
3165,-285.714285714286,4,2,2,65,0,0
3540,-200,4,2,2,65,0,0
4196,-200,4,2,2,5,0,0
4290,-133.333333333333,4,2,2,65,0,0
4571,-133.333333333333,4,2,2,5,0,0
4665,-285.714285714286,4,2,2,65,0,0
4946,-285.714285714286,4,2,2,5,0,0
5040,-285.714285714286,4,2,2,65,0,0
5321,-285.714285714286,4,2,2,5,0,0
5415,-200,4,2,2,65,0,0
5696,-200,4,2,2,5,0,0
5790,-133.333333333333,4,2,2,65,0,0
6540,-200,4,2,2,65,0,0
7196,-200,4,2,2,5,0,0
7290,-133.333333333333,4,2,2,65,0,0
7571,-133.333333333333,4,2,2,5,0,0
7665,-285.714285714286,4,2,2,65,0,0
7946,-285.714285714286,4,2,2,5,0,0
8040,-200,4,2,2,65,0,0
8790,-66.6666666666667,4,2,1,65,0,0
8883,-66.6666666666667,4,2,1,5,0,0
8977,-66.6666666666667,4,2,1,65,0,0
9165,-285.714285714286,4,2,1,65,0,0
9446,-285.714285714286,4,2,1,5,0,0
9540,-80,4,2,1,75,0,0
10290,-133.333333333333,4,2,1,75,0,0
10665,-100,4,2,1,75,0,0
10758,-100,4,2,1,5,0,0
10852,-100,4,2,1,75,0,0
11040,-80,4,2,1,75,0,0
11790,-133.333333333333,4,2,1,75,0,0
12165,-100,4,2,1,75,0,0
12258,-100,4,2,1,5,0,0
12352,-100,4,2,1,75,0,0
12540,-80,4,2,1,75,0,0
12633,-80,4,2,1,5,0,0
12727,-80,4,2,1,75,0,0
12821,-80,4,2,1,5,0,0
12915,-80,4,2,1,75,0,0
13290,-133.333333333333,4,2,1,75,0,0
13665,-100,4,2,1,75,0,0
13758,-100,4,2,1,5,0,0
13852,-100,4,2,1,75,0,0
14040,-80,4,2,1,75,0,0
14508,-80,4,2,1,5,0,0
14602,-80,4,2,1,75,0,0
14790,-133.333333333333,4,2,1,75,0,0
15165,-90.9090909090909,4,2,1,75,0,0
15446,-90.9090909090909,4,2,1,5,0,0
15540,-80,4,2,1,75,0,0
16290,-133.333333333333,4,2,1,75,0,0
16665,-100,4,2,1,75,0,0
16758,-100,4,2,1,5,0,0
16852,-100,4,2,1,75,0,0
17040,-80,4,2,1,75,0,0
17790,-133.333333333333,4,2,1,75,0,0
18165,-100,4,2,1,75,0,0
18258,-100,4,2,1,5,0,0
18352,-100,4,2,1,75,0,0
18540,-80,4,2,1,75,0,0
18633,-80,4,2,1,5,0,0
18727,-80,4,2,1,75,0,0
18821,-80,4,2,1,5,0,0
18915,-80,4,2,1,75,0,0
19290,-133.333333333333,4,2,1,75,0,0
19665,-100,4,2,1,75,0,0
19758,-100,4,2,1,5,0,0
19852,-100,4,2,1,75,0,0
20040,-80,4,2,1,75,0,0
20508,-80,4,2,1,5,0,0
20602,-80,4,2,1,75,0,0
20696,-80,4,2,1,5,0,0
20790,-285.714285714286,4,2,1,75,0,0
21071,-285.714285714286,4,2,1,5,0,0
21165,-100,4,2,1,75,0,0
21493,-100,4,2,1,5,0,0
21540,-133.333333333333,4,2,1,65,0,0
33540,-100,4,2,1,70,0,0
33821,-100,4,2,1,5,0,0
33915,-200,4,2,1,70,0,0
34290,-100,4,2,1,70,0,0
35040,-133.333333333333,4,2,1,70,0,0
38321,-133.333333333333,4,2,1,5,0,0
38415,-133.333333333333,4,2,1,70,0,0
39165,-100,4,2,1,70,0,0
39540,-100,4,2,1,70,0,0
39821,-100,4,2,1,5,0,0
39915,-200,4,2,1,70,0,0
40290,-100,4,2,1,70,0,0
41040,-133.333333333333,4,2,1,70,0,0
42633,-133.333333333333,4,2,1,5,0,0
42727,-133.333333333333,4,2,1,70,0,0
44321,-133.333333333333,4,2,1,5,0,0
44415,-100,4,2,1,70,0,0
44696,-100,4,2,1,5,0,0
44790,-66.6666666666667,4,2,1,70,0,0
44883,-66.6666666666667,4,2,1,5,0,0
44977,-66.6666666666667,4,2,1,70,0,0
45165,-80,4,2,1,70,0,0
45446,-80,4,2,1,5,0,0
45540,-200,4,2,1,65,0,0
51540,-133.333333333333,4,2,1,65,0,0
54540,-100,4,2,1,65,0,0
54633,-100,4,2,1,5,0,0
54727,-100,4,2,1,65,0,0
54821,-100,4,2,1,5,0,0
54915,-100,4,2,1,65,0,0
55008,-100,4,2,1,5,0,0
55102,-100,4,2,1,65,0,0
55196,-100,4,2,1,5,0,0
55290,-100,4,2,1,65,0,0
55852,-285.714285714286,4,2,1,65,0,0
57540,-80,4,2,1,75,0,0
57821,-80,4,2,1,5,0,0
57915,-80,4,2,1,75,0,0
58196,-80,4,2,1,5,0,0
58290,-80,4,2,1,75,0,0
58571,-80,4,2,1,5,0,0
58665,-80,4,2,1,75,0,0
58946,-80,4,2,1,5,0,0
59040,-80,4,2,1,75,0,0
59321,-80,4,2,1,5,0,0
59415,-80,4,2,1,75,0,0
59696,-80,4,2,1,5,0,0
59790,-80,4,2,1,75,0,0
60071,-80,4,2,1,5,0,0
60165,-80,4,2,1,75,0,0
60446,-80,4,2,1,5,0,0
60540,-80,4,2,1,75,0,0
60821,-80,4,2,1,5,0,0
60915,-80,4,2,1,75,0,0
61196,-80,4,2,1,5,0,0
61290,-80,4,2,1,75,0,0
61571,-80,4,2,1,5,0,0
61665,-80,4,2,1,75,0,0
61946,-80,4,2,1,5,0,0
62040,-80,4,2,1,75,0,0
62321,-80,4,2,1,5,0,0
62415,-80,4,2,1,75,0,0
62696,-80,4,2,1,5,0,0
62790,-80,4,2,1,75,0,0
62883,-80,4,2,1,5,0,0
62977,-80,4,2,1,75,0,0
63446,-80,4,2,1,5,0,0
63540,-80,4,2,1,75,0,0
63821,-80,4,2,1,5,0,0
63915,-80,4,2,1,75,0,0
64196,-80,4,2,1,5,0,0
64290,-80,4,2,1,75,0,0
64571,-80,4,2,1,5,0,0
64665,-80,4,2,1,75,0,0
64946,-80,4,2,1,5,0,0
65040,-80,4,2,1,75,0,0
65321,-80,4,2,1,5,0,0
65415,-80,4,2,1,75,0,0
65696,-80,4,2,1,5,0,0
65790,-80,4,2,1,75,0,0
65883,-80,4,2,1,5,0,0
65977,-80,4,2,1,75,0,0
66071,-80,4,2,1,5,0,0
66165,-80,4,2,1,75,0,0
66446,-80,4,2,1,5,0,0
66540,-80,4,2,1,75,0,0
67290,-133.333333333333,4,2,1,75,0,0
67665,-100,4,2,1,75,0,0
67758,-100,4,2,1,5,0,0
67852,-100,4,2,1,75,0,0
68040,-80,4,2,1,75,0,0
68508,-80,4,2,1,5,0,0
68602,-80,4,2,1,75,0,0
69165,-100,4,2,1,75,0,0
69446,-100,4,2,1,5,0,0
69540,-80,4,2,1,75,0,0
74040,-200,4,2,1,75,0,0
74415,-100,4,2,1,75,0,0
74790,-66.6666666666667,4,2,1,75,0,0
75540,-80,4,2,1,75,0,0
75821,-80,4,2,1,5,0,0
75915,-80,4,2,1,75,0,0
76946,-80,4,2,1,5,0,0
77040,-80,4,2,1,75,0,0
77321,-80,4,2,1,5,0,0
77415,-80,4,2,1,75,0,0
78446,-80,4,2,1,5,0,0
78540,-80,4,2,1,75,0,0
78821,-80,4,2,1,5,0,0
78915,-80,4,2,1,75,0,0
79571,-80,4,2,1,5,0,0
79665,-80,4,2,1,75,0,0
79758,-80,4,2,1,5,0,0
79852,-80,4,2,1,75,0,0
80040,-66.6666666666667,4,2,1,75,0,0
80321,-66.6666666666667,4,2,1,5,0,0
80415,-66.6666666666667,4,2,1,75,0,0
80696,-66.6666666666667,4,2,1,5,0,0
80790,-133.333333333333,4,2,1,75,0,0
81540,-80,4,2,1,80,0,0
81821,-80,4,2,1,5,0,0
81915,-80,4,2,1,80,0,0
82196,-80,4,2,1,5,0,0
82290,-80,4,2,1,80,0,0
87071,-80,4,2,1,5,0,0
87165,-200,4,2,1,80,0,0
87540,-80,4,2,1,80,0,0
90540,-80,4,2,1,85,0,0
91290,-80,4,2,1,90,0,0
93352,-200,4,2,1,50,0,0
93446,-200,4,2,1,5,0,0
93540,-55.5555555555556,4,2,1,85,0,1
93821,-55.5555555555556,4,2,1,5,0,1
93915,-133.333333333333,4,2,1,85,0,1
94290,-66.6666666666667,4,2,1,85,0,1
94665,-80,4,2,1,85,0,1
95040,-66.6666666666667,4,2,1,85,0,1
95086,-66.6666666666667,4,2,1,5,0,1
95133,-66.6666666666667,4,2,1,85,0,1
95180,-66.6666666666667,4,2,1,5,0,1
95227,-66.6666666666667,4,2,1,85,0,1
95415,-133.333333333333,4,2,1,85,0,1
95790,-100,4,2,1,85,0,1
96071,-100,4,2,1,5,0,1
96165,-66.6666666666667,4,2,1,85,0,1
96446,-66.6666666666667,4,2,1,5,0,1
96540,-55.5555555555556,4,2,1,85,0,1
96821,-55.5555555555556,4,2,1,5,0,1
96915,-133.333333333333,4,2,1,85,0,1
97290,-66.6666666666667,4,2,1,85,0,1
97665,-66.6666666666667,4,2,1,85,0,1
98040,-100,4,2,1,85,0,1
98133,-100,4,2,1,5,0,1
98227,-100,4,2,1,85,0,1
98415,-80,4,2,1,85,0,1
98508,-80,4,2,1,5,0,1
98602,-80,4,2,1,85,0,1
98790,-66.6666666666667,4,2,1,85,0,1
98977,-66.6666666666667,4,2,1,85,0,1
99165,-57.1428571428571,4,2,1,85,0,1
99258,-57.1428571428571,4,2,1,5,0,1
99352,-57.1428571428571,4,2,1,85,0,1
99540,-55.5555555555556,4,2,1,85,0,1
99821,-55.5555555555556,4,2,1,5,0,1
99915,-133.333333333333,4,2,1,85,0,1
100290,-66.6666666666667,4,2,1,85,0,1
100665,-80,4,2,1,85,0,1
101040,-66.6666666666667,4,2,1,85,0,1
101086,-66.6666666666667,4,2,1,5,0,1
101133,-66.6666666666667,4,2,1,85,0,1
101180,-66.6666666666667,4,2,1,5,0,1
101227,-66.6666666666667,4,2,1,85,0,1
101415,-133.333333333333,4,2,1,85,0,1
101790,-100,4,2,1,85,0,1
102071,-100,4,2,1,5,0,1
102165,-66.6666666666667,4,2,1,85,0,1
102446,-66.6666666666667,4,2,1,5,0,1
102540,-80,4,2,1,85,0,0
103477,-133.333333333333,4,2,1,85,0,0
103665,-100,4,2,1,85,0,0
103758,-100,4,2,1,5,0,0
103852,-100,4,2,1,85,0,0
104040,-80,4,2,1,85,0,0
104508,-80,4,2,1,5,0,0
104602,-80,4,2,1,85,0,0
105165,-100,4,2,1,85,0,0
105446,-100,4,2,1,5,0,0
105540,-55.5555555555556,4,2,1,85,0,1
105821,-55.5555555555556,4,2,1,5,0,1
105915,-133.333333333333,4,2,1,85,0,1
106290,-66.6666666666667,4,2,1,85,0,1
106665,-80,4,2,1,85,0,1
107040,-66.6666666666667,4,2,1,85,0,1
107086,-66.6666666666667,4,2,1,5,0,1
107133,-66.6666666666667,4,2,1,85,0,1
107180,-66.6666666666667,4,2,1,5,0,1
107227,-66.6666666666667,4,2,1,85,0,1
107415,-133.333333333333,4,2,1,85,0,1
107790,-100,4,2,1,85,0,1
108071,-100,4,2,1,5,0,1
108165,-66.6666666666667,4,2,1,85,0,1
108446,-66.6666666666667,4,2,1,5,0,1
108540,-55.5555555555556,4,2,1,85,0,1
108821,-55.5555555555556,4,2,1,5,0,1
108915,-133.333333333333,4,2,1,85,0,1
109383,-66.6666666666667,4,2,1,85,0,1
109665,-66.6666666666667,4,2,1,85,0,1
110040,-100,4,2,1,85,0,1
110133,-100,4,2,1,5,0,1
110227,-100,4,2,1,85,0,1
110415,-80,4,2,1,85,0,1
110508,-80,4,2,1,5,0,1
110602,-80,4,2,1,85,0,1
110790,-66.6666666666667,4,2,1,85,0,1
110977,-66.6666666666667,4,2,1,85,0,1
111165,-57.1428571428571,4,2,1,85,0,1
111258,-57.1428571428571,4,2,1,5,0,1
111352,-57.1428571428571,4,2,1,85,0,1
111540,-55.5555555555556,4,2,1,85,0,1
111821,-55.5555555555556,4,2,1,5,0,1
111915,-133.333333333333,4,2,1,85,0,1
112290,-66.6666666666667,4,2,1,85,0,1
112665,-80,4,2,1,85,0,1
113040,-66.6666666666667,4,2,1,85,0,1
113086,-66.6666666666667,4,2,1,5,0,1
113133,-66.6666666666667,4,2,1,85,0,1
113180,-66.6666666666667,4,2,1,5,0,1
113227,-66.6666666666667,4,2,1,85,0,1
113415,-133.333333333333,4,2,1,85,0,1
113790,-100,4,2,1,85,0,1
114071,-100,4,2,1,5,0,1
114165,-66.6666666666667,4,2,1,85,0,1
114446,-66.6666666666667,4,2,1,5,0,1
114540,-55.5555555555556,4,2,1,85,0,1
114821,-55.5555555555556,4,2,1,5,0,1
114915,-133.333333333333,4,2,1,85,0,1
115290,-66.6666666666667,4,2,1,85,0,1
115665,-79.9999999999999,4,2,1,85,0,1
116040,-166.666666666667,4,2,1,75,0,0
117446,-166.666666666667,4,2,1,5,0,0
117540,-285.714285714286,4,2,1,65,0,0
117915,-285.714285714286,4,2,1,30,0,0
123446,-285.714285714286,4,2,1,5,0,0
123540,-285.714285714286,4,2,1,30,0,0
125040,-222.222222222222,4,2,1,30,0,0
126540,-181.818181818182,4,2,1,30,0,0
128040,-333.333333333333,4,2,1,40,0,0
128696,-333.333333333333,4,2,1,5,0,0
128790,-250,4,2,1,50,0,0
129446,-250,4,2,1,5,0,0
129540,-200,4,2,2,65,0,0
130196,-200,4,2,2,5,0,0
130290,-133.333333333333,4,2,2,65,0,0
130571,-133.333333333333,4,2,2,5,0,0
130665,-285.714285714286,4,2,2,65,0,0
130946,-285.714285714286,4,2,2,5,0,0
131040,-285.714285714286,4,2,2,65,0,0
131415,-200,4,2,2,65,0,0
131696,-200,4,2,2,5,0,0
131790,-133.333333333333,4,2,2,65,0,0
132071,-133.333333333333,4,2,2,5,0,0
132165,-133.333333333333,4,2,2,65,0,0
132540,-200,4,2,2,65,0,0
133290,-133.333333333333,4,2,2,65,0,0
133665,-285.714285714286,4,2,2,65,0,0
134040,-133.333333333333,4,2,2,65,0,0
134321,-133.333333333333,4,2,2,5,0,0
134415,-200,4,2,2,65,0,0
134696,-200,4,2,2,5,0,0
134790,-285.714285714286,4,2,2,65,0,0
135540,-200,4,2,2,65,0,0
136290,-133.333333333333,4,2,2,65,0,0
136665,-285.714285714286,4,2,2,65,0,0
136946,-285.714285714286,4,2,2,5,0,0
137040,-285.714285714286,4,2,2,75,0,0
137790,-200,4,2,2,75,0,0
138165,-133.333333333333,4,2,2,75,0,0
138446,-133.333333333333,4,2,2,5,0,0
138540,-133.333333333333,4,2,5,50,0,0
141540,-80,4,2,1,75,0,0
141821,-80,4,2,1,5,0,0
141915,-80,4,2,1,75,0,0
142196,-80,4,2,1,5,0,0
142290,-80,4,2,1,75,0,0
142571,-80,4,2,1,5,0,0
142665,-80,4,2,1,75,0,0
142946,-80,4,2,1,5,0,0
143040,-80,4,2,1,75,0,0
143321,-80,4,2,1,5,0,0
143415,-80,4,2,1,75,0,0
143696,-80,4,2,1,5,0,0
143790,-80,4,2,1,75,0,0
144071,-80,4,2,1,5,0,0
144165,-80,4,2,1,75,0,0
144446,-80,4,2,1,5,0,0
144540,-80,4,2,1,75,0,0
144821,-80,4,2,1,5,0,0
144915,-80,4,2,1,75,0,0
145196,-80,4,2,1,5,0,0
145290,-80,4,2,1,75,0,0
145571,-80,4,2,1,5,0,0
145665,-80,4,2,1,75,0,0
145946,-80,4,2,1,5,0,0
146040,-80,4,2,1,75,0,0
146321,-80,4,2,1,5,0,0
146415,-80,4,2,1,75,0,0
146696,-80,4,2,1,5,0,0
146790,-80,4,2,1,75,0,0
146883,-80,4,2,1,5,0,0
146977,-80,4,2,1,75,0,0
147446,-80,4,2,1,5,0,0
147540,-80,4,2,1,75,0,0
147821,-80,4,2,1,5,0,0
147915,-80,4,2,1,75,0,0
148196,-80,4,2,1,5,0,0
148290,-80,4,2,1,75,0,0
148571,-80,4,2,1,5,0,0
148665,-80,4,2,1,75,0,0
148946,-80,4,2,1,5,0,0
149040,-80,4,2,1,75,0,0
149321,-80,4,2,1,5,0,0
149415,-80,4,2,1,75,0,0
149696,-80,4,2,1,5,0,0
149790,-80,4,2,1,75,0,0
149883,-80,4,2,1,5,0,0
149977,-80,4,2,1,75,0,0
150071,-80,4,2,1,5,0,0
150165,-80,4,2,1,75,0,0
150446,-80,4,2,1,5,0,0
150540,-80,4,2,1,75,0,0
151477,-133.333333333333,4,2,1,75,0,0
151665,-100,4,2,1,75,0,0
151758,-100,4,2,1,5,0,0
151852,-100,4,2,1,75,0,0
152040,-80,4,2,1,75,0,0
152508,-80,4,2,1,5,0,0
152602,-80,4,2,1,75,0,0
153165,-100,4,2,1,75,0,0
153446,-100,4,2,1,5,0,0
153540,-80,4,2,1,75,0,0
158040,-200,4,2,1,75,0,0
158415,-100,4,2,1,75,0,0
158790,-66.6666666666667,4,2,1,75,0,0
159540,-80,4,2,1,75,0,0
159821,-80,4,2,1,5,0,0
159915,-80,4,2,1,75,0,0
160946,-80,4,2,1,5,0,0
161040,-80,4,2,1,75,0,0
161321,-80,4,2,1,5,0,0
161415,-80,4,2,1,75,0,0
162446,-80,4,2,1,5,0,0
162540,-80,4,2,1,75,0,0
164040,-41.6666666666667,4,2,1,75,0,0
164133,-41.6666666666667,4,2,1,5,0,0
164227,-71.4285714285714,4,2,1,75,0,0
164321,-71.4285714285714,4,2,1,5,0,0
164415,-54.054054054054,4,2,1,75,0,0
164508,-54.054054054054,4,2,1,5,0,0
164602,-117.647058823529,4,2,1,75,0,0
164790,-71.4285714285714,4,2,1,75,0,0
164977,-250,4,2,1,75,0,0
165165,-250,4,2,1,75,0,0
165540,-55.5555555555556,4,2,1,85,0,1
165821,-55.5555555555556,4,2,1,5,0,1
165915,-133.333333333333,4,2,1,85,0,1
166290,-66.6666666666667,4,2,1,85,0,1
166665,-80,4,2,1,85,0,1
167040,-66.6666666666667,4,2,1,85,0,1
167086,-66.6666666666667,4,2,1,5,0,1
167133,-66.6666666666667,4,2,1,85,0,1
167180,-66.6666666666667,4,2,1,5,0,1
167227,-66.6666666666667,4,2,1,85,0,1
167415,-133.333333333333,4,2,1,85,0,1
167790,-100,4,2,1,85,0,1
168071,-100,4,2,1,5,0,1
168165,-66.6666666666667,4,2,1,85,0,1
168446,-66.6666666666667,4,2,1,5,0,1
168540,-55.5555555555556,4,2,1,85,0,1
168821,-55.5555555555556,4,2,1,5,0,1
168915,-133.333333333333,4,2,1,85,0,1
169290,-66.6666666666667,4,2,1,85,0,1
169665,-66.6666666666667,4,2,1,85,0,1
170040,-66.6666666666667,4,2,1,85,0,1
170133,-66.6666666666667,4,2,1,5,0,1
170227,-66.6666666666667,4,2,1,85,0,1
170508,-66.6666666666667,4,2,1,5,0,1
170602,-66.6666666666667,4,2,1,85,0,1
170790,-100,4,2,1,85,0,1
171540,-55.5555555555556,4,2,1,85,0,1
171821,-55.5555555555556,4,2,1,5,0,1
171915,-133.333333333333,4,2,1,85,0,1
172290,-66.6666666666667,4,2,1,85,0,1
172665,-80,4,2,1,85,0,1
173040,-66.6666666666667,4,2,1,85,0,1
173086,-66.6666666666667,4,2,1,5,0,1
173133,-66.6666666666667,4,2,1,85,0,1
173180,-66.6666666666667,4,2,1,5,0,1
173227,-66.6666666666667,4,2,1,85,0,1
173415,-133.333333333333,4,2,1,85,0,1
173790,-100,4,2,1,85,0,1
174071,-100,4,2,1,5,0,1
174165,-66.6666666666667,4,2,1,85,0,1
174446,-66.6666666666667,4,2,1,5,0,1
174540,-80,4,2,1,85,0,0
175477,-133.333333333333,4,2,1,85,0,0
175665,-100,4,2,1,85,0,0
176040,-80,4,2,1,85,0,0
177165,-66.6666666666667,4,2,1,85,0,0
177540,-55.5555555555556,4,2,1,85,0,1
177821,-55.5555555555556,4,2,1,5,0,1
177915,-133.333333333333,4,2,1,85,0,1
178290,-66.6666666666667,4,2,1,85,0,1
178665,-80,4,2,1,85,0,1
179040,-66.6666666666667,4,2,1,85,0,1
179086,-66.6666666666667,4,2,1,5,0,1
179133,-66.6666666666667,4,2,1,85,0,1
179180,-66.6666666666667,4,2,1,5,0,1
179227,-66.6666666666667,4,2,1,85,0,1
179415,-133.333333333333,4,2,1,85,0,1
179790,-100,4,2,1,85,0,1
180071,-100,4,2,1,5,0,1
180165,-66.6666666666667,4,2,1,85,0,1
180446,-66.6666666666667,4,2,1,5,0,1
180540,-66.6666666666667,4,2,1,85,0,1
182040,-200,4,2,1,85,0,1
182415,-100,4,2,1,85,0,1
182790,-66.6666666666667,4,2,1,85,0,1
183540,-55.5555555555556,4,2,1,85,0,1
183821,-55.5555555555556,4,2,1,5,0,1
183915,-66.6666666666667,4,2,1,85,0,1
184946,-66.6666666666667,4,2,1,5,0,1
185040,-55.5555555555556,4,2,1,85,0,1
185321,-55.5555555555556,4,2,1,5,0,1
185415,-66.6666666666667,4,2,1,85,0,1
186446,-66.6666666666667,4,2,1,5,0,1
186540,-55.5555555555556,4,2,1,85,0,1
186821,-55.5555555555556,4,2,1,5,0,1
186915,-66.6666666666667,4,2,1,85,0,1
187946,-66.6666666666667,4,2,1,5,0,1
188040,-55.5555555555556,4,2,1,85,0,0
188321,-55.5555555555556,4,2,1,5,0,0
188415,-55.5555555555556,4,2,1,85,0,0
188696,-55.5555555555556,4,2,1,5,0,0
188790,-133.333333333333,4,2,1,85,0,0
189540,-285.714285714286,4,2,1,75,0,0

[Colours]
Combo1 : 126,94,130
Combo2 : 177,79,196

[HitObjects]
103,30,540,5,2,1:2:0:0:
95,35,633,1,0,0:2:0:0:
100,41,727,1,0,0:2:0:0:
95,25,821,1,0,0:2:0:0:
40,84,915,6,0,L|158:63,1,120,2|0,0:0|0:0,0:0:0:0:
211,119,1290,2,0,P|294:94|318:10,1,180.000006866455,10|0,0:2|0:0,0:0:0:0:
318,11,1665,2,0,P|335:49|373:66,1,83.9999974365235,2|0,0:0|0:0,0:0:0:0:
443,48,2040,5,2,0:0:0:0:
390,202,2227,1,0,0:0:0:0:
387,191,2321,1,0,0:0:0:0:
384,180,2415,2,0,P|333:211|323:271,1,120,2|0,0:0|0:0,0:0:0:0:
376,324,2790,2,0,B|297:310|297:310|292:313|292:313|199:296,1,180.000006866455,10|0,0:2|0:0,0:0:0:0:
199,296,3165,1,0,0:0:0:0:
60,360,3352,1,0,1:0:0:0:
145,224,3540,5,2,1:2:0:0:
153,229,3633,1,0,0:2:0:0:
148,235,3727,1,0,0:2:0:0:
153,219,3821,1,0,0:2:0:0:
100,292,3915,6,0,L|120:173,1,120,2|0,0:0|0:0,0:0:0:0:
44,151,4290,2,0,P|109:96|187:131,1,180.000006866455,10|0,0:2|0:0,0:0:0:0:
187,131,4665,2,0,P|228:132|262:109,1,83.9999974365235,2|0,0:0|0:0,0:0:0:0:
262,109,5040,6,0,P|303:107|337:130,1,83.9999974365235,2|0,0:0|0:0,0:0:0:0:
337,130,5415,2,0,P|352:186|323:237,1,120,2|0,0:0|0:0,0:0:0:0:
322,237,5790,2,0,B|464:258|464:258|490:295,2,180.000006866455,10|0|0,0:2|1:2|1:2,0:0:0:0:
208,282,6540,5,2,1:2:0:0:
200,287,6633,1,0,0:2:0:0:
205,293,6727,1,0,0:2:0:0:
200,277,6821,1,0,0:2:0:0:
256,348,6915,2,0,L|235:229,1,120,2|0,0:0|0:0,0:0:0:0:
267,160,7290,2,0,P|332:101|417:115,1,180.000006866455,10|0,0:2|0:0,0:0:0:0:
417,115,7665,2,0,P|455:100|475:64,1,83.9999974365235,2|0,0:0|0:0,0:0:0:0:
400,32,8040,5,2,1:2:0:0:
356,176,8227,1,0,0:0:0:0:
358,192,8321,1,0,0:0:0:0:
360,207,8415,2,0,L|438:220,1,80,2|0,0:0|0:0,0:0:0:0:
512,316,8790,6,0,L|393:295,1,120.000004577637,10|0,0:2|0:0,0:0:0:0:
160,256,8977,1,2,1:2:0:0:
287,355,9165,6,0,P|306:333|284:352,1,83.9999974365235,10|0,0:2|0:0,0:0:0:0:
280,348,9540,6,0,B|299:297|255:255|255:255|215:216|232:156,1,200,4|0,1:2|0:0,0:0:0:0:
360,120,9821,1,0,0:0:0:0:
335,135,9915,2,0,P|249:89|205:1,1,200,8|2,1:2|0:0,0:0:0:0:
68,32,10196,1,0,3:0:0:0:
92,56,10290,1,0,1:2:0:0:
96,92,10383,1,0,3:0:0:0:
80,120,10477,2,0,L|20:109,1,60.0000022888184,2|0,0:0|3:0,0:0:0:0:
188,64,10665,6,0,L|266:50,1,80,8|0,1:2|0:0,0:0:0:0:
160,228,10852,1,2,3:2:0:0:
173,149,10945,1,0,3:0:0:0:
160,227,11040,6,0,P|251:197|330:252,1,200,0|0,1:2|0:0,0:0:0:0:
432,340,11321,1,0,0:0:0:0:
400,352,11415,2,0,B|415:261|415:261|420:258|420:258|438:157,1,200,8|2,1:2|0:0,0:0:0:0:
508,40,11696,1,0,3:0:0:0:
480,45,11790,1,0,1:2:0:0:
452,50,11883,1,0,3:0:0:0:
425,55,11977,2,0,L|365:65,1,60.0000022888184,2|0,0:0|3:0,0:0:0:0:
437,157,12165,6,0,P|463:186|502:192,1,80,8|0,1:2|0:0,0:0:0:0:
399,351,12352,1,2,3:2:0:0:
472,328,12446,1,0,3:0:0:0:
399,351,12540,6,0,P|354:328|305:327,1,100,0|0,1:2|0:0,0:0:0:0:
261,239,12727,2,0,P|214:255|179:290,1,100,2|0,0:2|0:0,0:0:0:0:
84,268,12915,2,0,P|178:291|261:240,1,200,8|0,1:2|0:0,0:0:0:0:
256,120,13196,1,0,3:0:0:0:
224,108,13289,1,0,1:2:0:0:
192,108,13383,1,0,3:0:0:0:
164,124,13477,2,0,P|132:128|106:108,1,60.0000022888184,2|0,0:0|3:0,0:0:0:0:
0,0,13665,6,0,P|31:23|41:61,1,80,8|0,1:2|0:0,0:0:0:0:
0,216,13852,1,2,3:2:0:0:
56,168,13946,1,0,0:0:0:0:
0,216,14040,6,0,P|50:298|144:321,1,200,0|2,1:2|0:0,0:0:0:0:
304,272,14321,1,0,0:0:0:0:
300,256,14415,2,0,P|252:268|226:309,1,100,8|0,1:2|0:0,0:0:0:0:
100,232,14602,2,0,P|147:219|173:178,1,100,2|0,0:0|3:0,0:0:0:0:
336,48,14789,1,0,1:2:0:0:
300,64,14883,1,0,3:0:0:0:
284,104,14977,1,2,0:0:0:0:
308,136,15071,1,0,3:0:0:0:
436,128,15165,6,0,B|404:60|305:26|240:88|292:188|361:128,1,264.000008056641,8|0,1:2|3:0,0:0:0:0:
344,139,15540,6,0,B|363:190|319:232|319:232|279:271|296:331,1,200,4|0,1:2|0:0,0:0:0:0:
423,307,15821,1,0,0:0:0:0:
388,300,15915,2,0,B|301:284|301:284|296:287|296:287|191:269,1,200,8|2,1:2|0:0,0:0:0:0:
52,156,16196,1,0,3:0:0:0:
48,184,16290,1,0,1:2:0:0:
44,212,16383,1,0,3:0:0:0:
40,240,16477,2,0,L|50:299,1,60.0000022888184,2|0,0:0|3:0,0:0:0:0:
178,348,16665,6,0,L|191:269,1,80,8|0,1:2|0:0,0:0:0:0:
216,116,16852,1,2,3:2:0:0:
148,148,16946,1,0,3:0:0:0:
216,116,17040,6,0,P|312:106|363:24,1,200,0|0,1:2|0:0,0:0:0:0:
252,8,17321,1,0,0:0:0:0:
268,28,17415,2,0,L|302:224,1,200,8|2,1:2|0:0,0:0:0:0:
460,212,17696,1,0,3:0:0:0:
440,196,17790,1,0,1:2:0:0:
412,196,17883,1,0,3:0:0:0:
388,208,17977,2,0,L|377:267,1,60.0000022888184,2|0,0:0|3:0,0:0:0:0:
476,344,18165,6,0,P|449:373|411:383,1,80,8|0,1:2|0:0,0:0:0:0:
244,336,18352,1,2,3:2:0:0:
308,300,18446,1,0,3:0:0:0:
244,336,18540,6,0,P|200:364|147:361,1,100,0|0,1:2|0:0,0:0:0:0:
140,272,18727,2,0,P|112:227|114:175,1,100,2|0,0:2|0:0,0:0:0:0:
24,208,18915,2,0,P|115:179|134:86,1,200,8|0,1:2|0:0,0:0:0:0:
256,0,19196,1,0,3:0:0:0:
236,24,19290,1,0,1:2:0:0:
236,56,19383,1,0,3:0:0:0:
256,80,19477,2,0,L|315:69,1,60.0000022888184,2|0,0:0|3:0,0:0:0:0:
468,0,19665,6,0,P|432:17|420:54,1,80,8|0,1:2|0:0,0:0:0:0:
512,180,19852,1,2,3:2:0:0:
464,116,19946,1,0,0:0:0:0:
512,180,20040,6,0,P|488:272|396:297,1,200,0|2,1:2|0:0,0:0:0:0:
304,384,20321,1,0,0:0:0:0:
288,368,20415,2,0,P|263:325|274:277,1,100,8|0,1:2|0:0,0:0:0:0:
336,224,20602,2,0,P|378:199|426:210,1,100,2|0,0:0|0:0,0:0:0:0:
440,128,20790,6,0,L|357:113,1,83.9999974365235,2|0,1:2|0:0,0:0:0:0:
288,100,21165,1,8,0:2:0:0:
288,99,21446,6,0,L|248:106,1,40
192,161,21540,6,0,L|76:128,1,120.000004577637,6|2,1:2|0:0,0:0:0:0:
39,0,21915,2,0,P|96:13|130:61,1,120.000004577637,10|2,1:2|0:0,0:0:0:0:
136,136,22196,1,0,3:0:0:0:
120,156,22290,2,0,L|109:215,1,60.0000022888184,2|0,1:2|3:0,0:0:0:0:
36,264,22477,2,0,L|46:323,1,60.0000022888184,2|2,0:0|3:2,0:0:0:0:
170,369,22665,1,10,1:2:0:0:
192,342,22758,1,2,0:0:0:0:
225,329,22852,1,2,3:2:0:0:
262,329,22946,1,2,3:2:0:0:
320,380,23040,6,0,P|378:376|421:336,1,120.000004577637,2|2,1:2|0:0,0:0:0:0:
368,176,23415,2,0,L|345:293,1,120.000004577637,10|2,1:2|0:0,0:0:0:0:
428,264,23696,1,2,3:2:0:0:
444,248,23790,2,0,L|456:189,1,60.0000022888184,2|0,1:2|3:0,0:0:0:0:
512,128,23977,2,0,L|481:11,1,120.000004577637,2|8,0:0|1:2,0:0:0:0:
407,39,24258,2,0,P|359:6|301:13,1,120.000004577637,2|0,0:0|3:2,0:0:0:0:
248,68,24540,6,0,P|199:101|141:94,1,120.000004577637,2|2,1:2|0:0,0:0:0:0:
4,44,24915,1,10,1:2:0:0:
12,20,25008,2,0,L|130:0,1,120.000004577637,2|2,0:0|3:2,0:0:0:0:
200,100,25290,2,0,L|179:218,1,120.000004577637,2|2,1:2|0:0,0:0:0:0:
120,268,25571,1,2,3:2:0:0:
116,292,25665,1,10,1:2:0:0:
112,316,25758,2,0,P|168:330|218:299,1,120.000004577637,2|2,0:0|3:2,0:0:0:0:
280,348,26040,6,0,P|336:333|386:364,1,120.000004577637,2|0,1:2|0:0,0:0:0:0:
512,284,26415,2,0,B|466:300|434:263|434:263|404:224|348:240,1,180.000006866455,10|0,1:2|3:0,0:0:0:0:
288,176,26790,1,0,1:2:0:0:
320,164,26883,1,0,3:0:0:0:
332,132,26977,1,0,0:0:0:0:
320,100,27071,2,0,L|260:89,1,60.0000022888184,2|8,3:2|1:2,0:0:0:0:
392,32,27258,2,0,L|451:21,1,60.0000022888184,2|0,0:0|3:0,0:0:0:0:
296,0,27446,1,2,3:2:0:0:
268,8,27540,6,0,L|149:28,1,120.000004577637,2|2,1:2|0:0,0:0:0:0:
0,148,27915,2,0,P|58:150|97:107,1,120.000004577637,10|2,1:2|0:0,0:0:0:0:
184,144,28196,1,2,3:2:0:0:
168,168,28290,1,2,1:2:0:0:
172,196,28383,2,0,L|231:185,1,60.0000022888184,2|0,3:2|0:0,0:0:0:0:
184,312,28571,2,0,L|194:371,1,60.0000022888184,2|8,3:2|1:2,0:0:0:0:
80,272,28758,2,0,L|20:261,1,60.0000022888184,2|0,0:2|3:0,0:0:0:0:
88,124,28946,1,2,3:2:0:0:
97,106,29040,6,0,P|138:64|197:61,1,120.000004577637,2|2,1:2|0:0,0:0:0:0:
356,96,29415,1,10,1:2:0:0:
379,99,29508,2,0,P|409:96|435:82,1,60.0000022888184,2|0,0:0|0:0,0:0:0:0:
280,172,29696,1,2,3:2:0:0:
303,168,29790,2,0,P|333:171|359:185,1,60.0000022888184,2|0,1:2|3:0,0:0:0:0:
491,243,29977,2,0,P|433:247|388:285,1,120.000004577637,2|8,0:0|1:2,0:0:0:0:
312,384,30258,2,0,L|193:363,1,120.000004577637,2|2,0:0|3:2,0:0:0:0:
132,272,30540,6,0,P|180:305|193:362,1,120.000004577637,2|2,1:2|0:0,0:0:0:0:
0,223,30915,1,10,1:2:0:0:
17,191,31008,1,2,0:2:0:0:
51,175,31102,1,2,0:2:0:0:
91,179,31195,1,2,3:2:0:0:
33,74,31290,5,2,1:2:0:0:
32,84,31383,2,0,L|91:73,1,60.0000022888184,2|0,3:2|0:0,0:0:0:0:
188,0,31571,2,0,L|177:59,1,60.0000022888184,2|8,3:2|1:2,0:0:0:0:
208,144,31758,2,0,L|148:133,1,60.0000022888184,2|0,0:0|3:0,0:0:0:0:
272,80,31946,1,2,3:2:0:0:
280,104,32040,6,0,P|337:91|375:46,1,120.000004577637,2|0,1:2|0:0,0:0:0:0:
512,0,32415,2,0,B|472:32|472:32|492:159,1,180.000006866455,10|0,1:2|3:0,0:0:0:0:
472,252,32790,1,0,1:2:0:0:
464,280,32883,1,0,3:0:0:0:
456,308,32977,2,0,L|495:314,2,40.000001525879
448,332,33165,2,0,L|329:352,1,120.000004577637,8|0,1:2|3:0,0:0:0:0:
42,242,33446,1,0,3:0:0:0:
92,316,33540,6,0,B|96:344|76:368|76:368|144:348|180:288|128:204,1,240,6|0,1:2|0:0,0:0:0:0:
0,84,33915,2,0,P|37:98|1:79,1,120,10|0,1:2|3:0,0:0:0:0:
2,75,34290,6,0,P|41:75|74:53,1,80,2|0,1:2|3:0,0:0:0:0:
152,52,34477,2,0,P|143:90|115:118,1,80,2|0,0:0|3:0,0:0:0:0:
268,208,34665,6,0,P|239:180|231:141,1,80,10|0,1:2|0:0,0:0:0:0:
312,144,34852,2,0,P|345:165|384:165,1,80,2|0,3:2|3:0,0:0:0:0:
472,60,35040,6,0,P|415:47|372:86,1,120.000004577637,2|2,1:2|0:0,0:0:0:0:
405,283,35415,2,0,L|384:164,1,120.000004577637,10|0,1:2|0:0,0:0:0:0:
500,216,35696,1,2,3:2:0:0:
496,240,35790,2,0,L|475:358,1,120.000004577637,2|2,1:2|0:0,0:0:0:0:
320,384,36071,1,0,3:0:0:0:
312,364,36165,1,8,1:2:0:0:
304,340,36258,2,0,P|247:353|204:314,1,120.000004577637,2|2,0:0|3:2,0:0:0:0:
56,256,36540,6,0,L|173:232,1,120.000004577637,2|2,1:2|0:0,0:0:0:0:
173,232,36915,2,0,B|128:244|91:210|91:210|55:175|0:185,1,180.000006866455,10|2,1:2|3:2,0:0:0:0:
0,108,37290,2,0,P|27:96|48:71,1,60.0000022888184,2|0,1:2|3:0,0:0:0:0:
124,56,37477,2,0,P|112:28|87:7,1,60.0000022888184,2|0,0:0|3:2,0:0:0:0:
150,151,37665,1,10,1:2:0:0:
195,114,37758,1,2,0:0:0:0:
255,117,37852,1,2,3:2:0:0:
301,152,37946,1,2,3:2:0:0:
304,268,38040,6,0,B|348:280|385:246|385:246|421:211|477:221,1,180.000006866455,2|0,1:2|0:0,0:0:0:0:
452,296,38415,2,0,L|462:355,1,60.0000022888184,10|0,1:2|0:0,0:0:0:0:
328,192,38602,1,2,0:0:0:0:
328,192,38696,1,2,3:2:0:0:
328,192,38790,2,0,P|372:152|444:140,1,120.000004577637,0|2,1:2|0:0,0:0:0:0:
480,80,39071,1,2,3:2:0:0:
472,56,39165,2,0,B|318:28|318:28|298:74|233:74,1,240,10|0,1:2|3:0,0:0:0:0:
88,28,39540,6,0,B|155:29|168:100|168:100|155:29|218:2,1,240,2|0,1:2|0:0,0:0:0:0:
436,244,39915,2,0,P|396:237|437:239,1,120,10|0,1:2|3:2,0:0:0:0:
436,235,40290,6,0,L|449:313,1,80,2|0,1:2|3:0,0:0:0:0:
390,381,40477,2,0,L|312:368,1,80,2|0,0:0|3:0,0:0:0:0:
76,235,40665,6,0,L|62:313,1,80,10|0,1:2|0:0,0:0:0:0:
121,381,40852,2,0,L|200:368,1,80,2|0,0:0|3:0,0:0:0:0:
316,256,41040,6,0,L|197:235,1,120.000004577637,2|2,1:2|0:0,0:0:0:0:
28,160,41414,1,10,1:2:0:0:
23,132,41508,2,0,L|0:5,1,120.000004577637,2|2,0:0|3:2,0:0:0:0:
100,56,41790,2,0,P|158:55|194:9,1,120.000004577637,2|0,1:2|0:0,0:0:0:0:
364,84,42165,1,8,1:2:0:0:
340,80,42258,1,0,0:0:0:0:
316,76,42352,2,0,L|256:65,1,60.0000022888184,2|0,3:2|3:2,0:0:0:0:
120,226,42540,6,0,L|179:215,1,60.0000022888184,0|0,1:2|0:0,0:0:0:0:
202,141,42727,2,0,L|261:151,1,60.0000022888184,2|0,0:0|0:0,0:0:0:0:
316,256,42915,1,10,1:2:0:0:
324,276,43008,2,0,P|381:267|417:221,1,120.000004577637,2|0,0:0|3:0,0:0:0:0:
480,304,43290,1,2,1:2:0:0:
465,329,43383,2,0,P|484:351|512:364,1,60.0000022888184,2|0,3:2|0:0,0:0:0:0:
370,310,43571,2,0,P|350:287|323:275,1,60.0000022888184,2|8,3:2|1:2,0:0:0:0:
417,219,43758,2,0,L|437:100,1,120.000004577637,2|0,0:0|3:2,0:0:0:0:
512,80,44040,6,0,B|463:88|427:53|427:53|390:19|340:32,1,180.000006866455,2|0,1:2|0:0,0:0:0:0:
276,0,44415,6,0,B|211:-24|160:31|160:31|115:80|44:62,1,240,10|0,1:2|0:0,0:0:0:0:
4,111,44790,6,0,B|13:167|13:167|18:170|18:170|28:227,1,120.000004577637,6|0,1:2|0:0,0:0:0:0:
180,340,44977,1,0,0:0:0:0:
103,356,45071,1,2,0:0:0:0:
180,340,45165,6,0,B|290:359|290:359|294:356|294:356|401:374|401:374|357:367|337:339,1,300,10|0,1:2|0:0,0:0:0:0:
510,209,45540,6,0,P|435:224|407:295,2,160,4|2|10,1:2|0:0|1:2,0:0:0:0:
488,288,46665,1,2,0:0:0:0:
386,141,46852,2,0,P|410:110|449:103,1,80,2|0,0:0|1:2,0:0:0:0:
446,29,47227,2,0,P|460:65|448:102,1,80,2|0,0:0|0:0,0:0:0:0:
512,138,47602,2,0,P|473:132|447:103,1,80,2|8,0:0|1:2,0:0:0:0:
264,0,47977,2,0,L|185:13,1,80,2|0,0:0|0:0,0:0:0:0:
320,68,48352,2,0,L|280:74,1,40,2|0,0:0|0:0,0:0:0:0:
172,104,48540,6,0,P|133:95|105:67,1,80,2|0,1:2|0:0,0:0:0:0:
240,184,48915,2,0,P|251:221|241:259,1,80,2|2,0:0|0:0,0:0:0:0:
280,74,49290,2,0,P|306:45|345:34,1,80,10|0,1:2|0:0,0:0:0:0:
348,112,49665,1,2,0:0:0:0:
168,220,49852,6,0,L|89:206,1,80,2|0,0:0|1:2,0:0:0:0:
300,320,50227,2,0,L|378:306,1,80,2|0,0:0|0:0,0:0:0:0:
128,306,50602,2,0,L|141:384,1,80,2|8,0:0|1:2,0:0:0:0:
241,259,50977,1,0,0:0:0:0:
252,236,51352,1,2,0:0:0:0:
0,384,51540,6,0,L|20:265,1,120.000004577637,12|2,1:2|0:0,0:0:0:0:
208,164,51915,2,0,P|154:188|100:167,1,120.000004577637,8|2,1:2|0:0,0:0:0:0:
100,60,52290,2,0,P|154:39|207:63,1,120.000004577637,8|2,1:2|0:0,0:0:0:0:
324,200,52665,2,0,L|344:318,1,120.000004577637,8|2,1:2|0:0,0:0:0:0:
511,367,53040,6,0,P|485:316|429:298,1,120.000004577637,8|2,1:2|0:0,0:0:0:0:
165,343,53415,2,0,P|220:325|247:273,1,120.000004577637,8|2,1:2|0:0,0:0:0:0:
512,0,53790,2,0,P|460:26|442:82,1,120.000004577637,8|2,1:2|0:0,0:0:0:0:
244,188,54165,2,0,L|125:167,1,120.000004577637,8|2,1:2|0:0,0:0:0:0:
0,92,54540,6,0,P|39:92|76:77,1,80,10|0,1:2|0:0,0:0:0:0:
200,20,54727,2,0,P|163:4|123:5,1,80,10|0,0:2|0:0,0:0:0:0:
8,104,54915,6,0,P|47:104|84:89,1,80,10|0,1:2|0:0,0:0:0:0:
207,31,55102,2,0,P|170:15|130:16,1,80,10|0,0:2|0:0,0:0:0:0:
276,112,55290,1,10,1:2:0:0:
327,103,55383,1,8,0:2:0:0:
382,94,55477,1,10,0:2:0:0:
437,84,55571,1,8,0:2:0:0:
440,104,55665,1,10,1:2:0:0:
444,124,55758,1,8,0:2:0:0:
512,180,55852,6,0,P|465:209|452:262,1,111.999996582031,6|0,1:2|0:0,0:0:0:0:
496,348,56415,2,0,B|444:338|444:338|441:334|441:334|388:324,2,111.999996582031,0|0|2,0:0|0:0|0:0,0:0:0:0:
496,348,57540,6,0,B|397:330|397:330|394:326|394:326|280:305|280:305|327:314|355:292,1,300,6|0,1:2|0:0,0:0:0:0:
308,228,57915,2,0,B|209:245|209:245|206:249|206:249|92:270|92:270|139:261|167:283,1,300,2|0,1:2|0:0,0:0:0:0:
116,344,58290,2,0,B|141:198|141:198|146:195|146:195|171:50,1,300,2|0,1:2|0:0,0:0:0:0:
58,159,58665,2,0,B|203:134|203:134|206:129|206:129|352:104,1,300,2|0,1:2|0:0,0:0:0:0:
404,164,59040,6,0,B|382:183|353:180|353:180|420:238|498:196|512:116|466:63,1,300,2|0,1:2|0:0,0:0:0:0:
332,32,59415,2,0,B|359:20|385:33|385:33|341:-43|254:-30|213:39|238:104,1,300,2|0,1:2|0:0,0:0:0:0:
176,172,59790,2,0,B|229:213|229:213|1:173,1,300,2|0,1:2|0:0,0:0:0:0:
36,84,60165,2,0,B|56:21|56:21|97:253,1,300,2|0,1:2|0:0,0:0:0:0:
168,368,60540,6,0,B|248:391|299:332|299:332|300:336|300:336|301:340|301:340|370:259|449:305,1,300,2|0,1:2|0:0,0:0:0:0:
392,372,60915,2,0,B|355:312|436:242|436:242|432:241|432:241|428:240|428:240|487:190|463:109,1,300,2|0,1:2|0:0,0:0:0:0:
372,97,61290,2,0,B|335:15|227:-4|163:41|192:136|255:131|300:92,1,300,2|0,1:2|0:0,0:0:0:0:
372,97,61665,2,0,B|386:184|485:232|558:204|555:105|493:94|439:119,1,300,2|0,1:2|0:0,0:0:0:0:
280,196,62040,6,0,B|199:219|148:160|148:160|147:164|147:164|146:168|146:168|77:87|-1:133,1,300,2|0,1:2|0:0,0:0:0:0:
0,256,62415,2,0,P|123:253|59:147,1,300,2|0,1:2|0:0,0:0:0:0:
60,218,62790,2,0,L|78:316,1,100,2|0,1:2|0:0,0:0:0:0:
261,297,62977,1,2,0:0:0:0:
232,317,63071,1,2,0:0:0:0:
234,350,63165,1,2,1:2:0:0:
260,369,63258,2,0,B|355:352|355:352|356:349|356:349|455:332,1,200,2|0,0:2|0:0,0:0:0:0:
456,208,63540,6,0,B|380:241|360:318|360:318|380:241|328:179,1,300,2|0,1:2|0:0,0:0:0:0:
236,188,63915,2,0,B|244:105|187:49|187:49|244:105|324:91,1,300,2|0,1:2|0:0,0:0:0:0:
368,16,64290,2,0,B|434:64|512:43|512:43|434:64|407:140,1,300,2|0,1:2|0:0,0:0:0:0:
276,264,64665,2,0,B|177:282|177:282|174:286|174:286|60:307|60:307|107:298|135:320,1,300,2|0,1:2|0:0,0:0:0:0:
84,382,65040,6,0,B|107:250|107:250|112:246|112:246|126:168|126:168|84:164|69:119,1,300,2|0,1:2|0:0,0:0:0:0:
152,88,65415,2,0,B|284:64|284:64|287:60|287:60|366:46|366:46|370:88|415:103,1,300,2|0,1:2|0:0,0:0:0:0:
487,157,65790,2,0,P|462:114|415:102,1,100,2|0,1:2|0:0,0:0:0:0:
340,236,65977,2,0,P|387:223|411:181,1,100,2|0,0:2|0:0,0:0:0:0:
280,88,66165,2,0,B|254:233|254:233|257:238|257:238|232:382,1,300,2|0,1:2|0:0,0:0:0:0:
344,316,66540,6,0,B|282:317|253:272|275:267|246:213|170:216,1,200,4|2,1:2|0:0,0:0:0:0:
20,228,66821,1,0,0:0:0:0:
25,249,66915,2,0,P|109:207|64:133,1,200,8|2,1:2|0:0,0:0:0:0:
184,0,67196,1,0,3:2:0:0:
160,24,67290,1,0,1:2:0:0:
156,60,67383,1,0,3:0:0:0:
176,84,67477,2,0,L|236:73,1,60.0000022888184,2|0,0:0|3:0,0:0:0:0:
380,144,67665,6,0,L|302:130,1,80,8|0,1:2|0:0,0:0:0:0:
456,68,67852,1,0,3:0:0:0:
400,4,67945,1,0,3:2:0:0:
456,68,68040,6,0,B|472:162|472:162|469:167|469:167|486:264,1,200,0|2,1:2|0:0,0:0:0:0:
444,336,68321,1,0,0:0:0:0:
368,336,68415,2,0,P|337:297|290:284,1,100,8|0,1:2|0:0,0:0:0:0:
196,380,68602,2,0,L|294:362,1,100,2|0,0:2|3:2,0:0:0:0:
379,227,68790,1,0,1:2:0:0:
344,207,68883,1,0,3:0:0:0:
332,166,68977,1,2,0:0:0:0:
351,132,69071,1,0,3:0:0:0:
424,160,69165,6,0,B|357:171|357:171|353:176|353:176|251:194|251:194|286:188|310:159,1,240,8|0,1:2|3:0,0:0:0:0:
141,95,69540,5,6,1:2:0:0:
141,95,69727,2,0,L|240:112,1,100
368,336,69915,5,10,1:2:0:0:
368,336,70102,2,0,L|466:319,1,100,0|0,0:0|3:0,0:0:0:0:
248,312,70290,5,2,1:2:0:0:
240,284,70383,2,0,P|204:250|155:248,1,100,0|0,3:0|0:0,0:0:0:0:
96,300,70571,1,0,3:0:0:0:
85,323,70664,2,0,P|49:356|0:358,1,100,10|0,1:2|0:0,0:0:0:0:
88,152,70852,1,0,3:0:0:0:
24,100,70946,1,0,3:0:0:0:
88,152,71040,5,2,1:2:0:0:
88,152,71227,2,0,P|136:149|172:116,1,100
424,12,71415,5,10,1:2:0:0:
424,12,71602,2,0,P|460:45|509:48,1,100,0|0,0:0|3:0,0:0:0:0:
512,244,71790,5,2,1:2:0:0:
512,268,71883,2,0,L|414:249,1,100,0|0,3:0|0:0,0:0:0:0:
332,196,72071,1,0,3:0:0:0:
352,196,72164,2,0,L|335:97,1,100,10|0,1:2|0:0,0:0:0:0:
188,8,72352,2,0,P|231:31|249:76,1,100,0|0,3:0|3:0,0:0:0:0:
155,247,72540,5,0,1:2:0:0:
155,247,72727,2,0,L|56:265,1,100,2|0,0:0|0:0,0:0:0:0:
276,352,72915,2,0,L|374:370,1,100,10|0,1:2|0:0,0:0:0:0:
252,252,73102,2,0,L|233:153,1,100,2|0,0:0|3:0,0:0:0:0:
168,328,73290,2,0,L|69:346,1,100,2|0,1:2|3:0,0:0:0:0:
344,276,73477,2,0,L|442:294,1,100,2|0,0:0|3:0,0:0:0:0:
320,84,73665,2,0,L|338:182,1,100,10|0,1:2|0:0,0:0:0:0:
140,143,73852,2,0,P|100:113|51:118,1,100,2|0,3:2|3:0,0:0:0:0:
233,153,74040,6,0,P|229:114|207:81,1,80,2|0,1:2|0:0,0:0:0:0:
138,40,74321,1,0,0:0:0:0:
192,232,74415,6,0,P|269:233|317:173,1,160,10|0,1:2|0:0,0:0:0:0:
320,84,74696,1,0,3:0:0:0:
82,193,74790,6,0,P|43:236|44:294,1,120.000004577637,2|0,1:2|3:0,0:0:0:0:
231,334,74977,2,0,P|231:275|192:232,1,120.000004577637,2|0,0:0|3:0,0:0:0:0:
0,380,75165,1,10,1:2:0:0:
23,375,75258,1,2,0:0:0:0:
49,371,75352,1,2,3:2:0:0:
75,367,75446,1,0,3:2:0:0:
99,362,75540,6,0,B|248:335|248:335|251:330|251:330|392:306,1,300,2|0,1:2|0:0,0:0:0:0:
414,233,75915,2,0,L|512:250,1,100,10|0,1:2|0:0,0:0:0:0:
159,220,76102,2,0,L|60:237,1,100,2|0,0:0|3:0,0:0:0:0:
307,119,76290,5,2,1:2:0:0:
300,79,76383,1,0,3:0:0:0:
293,40,76477,1,2,0:0:0:0:
286,0,76570,1,0,3:0:0:0:
208,60,76665,6,0,B|306:77|306:77|311:74|311:74|433:95|433:95|389:88|347:121,1,300,10|0,1:2|3:0,0:0:0:0:
159,220,77040,6,0,B|125:201|91:206|91:206|213:185|213:185|218:188|218:188|316:171,1,300,2|0,1:2|0:0,0:0:0:0:
356,288,77415,2,0,P|306:287|268:256,1,100,10|0,1:2|0:0,0:0:0:0:
418,172,77602,2,0,P|449:210|450:259,1,100,2|0,0:0|3:0,0:0:0:0:
271,384,77790,1,2,1:2:0:0:
268,357,77883,1,0,3:0:0:0:
192,340,77977,2,0,L|94:323,1,100,2|0,0:0|3:0,0:0:0:0:
0,260,78165,2,0,B|-29:185|38:133|38:133|34:132|34:132|30:131|30:131|104:72|65:-16,1,300,10|0,1:2|3:0,0:0:0:0:
220,36,78540,6,0,P|192:164|323:166,1,300,2|0,1:2|0:0,0:0:0:0:
396,312,78915,2,0,L|378:213,1,100,10|0,1:2|0:0,0:0:0:0:
256,116,79102,2,0,L|238:214,1,100,2|0,0:0|3:0,0:0:0:0:
40,376,79290,2,0,B|98:389|132:340|132:340|127:340|127:340|156:288|228:268|286:302|302:364,1,300,2|0,1:2|3:0,0:0:0:0:
356,384,79665,2,0,L|454:366,1,100,10|0,1:2|0:0,0:0:0:0:
388,280,79852,2,0,L|486:262,1,100,2|0,3:2|3:2,0:0:0:0:
456,76,80040,6,0,B|502:63|538:90|538:90|498:42|498:42|423:29|423:29|426:34|426:34|377:58|377:58|303:44,1,360.000013732911,4|0,1:2|0:0,0:0:0:0:
56,152,80415,6,0,B|9:139|-26:166|-26:166|13:118|13:118|88:105|88:105|85:110|85:110|134:134|134:134|208:120,1,360.000013732911,4|0,1:2|0:0,0:0:0:0:
476,208,80790,5,8,0:2:0:0:
476,208,80977,2,0,L|486:148,2,60.0000022888184,8|8|8,0:2|0:2|0:2,0:0:0:0:
512,272,81352,1,0,1:2:0:0:
296,312,81540,6,0,B|146:338|146:338|143:343|143:343|2:367,1,300,6|0,1:2|0:0,0:0:0:0:
296,232,81915,2,0,B|146:258|146:258|143:263|143:263|2:287,1,300,2|0,1:2|0:0,0:0:0:0:
4,176,82290,1,2,1:2:0:0:
79,164,82383,1,0,0:0:0:0:
156,152,82477,2,0,P|142:104|99:79,1,100,2|0,0:0|0:0,0:0:0:0:
363,12,82665,1,2,1:2:0:0:
288,24,82758,1,0,0:0:0:0:
216,37,82852,2,0,P|230:84|272:109,1,100,2|0,0:0|0:0,0:0:0:0:
496,200,83040,6,0,P|449:115|354:107,1,200,2|2,1:2|0:2,0:0:0:0:
332,184,83321,1,2,0:2:0:0:
340,208,83415,2,0,L|322:306,1,100,2|0,1:2|0:0,0:0:0:0:
128,380,83602,1,2,0:0:0:0:
152,348,83696,1,2,0:0:0:0:
144,308,83790,2,0,L|45:290,1,100,2|0,1:2|0:0,0:0:0:0:
0,124,83977,1,2,0:0:0:0:
36,100,84071,1,2,0:0:0:0:
72,116,84165,2,0,L|89:214,1,100,2|0,1:2|0:0,0:0:0:0:
292,320,84352,1,2,0:2:0:0:
308,312,84446,1,2,0:2:0:0:
322,306,84540,6,0,L|420:323,1,100,2|2,1:2|0:0,0:0:0:0:
512,160,84727,2,0,L|413:142,1,100,2|2,0:2|0:0,0:0:0:0:
512,333,84915,2,0,L|494:234,1,100,2|0,1:2|0:0,0:0:0:0:
314,129,85102,2,0,L|331:227,1,100,2|0,0:2|0:0,0:0:0:0:
420,323,85290,1,2,1:2:0:0:
192,0,85477,5,2,0:0:0:0:
172,16,85571,1,2,0:0:0:0:
160,52,85665,1,2,1:2:0:0:
188,96,85758,1,2,0:0:0:0:
240,144,85852,1,2,0:0:0:0:
236,224,85946,1,2,0:0:0:0:
164,336,86040,6,0,B|189:194|189:194|193:190|193:190|219:42,2,300,2|2|2,1:2|0:0|0:0,0:0:0:0:
164,336,86790,2,0,B|200:360|260:360|300:304|300:304|295:304|295:304|332:252|388:244|435:272,1,300,2|0,1:2|0:0,0:0:0:0:
380,332,87165,5,8,0:2:0:0:
512,380,87352,1,0,1:2:0:0:
512,380,87540,5,14,1:2:0:0:
480,352,87633,1,0,3:0:0:0:
472,308,87727,1,8,3:2:0:0:
496,272,87821,1,0,3:0:0:0:
512,176,87915,5,10,1:2:0:0:
476,184,88008,1,0,3:0:0:0:
440,168,88102,1,8,3:2:0:0:
432,128,88196,1,0,3:0:0:0:
360,64,88290,5,10,1:2:0:0:
356,96,88383,1,0,3:0:0:0:
352,128,88477,2,0,L|334:226,1,100,10|2,3:2|3:2,0:0:0:0:
248,316,88665,1,10,1:2:0:0:
216,304,88758,1,0,3:0:0:0:
179,312,88852,2,0,P|137:337|88:332,1,100,10|2,3:2|3:2,0:0:0:0:
4,252,89040,5,10,1:2:0:0:
24,208,89133,1,0,3:0:0:0:
68,188,89227,1,10,3:2:0:0:
120,196,89321,1,2,3:2:0:0:
140,120,89415,5,10,1:2:0:0:
176,104,89508,1,0,3:2:0:0:
208,112,89602,1,10,3:2:0:0:
228,140,89696,1,2,3:2:0:0:
312,124,89790,5,10,1:2:0:0:
336,136,89883,1,0,3:2:0:0:
344,160,89977,1,10,3:2:0:0:
336,184,90071,1,2,3:2:0:0:
272,256,90165,5,10,1:2:0:0:
248,268,90258,1,0,3:2:0:0:
240,292,90352,1,10,3:2:0:0:
248,316,90446,1,2,3:2:0:0:
336,363,90540,6,0,P|360:362|382:374,1,50,10|0,1:2|0:0,0:0:0:0:
356,336,90633,2,0,P|378:346|390:367,1,50,8|0,0:2|0:0,0:0:0:0:
388,320,90727,2,0,P|401:340|402:364,1,50,8|0,0:2|0:0,0:0:0:0:
424,320,90821,2,0,P|425:344|413:366,1,50,8|0,0:2|0:0,0:0:0:0:
500,268,90915,6,0,P|499:244|511:222,1,50,10|0,1:2|0:0,0:0:0:0:
473,248,91008,2,0,P|483:226|504:214,1,50,8|0,0:2|0:0,0:0:0:0:
457,216,91102,2,0,P|477:203|501:202,1,50,8|0,0:2|0:0,0:0:0:0:
457,180,91196,2,0,P|481:179|503:191,1,50,8|0,0:2|0:0,0:0:0:0:
448,92,91290,6,0,L|456:43,1,50,10|0,1:2|0:0,0:0:0:0:
408,72,91383,2,0,L|407:21,1,50,8|0,0:2|0:0,0:0:0:0:
364,76,91477,2,0,L|354:27,1,50,8|0,0:2|0:0,0:0:0:0:
332,104,91571,2,0,L|313:56,1,50,8|0,0:2|0:0,0:0:0:0:
288,160,91665,6,0,L|295:209,1,50,10|0,1:2|0:0,0:0:0:0:
216,184,91758,2,0,L|197:230,1,50,8|0,0:2|0:0,0:0:0:0:
160,132,91852,2,0,L|121:162,1,50,8|0,0:2|0:0,0:0:0:0:
160,56,91946,2,0,L|109:58,1,50,8|0,0:2|0:0,0:0:0:0:
228,16,92040,5,4,1:2:0:0:
256,192,92086,12,8,93165,0:2:0:0:
88,79,93352,6,0,P|67:76|53:58,1,40,0|0,1:2|0:0,0:0:0:0:
55,63,93540,6,0,B|92:27|151:7|235:43|263:103|223:155|259:215|335:223|391:199|427:151,1,431.999986816407,6|0,1:2|0:0,0:0:0:0:
363,99,93915,2,0,P|321:98|361:108,1,120.000004577637,10|0,1:2|0:0,0:0:0:0:
441,58,94196,1,2,3:2:0:0:
512,0,94290,1,0,1:2:0:0:
441,58,94383,2,0,P|494:95|501:154,1,120.000004577637,2|0,3:2|0:0,0:0:0:0:
408,356,94571,5,2,3:2:0:0:
300,328,94665,2,0,B|248:336|248:336|294:325,1,100,10|0,1:2|0:0,0:0:0:0:
461,236,94852,2,0,B|512:244|512:244|466:233,1,100,2|0,3:2|3:0,0:0:0:0:
140,260,95040,6,0,L|150:200,1,60.0000022888184,2|0,1:2|0:0,0:0:0:0:
124,264,95133,2,0,L|134:204,1,60.0000022888184,2|0,0:0|0:0,0:0:0:0:
108,270,95227,2,0,L|226:249,1,120.000004577637,2|0,0:0|0:0,0:0:0:0:
403,174,95415,6,0,B|392:150|398:114|398:114|389:145|363:160,1,120.000004577637,10|0,1:2|0:0,0:0:0:0:
472,132,95696,1,2,3:2:0:0:
344,16,95790,6,0,B|278:-10|236:40|236:40|235:46|235:46|236:52|236:52|193:103|116:78,1,240,2|0,1:2|3:2,0:0:0:0:
71,55,96165,2,0,P|208:64|96:144,1,360.000013732911,10|0,1:2|3:2,0:0:0:0:
16,176,96540,6,0,B|104:232|96:364|96:364|120:236|264:192,1,431.999986816407,2|0,1:2|0:0,0:0:0:0:
267,272,96915,2,0,P|214:298|180:352,1,120.000004577637,10|0,1:2|0:0,0:0:0:0:
352,384,97196,1,2,3:2:0:0:
272,352,97290,1,0,1:2:0:0:
352,384,97383,2,0,L|470:363,1,120.000004577637,2|0,3:2|0:0,0:0:0:0:
512,176,97571,5,2,3:2:0:0:
432,84,97665,2,0,B|436:60|456:48|479:53|479:53|448:60|436:100,1,120.000004577637,10|0,1:2|0:0,0:0:0:0:
376,232,97852,2,0,B|380:256|400:268|423:262|423:262|392:256|380:216,1,120.000004577637,2|0,3:2|3:0,0:0:0:0:
180,16,98040,6,0,P|216:29|234:64,1,80,2|0,1:2|0:0,0:0:0:0:
172,104,98227,5,0,0:0:0:0:
100,76,98321,1,0,0:0:0:0:
172,104,98415,2,0,L|154:202,1,100,10|0,1:2|0:0,0:0:0:0:
256,252,98602,5,0,0:0:0:0:
336,232,98696,1,0,3:2:0:0:
256,252,98790,2,0,L|276:134,1,120.000004577637,2|0,1:2|3:2,0:0:0:0:
159,344,98977,5,0,0:0:0:0:
68,304,99071,1,0,3:2:0:0:
159,344,99165,2,0,P|226:331|281:371,1,140.000001335144,10|0,1:2|0:0,0:0:0:0:
424,244,99352,5,0,3:2:0:0:
303,278,99446,1,0,3:2:0:0:
424,244,99540,6,0,B|385:297|388:364|388:364|359:273|399:213|444:217|484:161|463:85,1,431.999986816407,2|0,1:2|0:0,0:0:0:0:
352,123,99915,2,0,P|393:118|354:134,1,120.000004577637,10|0,1:2|0:0,0:0:0:0:
228,88,100196,1,2,3:2:0:0:
304,48,100290,1,0,1:2:0:0:
228,88,100383,2,0,P|182:53|123:59,1,120.000004577637,2|0,3:2|0:0,0:0:0:0:
0,260,100571,5,2,3:2:0:0:
75,330,100665,2,0,B|64:376|64:376|72:324,1,100,10|0,1:2|0:0,0:0:0:0:
171,176,100852,2,0,B|160:129|160:129|168:180,1,100,2|0,3:2|3:0,0:0:0:0:
340,336,101040,6,0,P|311:339|284:327,1,60.0000022888184,2|0,1:2|0:0,0:0:0:0:
348,348,101133,2,0,P|330:371|303:381,1,60.0000022888184,2|0,0:0|0:0,0:0:0:0:
359,355,101227,2,0,P|355:298|397:257,1,120.000004577637,2|0,0:0|0:0,0:0:0:0:
512,120,101415,6,0,P|454:114|420:66,1,120.000004577637,10|0,1:2|0:0,0:0:0:0:
496,44,101696,1,2,3:2:0:0:
296,164,101790,6,0,B|205:148|205:148|200:151|200:151|110:135|110:135|141:140|169:121,1,240,2|0,1:2|3:2,0:0:0:0:
124,60,102165,2,0,B|164:157|80:240|80:220|80:220|80:200|-7:289|36:401,1,360.000013732911,10|0,1:2|3:0,0:0:0:0:
116,384,102540,6,0,P|183:314|280:320,1,200,4|2,1:2|0:0,0:0:0:0:
472,372,102821,1,0,0:0:0:0:
447,381,102915,2,0,P|363:339|408:265,1,200,8|2,1:2|0:0,0:0:0:0:
512,100,103196,1,0,3:2:0:0:
484,104,103290,1,0,1:2:0:0:
460,108,103383,1,0,3:2:0:0:
432,112,103477,2,0,L|372:101,1,60.0000022888184,2|0,0:0|3:0,0:0:0:0:
294,2,103665,6,0,L|372:16,1,80,8|0,1:2|0:0,0:0:0:0:
232,140,103852,1,2,3:2:0:0:
296,84,103945,1,0,3:0:0:0:
232,140,104040,6,0,B|137:156|137:156|132:153|132:153|35:170,1,200,0|2,1:2|0:0,0:0:0:0:
0,236,104321,1,0,0:0:0:0:
48,292,104415,2,0,P|95:278|125:239,1,100,8|0,1:2|0:0,0:0:0:0:
128,112,104602,2,0,P|114:64|75:34,1,100,2|0,0:0|3:0,0:0:0:0:
232,140,104790,1,0,1:2:0:0:
208,168,104883,1,0,3:2:0:0:
204,204,104977,1,2,0:0:0:0:
220,236,105071,1,0,3:2:0:0:
188,308,105165,6,0,B|245:325|294:278|294:278|293:274|293:274|292:270|292:270|342:224|398:242,1,240,8|0,1:2|3:0,0:0:0:0:
364,312,105540,6,0,B|364:315|364:315|373:363|294:377|285:329|285:329|265:211|265:211|288:183|288:183|268:74|268:74|230:132,1,431.999986816407,6|0,1:2|0:0,0:0:0:0:
137,126,105915,2,0,B|161:115|171:80|171:80|161:115|176:140,1,120.000004577637,10|0,1:2|0:0,0:0:0:0:
308,172,106196,1,2,3:2:0:0:
380,116,106290,1,0,1:2:0:0:
308,172,106383,2,0,L|287:53,1,120.000004577637,2|0,3:2|0:0,0:0:0:0:
146,0,106571,5,2,3:2:0:0:
49,55,106665,2,0,B|-3:63|-3:63|43:52,1,100,10|0,1:2|0:0,0:0:0:0:
137,126,106852,2,0,B|188:134|188:134|142:123,1,100,2|0,3:2|3:0,0:0:0:0:
32,272,107040,6,0,P|55:292|85:293,1,60.0000022888184,2|0,1:2|0:0,0:0:0:0:
16,272,107133,2,0,P|16:303|38:324,1,60.0000022888184,2|0,0:0|0:0,0:0:0:0:
3,265,107227,2,0,L|23:383,1,120.000004577637,2|0,0:0|0:0,0:0:0:0:
276,352,107415,6,0,P|245:323|266:359,1,120.000004577637,10|0,1:2|0:0,0:0:0:0:
360,384,107696,1,2,3:2:0:0:
450,206,107790,6,0,P|360:271|400:375,1,240,2|0,1:2|3:2,0:0:0:0:
452,300,108165,2,0,B|337:279|337:279|333:283|333:283|203:260|203:260|262:270|302:224,1,360.000013732911,10|0,1:2|3:2,0:0:0:0:
228,180,108540,6,0,B|118:172|27:233|27:233|92:154|103:72|103:72|120:104|168:120,1,431.999986816407,2|0,1:2|0:0,0:0:0:0:
204,40,108915,2,0,P|175:10|195:46,1,120.000004577637,10|0,1:2|0:0,0:0:0:0:
328,84,109196,1,2,3:2:0:0:
284,4,109290,1,0,1:2:0:0:
328,84,109383,2,0,P|386:86|427:46,1,120.000004577637,2|0,3:2|0:0,0:0:0:0:
512,284,109571,5,2,0:0:0:0:
432,372,109665,2,0,B|407:374|391:358|390:333|390:333|404:362|446:363,1,120.000004577637,10|0,1:2|0:0,0:0:0:0:
472,184,109852,2,0,B|496:186|512:170|513:145|513:145|499:174|457:175,1,120.000004577637,2|0,3:2|3:0,0:0:0:0:
280,384,110040,6,0,L|266:305,1,80,2|0,1:2|0:0,0:0:0:0:
176,300,110227,5,0,0:0:0:0:
224,240,110321,1,0,0:0:0:0:
176,300,110415,2,0,L|78:282,1,100,10|0,1:2|0:0,0:0:0:0:
36,176,110602,5,0,0:0:0:0:
0,96,110696,1,0,3:0:0:0:
36,176,110790,2,0,L|154:156,1,120.000004577637,2|0,1:2|3:0,0:0:0:0:
308,76,110977,5,0,0:0:0:0:
380,0,111071,1,0,3:0:0:0:
308,76,111165,2,0,L|170:51,1,140.000001335144,10|0,1:2|0:0,0:0:0:0:
376,232,111352,5,0,3:0:0:0:
432,328,111446,1,0,3:0:0:0:
376,232,111540,6,0,B|385:276|357:325|307:347|307:347|307:335|307:335|248:394|132:380|148:268|252:264|280:320,1,431.999986816407,2|0,1:2|0:0,0:0:0:0:
279,318,111915,2,0,L|259:199,1,120.000004577637,10|0,1:2|0:0,0:0:0:0:
308,76,112196,1,2,3:2:0:0:
376,128,112290,1,0,1:0:0:0:
308,76,112383,2,0,P|267:117|209:122,1,120.000004577637,2|0,3:2|0:0,0:0:0:0:
0,112,112571,5,2,3:2:0:0:
75,38,112665,2,0,B|121:27|121:27|69:35,1,100,10|0,1:2|0:0,0:0:0:0:
46,226,112852,2,0,B|-1:215|-1:215|50:223,1,100,2|0,3:2|3:0,0:0:0:0:
244,300,113040,6,0,L|254:359,1,60.0000022888184,2|0,1:2|0:0,0:0:0:0:
260,296,113133,2,0,L|270:355,1,60.0000022888184,2|0,0:0|0:0,0:0:0:0:
275,292,113227,2,0,L|393:271,1,120.000004577637,2|0,0:0|0:0,0:0:0:0:
444,0,113415,6,0,L|423:118,1,120.000004577637,10|0,1:2|0:0,0:0:0:0:
508,64,113696,1,2,3:2:0:0:
284,128,113790,6,0,B|221:144|172:110|183:71|130:37|52:65,1,240,2|0,1:2|3:0,0:0:0:0:
104,136,114165,2,0,B|78:165|35:168|35:168|129:190|191:95|140:92|185:27|314:46,1,360.000013732911,10|0,1:2|3:0,0:0:0:0:
340,72,114540,6,0,B|387:56|396:4|396:4|365:178|365:178|369:182|369:182|341:337,1,431.999986816407,2|0,1:2|0:0,0:0:0:0:
458,370,114915,2,0,B|434:359|424:324|424:324|434:359|420:384,1,120.000004577637,10|0,1:2|0:0,0:0:0:0:
276,280,115196,1,2,3:2:0:0:
216,336,115290,1,0,1:2:0:0:
276,280,115383,2,0,P|334:282|375:242,1,120.000004577637,2|0,3:2|0:0,0:0:0:0:
464,112,115571,5,2,3:2:0:0:
382,62,115665,2,0,B|360:48|351:22|351:22|352:48|339:71,1,100,10|0,1:2|0:0,0:0:0:0:
208,216,115852,2,0,B|184:232|177:255|177:255|180:232|165:206,1,100,2|0,3:2|3:0,0:0:0:0:
88,48,116040,6,0,B|51:2|-7:30|-7:30|10:130|74:165|139:127|199:160|171:67|229:103|310:71|377:108|374:204|374:204|315:246|272:167|272:167,1,719.999978027344,4|0,1:2|0:0,0:0:0:0:
281,180,117540,5,6,1:2:0:0:
296,256,117915,1,2,0:0:0:0:
428,296,118290,1,2,0:0:0:0:
512,140,118665,1,2,0:0:0:0:
500,124,119040,5,2,0:0:0:0:
448,68,119415,1,2,0:0:0:0:
292,32,119790,1,2,0:0:0:0:
51,91,120165,1,2,0:0:0:0:
67,107,120540,5,2,0:0:0:0:
144,96,120915,1,2,0:0:0:0:
200,216,121290,1,2,0:0:0:0:
24,349,121665,1,2,0:0:0:0:
40,332,122040,6,0,B|96:348|136:320|154:266|154:266|176:192|224:140|292:144|352:176|360:232,1,419.999987182618,2|0,0:0|0:0,0:0:0:0:
354,212,123540,5,2,0:0:0:0:
428,244,123915,1,2,0:0:0:0:
512,164,124196,1,0,0:0:0:0:
512,164,124290,2,0,L|401:144,1,111.999996582031,2|2,0:0|0:0,0:0:0:0:
208,108,125040,5,2,0:0:0:0:
128,52,125415,1,2,0:0:0:0:
12,192,125696,1,0,0:0:0:0:
12,192,125790,2,0,L|153:166,1,143.999995605469,2|2,0:0|0:0,0:0:0:0:
256,128,126540,5,2,0:0:0:0:
160,216,126915,1,2,0:0:0:0:
256,384,127196,1,0,0:0:0:0:
256,384,127290,2,0,L|256:208,1,176.000005371094,2|2,0:0|0:0,0:0:0:0:
484,20,128040,6,0,P|404:17|370:88,1,167.999994873047,2|0,0:0|0:0,0:0:0:0:
370,88,128790,2,0,P|322:177|232:131,1,224,2|0,0:0|0:0,0:0:0:0:
112,100,129540,5,6,1:2:0:0:
120,105,129633,1,0,0:0:0:0:
115,111,129727,1,0,0:2:0:0:
120,95,129821,1,0,0:2:0:0:
188,52,129915,2,0,P|246:46|293:81,1,120,2|0,0:0|0:0,0:0:0:0:
292,81,130290,2,0,P|256:157|312:221,1,180.000006866455,10|0,0:2|0:0,0:0:0:0:
312,221,130665,2,0,P|315:261|291:295,1,83.9999974365235
225,331,131040,5,2,0:0:0:0:
148,210,131227,1,0,0:0:0:0:
148,199,131321,1,0,0:0:0:0:
148,188,131415,2,0,L|29:168,1,120,2|0,0:0|0:0,0:0:0:0:
29,168,131790,2,0,P|95:111|95:23,1,180.000006866455,10|0,0:2|0:0,0:0:0:0:
95,23,132165,1,2,0:0:0:0:
200,104,132352,1,0,1:0:0:0:
419,5,132540,5,0,1:2:0:0:
411,10,132633,1,0,0:2:0:0:
416,16,132727,1,0,0:2:0:0:
411,0,132821,1,0,0:2:0:0:
300,55,132915,2,0,P|357:66|384:100,1,80,2|0,0:0|0:0,0:0:0:0:
380,160,133290,2,0,P|409:110|466:113,1,120.000004577637,10|2,0:2|0:0,0:0:0:0:
512,180,133665,2,0,L|502:235,1,55.9999982910157,0|2,0:0|0:0,0:0:0:0:
388,336,134040,6,0,B|305:350|305:350|300:347|300:347|211:363,1,180.000006866455,2|0,0:0|0:0,0:0:0:0:
211,363,134415,2,0,P|160:333|144:277,1,120,2|0,0:0|0:0,0:0:0:0:
144,277,134790,2,0,B|129:194,2,83.9999974365235,10|0|2,0:2|1:2|1:2,0:0:0:0:
287,159,135540,5,6,1:2:0:0:
279,164,135633,1,0,0:0:0:0:
284,170,135727,1,0,0:0:0:0:
279,154,135821,1,0,0:0:0:0:
228,101,135915,2,0,L|149:87,1,80,2|2,0:0|0:0,0:0:0:0:
149,87,136290,2,0,P|112:40|55:25,1,120.000004577637,10|2,0:2|0:0,0:0:0:0:
55,25,136665,2,0,P|60:65|39:100,1,83.9999974365235,2|0,0:0|0:0,0:0:0:0:
0,203,137040,5,2,1:2:0:0:
104,344,137227,1,0,0:0:0:0:
152,332,137321,1,0,0:0:0:0:
200,320,137415,2,0,L|255:329,1,55.9999982910157,2|2,0:0|0:0,0:0:0:0:
255,329,137790,2,0,L|315:277,1,80,10|2,0:2|0:0,0:0:0:0:
315,277,138165,2,0,L|492:245,1,180.000006866455,2|0,0:0|0:0,0:0:0:0:
512,170,138540,5,4,1:2:0:0:
312,52,138727,6,0,L|272:45,2,40.000001525879,8|8|8,0:2|0:2|0:2,0:0:0:0:
275,123,138915,5,8,0:2:0:0:
205,145,139008,1,8,0:3:0:0:
225,218,139102,1,8,0:2:0:0:
295,195,139196,1,8,0:2:0:0:
247,172,139290,2,0,L|169:158,2,80.0000030517579,8|8|0,0:2|0:3|1:0,0:0:0:0:
315,277,139665,5,4,0:3:0:0:
261,351,139790,5,4,1:3:0:0:
127,269,139915,5,12,0:2:0:0:
256,192,140040,12,2,140790,0:1:0:0:
464,56,141540,6,0,B|400:19|294:55|273:131|273:131|300:112|336:111,1,300,6|0,1:2|0:0,0:0:0:0:
332,196,141915,2,0,B|395:232|501:196|522:120|522:120|496:140|459:140,1,300,2|0,1:2|0:0,0:0:0:0:
336,111,142290,2,0,B|192:135|192:135|189:140|189:140|43:165,1,300,2|0,1:2|0:0,0:0:0:0:
96,76,142665,2,0,B|74:57|45:60|45:60|112:2|190:44|204:124|158:177,1,300,2|0,1:2|0:0,0:0:0:0:
64,276,143040,6,0,B|128:223|208:256|208:256|196:260|196:260|280:292|276:372,1,300,2|0,1:2|0:0,0:0:0:0:
384,384,143415,2,0,B|331:319|364:240|364:240|368:252|368:252|400:168|480:172,1,300,2|0,1:2|0:0,0:0:0:0:
448,40,143790,2,0,B|488:52|493:89|493:89|392:20|265:49,1,300,2|0,1:2|0:0,0:0:0:0:
180,128,144165,2,0,B|140:116|135:79|135:79|236:148|363:119,1,300,2|0,1:2|0:0,0:0:0:0:
472,248,144540,6,0,B|437:223|427:176|427:176|373:215|307:209|307:209|324:249|298:293,1,300,2|0,1:2|0:0,0:0:0:0:
396,301,144915,2,0,B|356:154|356:154|359:149|359:149|322:11,1,300,2|0,1:2|0:0,0:0:0:0:
180,128,145290,2,0,B|145:152|135:199|135:199|81:160|15:166|15:166|32:126|6:82,1,300,2|0,1:2|0:0,0:0:0:0:
104,75,145665,2,0,B|64:221|64:221|67:226|67:226|30:364,1,300,2|0,1:2|0:0,0:0:0:0:
136,374,146040,6,0,B|195:410|264:329|264:329|265:333|265:333|266:337|266:337|317:278|398:301,1,300,2|0,1:2|0:0,0:0:0:0:
414,384,146415,2,0,B|332:397|279:329|279:329|291:331|291:331|234:262|278:194,1,300,2|0,1:2|0:0,0:0:0:0:
351,213,146790,2,0,P|394:189|409:143,1,100,2|0,1:2|0:0,0:0:0:0:
456,52,146977,1,2,0:0:0:0:
442,18,147071,1,2,0:0:0:0:
398,10,147165,1,2,1:2:0:0:
365,38,147258,2,0,B|227:13|227:13|263:19|284:45,1,200,2|0,0:2|0:0,0:0:0:0:
212,96,147540,6,0,B|168:148|92:157|46:114|46:114|52:56|104:40|136:48,1,300,2|0,1:2|0:0,0:0:0:0:
216,200,147915,2,0,B|221:267|174:328|112:330|112:330|74:284|100:236|128:219,1,300,2|0,1:2|0:0,0:0:0:0:
316,220,148290,2,0,B|368:264|377:339|334:385|334:385|276:379|260:328|268:296,1,300,2|0,1:2|0:0,0:0:0:0:
352,120,148665,2,0,B|419:125|480:78|482:16|482:16|436:-21|388:4|371:32,1,300,2|0,1:2|0:0,0:0:0:0:
276,144,149040,6,0,B|169:125|169:125|165:128|165:128|42:106|42:106|78:113|104:97,1,300,2|0,1:2|0:0,0:0:0:0:
68,28,149415,2,0,B|31:87|112:156|112:156|108:157|108:157|104:158|104:158|163:209|140:290,1,300,2|0,1:2|0:0,0:0:0:0:
72,328,149790,2,0,P|47:285|0:273,1,100,2|0,1:2|0:0,0:0:0:0:
180,384,149977,2,0,L|278:366,1,100,2|0,0:2|0:0,0:0:0:0:
418,320,150165,2,0,B|336:333|283:265|283:265|295:267|295:267|238:198|282:130,1,300,2|0,1:2|0:0,0:0:0:0:
210,90,150540,6,0,P|302:101|338:15,1,200,4|2,1:2|0:0,0:0:0:0:
480,0,150821,1,0,0:0:0:0:
496,16,150915,2,0,B|479:110|479:110|482:115|482:115|465:212,1,200,8|2,1:2|0:0,0:0:0:0:
312,296,151196,1,0,3:0:0:0:
312,262,151290,1,0,1:2:0:0:
289,233,151383,1,0,3:0:0:0:
252,224,151477,2,0,L|192:213,1,60.0000022888184,2|0,0:0|3:0,0:0:0:0:
62,272,151665,6,0,L|140:286,1,80,8|0,1:2|0:0,0:0:0:0:
273,143,151852,1,0,3:0:0:0:
338,86,151945,1,0,3:2:0:0:
273,143,152040,6,0,P|179:114|125:32,1,200,0|2,1:2|0:0,0:0:0:0:
0,140,152321,1,0,0:0:0:0:
64,100,152415,2,0,L|46:198,1,100,8|0,1:2|0:0,0:0:0:0:
104,350,152602,2,0,P|99:301|61:271,1,100,2|0,0:2|3:2,0:0:0:0:
227,193,152790,1,0,1:2:0:0:
192,213,152883,1,0,3:2:0:0:
180,254,152977,1,2,0:0:0:0:
199,288,153071,1,0,3:2:0:0:
288,332,153165,6,0,B|352:356|401:305|401:305|400:301|400:301|399:298|399:298|446:243|519:269,1,240,8|0,1:2|3:0,0:0:0:0:
512,84,153540,5,6,1:2:0:0:
512,84,153727,2,0,L|495:183,1,100
400,384,153915,5,10,1:2:0:0:
400,384,154102,2,0,L|383:286,1,100,0|0,0:0|3:0,0:0:0:0:
255,201,154290,5,2,1:2:0:0:
227,193,154383,2,0,P|193:157|191:108,1,100,0|0,3:0|0:0,0:0:0:0:
360,68,154571,1,0,3:0:0:0:
349,91,154664,2,0,P|313:124|264:126,1,100,10|0,1:2|0:0,0:0:0:0:
116,52,154852,1,0,3:0:0:0:
40,0,154946,1,0,3:0:0:0:
116,52,155040,5,2,1:2:0:0:
116,52,155227,2,0,L|214:34,1,100
512,172,155415,5,10,1:2:0:0:
512,172,155602,2,0,L|409:153,1,100,0|0,0:0|3:0,0:0:0:0:
244,276,155790,5,2,1:2:0:0:
220,276,155883,2,0,L|239:374,1,100,0|0,3:0|0:0,0:0:0:0:
416,304,156071,1,0,3:0:0:0:
420,280,156164,2,0,P|392:239|345:224,1,100,10|0,1:2|0:0,0:0:0:0:
202,194,156352,2,0,P|219:148|263:125,1,100,0|0,3:0|3:0,0:0:0:0:
328,0,156540,5,0,1:2:0:0:
328,0,156727,2,0,L|346:99,1,100,2|0,0:0|0:0,0:0:0:0:
413,154,156915,2,0,L|431:56,1,100,10|0,1:2|0:0,0:0:0:0:
152,68,157102,2,0,L|251:49,1,100,2|0,0:0|3:0,0:0:0:0:
443,242,157290,2,0,L|344:224,1,100,2|0,1:2|3:0,0:0:0:0:
276,124,157477,2,0,L|258:222,1,100,2|0,0:0|3:0,0:0:0:0:
412,328,157665,2,0,L|510:310,1,100,10|0,1:2|0:0,0:0:0:0:
512,100,157852,2,0,L|494:1,1,100,2|0,3:2|3:0,0:0:0:0:
240,296,158040,6,0,P|207:318|167:322,1,80,2|0,1:2|0:0,0:0:0:0:
111,384,158321,1,0,0:0:0:0:
60,180,158415,6,0,P|137:179|185:239,1,160,10|0,1:2|0:0,0:0:0:0:
257,222,158696,1,0,3:0:0:0:
40,343,158790,6,0,P|53:285|102:253,1,120.000004577637,2|0,1:2|3:0,0:0:0:0:
376,243,158977,2,0,L|257:222,1,120.000004577637,2|0,0:0|3:0,0:0:0:0:
144,0,159165,1,10,1:2:0:0:
149,23,159258,1,2,0:0:0:0:
156,45,159352,1,2,3:2:0:0:
161,68,159446,1,0,3:0:0:0:
167,87,159540,6,0,B|238:52|310:99|310:99|309:106|309:106|381:153|464:112,1,300,2|0,1:2|0:0,0:0:0:0:
480,188,159915,2,0,L|463:286,1,100,10|0,1:2|0:0,0:0:0:0:
232,154,160102,2,0,P|252:109|307:92,1,100,2|0,0:0|3:2,0:0:0:0:
184,300,160290,5,2,1:2:0:0:
156,328,160383,1,0,3:0:0:0:
116,340,160477,1,2,0:0:0:0:
76,328,160570,1,0,3:0:0:0:
0,272,160665,6,0,B|38:212|126:229|126:229|123:234|123:234|216:258|219:342,1,300,10|0,1:2|3:0,0:0:0:0:
376,308,161040,6,0,B|376:344|337:365|337:365|332:324|384:271|384:271|387:279|387:279|441:225|528:245,1,300,2|0,1:2|0:0,0:0:0:0:
512,160,161415,2,0,P|462:159|424:128,1,100,10|0,1:2|0:0,0:0:0:0:
336,36,161602,2,0,L|434:18,1,100,2|0,0:0|3:0,0:0:0:0:
178,137,161790,1,2,1:2:0:0:
224,109,161883,1,0,3:0:0:0:
278,123,161977,2,0,P|310:160|304:208,1,100,2|0,0:0|3:0,0:0:0:0:
172,264,162165,2,0,B|200:233|186:177|145:145|80:169|80:169|91:172|91:172|26:195|-12:167|-2:106,1,300,10|0,1:2|3:0,0:0:0:0:
80,55,162540,6,0,L|45:252,1,200,2|0,1:2|0:0,0:0:0:0:
64,260,162821,2,0,L|82:359,1,100,2|8,0:0|1:2,0:0:0:0:
81,358,163102,2,0,P|123:334|171:345,1,100,2|0,0:0|3:0,0:0:0:0:
432,328,163290,6,0,L|466:131,1,200,2|0,1:2|0:0,0:0:0:0:
448,124,163571,2,0,L|430:25,1,100,2|8,3:2|1:2,0:0:0:0:
430,25,163852,2,0,L|332:7,1,100,2|0,3:2|3:0,0:0:0:0:
98,24,164040,6,0,P|18:70|6:162,1,191.999994140625,6|0,1:2|0:0,0:0:0:0:
15,181,164227,2,0,P|59:212|114:209,1,111.999996582031
406,195,164415,6,0,P|389:125|323:96,1,147.999999435425,12|0,1:2|0:0,0:0:0:0:
296,93,164602,2,0,P|269:113|261:145,1,68.0000012969971,0|0,0:0|3:0,0:0:0:0:
327,297,164790,6,0,P|353:344|406:349,1,111.999996582031,4|0,1:2|3:0,0:0:0:0:
428,336,164977,2,0,P|436:322|435:306,1,32,0|0,0:0|3:0,0:0:0:0:
137,203,165165,6,0,L|120:298,1,96,12|0,1:2|3:0,0:0:0:0:
192,344,165540,6,0,B|220:389|283:384|308:341|308:293|308:293|308:249|344:206|424:199|449:253|449:253|419:231|368:252,1,431.999986816407,6|0,1:2|0:0,0:0:0:0:
428,336,165915,2,0,P|386:337|426:327,1,120.000004577637,10|0,1:2|0:0,0:0:0:0:
480,176,166196,1,2,3:2:0:0:
512,96,166290,1,0,1:2:0:0:
480,176,166383,2,0,P|427:139|420:80,1,120.000004577637,2|0,3:2|0:0,0:0:0:0:
200,0,166571,5,2,3:2:0:0:
264,72,166665,2,0,B|316:80|316:80|270:69,1,100,10|0,1:2|0:0,0:0:0:0:
96,16,166852,2,0,B|45:24|45:24|91:13,1,100,2|0,3:2|3:0,0:0:0:0:
100,264,167040,6,0,P|73:247|65:217,1,60.0000022888184,2|0,1:2|0:0,0:0:0:0:
100,284,167133,2,0,P|68:291|42:275,1,60.0000022888184,2|0,0:2|0:0,0:0:0:0:
119,293,167227,2,0,L|139:174,1,120.000004577637,2|0,0:0|0:0,0:0:0:0:
418,87,167415,6,0,P|360:98|330:148,1,120.000004577637,10|0,1:2|0:0,0:0:0:0:
408,160,167696,1,2,3:2:0:0:
512,60,167790,6,0,B|397:39|397:39|393:43|393:43|276:22,1,240,2|0,1:2|3:2,0:0:0:0:
192,12,168165,2,0,B|146:95|231:164|231:164|235:163|235:163|238:162|238:162|333:236|288:315,1,360.000013732911,10|0,1:2|3:0,0:0:0:0:
176,296,168540,6,0,B|160:224|214:168|289:157|289:157|275:171|275:171|334:137|403:177|445:217|431:300,1,431.999986816407,2|0,1:2|0:0,0:0:0:0:
512,340,168915,2,0,B|495:310|503:279|503:279|495:310|470:324,1,120.000004577637,10|0,1:2|0:0,0:0:0:0:
288,315,169196,1,2,3:2:0:0:
240,240,169290,1,0,1:2:0:0:
288,315,169383,2,0,L|309:197,1,120.000004577637,2|0,3:2|0:0,0:0:0:0:
464,64,169571,5,2,3:2:0:0:
512,156,169665,2,0,B|526:175|520:198|499:211|499:211|517:184|497:147,1,120.000004577637,10|0,1:2|0:0,0:0:0:0:
332,44,169852,2,0,B|317:24|323:1|344:-11|344:-11|326:15|346:52,1,120.000004577637,2|0,3:2|3:0,0:0:0:0:
168,308,170040,6,0,P|109:307|69:264,1,120.000004577637,2|0,1:2|0:0,0:0:0:0:
76,176,170227,5,0,0:0:0:0:
148,224,170321,1,0,0:0:0:0:
76,176,170415,6,0,P|117:135|176:136,1,120.000004577637,10|0,1:2|0:0,0:0:0:0:
240,184,170602,5,0,0:0:0:0:
148,224,170696,1,0,3:0:0:0:
240,184,170790,6,0,B|362:162|362:162|366:165|366:165|488:144|488:144|449:151|415:120,1,320,2|8,1:2|1:2,0:0:0:0:
424,127,171352,5,0,3:0:0:0:
512,20,171446,1,0,3:0:0:0:
424,127,171540,6,0,B|323:162|245:83|245:83|246:79|246:79|247:75|247:75|156:-35|12:28,1,431.999986816407,2|0,1:2|0:0,0:0:0:0:
100,112,171915,2,0,P|139:98|97:100,1,120.000004577637,10|0,1:2|0:0,0:0:0:0:
0,228,172196,1,2,3:2:0:0:
16,136,172290,1,0,1:2:0:0:
0,228,172383,2,0,L|20:346,1,120.000004577637,2|0,3:2|0:0,0:0:0:0:
248,384,172571,5,2,3:2:0:0:
328,296,172665,2,0,B|374:306|374:306|322:298,1,100,10|0,1:2|0:0,0:0:0:0:
144,272,172852,2,0,B|97:283|97:283|148:275,1,100,2|0,3:2|3:0,0:0:0:0:
444,244,173040,6,0,P|471:255|485:281,1,60.0000022888184,2|0,1:2|0:0,0:0:0:0:
456,232,173133,2,0,P|483:220|511:228,1,60.0000022888184,2|0,0:2|0:0,0:0:0:0:
457,220,173227,2,0,P|400:214|367:165,1,120.000004577637,2|0,0:0|0:0,0:0:0:0:
152,8,173415,6,0,P|184:56|169:113,1,120.000004577637,10|0,1:2|0:0,0:0:0:0:
87,66,173696,1,2,3:2:0:0:
424,108,173790,6,0,B|341:122|341:122|338:127|338:127|243:143|243:143|231:170|208:185,1,240,2|0,1:2|3:2,0:0:0:0:
116,248,174165,2,0,B|80:220|34:226|34:226|116:185|172:260|172:260|168:264|168:264|208:312|299:297,1,360.000013732911,10|0,1:2|3:0,0:0:0:0:
288,376,174540,6,0,B|340:378|371:336|357:303|401:268|461:276,1,200,4|2,1:2|0:0,0:0:0:0:
512,172,174821,1,0,0:0:0:0:
490,187,174915,2,0,P|397:168|422:85,1,200,8|2,1:2|0:0,0:0:0:0:
304,4,175196,1,0,3:2:0:0:
332,0,175290,2,0,L|314:98,1,100,0|0,1:2|3:2,0:0:0:0:
248,140,175477,2,0,L|259:200,1,60.0000022888184,2|0,0:2|3:0,0:0:0:0:
336,316,175665,6,0,L|350:238,1,80,8|0,1:2|0:0,0:0:0:0:
156,196,175852,1,2,3:2:0:0:
204,260,175945,1,0,3:0:0:0:
156,196,176040,6,0,P|61:211|30:301,1,200,0|2,1:2|0:0,0:0:0:0:
112,300,176321,1,0,0:0:0:0:
116,271,176415,2,0,P|95:177|10:129,1,200,8|2,1:2|0:0,0:0:0:0:
84,32,176696,1,0,3:2:0:0:
92,56,176790,2,0,L|190:38,1,100,0|0,1:2|3:2,0:0:0:0:
499,55,176977,6,0,P|478:30|438:15,2,66.6666666666667,10|8|8,0:2|0:2|0:2,0:0:0:0:
508,76,177165,6,0,B|525:133|478:182|478:182|474:181|474:181|470:180|470:180|424:230|442:286,1,240,8|2,1:2|3:2,0:0:0:0:
512,252,177446,1,0,3:2:0:0:
331,318,177540,6,0,B|257:299|187:316|187:316|204:317|204:317|124:327|48:377|48:377|99:344|112:295,1,431.999986816407,6|0,1:2|0:0,0:0:0:0:
0,271,177915,2,0,P|41:279|0:280,1,120.000004577637,10|0,1:2|0:0,0:0:0:0:
96,216,178196,1,2,3:2:0:0:
28,152,178290,1,0,1:2:0:0:
96,216,178383,2,0,P|145:185|204:190,1,120.000004577637,2|0,3:2|0:0,0:0:0:0:
408,112,178571,5,2,3:2:0:0:
460,34,178665,2,0,B|512:42|512:42|466:31,1,100,10|0,1:2|0:0,0:0:0:0:
293,4,178852,2,0,B|242:12|242:12|288:1,1,100,2|0,3:2|3:0,0:0:0:0:
448,192,179040,6,0,L|508:182,1,60.0000022888184,2|0,1:2|0:0,0:0:0:0:
452,208,179133,2,0,L|511:217,1,60.0000022888184,2|0,0:0|0:0,0:0:0:0:
455,224,179227,2,0,L|475:342,1,120.000004577637,2|0,0:0|0:0,0:0:0:0:
216,384,179415,6,0,B|199:354|207:323|207:323|199:354|174:368,1,120.000004577637,10|0,1:2|0:0,0:0:0:0:
276,344,179696,1,2,3:2:0:0:
48,296,179790,6,0,B|27:181|27:181|23:178|23:178|2:60,1,240,2|0,1:2|3:0,0:0:0:0:
64,16,180165,2,0,B|155:-17|227:55|227:55|226:59|226:59|225:63|225:63|302:146|411:109,1,360.000013732911,10|0,1:2|3:2,0:0:0:0:
334,34,180540,5,2,1:2:0:0:
334,34,180727,2,0,P|276:41|232:81,1,120.000004577637
138,249,180915,2,0,P|177:205|178:146,1,120.000004577637,10|0,1:2|0:0,0:0:0:0:
60,0,181102,2,0,P|90:50|145:71,1,120.000004577637,2|0,0:0|3:0,0:0:0:0:
435,252,181290,2,0,P|400:203|345:185,1,120.000004577637,2|0,1:2|3:0,0:0:0:0:
327,384,181477,2,0,P|385:378|429:339,1,120.000004577637,2|0,0:0|3:0,0:0:0:0:
267,222,181665,2,0,P|241:275|253:333,1,120.000004577637,10|0,1:2|0:0,0:0:0:0:
454,261,181852,2,0,P|432:207|382:175,1,120.000004577637,2|0,3:2|3:0,0:0:0:0:
116,96,182040,6,0,P|150:77|164:41,1,80,2|0,1:2|0:0,0:0:0:0:
92,28,182321,1,0,0:0:0:0:
28,128,182415,2,0,P|87:178|164:170,1,160,10|0,1:2|0:0,0:0:0:0:
116,96,182696,1,0,3:0:0:0:
192,248,182790,6,0,P|238:212|243:154,1,120.000004577637,2|0,1:2|3:0,0:0:0:0:
68,252,182977,2,0,P|73:310|119:345,1,120.000004577637,2|0,0:2|3:0,0:0:0:0:
279,288,183165,1,10,1:2:0:0:
283,308,183258,1,2,0:0:0:0:
291,332,183352,1,2,3:2:0:0:
297,353,183446,1,0,3:0:0:0:
304,372,183540,6,0,B|269:258|363:168|371:186|371:186|378:205|483:121|439:-22,1,431.999986816407,2|0,1:2|0:0,0:0:0:0:
360,0,183915,2,0,P|303:13|278:66,1,120.000004577637,10|0,1:2|0:0,0:0:0:0:
128,144,184102,2,0,L|107:25,1,120.000004577637,2|0,0:0|3:0,0:0:0:0:
240,188,184290,1,2,1:2:0:0:
232,216,184383,2,0,P|189:257|131:264,1,120.000004577637,0|2,3:0|0:0,0:0:0:0:
0,72,184571,5,0,3:0:0:0:
0,95,184665,2,0,B|118:75|118:75|121:70|121:70|271:44|271:44|227:51|193:86,1,360.000013732911,10|0,1:2|3:0,0:0:0:0:
272,124,185040,6,0,B|390:144|390:144|393:149|393:149|543:175|543:175|499:168|436:132|460:40,1,431.999986816407,2|0,1:2|0:0,0:0:0:0:
376,176,185415,2,0,P|330:211|331:269,1,120.000004577637,10|0,1:2|0:0,0:0:0:0:
512,280,185602,2,0,P|471:238|414:245,1,120.000004577637,2|0,0:0|3:0,0:0:0:0:
190,176,185790,1,2,1:2:0:0:
135,180,185883,1,0,3:0:0:0:
97,220,185977,1,2,0:0:0:0:
94,275,186071,1,0,3:0:0:0:
0,296,186165,2,0,B|31:325|23:369|23:369|47:235|47:235|51:232|51:232|78:82,1,360.000013732911,10|0,1:2|3:0,0:0:0:0:
272,124,186540,6,0,B|302:41|219:-7|157:62|190:140|270:161|270:161|260:167|260:167|304:200|360:200|416:152,1,431.999986816407,2|0,1:2|0:0,0:0:0:0:
405,73,186915,2,0,P|380:20|324:1,1,120.000004577637,10|0,1:2|0:0,0:0:0:0:
135,180,187102,2,0,P|159:233|213:253,1,120.000004577637,2|0,0:0|3:0,0:0:0:0:
320,348,187290,1,2,1:2:0:0:
397,369,187383,1,0,3:0:0:0:
469,343,187477,1,2,0:0:0:0:
508,274,187570,1,0,3:0:0:0:
512,260,187665,2,0,B|420:222|350:303|350:303|351:307|351:307|352:311|352:311|283:408|175:358,1,360.000013732911,10|0,1:2|0:0,0:0:0:0:
80,168,188040,6,0,B|-5:145|-5:145|56:140|91:83|91:83|145:110|163:169|163:169|209:181|209:181|218:180|218:180|311:204,1,431.999986816407,4|0,1:2|0:0,0:0:0:0:
456,80,188415,6,0,B|541:57|541:57|476:48|446:-4|446:-4|392:22|374:81|374:81|328:93|328:93|319:92|319:92|226:116,1,431.999986816407,4|0,1:2|0:0,0:0:0:0:
108,384,188790,5,8,0:2:0:0:
108,384,188977,2,0,L|98:324,2,60.0000022888184,8|8|8,0:2|0:2|0:2,0:0:0:0:
10,320,189352,1,8,0:2:0:0:
420,148,189540,5,4,1:2:0:0:
