osu file format v14

[General]
AudioFilename: HNG.mp3
AudioLeadIn: 0
PreviewTime: 147676
Countdown: 0
SampleSet: Soft
StackLeniency: 0.7
Mode: 3
LetterboxInBreaks: 0
SpecialStyle: 0
WidescreenStoryboard: 1

[Editor]
Bookmarks: 1961,17199,32437,47675,55056,62913,91603,93389,108627,124341,136960,139103,148627,177318,179103,207675,209580,236246,241008,271484,300056
DistanceSpacing: 1
BeatDivisor: 12
GridSize: 16
TimelineZoom: 1.5

[Metadata]
Title:Hysteric Night Girl (feat. Such)
TitleUnicode:ヒステリックナイトガール (feat.Such)
Artist:PSYQUI
ArtistUnicode:PSYQUI
Creator:Salty Mermaid
Version:Beautiful Night
Source:
Tags:STYLEY! styley loqartz Japanese Rock Lqaz0003 pop jpop j-pop
BeatmapID:2284769
BeatmapSetID:1064438

[Difficulty]
HPDrainRate:8.5
CircleSize:6
OverallDifficulty:8
ApproachRate:5
SliderMultiplier:1.4
SliderTickRate:1

[Events]
//Background and Video events
0,0,"HNG_BG.jpg",0,0
//Break Periods
//Storyboard Layer 0 (Background)
//Storyboard Layer 1 (Fail)
//Storyboard Layer 2 (Pass)
//Storyboard Layer 3 (Foreground)
//Storyboard Layer 4 (Overlay)
//Storyboard Sound Samples

[TimingPoints]
1961,476.190476190476,4,2,22,50,1,0
62913,-100,4,2,22,50,0,1
91603,-100,4,2,22,50,0,0
108628,-100,4,2,22,40,0,0
148627,-100,4,2,22,50,0,1
177318,-100,4,2,22,50,0,0
209580,-100,4,2,22,30,0,0
224818,-100,4,2,22,30,0,0
236247,-100,4,2,22,50,0,0
241008,-100,4,2,22,50,0,1
269580,-100,4,2,22,50,0,0
271484,-100,4,2,22,50,0,1
300056,-100,4,2,22,50,0,0

[HitObjects]
128,192,56,5,0,0:0:0:100:Cymbal.wav
213,192,56,1,0,0:0:0:40:Kick1.wav
298,192,56,1,0,0:0:0:0:
384,192,56,1,0,0:0:0:0:
469,192,294,1,0,0:0:0:0:
42,192,353,1,0,0:0:0:0:
128,192,413,1,0,0:0:0:0:
213,192,472,1,0,0:0:0:0:
298,192,532,1,0,0:0:0:30:Clap1.wav
384,192,532,1,0,0:0:0:0:
469,192,532,1,0,0:0:0:0:
42,192,651,1,0,0:0:0:30:Clap1.wav
128,192,651,1,0,0:0:0:0:
213,192,651,1,0,0:0:0:0:
42,192,889,1,0,0:0:0:30:Clap1.wav
128,192,889,1,0,0:0:0:0:
213,192,889,1,0,0:0:0:0:
42,192,1127,1,0,0:0:0:30:Clap1.wav
128,192,1127,1,0,0:0:0:0:
213,192,1127,1,0,0:0:0:0:
128,192,1246,1,0,0:0:0:40:Kick1.wav
213,192,1246,1,0,0:0:0:0:
298,192,1246,1,0,0:0:0:0:
384,192,1246,1,0,0:0:0:0:
298,192,1365,1,0,0:0:0:30:Clap1.wav
384,192,1365,1,0,0:0:0:0:
469,192,1365,1,0,0:0:0:0:
42,192,1484,1,0,0:0:0:30:Clap1.wav
128,192,1484,1,0,0:0:0:0:
213,192,1484,1,0,0:0:0:0:
298,192,1603,1,0,0:0:0:70:LR_Tom Hit.wav
384,192,1603,1,0,0:0:0:0:
128,192,1722,1,0,0:0:0:70:LR_Tom Hit 2.wav
213,192,1722,1,0,0:0:0:0:
42,192,1961,1,0,0:0:0:100:Cymbal.wav
213,192,1961,128,0,3151:0:0:0:40:Kick1.wav
298,192,1961,1,0,0:0:0:0:
469,192,1961,1,0,0:0:0:0:
384,192,2080,1,0,0:0:0:0:
469,192,2199,1,0,0:0:0:0:
42,192,2437,1,0,0:0:0:80:LR_Drum Rpd Fast1.wav
298,192,2437,1,0,0:0:0:0:
469,192,2437,1,0,0:0:0:0:
128,192,2556,1,0,0:0:0:0:
42,192,2675,1,0,0:0:0:0:
384,192,2794,1,0,0:0:0:40:Kick1.wav
469,192,2794,1,0,0:0:0:0:
298,192,2913,1,0,0:0:0:0:
128,192,3032,1,0,0:0:0:0:
384,192,3151,1,0,0:0:0:40:Kick1.wav
469,192,3151,128,0,3508:0:0:0:0:
42,192,3389,1,0,0:0:0:80:LR_Drum Rpd Fast1.wav
128,192,3389,1,0,0:0:0:0:
213,192,3389,1,0,0:0:0:0:
384,192,3508,128,0,3865:0:0:0:0:
298,192,3627,1,0,0:0:0:0:
42,192,3865,1,0,0:0:0:40:Kick1.wav
213,192,3865,128,0,5056:0:0:0:0:
128,192,3984,1,0,0:0:0:0:
298,192,4103,1,0,0:0:0:0:
42,192,4341,1,0,0:0:0:80:LR_Drum Rpd Fast1.wav
384,192,4341,1,0,0:0:0:0:
469,192,4341,1,0,0:0:0:0:
298,192,4460,1,0,0:0:0:0:
128,192,4580,1,0,0:0:0:0:
298,192,4699,1,0,0:0:0:40:Kick1.wav
384,192,4699,1,0,0:0:0:0:
128,192,4818,1,0,0:0:0:0:
42,192,4937,1,0,0:0:0:0:
298,192,5056,1,0,0:0:0:40:Kick1.wav
384,192,5056,128,0,5413:0:0:0:0:
469,192,5175,1,0,0:0:0:0:
42,192,5294,1,0,0:0:0:80:LR_Drum Rpd Fast1.wav
128,192,5294,1,0,0:0:0:0:
213,192,5294,1,0,0:0:0:0:
298,192,5413,128,0,5770:0:0:0:40:Kick1.wav
469,192,5413,1,0,0:0:0:0:
213,192,5532,1,0,0:0:0:0:
128,192,5651,1,0,0:0:0:0:
42,192,5770,128,0,7437:0:0:0:40:Kick1.wav
469,192,5770,1,0,0:0:0:0:
384,192,5889,1,0,0:0:0:0:
469,192,6008,1,0,0:0:0:0:
128,192,6246,1,0,0:0:0:80:LR_Drum Rpd Fast1.wav
298,192,6246,1,0,0:0:0:0:
469,192,6246,1,0,0:0:0:0:
213,192,6365,1,0,0:0:0:0:
128,192,6484,1,0,0:0:0:0:
298,192,6603,1,0,0:0:0:40:Kick1.wav
384,192,6603,1,0,0:0:0:0:
469,192,6722,1,0,0:0:0:0:
213,192,6841,1,0,0:0:0:0:
298,192,6960,1,0,0:0:0:40:Kick1.wav
384,192,6960,1,0,0:0:0:0:
128,192,7199,1,0,0:0:0:80:LR_Drum Rpd Fast1.wav
384,192,7199,1,0,0:0:0:0:
469,192,7199,1,0,0:0:0:0:
213,192,7318,1,0,0:0:0:0:
298,192,7437,1,0,0:0:0:0:
42,192,7675,1,0,0:0:0:40:Kick1.wav
469,192,7675,1,0,0:0:0:0:
298,192,7794,1,0,0:0:0:0:
128,192,7913,1,0,0:0:0:0:
42,192,8151,1,0,0:0:0:80:LR_Drum Rpd Fast1.wav
213,192,8151,1,0,0:0:0:0:
469,192,8151,1,0,0:0:0:0:
298,192,8270,1,0,0:0:0:0:
384,192,8389,1,0,0:0:0:0:
42,192,8508,1,0,0:0:0:40:Kick1.wav
469,192,8508,1,0,0:0:0:0:
213,192,8627,1,0,0:0:0:0:
298,192,8746,1,0,0:0:0:0:
42,192,8865,1,0,0:0:0:40:Kick1.wav
469,192,8865,1,0,0:0:0:0:
213,192,8984,1,0,0:0:0:0:
42,192,9103,1,0,0:0:0:80:LR_Drum Rpd Fast1.wav
298,192,9103,1,0,0:0:0:0:
469,192,9103,1,0,0:0:0:0:
384,192,9222,1,0,0:0:0:0:
42,192,9341,1,0,0:0:0:40:Kick1.wav
469,192,9341,1,0,0:0:0:0:
128,192,9460,1,0,0:0:0:0:
42,192,9580,1,0,0:0:0:100:Cymbal.wav
213,192,9580,128,0,10770:0:0:0:40:Kick1.wav
298,192,9580,1,0,0:0:0:0:
469,192,9580,1,0,0:0:0:0:
384,192,9699,1,0,0:0:0:0:
469,192,9818,1,0,0:0:0:0:
42,192,10056,1,0,0:0:0:80:LR_Drum Rpd Fast1.wav
298,192,10056,1,0,0:0:0:0:
384,192,10056,1,0,0:0:0:0:
128,192,10175,1,0,0:0:0:0:
42,192,10294,1,0,0:0:0:0:
384,192,10413,1,0,0:0:0:40:Kick1.wav
469,192,10413,1,0,0:0:0:0:
298,192,10532,1,0,0:0:0:0:
128,192,10651,1,0,0:0:0:0:
384,192,10770,128,0,11127:0:0:0:40:Kick1.wav
469,192,10770,1,0,0:0:0:0:
42,192,11008,1,0,0:0:0:80:LR_Drum Rpd Fast1.wav
128,192,11008,1,0,0:0:0:0:
213,192,11008,1,0,0:0:0:0:
298,192,11127,128,0,11484:0:0:0:0:
42,192,11246,1,0,0:0:0:0:
213,192,11484,128,0,12318:0:0:0:40:Kick1.wav
469,192,11484,1,0,0:0:0:0:
384,192,11603,1,0,0:0:0:0:
128,192,11722,1,0,0:0:0:0:
42,192,11960,1,0,0:0:0:80:LR_Drum Rpd Fast1.wav
384,192,11960,1,0,0:0:0:0:
469,192,11960,1,0,0:0:0:0:
128,192,12080,1,0,0:0:0:0:
298,192,12199,1,0,0:0:0:0:
384,192,12318,1,0,0:0:0:40:Kick1.wav
469,192,12318,128,0,12675:0:0:0:0:
213,192,12437,1,0,0:0:0:0:
384,192,12556,1,0,0:0:0:0:
128,192,12675,1,0,0:0:0:40:Kick1.wav
298,192,12675,128,0,13032:0:0:0:0:
42,192,12794,1,0,0:0:0:0:
213,192,12913,1,0,0:0:0:80:LR_Drum Rpd Fast1.wav
384,192,12913,1,0,0:0:0:0:
469,192,12913,1,0,0:0:0:0:
42,192,13032,128,0,13389:0:0:0:40:Kick1.wav
128,192,13032,1,0,0:0:0:0:
384,192,13151,1,0,0:0:0:0:
128,192,13270,1,0,0:0:0:0:
213,192,13389,128,0,15175:0:0:0:40:Kick1.wav
469,192,13389,1,0,0:0:0:0:
384,192,13508,1,0,0:0:0:0:
469,192,13627,1,0,0:0:0:0:
42,192,13865,1,0,0:0:0:80:LR_Drum Rpd Fast1.wav
298,192,13865,1,0,0:0:0:0:
469,192,13865,1,0,0:0:0:0:
128,192,13984,1,0,0:0:0:0:
42,192,14103,1,0,0:0:0:0:
298,192,14222,1,0,0:0:0:40:Kick1.wav
469,192,14222,1,0,0:0:0:0:
384,192,14341,1,0,0:0:0:0:
128,192,14460,1,0,0:0:0:0:
298,192,14580,1,0,0:0:0:40:Kick1.wav
469,192,14580,1,0,0:0:0:0:
42,192,14818,1,0,0:0:0:80:LR_Drum Rpd Fast1.wav
384,192,14818,1,0,0:0:0:0:
469,192,14818,1,0,0:0:0:0:
128,192,14937,1,0,0:0:0:40:Kick1.wav
298,192,14937,1,0,0:0:0:0:
42,192,15056,1,0,0:0:0:0:
384,192,15294,1,0,0:0:0:0:
469,192,15294,1,0,0:0:0:0:
42,192,15294,1,0,0:0:0:30:Clap1.wav
128,192,15413,1,0,0:0:0:40:Kick1.wav
213,192,15413,1,0,0:0:0:0:
298,192,15413,128,0,15532:0:0:0:0:
213,192,15651,1,0,0:0:0:0:
128,192,15651,1,0,0:0:0:30:Clap1.wav
298,192,15651,1,0,0:0:0:0:
384,192,15770,1,0,0:0:0:0:
469,192,15770,1,0,0:0:0:0:
42,192,15770,1,0,0:0:0:30:Clap1.wav
298,192,15889,1,0,0:0:0:0:
128,192,16008,1,0,0:0:0:0:
469,192,16008,1,0,0:0:0:0:
42,192,16008,1,0,0:0:0:30:Clap1.wav
128,192,16127,1,0,0:0:0:100:Cymbal.wav
213,192,16127,1,0,0:0:0:40:Kick1.wav
298,192,16127,1,0,0:0:0:0:
384,192,16127,128,0,16246:0:0:0:0:
213,192,16365,1,0,0:0:0:0:
298,192,16365,1,0,0:0:0:0:
128,192,16365,1,0,0:0:0:30:Clap1.wav
384,192,16484,1,0,0:0:0:100:LR_Tom Hit.wav
298,192,16484,1,0,0:0:0:0:
213,192,16603,1,0,0:0:0:0:
42,192,16722,1,0,0:0:0:0:
384,192,16722,1,0,0:0:0:0:
128,192,16722,1,0,0:0:0:30:Clap1.wav
213,192,16841,1,0,0:0:0:40:Kick1.wav
469,192,16841,128,0,17199:0:0:0:0:
384,192,17040,128,0,17199:0:0:0:0:
42,192,17199,128,0,17675:0:0:0:100:Cymbal.wav
128,192,17199,128,0,17595:0:0:0:40:Kick1.wav
213,192,17199,128,0,17516:0:0:0:0:
298,192,17199,128,0,17437:0:0:0:0:
298,192,17675,1,0,0:0:0:80:LR_Drum Rpd Fast1.wav
384,192,17675,1,0,0:0:0:0:
469,192,17675,1,0,0:0:0:0:
213,192,17913,1,0,0:0:0:0:
213,192,18151,1,0,0:0:0:0:
213,192,18389,1,0,0:0:0:40:Kick1.wav
469,192,18389,1,0,0:0:0:0:
298,192,18627,1,0,0:0:0:80:LR_Drum Rpd Fast1.wav
384,192,18627,1,0,0:0:0:0:
469,192,18627,1,0,0:0:0:0:
213,192,18865,1,0,0:0:0:0:
42,192,18984,1,0,0:0:0:0:
213,192,19103,1,0,0:0:0:40:Kick1.wav
469,192,19103,1,0,0:0:0:0:
213,192,19341,1,0,0:0:0:0:
298,192,19580,1,0,0:0:0:80:LR_Drum Rpd Fast1.wav
384,192,19580,1,0,0:0:0:0:
469,192,19580,1,0,0:0:0:0:
213,192,19818,1,0,0:0:0:0:
42,192,19897,1,0,0:0:0:0:
384,192,19976,1,0,0:0:0:0:
213,192,20056,1,0,0:0:0:0:
128,192,20175,1,0,0:0:0:0:
213,192,20294,1,0,0:0:0:40:Kick1.wav
469,192,20294,1,0,0:0:0:0:
298,192,20532,1,0,0:0:0:80:LR_Drum Rpd Fast1.wav
384,192,20532,1,0,0:0:0:0:
469,192,20532,1,0,0:0:0:0:
213,192,20770,1,0,0:0:0:0:
128,192,20889,1,0,0:0:0:0:
42,192,21008,1,0,0:0:0:40:Kick1.wav
298,192,21008,1,0,0:0:0:0:
298,192,21246,1,0,0:0:0:0:
42,192,21484,1,0,0:0:0:80:LR_Drum Rpd Fast1.wav
128,192,21484,1,0,0:0:0:0:
213,192,21484,1,0,0:0:0:0:
298,192,21722,1,0,0:0:0:0:
469,192,21802,1,0,0:0:0:0:
128,192,21881,1,0,0:0:0:0:
298,192,21960,1,0,0:0:0:0:
384,192,22080,1,0,0:0:0:0:
42,192,22199,1,0,0:0:0:40:Kick1.wav
298,192,22199,1,0,0:0:0:0:
42,192,22437,1,0,0:0:0:80:LR_Drum Rpd Fast1.wav
128,192,22437,1,0,0:0:0:0:
213,192,22437,1,0,0:0:0:0:
298,192,22675,1,0,0:0:0:0:
469,192,22794,1,0,0:0:0:0:
42,192,22913,1,0,0:0:0:40:Kick1.wav
298,192,22913,1,0,0:0:0:0:
42,192,23151,1,0,0:0:0:40:Kick1.wav
298,192,23151,1,0,0:0:0:0:
42,192,23389,1,0,0:0:0:80:LR_Drum Rpd Fast1.wav
128,192,23389,1,0,0:0:0:0:
213,192,23389,1,0,0:0:0:0:
298,192,23627,1,0,0:0:0:0:
469,192,23707,1,0,0:0:0:0:
128,192,23786,1,0,0:0:0:0:
298,192,23865,1,0,0:0:0:0:
384,192,23984,1,0,0:0:0:0:
42,192,24103,1,0,0:0:0:40:Kick1.wav
298,192,24103,128,0,24341:0:0:0:0:
469,192,24103,128,0,24341:0:0:0:0:
42,192,24341,1,0,0:0:0:80:LR_Drum Rpd Fast1.wav
128,192,24341,1,0,0:0:0:0:
213,192,24341,1,0,0:0:0:0:
298,192,24580,1,0,0:0:0:0:
469,192,24699,1,0,0:0:0:0:
42,192,24818,1,0,0:0:0:50:LR_Ride_Long_Low.wav
213,192,24818,128,0,25294:0:0:0:40:Kick1.wav
298,192,24818,1,0,0:0:0:0:
42,192,25294,1,0,0:0:0:80:LR_Drum Rpd Fast1.wav
298,192,25294,1,0,0:0:0:0:
384,192,25294,1,0,0:0:0:0:
128,192,25532,1,0,0:0:0:0:
298,192,25611,1,0,0:0:0:0:
469,192,25691,1,0,0:0:0:0:
128,192,25770,1,0,0:0:0:0:
213,192,25889,1,0,0:0:0:0:
128,192,26008,1,0,0:0:0:40:Kick1.wav
384,192,26008,1,0,0:0:0:0:
42,192,26246,1,0,0:0:0:80:LR_Drum Rpd Fast1.wav
298,192,26246,1,0,0:0:0:0:
384,192,26246,1,0,0:0:0:0:
128,192,26484,1,0,0:0:0:0:
213,192,26603,1,0,0:0:0:0:
128,192,26722,1,0,0:0:0:40:Kick1.wav
384,192,26722,1,0,0:0:0:0:
128,192,26960,1,0,0:0:0:0:
42,192,27199,1,0,0:0:0:80:LR_Drum Rpd Fast1.wav
298,192,27199,1,0,0:0:0:0:
384,192,27199,1,0,0:0:0:0:
128,192,27437,1,0,0:0:0:0:
298,192,27516,1,0,0:0:0:0:
469,192,27595,1,0,0:0:0:0:
128,192,27675,1,0,0:0:0:0:
213,192,27794,1,0,0:0:0:0:
128,192,27913,1,0,0:0:0:40:Kick1.wav
384,192,27913,1,0,0:0:0:0:
42,192,28151,1,0,0:0:0:80:LR_Drum Rpd Fast1.wav
298,192,28151,1,0,0:0:0:0:
384,192,28151,1,0,0:0:0:0:
128,192,28270,1,0,0:0:0:40:Kick1.wav
384,192,28270,1,0,0:0:0:0:
213,192,28389,1,0,0:0:0:0:
213,192,28508,1,0,0:0:0:0:
128,192,28627,1,0,0:0:0:40:Kick1.wav
384,192,28627,1,0,0:0:0:0:
384,192,28865,1,0,0:0:0:0:
128,192,29103,1,0,0:0:0:80:LR_Drum Rpd Fast1.wav
213,192,29103,1,0,0:0:0:0:
469,192,29103,1,0,0:0:0:0:
384,192,29341,1,0,0:0:0:0:
213,192,29421,1,0,0:0:0:0:
42,192,29500,1,0,0:0:0:0:
384,192,29580,1,0,0:0:0:0:
298,192,29699,1,0,0:0:0:0:
128,192,29818,1,0,0:0:0:40:Kick1.wav
384,192,29818,1,0,0:0:0:0:
128,192,30056,1,0,0:0:0:80:LR_Drum Rpd Fast1.wav
213,192,30056,1,0,0:0:0:0:
469,192,30056,1,0,0:0:0:0:
384,192,30294,1,0,0:0:0:0:
298,192,30413,1,0,0:0:0:0:
128,192,30532,1,0,0:0:0:40:Kick1.wav
384,192,30532,1,0,0:0:0:0:
128,192,30770,1,0,0:0:0:40:Kick1.wav
384,192,30770,1,0,0:0:0:0:
128,192,31008,1,0,0:0:0:80:LR_Drum Rpd Fast1.wav
213,192,31008,1,0,0:0:0:0:
469,192,31008,1,0,0:0:0:0:
384,192,31246,1,0,0:0:0:0:
213,192,31326,1,0,0:0:0:0:
42,192,31405,1,0,0:0:0:0:
384,192,31484,1,0,0:0:0:0:
298,192,31603,1,0,0:0:0:0:
42,192,31722,128,0,31960:0:0:0:40:Kick1.wav
128,192,31722,1,0,0:0:0:0:
384,192,31722,128,0,31960:0:0:0:0:
128,192,31960,1,0,0:0:0:80:LR_Drum Rpd Fast1.wav
213,192,31960,1,0,0:0:0:0:
469,192,31960,1,0,0:0:0:0:
42,192,32199,1,0,0:0:0:0:
213,192,32318,1,0,0:0:0:0:
42,192,32437,128,0,32556:0:0:0:100:Cymbal.wav
298,192,32437,1,0,0:0:0:40:Kick1.wav
384,192,32437,1,0,0:0:0:0:
469,192,32437,1,0,0:0:0:0:
469,192,32675,1,0,0:0:0:0:
298,192,32794,1,0,0:0:0:0:
42,192,32913,1,0,0:0:0:80:LR_Drum Rpd Fast1.wav
213,192,32913,1,0,0:0:0:0:
469,192,32913,128,0,33270:0:0:0:0:
213,192,33151,1,0,0:0:0:0:
213,192,33389,1,0,0:0:0:0:
42,192,33627,1,0,0:0:0:40:Kick1.wav
384,192,33627,1,0,0:0:0:0:
42,192,33865,1,0,0:0:0:80:LR_Drum Rpd Fast1.wav
213,192,33865,1,0,0:0:0:0:
469,192,33865,1,0,0:0:0:0:
384,192,34103,128,0,34222:0:0:0:0:
298,192,34222,128,0,34341:0:0:0:0:
42,192,34341,1,0,0:0:0:40:Kick1.wav
469,192,34341,1,0,0:0:0:0:
298,192,34460,1,0,0:0:0:0:
469,192,34580,128,0,34699:0:0:0:0:
42,192,34818,1,0,0:0:0:80:LR_Drum Rpd Fast1.wav
213,192,34818,1,0,0:0:0:0:
469,192,34818,128,0,34937:0:0:0:0:
298,192,34937,128,0,35056:0:0:0:0:
384,192,35056,1,0,0:0:0:0:
42,192,35135,1,0,0:0:0:0:
469,192,35175,128,0,35294:0:0:0:0:
128,192,35214,1,0,0:0:0:0:
213,192,35294,1,0,0:0:0:0:
298,192,35413,128,0,35770:0:0:0:0:
42,192,35532,1,0,0:0:0:40:Kick1.wav
384,192,35532,1,0,0:0:0:0:
42,192,35770,1,0,0:0:0:80:LR_Drum Rpd Fast1.wav
213,192,35770,1,0,0:0:0:0:
469,192,35770,1,0,0:0:0:0:
213,192,36008,1,0,0:0:0:0:
298,192,36127,1,0,0:0:0:0:
42,192,36246,1,0,0:0:0:40:Kick1.wav
384,192,36246,1,0,0:0:0:0:
469,192,36484,1,0,0:0:0:0:
298,192,36603,1,0,0:0:0:0:
42,192,36722,1,0,0:0:0:80:LR_Drum Rpd Fast1.wav
213,192,36722,1,0,0:0:0:0:
469,192,36722,128,0,37080:0:0:0:0:
213,192,36960,1,0,0:0:0:0:
42,192,37040,1,0,0:0:0:0:
128,192,37119,1,0,0:0:0:0:
213,192,37199,1,0,0:0:0:0:
469,192,37318,1,0,0:0:0:0:
42,192,37437,1,0,0:0:0:40:Kick1.wav
384,192,37437,1,0,0:0:0:0:
42,192,37675,1,0,0:0:0:80:LR_Drum Rpd Fast1.wav
213,192,37675,1,0,0:0:0:0:
469,192,37675,1,0,0:0:0:0:
213,192,37913,1,0,0:0:0:0:
298,192,38032,1,0,0:0:0:0:
42,192,38151,1,0,0:0:0:40:Kick1.wav
384,192,38151,1,0,0:0:0:0:
42,192,38389,1,0,0:0:0:40:Kick1.wav
384,192,38389,1,0,0:0:0:0:
298,192,38508,1,0,0:0:0:0:
42,192,38627,1,0,0:0:0:80:LR_Drum Rpd Fast1.wav
213,192,38627,1,0,0:0:0:0:
469,192,38627,1,0,0:0:0:0:
384,192,38806,1,0,0:0:0:0:
298,192,38895,1,0,0:0:0:0:
42,192,38945,1,0,0:0:0:0:
384,192,38984,1,0,0:0:0:0:
128,192,39024,1,0,0:0:0:0:
213,192,39103,1,0,0:0:0:0:
469,192,39103,1,0,0:0:0:0:
384,192,39222,1,0,0:0:0:0:
128,192,39341,128,0,39580:0:0:0:40:Kick1.wav
298,192,39341,128,0,39580:0:0:0:0:
469,192,39460,1,0,0:0:0:0:
42,192,39580,1,0,0:0:0:80:LR_Drum Rpd Fast1.wav
213,192,39580,1,0,0:0:0:0:
384,192,39580,1,0,0:0:0:0:
213,192,39818,1,0,0:0:0:0:
128,192,39937,1,0,0:0:0:0:
213,192,40056,128,0,40175:0:0:0:50:LR_Ride_Long_Low.wav
298,192,40056,1,0,0:0:0:40:Kick1.wav
469,192,40056,1,0,0:0:0:0:
469,192,40294,1,0,0:0:0:0:
384,192,40413,1,0,0:0:0:0:
42,192,40532,1,0,0:0:0:80:LR_Drum Rpd Fast1.wav
128,192,40532,1,0,0:0:0:0:
469,192,40532,128,0,41008:0:0:0:0:
128,192,40770,1,0,0:0:0:0:
384,192,40770,128,0,41008:0:0:0:0:
213,192,40889,1,0,0:0:0:0:
128,192,41008,128,0,41127:0:0:0:0:
213,192,41246,1,0,0:0:0:40:Kick1.wav
384,192,41246,1,0,0:0:0:0:
298,192,41365,1,0,0:0:0:0:
42,192,41484,1,0,0:0:0:80:LR_Drum Rpd Fast1.wav
128,192,41484,1,0,0:0:0:0:
384,192,41484,128,0,41960:0:0:0:0:
42,192,41722,1,0,0:0:0:0:
298,192,41722,128,0,41960:0:0:0:0:
128,192,41841,1,0,0:0:0:0:
42,192,41960,128,0,42199:0:0:0:40:Kick1.wav
469,192,41960,1,0,0:0:0:0:
42,192,42437,1,0,0:0:0:80:LR_Drum Rpd Fast1.wav
128,192,42437,1,0,0:0:0:0:
298,192,42437,1,0,0:0:0:0:
213,192,42675,1,0,0:0:0:0:
42,192,42754,1,0,0:0:0:0:
128,192,42834,1,0,0:0:0:0:
384,192,42913,1,0,0:0:0:0:
298,192,43032,1,0,0:0:0:0:
42,192,43151,1,0,0:0:0:40:Kick1.wav
469,192,43151,1,0,0:0:0:0:
384,192,43270,1,0,0:0:0:0:
42,192,43389,1,0,0:0:0:80:LR_Drum Rpd Fast1.wav
128,192,43389,1,0,0:0:0:0:
298,192,43389,1,0,0:0:0:0:
213,192,43508,1,0,0:0:0:40:Kick1.wav
384,192,43508,1,0,0:0:0:0:
298,192,43627,1,0,0:0:0:0:
469,192,43746,1,0,0:0:0:0:
42,192,43865,128,0,43984:0:0:0:40:Kick1.wav
384,192,43865,1,0,0:0:0:0:
469,192,44103,1,0,0:0:0:0:
298,192,44222,1,0,0:0:0:0:
42,192,44341,1,0,0:0:0:80:LR_Drum Rpd Fast1.wav
128,192,44341,1,0,0:0:0:0:
469,192,44341,128,0,44460:0:0:0:0:
384,192,44460,128,0,44580:0:0:0:0:
469,192,44580,128,0,44818:0:0:0:0:
42,192,44659,1,0,0:0:0:0:
128,192,44738,1,0,0:0:0:0:
213,192,44818,1,0,0:0:0:0:
384,192,44996,128,0,45294:0:0:0:0:
42,192,45056,1,0,0:0:0:40:Kick1.wav
298,192,45056,1,0,0:0:0:0:
42,192,45294,1,0,0:0:0:80:LR_Drum Rpd Fast1.wav
128,192,45294,1,0,0:0:0:0:
469,192,45294,1,0,0:0:0:0:
298,192,45532,128,0,45770:0:0:0:0:
42,192,45770,128,0,46603:0:0:0:40:Kick1.wav
213,192,45770,1,0,0:0:0:0:
213,192,46008,1,0,0:0:0:40:Kick1.wav
298,192,46008,1,0,0:0:0:0:
128,192,46246,1,0,0:0:0:80:LR_Drum Rpd Fast1.wav
298,192,46246,1,0,0:0:0:0:
469,192,46246,1,0,0:0:0:0:
384,192,46484,1,0,0:0:0:0:
298,192,46603,1,0,0:0:0:0:
42,192,46722,128,0,46841:0:0:0:0:
469,192,46722,1,0,0:0:0:0:
384,192,46841,1,0,0:0:0:0:
42,192,46960,128,0,47080:0:0:0:40:Kick1.wav
469,192,46960,1,0,0:0:0:0:
298,192,47080,1,0,0:0:0:0:
42,192,47199,128,0,47318:0:0:0:80:LR_Drum Rpd Fast1.wav
128,192,47199,1,0,0:0:0:0:
469,192,47199,1,0,0:0:0:0:
384,192,47318,1,0,0:0:0:0:
42,192,47437,128,0,47556:0:0:0:0:
298,192,47437,1,0,0:0:0:0:
469,192,47556,1,0,0:0:0:0:
42,192,47675,128,0,48032:0:0:0:100:Cymbal.wav
128,192,47675,1,0,0:0:0:40:Kick1.wav
298,192,47675,1,0,0:0:0:0:
384,192,47675,1,0,0:0:0:0:
213,192,48151,1,0,0:0:0:70:LR_Tom Hit.wav
469,192,48151,128,0,48389:0:0:0:0:
298,192,48230,1,0,0:0:0:0:
213,192,48310,1,0,0:0:0:0:
298,192,48389,1,0,0:0:0:0:
213,192,48468,1,0,0:0:0:0:
298,192,48548,1,0,0:0:0:0:
128,192,48627,1,0,0:0:0:80:LR_Drum Rpd Fast1.wav
213,192,48627,1,0,0:0:0:0:
469,192,48627,128,0,48865:0:0:0:0:
298,192,48746,1,0,0:0:0:0:
42,192,48865,1,0,0:0:0:40:Kick1.wav
384,192,48865,1,0,0:0:0:0:
128,192,48984,1,0,0:0:0:60:LR_Drum Rpd Fast1.wav
213,192,48984,1,0,0:0:0:0:
298,192,48984,1,0,0:0:0:0:
128,192,49103,1,0,0:0:0:80:LR_Drum Rpd Fast1.wav
213,192,49103,1,0,0:0:0:40:Kick1.wav
469,192,49103,128,0,49341:0:0:0:0:
213,192,49341,1,0,0:0:0:100:Cymbal.wav
42,192,49341,128,0,49818:0:0:0:40:Kick1.wav
384,192,49341,1,0,0:0:0:0:
298,192,49460,1,0,0:0:0:0:
469,192,49580,128,0,49818:0:0:0:0:
213,192,49699,1,0,0:0:0:80:LR_Drum Rpd Fast1.wav
128,192,49699,1,0,0:0:0:0:
213,192,49818,1,0,0:0:0:70:LR_Tom Hit.wav
384,192,49818,1,0,0:0:0:0:
298,192,49937,1,0,0:0:0:0:
42,192,50056,1,0,0:0:0:40:Kick1.wav
469,192,50056,128,0,50294:0:0:0:0:
213,192,50175,1,0,0:0:0:0:
128,192,50294,1,0,0:0:0:70:LR_Tom Hit 2.wav
384,192,50294,1,0,0:0:0:0:
42,192,50413,1,0,0:0:0:40:Kick1.wav
298,192,50413,1,0,0:0:0:0:
469,192,50532,128,0,50770:0:0:0:0:
42,192,50651,1,0,0:0:0:80:LR_Drum Rpd Fast1.wav
128,192,50651,1,0,0:0:0:0:
213,192,50651,1,0,0:0:0:0:
42,192,50770,1,0,0:0:0:40:Kick1.wav
384,192,50770,1,0,0:0:0:0:
298,192,50889,1,0,0:0:0:0:
213,192,51008,1,0,0:0:0:70:LR_Tom Hit.wav
469,192,51008,128,0,51246:0:0:0:0:
42,192,51127,1,0,0:0:0:100:LR_Tom Hit 2.wav
128,192,51127,1,0,0:0:0:0:
42,192,51246,128,0,51722:0:0:0:100:Cymbal.wav
213,192,51246,1,0,0:0:0:40:Kick1.wav
384,192,51246,1,0,0:0:0:0:
298,192,51365,1,0,0:0:0:0:
469,192,51484,128,0,51722:0:0:0:0:
384,192,51722,1,0,0:0:0:0:
298,192,51841,1,0,0:0:0:0:
42,192,51960,1,0,0:0:0:80:LR_Drum Rpd Fast1.wav
128,192,51960,1,0,0:0:0:0:
469,192,51960,128,0,52199:0:0:0:0:
213,192,52080,1,0,0:0:0:0:
42,192,52199,1,0,0:0:0:80:LR_Drum Rpd Fast1.wav
128,192,52199,1,0,0:0:0:0:
384,192,52199,1,0,0:0:0:0:
213,192,52318,1,0,0:0:0:100:LR_Tom Hit.wav
298,192,52318,1,0,0:0:0:0:
469,192,52437,128,0,52675:0:0:0:0:
42,192,52556,1,0,0:0:0:100:LR_Tom Hit.wav
128,192,52556,1,0,0:0:0:0:
213,192,52675,1,0,0:0:0:0:
384,192,52675,1,0,0:0:0:0:
128,192,52794,1,0,0:0:0:0:
298,192,52794,1,0,0:0:0:0:
42,192,52913,1,0,0:0:0:100:LR_Tom Hit 2.wav
469,192,52913,128,0,53151:0:0:0:0:
213,192,53032,1,0,0:0:0:0:
128,192,53151,1,0,0:0:0:100:Cymbal.wav
42,192,53151,128,0,53627:0:0:0:40:Kick1.wav
384,192,53151,1,0,0:0:0:0:
298,192,53270,1,0,0:0:0:0:
469,192,53389,128,0,53627:0:0:0:0:
213,192,53389,1,0,0:0:0:70:LR_Tom Hit.wav
384,192,53627,1,0,0:0:0:0:
298,192,53746,1,0,0:0:0:0:
213,192,53786,1,0,0:0:0:40:LR_Drum_Rpd x2.wav
469,192,53865,128,0,54103:0:0:0:0:
42,192,53865,1,0,0:0:0:40:LR_Drum_Rpd x2.wav
128,192,53865,1,0,0:0:0:0:
42,192,53984,1,0,0:0:0:40:LR_Drum_Rpd x2.wav
128,192,53984,1,0,0:0:0:0:
384,192,54103,1,0,0:0:0:0:
42,192,54103,128,0,54580:0:0:0:100:Cymbal.wav
213,192,54103,1,0,0:0:0:40:Kick1.wav
298,192,54222,1,0,0:0:0:0:
469,192,54341,128,0,54580:0:0:0:0:
384,192,54580,1,0,0:0:0:0:
298,192,54699,1,0,0:0:0:0:
213,192,54738,1,0,0:0:0:40:LR_Drum_Rpd x2.wav
128,192,54818,1,0,0:0:0:40:LR_Drum_Rpd x2.wav
42,192,54818,1,0,0:0:0:0:
469,192,54818,128,0,55056:0:0:0:0:
128,192,54937,1,0,0:0:0:40:LR_Drum_Rpd x2.wav
42,192,54937,1,0,0:0:0:0:
42,192,55056,1,0,0:0:0:100:Cymbal.wav
213,192,55056,1,0,0:0:0:40:Kick1.wav
298,192,55056,128,0,55413:0:0:0:0:
384,192,55056,1,0,0:0:0:0:
298,192,55532,128,0,55651:0:0:0:0:
42,192,55770,1,0,0:0:0:40:Kick1.wav
298,192,55770,128,0,55889:0:0:0:0:
298,192,56008,128,0,56127:0:0:0:0:
42,192,56246,1,0,0:0:0:40:Kick1.wav
469,192,56246,128,0,56365:0:0:0:0:
213,192,56365,1,0,0:0:0:0:
469,192,56484,128,0,56603:0:0:0:0:
213,192,56603,1,0,0:0:0:0:
42,192,56722,1,0,0:0:0:40:Kick1.wav
469,192,56722,128,0,56841:0:0:0:0:
128,192,56841,1,0,0:0:0:0:
469,192,56960,128,0,57080:0:0:0:0:
128,192,57080,1,0,0:0:0:0:
42,192,57199,1,0,0:0:0:40:Kick1.wav
384,192,57199,128,0,57318:0:0:0:0:
213,192,57318,1,0,0:0:0:0:
384,192,57437,128,0,57556:0:0:0:0:
213,192,57556,1,0,0:0:0:0:
42,192,57675,1,0,0:0:0:40:Kick1.wav
384,192,57675,128,0,57794:0:0:0:0:
128,192,57794,1,0,0:0:0:0:
384,192,57913,128,0,58032:0:0:0:0:
128,192,58032,1,0,0:0:0:0:
42,192,58151,1,0,0:0:0:40:Kick1.wav
469,192,58151,128,0,58389:0:0:0:0:
213,192,58270,1,0,0:0:0:0:
298,192,58389,128,0,58627:0:0:0:0:
128,192,58508,1,0,0:0:0:0:
42,192,58627,1,0,0:0:0:40:Kick1.wav
469,192,58627,128,0,58984:0:0:0:0:
213,192,58746,1,0,0:0:0:0:
298,192,58865,128,0,58984:0:0:0:0:
128,192,58984,1,0,0:0:0:0:
42,192,59103,1,0,0:0:0:100:Cymbal.wav
213,192,59103,1,0,0:0:0:40:Kick1.wav
298,192,59103,128,0,59222:0:0:0:0:
469,192,59103,1,0,0:0:0:0:
213,192,59341,1,0,0:0:0:100:LR_Tom_Hit_3.wav
298,192,59341,128,0,59460:0:0:0:0:
213,192,59580,1,0,0:0:0:100:LR_Tom_Hit_3.wav
298,192,59580,128,0,59699:0:0:0:40:Kick1.wav
213,192,59818,1,0,0:0:0:100:LR_Tom_Hit_3.wav
298,192,59818,128,0,59937:0:0:0:0:
213,192,60056,1,0,0:0:0:40:Kick1.wav
384,192,60056,128,0,60175:0:0:0:0:
42,192,60135,1,0,0:0:0:0:
128,192,60214,1,0,0:0:0:0:
213,192,60294,1,0,0:0:0:0:
384,192,60294,128,0,60413:0:0:0:0:
42,192,60373,1,0,0:0:0:0:
128,192,60453,1,0,0:0:0:0:
213,192,60453,1,0,0:0:0:0:
298,192,60532,1,0,0:0:0:80:LR_Drum Rpd Fast1.wav
384,192,60532,128,0,60651:0:0:0:0:
469,192,60532,1,0,0:0:0:0:
42,192,60770,128,0,61127:0:0:0:100:Cymbal.wav
298,192,60770,128,0,61365:0:0:0:40:Kick1.wav
384,192,60770,128,0,61246:0:0:0:0:
469,192,60770,128,0,61127:0:0:0:0:
128,192,61127,128,0,61246:0:0:0:0:
213,192,61246,128,0,61365:0:0:0:0:
128,192,62675,128,0,62913:0:0:0:0:
384,192,62675,128,0,62913:0:0:0:0:
42,192,62913,1,0,0:0:0:100:Cymbal.wav
213,192,62913,1,0,0:0:0:40:Kick1.wav
298,192,62913,1,0,0:0:0:0:
469,192,62913,1,0,0:0:0:0:
42,192,63151,1,0,0:0:0:0:
213,192,63151,1,0,0:0:0:0:
42,192,63389,1,0,0:0:0:80:LR_Drum Rpd Fast1.wav
298,192,63389,1,0,0:0:0:40:Kick1.wav
469,192,63389,1,0,0:0:0:0:
128,192,63627,1,0,0:0:0:0:
298,192,63627,1,0,0:0:0:0:
213,192,63865,1,0,0:0:0:40:Kick1.wav
298,192,63865,1,0,0:0:0:0:
213,192,64103,1,0,0:0:0:0:
384,192,64103,1,0,0:0:0:0:
42,192,64341,1,0,0:0:0:80:LR_Drum Rpd Fast1.wav
213,192,64341,1,0,0:0:0:40:Kick1.wav
469,192,64341,1,0,0:0:0:0:
298,192,64580,1,0,0:0:0:0:
469,192,64580,1,0,0:0:0:0:
128,192,64818,1,0,0:0:0:40:Kick1.wav
469,192,64818,1,0,0:0:0:0:
213,192,65056,1,0,0:0:0:0:
128,192,65056,1,0,0:0:0:0:
128,192,65294,1,0,0:0:0:80:LR_Drum Rpd Fast1.wav
42,192,65294,1,0,0:0:0:40:Kick1.wav
384,192,65294,1,0,0:0:0:0:
384,192,65532,1,0,0:0:0:0:
298,192,65532,1,0,0:0:0:0:
213,192,65770,1,0,0:0:0:40:Kick1.wav
384,192,65770,1,0,0:0:0:0:
213,192,66008,1,0,0:0:0:0:
42,192,66008,1,0,0:0:0:0:
213,192,66246,1,0,0:0:0:80:LR_Drum Rpd Fast1.wav
384,192,66246,1,0,0:0:0:40:Kick1.wav
469,192,66246,1,0,0:0:0:0:
469,192,66484,1,0,0:0:0:0:
298,192,66484,1,0,0:0:0:0:
128,192,66603,1,0,0:0:0:60:LR_Drum_Rpd x2.wav
213,192,66603,1,0,0:0:0:0:
42,192,66722,1,0,0:0:0:40:Kick1.wav
469,192,66722,1,0,0:0:0:0:
42,192,66960,1,0,0:0:0:0:
213,192,66960,1,0,0:0:0:0:
42,192,67199,1,0,0:0:0:80:LR_Drum Rpd Fast1.wav
298,192,67199,1,0,0:0:0:40:Kick1.wav
384,192,67199,1,0,0:0:0:0:
384,192,67437,1,0,0:0:0:0:
469,192,67437,1,0,0:0:0:0:
128,192,67675,1,0,0:0:0:40:Kick1.wav
384,192,67675,1,0,0:0:0:0:
128,192,67913,1,0,0:0:0:0:
42,192,67913,1,0,0:0:0:0:
128,192,68151,1,0,0:0:0:80:LR_Drum Rpd Fast1.wav
213,192,68151,1,0,0:0:0:40:Kick1.wav
469,192,68151,1,0,0:0:0:0:
469,192,68389,1,0,0:0:0:0:
298,192,68389,1,0,0:0:0:0:
384,192,68627,1,0,0:0:0:40:Kick1.wav
469,192,68627,1,0,0:0:0:0:
384,192,68865,1,0,0:0:0:0:
213,192,68865,1,0,0:0:0:0:
384,192,69103,1,0,0:0:0:80:LR_Drum Rpd Fast1.wav
42,192,69103,1,0,0:0:0:40:Kick1.wav
298,192,69103,1,0,0:0:0:0:
128,192,69341,1,0,0:0:0:0:
298,192,69341,1,0,0:0:0:0:
213,192,69580,1,0,0:0:0:40:Kick1.wav
298,192,69580,1,0,0:0:0:0:
42,192,69818,1,0,0:0:0:80:LR_Drum Rpd Fast1.wav
213,192,69818,1,0,0:0:0:0:
469,192,69818,1,0,0:0:0:0:
128,192,70056,1,0,0:0:0:60:LR_Drum Rpd Fast1.wav
213,192,70056,1,0,0:0:0:40:Kick1.wav
469,192,70056,1,0,0:0:0:0:
298,192,70175,1,0,0:0:0:60:LR_Drum Rpd Fast1.wav
384,192,70175,1,0,0:0:0:0:
469,192,70175,1,0,0:0:0:0:
128,192,70294,1,0,0:0:0:70:LR_Tom Hit.wav
42,192,70294,1,0,0:0:0:0:
42,192,70532,1,0,0:0:0:100:Cymbal.wav
128,192,70532,1,0,0:0:0:40:Kick1.wav
298,192,70532,1,0,0:0:0:0:
469,192,70532,1,0,0:0:0:0:
42,192,70770,1,0,0:0:0:0:
213,192,70770,1,0,0:0:0:0:
42,192,71008,1,0,0:0:0:80:LR_Drum Rpd Fast1.wav
469,192,71008,1,0,0:0:0:40:Kick1.wav
298,192,71008,1,0,0:0:0:0:
298,192,71246,1,0,0:0:0:0:
128,192,71246,1,0,0:0:0:0:
213,192,71484,1,0,0:0:0:40:Kick1.wav
298,192,71484,1,0,0:0:0:0:
213,192,71722,1,0,0:0:0:0:
384,192,71722,1,0,0:0:0:0:
42,192,71960,1,0,0:0:0:80:LR_Drum Rpd Fast1.wav
213,192,71960,1,0,0:0:0:40:Kick1.wav
469,192,71960,1,0,0:0:0:0:
298,192,72199,1,0,0:0:0:0:
469,192,72199,1,0,0:0:0:0:
128,192,72437,1,0,0:0:0:40:Kick1.wav
469,192,72437,1,0,0:0:0:0:
384,192,72675,1,0,0:0:0:0:
469,192,72675,1,0,0:0:0:0:
42,192,72913,1,0,0:0:0:80:LR_Drum Rpd Fast1.wav
298,192,72913,1,0,0:0:0:40:Kick1.wav
469,192,72913,1,0,0:0:0:0:
213,192,73151,1,0,0:0:0:0:
298,192,73151,1,0,0:0:0:0:
128,192,73389,1,0,0:0:0:70:LR_Tom Hit.wav
298,192,73389,1,0,0:0:0:40:Kick1.wav
42,192,73627,1,0,0:0:0:50:LR_Drum_Rpd x2.wav
469,192,73627,1,0,0:0:0:0:
298,192,73746,1,0,0:0:0:50:LR_Drum_Rpd x2.wav
384,192,73746,1,0,0:0:0:0:
128,192,73865,1,0,0:0:0:40:Kick1.wav
213,192,73865,1,0,0:0:0:0:
42,192,73865,1,0,0:0:0:80:LR_Drum Rpd Fast1.wav
298,192,73984,1,0,0:0:0:60:LR_Drum_Rpd x2.wav
384,192,73984,1,0,0:0:0:0:
42,192,74103,1,0,0:0:0:100:LR_Tom Hit 2.wav
469,192,74103,1,0,0:0:0:0:
128,192,74341,1,0,0:0:0:100:Cymbal.wav
213,192,74341,1,0,0:0:0:40:Kick1.wav
298,192,74341,1,0,0:0:0:0:
384,192,74341,1,0,0:0:0:0:
42,192,74580,1,0,0:0:0:0:
469,192,74580,1,0,0:0:0:0:
384,192,74699,1,0,0:0:0:0:
128,192,74818,1,0,0:0:0:80:LR_Drum Rpd Fast1.wav
213,192,74818,1,0,0:0:0:40:Kick1.wav
298,192,74818,128,0,75056:0:0:0:0:
42,192,75056,1,0,0:0:0:0:
469,192,75056,1,0,0:0:0:0:
298,192,75175,1,0,0:0:0:0:
213,192,75294,1,0,0:0:0:40:Kick1.wav
128,192,75294,1,0,0:0:0:0:
469,192,75413,1,0,0:0:0:0:
42,192,75532,1,0,0:0:0:0:
298,192,75532,1,0,0:0:0:0:
469,192,75651,1,0,0:0:0:0:
128,192,75770,1,0,0:0:0:80:LR_Drum Rpd Fast1.wav
213,192,75770,1,0,0:0:0:40:Kick1.wav
298,192,75770,1,0,0:0:0:0:
469,192,75889,1,0,0:0:0:0:
42,192,76008,1,0,0:0:0:0:
384,192,76008,1,0,0:0:0:0:
298,192,76127,1,0,0:0:0:0:
128,192,76246,1,0,0:0:0:40:Kick1.wav
213,192,76246,1,0,0:0:0:0:
128,192,76365,1,0,0:0:0:80:LR_Drum Rpd Fast1.wav
213,192,76365,1,0,0:0:0:0:
42,192,76484,1,0,0:0:0:0:
469,192,76484,1,0,0:0:0:0:
298,192,76603,1,0,0:0:0:0:
128,192,76722,1,0,0:0:0:100:Cymbal.wav
213,192,76722,1,0,0:0:0:60:LR_Drum Rpd Fast1.wav
469,192,76722,128,0,77080:0:0:0:40:Kick1.wav
128,192,76841,1,0,0:0:0:60:LR_Drum Rpd Fast1.wav
213,192,76841,1,0,0:0:0:0:
42,192,76960,1,0,0:0:0:0:
384,192,76960,1,0,0:0:0:0:
298,192,77080,1,0,0:0:0:0:
128,192,77199,1,0,0:0:0:60:LR_Drum Rpd Fast1.wav
469,192,77199,1,0,0:0:0:40:Kick1.wav
42,192,77199,1,0,0:0:0:0:
298,192,77318,1,0,0:0:0:60:LR_Drum Rpd Fast1.wav
384,192,77318,1,0,0:0:0:0:
42,192,77437,1,0,0:0:0:60:LR_Drum Rpd Fast1.wav
469,192,77437,1,0,0:0:0:0:
384,192,77556,1,0,0:0:0:0:
298,192,77556,1,0,0:0:0:60:LR_Drum Rpd Fast1.wav
128,192,77675,1,0,0:0:0:60:LR_Drum Rpd Fast1.wav
213,192,77675,1,0,0:0:0:40:Kick1.wav
469,192,77675,1,0,0:0:0:0:
298,192,77794,1,0,0:0:0:70:LR_Tom Hit.wav
384,192,77794,1,0,0:0:0:0:
42,192,77913,128,0,78151:0:0:0:100:LR_Tom Hit 2.wav
469,192,77913,128,0,78151:0:0:0:0:
128,192,78151,1,0,0:0:0:100:Cymbal.wav
213,192,78151,1,0,0:0:0:40:Kick1.wav
298,192,78151,1,0,0:0:0:0:
384,192,78151,1,0,0:0:0:0:
213,192,78389,1,0,0:0:0:0:
128,192,78389,1,0,0:0:0:0:
128,192,78627,1,0,0:0:0:80:LR_Drum Rpd Fast1.wav
384,192,78627,1,0,0:0:0:40:Kick1.wav
469,192,78627,1,0,0:0:0:0:
298,192,78865,1,0,0:0:0:0:
384,192,78865,1,0,0:0:0:0:
42,192,79103,1,0,0:0:0:40:Kick1.wav
384,192,79103,1,0,0:0:0:0:
42,192,79341,1,0,0:0:0:0:
213,192,79341,1,0,0:0:0:0:
42,192,79580,1,0,0:0:0:80:LR_Drum Rpd Fast1.wav
384,192,79580,1,0,0:0:0:40:Kick1.wav
469,192,79580,1,0,0:0:0:0:
298,192,79818,1,0,0:0:0:0:
469,192,79818,1,0,0:0:0:0:
128,192,80056,1,0,0:0:0:40:Kick1.wav
469,192,80056,1,0,0:0:0:0:
128,192,80294,1,0,0:0:0:0:
213,192,80294,1,0,0:0:0:0:
128,192,80532,1,0,0:0:0:80:LR_Drum Rpd Fast1.wav
384,192,80532,1,0,0:0:0:40:Kick1.wav
469,192,80532,1,0,0:0:0:0:
298,192,80770,1,0,0:0:0:0:
384,192,80770,1,0,0:0:0:0:
42,192,81008,1,0,0:0:0:40:Kick1.wav
384,192,81008,1,0,0:0:0:0:
42,192,81246,1,0,0:0:0:0:
213,192,81246,1,0,0:0:0:0:
42,192,81484,1,0,0:0:0:80:LR_Drum Rpd Fast1.wav
384,192,81484,1,0,0:0:0:40:Kick1.wav
469,192,81484,1,0,0:0:0:0:
298,192,81722,1,0,0:0:0:0:
469,192,81722,1,0,0:0:0:0:
128,192,81841,1,0,0:0:0:60:LR_Drum_Rpd x2.wav
213,192,81841,1,0,0:0:0:0:
42,192,81960,1,0,0:0:0:40:Kick1.wav
469,192,81960,1,0,0:0:0:0:
42,192,82199,1,0,0:0:0:0:
298,192,82199,1,0,0:0:0:0:
42,192,82437,1,0,0:0:0:80:LR_Drum Rpd Fast1.wav
213,192,82437,1,0,0:0:0:40:Kick1.wav
384,192,82437,1,0,0:0:0:0:
213,192,82675,1,0,0:0:0:0:
469,192,82675,1,0,0:0:0:0:
213,192,82913,1,0,0:0:0:40:Kick1.wav
298,192,82913,1,0,0:0:0:0:
42,192,83151,1,0,0:0:0:0:
298,192,83151,1,0,0:0:0:0:
128,192,83389,1,0,0:0:0:80:LR_Drum Rpd Fast1.wav
298,192,83389,1,0,0:0:0:40:Kick1.wav
469,192,83389,1,0,0:0:0:0:
213,192,83627,1,0,0:0:0:0:
469,192,83627,1,0,0:0:0:0:
298,192,83865,1,0,0:0:0:40:Kick1.wav
469,192,83865,1,0,0:0:0:0:
213,192,84103,1,0,0:0:0:0:
469,192,84103,1,0,0:0:0:0:
128,192,84341,1,0,0:0:0:80:LR_Drum Rpd Fast1.wav
298,192,84341,1,0,0:0:0:40:Kick1.wav
469,192,84341,1,0,0:0:0:0:
42,192,84580,1,0,0:0:0:0:
298,192,84580,1,0,0:0:0:0:
213,192,84818,1,0,0:0:0:40:Kick1.wav
298,192,84818,1,0,0:0:0:0:
128,192,85056,1,0,0:0:0:80:LR_Drum Rpd Fast1.wav
213,192,85056,1,0,0:0:0:0:
469,192,85056,1,0,0:0:0:0:
42,192,85294,1,0,0:0:0:80:LR_Drum Rpd Fast1.wav
213,192,85294,1,0,0:0:0:40:Kick1.wav
469,192,85294,1,0,0:0:0:0:
298,192,85413,1,0,0:0:0:80:LR_Drum Rpd Fast1.wav
384,192,85413,1,0,0:0:0:0:
469,192,85413,1,0,0:0:0:0:
42,192,85532,1,0,0:0:0:70:LR_Tom Hit.wav
128,192,85532,1,0,0:0:0:0:
42,192,85770,1,0,0:0:0:100:Cymbal.wav
213,192,85770,1,0,0:0:0:40:Kick1.wav
298,192,85770,1,0,0:0:0:0:
469,192,85770,1,0,0:0:0:0:
128,192,86008,1,0,0:0:0:0:
469,192,86008,1,0,0:0:0:0:
42,192,86246,1,0,0:0:0:80:LR_Drum Rpd Fast1.wav
298,192,86246,1,0,0:0:0:40:Kick1.wav
469,192,86246,1,0,0:0:0:0:
384,192,86484,1,0,0:0:0:0:
42,192,86484,1,0,0:0:0:0:
42,192,86722,1,0,0:0:0:40:Kick1.wav
213,192,86722,1,0,0:0:0:0:
469,192,86960,1,0,0:0:0:0:
213,192,86960,1,0,0:0:0:0:
42,192,87199,1,0,0:0:0:80:LR_Drum Rpd Fast1.wav
213,192,87199,1,0,0:0:0:40:Kick1.wav
384,192,87199,1,0,0:0:0:0:
128,192,87437,1,0,0:0:0:0:
384,192,87437,1,0,0:0:0:0:
469,192,87675,1,0,0:0:0:40:Kick1.wav
384,192,87675,1,0,0:0:0:0:
298,192,87913,1,0,0:0:0:0:
469,192,87913,1,0,0:0:0:0:
128,192,88151,1,0,0:0:0:80:LR_Drum Rpd Fast1.wav
213,192,88151,1,0,0:0:0:40:Kick1.wav
469,192,88151,1,0,0:0:0:0:
213,192,88389,1,0,0:0:0:0:
384,192,88389,1,0,0:0:0:0:
42,192,88627,1,0,0:0:0:40:Kick1.wav
213,192,88627,1,0,0:0:0:0:
42,192,88865,1,0,0:0:0:0:
298,192,88865,1,0,0:0:0:0:
42,192,89103,1,0,0:0:0:80:LR_Drum Rpd Fast1.wav
384,192,89103,1,0,0:0:0:40:Kick1.wav
469,192,89103,1,0,0:0:0:0:
213,192,89341,1,0,0:0:0:0:
384,192,89341,1,0,0:0:0:0:
128,192,89460,1,0,0:0:0:60:LR_Drum_Rpd x2.wav
298,192,89460,1,0,0:0:0:0:
469,192,89580,1,0,0:0:0:40:Kick1.wav
384,192,89580,1,0,0:0:0:0:
469,192,89818,1,0,0:0:0:0:
128,192,89818,1,0,0:0:0:0:
42,192,90056,1,0,0:0:0:100:Cymbal.wav
213,192,90056,1,0,0:0:0:80:LR_Drum Rpd Fast1.wav
384,192,90056,1,0,0:0:0:40:Kick1.wav
469,192,90056,1,0,0:0:0:0:
128,192,90294,1,0,0:0:0:0:
298,192,90294,1,0,0:0:0:0:
213,192,90413,1,0,0:0:0:60:LR_Drum_Rpd x2.wav
384,192,90413,1,0,0:0:0:0:
42,192,90532,1,0,0:0:0:70:LR_Tom Hit.wav
128,192,90532,1,0,0:0:0:40:Kick1.wav
298,192,90770,1,0,0:0:0:50:LR_Drum_Rpd x2.wav
384,192,90770,1,0,0:0:0:0:
469,192,90770,1,0,0:0:0:0:
298,192,90889,1,0,0:0:0:50:LR_Drum_Rpd x2.wav
384,192,90889,1,0,0:0:0:0:
469,192,90889,1,0,0:0:0:0:
42,192,91008,1,0,0:0:0:40:Kick1.wav
128,192,91008,1,0,0:0:0:0:
384,192,91127,1,0,0:0:0:50:LR_Drum_Rpd x2.wav
213,192,91127,1,0,0:0:0:0:
469,192,91127,1,0,0:0:0:0:
128,192,91246,1,0,0:0:0:50:LR_Drum_Rpd x2.wav
42,192,91246,1,0,0:0:0:0:
298,192,91246,1,0,0:0:0:0:
42,192,91365,1,0,0:0:0:50:LR_Drum_Rpd x2.wav
128,192,91365,1,0,0:0:0:0:
298,192,91365,1,0,0:0:0:0:
213,192,91484,1,0,0:0:0:30:Clap1.wav
384,192,91484,1,0,0:0:0:0:
469,192,91484,1,0,0:0:0:0:
42,192,91603,1,0,0:0:0:100:Cymbal.wav
128,192,91603,1,0,0:0:0:40:Kick1.wav
213,192,91603,1,0,0:0:0:0:
469,192,91603,1,0,0:0:0:0:
298,192,91722,1,0,0:0:0:0:
213,192,91841,1,0,0:0:0:0:
298,192,91960,1,0,0:0:0:30:Clap1.wav
384,192,91960,1,0,0:0:0:0:
469,192,91960,1,0,0:0:0:0:
42,192,92080,1,0,0:0:0:30:Clap1.wav
128,192,92080,1,0,0:0:0:0:
213,192,92080,1,0,0:0:0:0:
298,192,92199,1,0,0:0:0:0:
42,192,92318,1,0,0:0:0:30:Clap1.wav
128,192,92318,1,0,0:0:0:0:
213,192,92318,1,0,0:0:0:0:
298,192,92437,1,0,0:0:0:0:
42,192,92556,1,0,0:0:0:30:Clap1.wav
128,192,92556,1,0,0:0:0:0:
213,192,92556,1,0,0:0:0:0:
42,192,92675,1,0,0:0:0:100:LR_Tom Hit.wav
298,192,92675,1,0,0:0:0:0:
213,192,92794,1,0,0:0:0:0:
298,192,92913,1,0,0:0:0:30:Clap1.wav
384,192,92913,1,0,0:0:0:0:
469,192,92913,1,0,0:0:0:0:
469,192,93032,1,0,0:0:0:100:LR_Tom Hit.wav
213,192,93032,1,0,0:0:0:0:
298,192,93151,1,0,0:0:0:100:LR_Tom Hit 2.wav
42,192,93151,1,0,0:0:0:0:
213,192,93270,1,0,0:0:0:0:
42,192,93389,1,0,0:0:0:100:Cymbal.wav
128,192,93389,128,0,94580:0:0:0:40:Kick1.wav
384,192,93389,1,0,0:0:0:0:
469,192,93389,1,0,0:0:0:0:
298,192,93508,1,0,0:0:0:0:
384,192,93627,1,0,0:0:0:0:
42,192,93865,1,0,0:0:0:80:LR_Drum Rpd Fast1.wav
298,192,93865,1,0,0:0:0:0:
469,192,93865,1,0,0:0:0:0:
213,192,93984,1,0,0:0:0:0:
298,192,94103,1,0,0:0:0:0:
384,192,94222,1,0,0:0:0:40:Kick1.wav
469,192,94222,1,0,0:0:0:0:
213,192,94341,1,0,0:0:0:0:
42,192,94460,1,0,0:0:0:0:
384,192,94580,1,0,0:0:0:40:Kick1.wav
469,192,94580,128,0,94937:0:0:0:0:
42,192,94818,1,0,0:0:0:80:LR_Drum Rpd Fast1.wav
128,192,94818,1,0,0:0:0:0:
213,192,94818,1,0,0:0:0:0:
384,192,94937,128,0,95294:0:0:0:0:
298,192,95056,1,0,0:0:0:0:
128,192,95294,128,0,96484:0:0:0:40:Kick1.wav
469,192,95294,1,0,0:0:0:0:
213,192,95413,1,0,0:0:0:0:
298,192,95532,1,0,0:0:0:0:
42,192,95770,1,0,0:0:0:80:LR_Drum Rpd Fast1.wav
298,192,95770,1,0,0:0:0:0:
469,192,95770,1,0,0:0:0:0:
213,192,95889,1,0,0:0:0:0:
469,192,96008,1,0,0:0:0:0:
298,192,96127,1,0,0:0:0:40:Kick1.wav
384,192,96127,1,0,0:0:0:0:
213,192,96246,1,0,0:0:0:0:
42,192,96365,1,0,0:0:0:0:
298,192,96484,1,0,0:0:0:40:Kick1.wav
384,192,96484,128,0,96841:0:0:0:0:
469,192,96603,1,0,0:0:0:0:
42,192,96722,1,0,0:0:0:80:LR_Drum Rpd Fast1.wav
128,192,96722,1,0,0:0:0:0:
213,192,96722,1,0,0:0:0:0:
298,192,96841,128,0,97199:0:0:0:40:Kick1.wav
469,192,96841,1,0,0:0:0:0:
213,192,96960,1,0,0:0:0:0:
128,192,97080,1,0,0:0:0:0:
42,192,97199,128,0,98865:0:0:0:40:Kick1.wav
469,192,97199,1,0,0:0:0:0:
298,192,97318,1,0,0:0:0:0:
469,192,97437,1,0,0:0:0:0:
128,192,97675,1,0,0:0:0:80:LR_Drum Rpd Fast1.wav
298,192,97675,1,0,0:0:0:0:
469,192,97675,1,0,0:0:0:0:
213,192,97794,1,0,0:0:0:0:
298,192,97913,1,0,0:0:0:0:
384,192,98032,1,0,0:0:0:40:Kick1.wav
469,192,98032,1,0,0:0:0:0:
213,192,98151,1,0,0:0:0:0:
128,192,98270,1,0,0:0:0:0:
384,192,98389,1,0,0:0:0:40:Kick1.wav
469,192,98389,1,0,0:0:0:0:
128,192,98627,1,0,0:0:0:80:LR_Drum Rpd Fast1.wav
298,192,98627,1,0,0:0:0:0:
469,192,98627,1,0,0:0:0:0:
213,192,98746,1,0,0:0:0:0:
384,192,98865,1,0,0:0:0:0:
213,192,99103,1,0,0:0:0:40:Kick1.wav
298,192,99103,1,0,0:0:0:0:
128,192,99222,1,0,0:0:0:0:
469,192,99341,1,0,0:0:0:0:
42,192,99580,1,0,0:0:0:80:LR_Drum Rpd Fast1.wav
213,192,99580,1,0,0:0:0:0:
298,192,99580,1,0,0:0:0:0:
384,192,99699,1,0,0:0:0:0:
128,192,99818,1,0,0:0:0:0:
213,192,99937,1,0,0:0:0:40:Kick1.wav
298,192,99937,1,0,0:0:0:0:
42,192,100056,1,0,0:0:0:0:
469,192,100175,1,0,0:0:0:0:
213,192,100294,1,0,0:0:0:40:Kick1.wav
298,192,100294,1,0,0:0:0:0:
128,192,100413,1,0,0:0:0:0:
213,192,100532,1,0,0:0:0:80:LR_Drum Rpd Fast1.wav
298,192,100532,1,0,0:0:0:0:
469,192,100532,1,0,0:0:0:0:
384,192,100651,1,0,0:0:0:0:
213,192,100770,1,0,0:0:0:40:Kick1.wav
298,192,100770,1,0,0:0:0:0:
42,192,100889,1,0,0:0:0:0:
128,192,101008,128,0,102199:0:0:0:100:Cymbal.wav
213,192,101008,1,0,0:0:0:40:Kick1.wav
298,192,101008,1,0,0:0:0:0:
469,192,101008,1,0,0:0:0:0:
384,192,101127,1,0,0:0:0:0:
469,192,101246,1,0,0:0:0:0:
42,192,101484,1,0,0:0:0:80:LR_Drum Rpd Fast1.wav
213,192,101484,1,0,0:0:0:0:
384,192,101484,1,0,0:0:0:0:
298,192,101603,1,0,0:0:0:0:
213,192,101722,1,0,0:0:0:0:
298,192,101841,1,0,0:0:0:40:Kick1.wav
384,192,101841,1,0,0:0:0:0:
469,192,101960,1,0,0:0:0:0:
42,192,102080,1,0,0:0:0:0:
298,192,102199,1,0,0:0:0:40:Kick1.wav
384,192,102199,128,0,102556:0:0:0:0:
42,192,102437,1,0,0:0:0:80:LR_Drum Rpd Fast1.wav
128,192,102437,1,0,0:0:0:0:
469,192,102437,1,0,0:0:0:0:
298,192,102556,128,0,102913:0:0:0:0:
213,192,102675,1,0,0:0:0:0:
128,192,102913,128,0,103746:0:0:0:40:Kick1.wav
469,192,102913,1,0,0:0:0:0:
298,192,103032,1,0,0:0:0:0:
384,192,103151,1,0,0:0:0:0:
42,192,103389,1,0,0:0:0:80:LR_Drum Rpd Fast1.wav
213,192,103389,1,0,0:0:0:0:
384,192,103389,1,0,0:0:0:0:
298,192,103508,1,0,0:0:0:0:
213,192,103627,1,0,0:0:0:0:
384,192,103746,1,0,0:0:0:40:Kick1.wav
469,192,103746,128,0,104103:0:0:0:0:
213,192,103865,1,0,0:0:0:0:
128,192,103984,1,0,0:0:0:0:
298,192,104103,128,0,104460:0:0:0:40:Kick1.wav
384,192,104103,1,0,0:0:0:0:
42,192,104222,1,0,0:0:0:0:
128,192,104341,1,0,0:0:0:80:LR_Drum Rpd Fast1.wav
213,192,104341,1,0,0:0:0:0:
469,192,104341,1,0,0:0:0:0:
42,192,104460,128,0,104818:0:0:0:40:Kick1.wav
384,192,104460,1,0,0:0:0:0:
213,192,104580,1,0,0:0:0:0:
298,192,104699,1,0,0:0:0:0:
128,192,104818,128,0,106603:0:0:0:40:Kick1.wav
469,192,104818,1,0,0:0:0:0:
384,192,104937,1,0,0:0:0:0:
469,192,105056,1,0,0:0:0:0:
42,192,105294,1,0,0:0:0:80:LR_Drum Rpd Fast1.wav
213,192,105294,1,0,0:0:0:0:
298,192,105294,1,0,0:0:0:0:
384,192,105413,1,0,0:0:0:0:
298,192,105532,1,0,0:0:0:0:
42,192,105651,1,0,0:0:0:40:Kick1.wav
213,192,105651,1,0,0:0:0:0:
384,192,105770,1,0,0:0:0:0:
298,192,105889,1,0,0:0:0:0:
42,192,106008,1,0,0:0:0:40:Kick1.wav
384,192,106008,1,0,0:0:0:0:
42,192,106246,1,0,0:0:0:80:LR_Drum Rpd Fast1.wav
213,192,106246,1,0,0:0:0:0:
469,192,106246,1,0,0:0:0:0:
298,192,106365,1,0,0:0:0:40:Kick1.wav
384,192,106365,1,0,0:0:0:0:
213,192,106484,1,0,0:0:0:0:
384,192,106722,1,0,0:0:0:0:
469,192,106722,1,0,0:0:0:0:
42,192,106722,1,0,0:0:0:30:Clap1.wav
128,192,106841,1,0,0:0:0:40:Kick1.wav
213,192,106841,1,0,0:0:0:0:
298,192,106841,128,0,106960:0:0:0:0:
298,192,107080,1,0,0:0:0:30:Clap1.wav
213,192,107080,1,0,0:0:0:0:
128,192,107080,1,0,0:0:0:0:
384,192,107199,1,0,0:0:0:0:
469,192,107199,1,0,0:0:0:0:
42,192,107199,1,0,0:0:0:30:Clap1.wav
298,192,107318,1,0,0:0:0:0:
128,192,107437,1,0,0:0:0:0:
469,192,107437,1,0,0:0:0:0:
42,192,107437,1,0,0:0:0:30:Clap1.wav
128,192,107556,1,0,0:0:0:100:Cymbal.wav
213,192,107556,1,0,0:0:0:40:Kick1.wav
298,192,107556,1,0,0:0:0:0:
384,192,107556,128,0,107675:0:0:0:0:
213,192,107794,1,0,0:0:0:0:
298,192,107794,1,0,0:0:0:0:
128,192,107794,1,0,0:0:0:30:Clap1.wav
298,192,107913,1,0,0:0:0:70:LR_Tom Hit.wav
384,192,107913,1,0,0:0:0:0:
213,192,108032,1,0,0:0:0:0:
42,192,108151,1,0,0:0:0:0:
384,192,108151,1,0,0:0:0:0:
128,192,108151,1,0,0:0:0:30:Clap1.wav
213,192,108270,1,0,0:0:0:40:Kick1.wav
469,192,108270,128,0,108389:0:0:0:0:
42,192,108627,128,0,110056:0:0:0:70:Cymbal.wav
128,192,108627,1,0,0:0:0:40:Kick1.wav
298,192,108627,1,0,0:0:0:0:
469,192,108627,1,0,0:0:0:0:
384,192,108865,1,0,0:0:0:0:
384,192,109024,1,0,0:0:0:0:
213,192,109103,1,0,0:0:0:0:
469,192,109341,1,0,0:0:0:0:
469,192,109500,1,0,0:0:0:0:
213,192,109580,1,0,0:0:0:0:
298,192,109818,1,0,0:0:0:0:
298,192,109976,1,0,0:0:0:0:
213,192,110056,1,0,0:0:0:0:
42,192,110214,1,0,0:0:0:0:
384,192,110294,1,0,0:0:0:0:
384,192,110453,1,0,0:0:0:0:
128,192,110453,1,0,0:0:0:0:
213,192,110532,1,0,0:0:0:0:
469,192,110691,1,0,0:0:0:0:
42,192,110770,1,0,0:0:0:0:
42,192,110929,1,0,0:0:0:0:
213,192,111008,128,0,111881:0:0:0:0:
128,192,111246,1,0,0:0:0:0:
128,192,111405,1,0,0:0:0:0:
298,192,111484,1,0,0:0:0:0:
469,192,111722,1,0,0:0:0:0:
384,192,111802,1,0,0:0:0:0:
298,192,111881,1,0,0:0:0:0:
469,192,111960,1,0,0:0:0:0:
384,192,112040,1,0,0:0:0:0:
42,192,112119,1,0,0:0:0:40:Clap1.wav
128,192,112119,1,0,0:0:0:0:
298,192,112119,1,0,0:0:0:0:
469,192,112199,1,0,0:0:0:0:
384,192,112278,1,0,0:0:0:0:
42,192,112347,1,0,0:0:0:60:Cymbal.wav
128,192,112347,1,0,0:0:0:0:
213,192,112347,1,0,0:0:0:0:
298,192,112347,128,0,113627:0:0:0:0:
469,192,112675,1,0,0:0:0:0:
469,192,112834,1,0,0:0:0:0:
42,192,112913,1,0,0:0:0:0:
384,192,113151,1,0,0:0:0:0:
384,192,113310,1,0,0:0:0:0:
42,192,113389,1,0,0:0:0:0:
469,192,113627,1,0,0:0:0:0:
469,192,113786,1,0,0:0:0:0:
42,192,113865,1,0,0:0:0:0:
384,192,114024,128,0,114262:0:0:0:0:
213,192,114103,1,0,0:0:0:0:
128,192,114262,1,0,0:0:0:60:LR_Drum_Rpd x2.wav
298,192,114262,1,0,0:0:0:0:
128,192,114580,1,0,0:0:0:40:Kick1.wav
213,192,114580,128,0,114976:0:0:0:0:
298,192,114580,1,0,0:0:0:0:
469,192,114818,1,0,0:0:0:0:
42,192,114976,128,0,115929:0:0:0:0:
128,192,115056,1,0,0:0:0:0:
128,192,115214,1,0,0:0:0:0:
469,192,115294,1,0,0:0:0:0:
213,192,115532,1,0,0:0:0:0:
213,192,115691,1,0,0:0:0:0:
469,192,115770,1,0,0:0:0:0:
298,192,115929,1,0,0:0:0:60:LR_Drum_Rpd x2.wav
469,192,115929,1,0,0:0:0:0:
128,192,116008,1,0,0:0:0:100:LR_TomR3.wav
213,192,116008,1,0,0:0:0:0:
298,192,116167,1,0,0:0:0:100:LR_TomR3.wav
384,192,116167,1,0,0:0:0:0:
42,192,116246,1,0,0:0:0:50:Cymbal.wav
128,192,116246,1,0,0:0:0:40:Kick1.wav
213,192,116246,128,0,117913:0:0:0:0:
469,192,116246,1,0,0:0:0:0:
298,192,116484,1,0,0:0:0:0:
298,192,116643,1,0,0:0:0:0:
128,192,116722,1,0,0:0:0:0:
384,192,116960,1,0,0:0:0:0:
384,192,117119,1,0,0:0:0:0:
128,192,117199,1,0,0:0:0:0:
469,192,117437,1,0,0:0:0:0:
469,192,117595,1,0,0:0:0:0:
128,192,117675,1,0,0:0:0:0:
384,192,117913,1,0,0:0:0:0:
42,192,118062,128,0,118865:0:0:0:70:Cymbal.wav
128,192,118062,1,0,0:0:0:40:Kick1.wav
213,192,118062,1,0,0:0:0:0:
469,192,118062,1,0,0:0:0:0:
128,192,118389,1,0,0:0:0:0:
213,192,118548,1,0,0:0:0:0:
469,192,118627,1,0,0:0:0:0:
128,192,118865,128,0,119103:0:0:0:0:
213,192,119024,1,0,0:0:0:0:
298,192,119103,128,0,119421:0:0:0:0:
128,192,119341,1,0,0:0:0:0:
42,192,119421,128,0,119818:0:0:0:0:
213,192,119500,1,0,0:0:0:0:
469,192,119580,1,0,0:0:0:0:
128,192,119728,1,0,0:0:0:40:Clap1.wav
213,192,119728,1,0,0:0:0:0:
469,192,119728,1,0,0:0:0:0:
42,192,119966,1,0,0:0:0:60:Cymbal.wav
128,192,119966,1,0,0:0:0:40:Kick1.wav
213,192,119966,128,0,121722:0:0:0:0:
469,192,119966,1,0,0:0:0:0:
42,192,120294,1,0,0:0:0:0:
42,192,120453,1,0,0:0:0:0:
384,192,120532,1,0,0:0:0:0:
128,192,120770,1,0,0:0:0:0:
128,192,120929,1,0,0:0:0:0:
384,192,121008,1,0,0:0:0:0:
42,192,121246,1,0,0:0:0:0:
42,192,121405,1,0,0:0:0:0:
298,192,121484,1,0,0:0:0:0:
384,192,121484,1,0,0:0:0:0:
298,192,121722,1,0,0:0:0:0:
384,192,121722,1,0,0:0:0:0:
42,192,121871,1,0,0:0:0:40:Cymbal.wav
128,192,121871,128,0,122675:0:0:0:40:Kick1.wav
213,192,121871,1,0,0:0:0:0:
384,192,122675,1,0,0:0:0:0:
469,192,122675,1,0,0:0:0:0:
42,192,122754,1,0,0:0:0:0:
128,192,122754,1,0,0:0:0:0:
384,192,122834,1,0,0:0:0:0:
469,192,122834,1,0,0:0:0:0:
128,192,122913,128,0,123072:0:0:0:40:Kick1.wav
213,192,122913,128,0,123072:0:0:0:0:
298,192,122913,1,0,0:0:0:0:
213,192,123389,1,0,0:0:0:40:Kick1.wav
298,192,123389,128,0,123548:0:0:0:0:
384,192,123389,128,0,123548:0:0:0:0:
42,192,124341,128,0,124699:0:0:0:100:Cymbal.wav
213,192,124341,1,0,0:0:0:80:LR_Drum Rpd Fast1.wav
298,192,124341,1,0,0:0:0:0:
469,192,124341,1,0,0:0:0:0:
384,192,124580,1,0,0:0:0:0:
128,192,124699,128,0,124818:0:0:0:0:
213,192,124818,1,0,0:0:0:0:
128,192,124937,1,0,0:0:0:0:
42,192,125056,128,0,125294:0:0:0:40:Kick1.wav
469,192,125056,1,0,0:0:0:0:
213,192,125294,128,0,125532:0:0:0:80:LR_Drum Rpd Fast1.wav
298,192,125294,1,0,0:0:0:0:
469,192,125294,1,0,0:0:0:0:
42,192,125532,1,0,0:0:0:0:
42,192,125651,1,0,0:0:0:0:
128,192,125770,128,0,125889:0:0:0:40:Kick1.wav
469,192,125770,1,0,0:0:0:0:
384,192,126008,1,0,0:0:0:0:
213,192,126246,128,0,126484:0:0:0:80:LR_Drum Rpd Fast1.wav
298,192,126246,1,0,0:0:0:0:
469,192,126246,1,0,0:0:0:0:
384,192,126484,1,0,0:0:0:0:
213,192,126603,128,0,126722:0:0:0:0:
42,192,126722,1,0,0:0:0:0:
213,192,126841,1,0,0:0:0:0:
42,192,126960,128,0,127199:0:0:0:40:Kick1.wav
469,192,126960,1,0,0:0:0:0:
213,192,127199,128,0,127437:0:0:0:80:LR_Drum Rpd Fast1.wav
298,192,127199,1,0,0:0:0:0:
469,192,127199,1,0,0:0:0:0:
128,192,127437,1,0,0:0:0:0:
128,192,127675,128,0,127794:0:0:0:40:Kick1.wav
298,192,127675,1,0,0:0:0:0:
384,192,127913,1,0,0:0:0:0:
42,192,128151,128,0,128508:0:0:0:80:LR_Drum Rpd Fast1.wav
298,192,128151,1,0,0:0:0:0:
469,192,128151,1,0,0:0:0:0:
384,192,128389,1,0,0:0:0:0:
128,192,128508,128,0,128627:0:0:0:0:
213,192,128627,1,0,0:0:0:0:
128,192,128746,1,0,0:0:0:0:
42,192,128865,128,0,129103:0:0:0:40:Kick1.wav
298,192,128865,1,0,0:0:0:0:
213,192,129103,128,0,129341:0:0:0:80:LR_Drum Rpd Fast1.wav
298,192,129103,1,0,0:0:0:0:
469,192,129103,1,0,0:0:0:0:
42,192,129341,1,0,0:0:0:0:
128,192,129580,128,0,129699:0:0:0:40:Kick1.wav
298,192,129580,1,0,0:0:0:0:
128,192,129818,1,0,0:0:0:40:Kick1.wav
298,192,129818,1,0,0:0:0:0:
213,192,130056,128,0,130294:0:0:0:80:LR_Drum Rpd Fast1.wav
298,192,130056,1,0,0:0:0:0:
469,192,130056,1,0,0:0:0:0:
384,192,130294,1,0,0:0:0:0:
213,192,130413,128,0,130532:0:0:0:0:
42,192,130532,1,0,0:0:0:0:
213,192,130651,1,0,0:0:0:0:
128,192,130770,128,0,131008:0:0:0:40:Kick1.wav
298,192,130770,1,0,0:0:0:0:
384,192,130889,1,0,0:0:0:0:
42,192,131008,128,0,131246:0:0:0:80:LR_Drum Rpd Fast1.wav
298,192,131008,1,0,0:0:0:0:
469,192,131008,1,0,0:0:0:0:
384,192,131127,1,0,0:0:0:0:
213,192,131246,1,0,0:0:0:0:
42,192,131365,1,0,0:0:0:0:
128,192,131484,128,0,131603:0:0:0:50:LR_Ride_Long_Low.wav
298,192,131484,1,0,0:0:0:40:Kick1.wav
469,192,131484,1,0,0:0:0:0:
213,192,131722,1,0,0:0:0:0:
42,192,131960,128,0,132318:0:0:0:80:LR_Drum Rpd Fast1.wav
298,192,131960,1,0,0:0:0:0:
469,192,131960,1,0,0:0:0:0:
384,192,132199,1,0,0:0:0:0:
128,192,132318,128,0,132437:0:0:0:0:
213,192,132437,1,0,0:0:0:0:
128,192,132556,1,0,0:0:0:0:
42,192,132675,128,0,132913:0:0:0:40:Kick1.wav
469,192,132675,1,0,0:0:0:0:
213,192,132913,128,0,133151:0:0:0:80:LR_Drum Rpd Fast1.wav
298,192,132913,1,0,0:0:0:0:
469,192,132913,1,0,0:0:0:0:
42,192,133151,1,0,0:0:0:0:
42,192,133270,1,0,0:0:0:0:
128,192,133389,128,0,133508:0:0:0:40:Kick1.wav
469,192,133389,1,0,0:0:0:0:
384,192,133627,1,0,0:0:0:0:
213,192,133865,128,0,134103:0:0:0:80:LR_Drum Rpd Fast1.wav
298,192,133865,1,0,0:0:0:0:
469,192,133865,1,0,0:0:0:0:
384,192,134103,1,0,0:0:0:0:
213,192,134222,128,0,134341:0:0:0:40:Kick1.wav
469,192,134222,1,0,0:0:0:0:
42,192,134341,1,0,0:0:0:0:
213,192,134460,1,0,0:0:0:40:Kick1.wav
469,192,134460,1,0,0:0:0:0:
42,192,134580,128,0,134818:0:0:0:0:
384,192,134699,1,0,0:0:0:40:Kick1.wav
469,192,134699,1,0,0:0:0:0:
128,192,134818,1,0,0:0:0:100:Cymbal.wav
213,192,134818,128,0,135056:0:0:0:80:LR_Drum Rpd Fast1.wav
298,192,134818,1,0,0:0:0:0:
384,192,134818,1,0,0:0:0:0:
42,192,135056,1,0,0:0:0:0:
213,192,135175,1,0,0:0:0:0:
128,192,135294,128,0,135413:0:0:0:40:Kick1.wav
298,192,135294,1,0,0:0:0:0:
469,192,135532,1,0,0:0:0:0:
384,192,135651,1,0,0:0:0:0:
42,192,135770,128,0,136127:0:0:0:80:LR_Drum Rpd Fast1.wav
298,192,135770,1,0,0:0:0:0:
469,192,135770,1,0,0:0:0:0:
384,192,136008,1,0,0:0:0:0:
128,192,136127,128,0,136246:0:0:0:0:
213,192,136246,1,0,0:0:0:0:
128,192,136365,1,0,0:0:0:0:
42,192,136484,128,0,136722:0:0:0:40:Kick1.wav
298,192,136484,1,0,0:0:0:0:
128,192,136722,128,0,136960:0:0:0:70:LR_Tom Hit.wav
298,192,136722,1,0,0:0:0:0:
384,192,136960,1,0,0:0:0:40:LR_Drum_Rpd x2.wav
469,192,136960,1,0,0:0:0:0:
298,192,136960,1,0,0:0:0:0:
42,192,137080,1,0,0:0:0:60:LR_Drum_Rpd x2.wav
128,192,137080,1,0,0:0:0:0:
213,192,137080,1,0,0:0:0:0:
298,192,137199,1,0,0:0:0:40:Clap1.wav
469,192,137199,1,0,0:0:0:0:
384,192,137199,1,0,0:0:0:0:
42,192,137318,1,0,0:0:0:40:Kick1.wav
128,192,137318,1,0,0:0:0:0:
213,192,137318,1,0,0:0:0:0:
298,192,137318,1,0,0:0:0:0:
42,192,137556,1,0,0:0:0:40:Clap1.wav
213,192,137556,1,0,0:0:0:0:
128,192,137556,1,0,0:0:0:0:
42,192,137675,1,0,0:0:0:40:Kick1.wav
298,192,137675,1,0,0:0:0:0:
384,192,137675,1,0,0:0:0:0:
469,192,137675,1,0,0:0:0:0:
384,192,137913,1,0,0:0:0:40:Clap1.wav
469,192,137913,1,0,0:0:0:0:
298,192,137913,1,0,0:0:0:0:
128,192,138032,1,0,0:0:0:40:Kick1.wav
213,192,138032,1,0,0:0:0:0:
298,192,138032,1,0,0:0:0:0:
384,192,138032,1,0,0:0:0:0:
42,192,138270,1,0,0:0:0:40:Clap1.wav
128,192,138270,1,0,0:0:0:0:
213,192,138270,1,0,0:0:0:0:
128,192,138389,1,0,0:0:0:40:Kick1.wav
469,192,138389,1,0,0:0:0:0:
298,192,138389,1,0,0:0:0:0:
384,192,138389,1,0,0:0:0:0:
213,192,138508,1,0,0:0:0:30:Clap1.wav
469,192,138508,1,0,0:0:0:0:
384,192,138508,1,0,0:0:0:0:
42,192,138627,1,0,0:0:0:40:Clap1.wav
128,192,138627,1,0,0:0:0:0:
298,192,138627,1,0,0:0:0:0:
213,192,138746,1,0,0:0:0:100:Cymbal2.wav
298,192,138746,1,0,0:0:0:40:Kick1.wav
384,192,138746,1,0,0:0:0:0:
469,192,138746,1,0,0:0:0:0:
42,192,138865,1,0,0:0:0:30:Clap1.wav
128,192,138865,1,0,0:0:0:0:
213,192,138865,1,0,0:0:0:0:
298,192,138984,1,0,0:0:0:40:Clap1.wav
469,192,138984,1,0,0:0:0:0:
384,192,138984,1,0,0:0:0:0:
42,192,139103,1,0,0:0:0:100:Cymbal.wav
128,192,139103,128,0,140056:0:0:0:40:Kick1.wav
384,192,139103,128,0,139580:0:0:0:0:
469,192,139103,1,0,0:0:0:0:
298,192,139580,128,0,140056:0:0:0:0:
42,192,140056,1,0,0:0:0:100:Cymbal.wav
213,192,140056,128,0,141008:0:0:0:40:Kick1.wav
384,192,140056,1,0,0:0:0:0:
469,192,140056,128,0,140532:0:0:0:0:
298,192,140532,128,0,141008:0:0:0:0:
42,192,141008,128,0,141484:0:0:0:100:Cymbal.wav
128,192,141008,1,0,0:0:0:40:Kick1.wav
384,192,141008,128,0,141484:0:0:0:0:
469,192,141008,1,0,0:0:0:0:
128,192,141484,128,0,141960:0:0:0:0:
469,192,141484,128,0,141960:0:0:0:0:
42,192,141960,1,0,0:0:0:100:Cymbal.wav
213,192,141960,128,0,142437:0:0:0:40:Kick1.wav
298,192,141960,1,0,0:0:0:0:
384,192,141960,128,0,142437:0:0:0:0:
128,192,142437,128,0,142913:0:0:0:0:
298,192,142437,128,0,142913:0:0:0:0:
42,192,142913,1,0,0:0:0:100:Cymbal.wav
213,192,142913,128,0,143865:0:0:0:40:Kick1.wav
384,192,142913,1,0,0:0:0:0:
469,192,142913,128,0,143389:0:0:0:0:
384,192,143389,128,0,143865:0:0:0:0:
42,192,143865,1,0,0:0:0:100:Cymbal.wav
128,192,143865,128,0,144818:0:0:0:40:Kick1.wav
298,192,143865,128,0,144103:0:0:0:0:
469,192,143865,1,0,0:0:0:0:
469,192,144103,128,0,144341:0:0:0:0:
384,192,144341,128,0,144580:0:0:0:0:
298,192,144580,128,0,144818:0:0:0:0:
42,192,144818,128,0,145175:0:0:0:100:Cymbal.wav
213,192,144818,1,0,0:0:0:40:Kick1.wav
384,192,144818,128,0,145175:0:0:0:0:
469,192,144818,128,0,145175:0:0:0:0:
42,192,145294,128,0,145651:0:0:0:40:Kick1.wav
384,192,145294,128,0,145413:0:0:0:0:
469,192,145294,128,0,145413:0:0:0:0:
384,192,145532,128,0,145651:0:0:0:0:
469,192,145532,128,0,145651:0:0:0:0:
42,192,145770,128,0,146127:0:0:0:40:Kick1.wav
384,192,145770,128,0,145889:0:0:0:0:
469,192,145770,128,0,145889:0:0:0:0:
384,192,146008,128,0,146127:0:0:0:0:
469,192,146008,128,0,146127:0:0:0:0:
42,192,146246,128,0,146603:0:0:0:40:Kick1.wav
384,192,146246,128,0,146365:0:0:0:0:
469,192,146246,128,0,146365:0:0:0:0:
298,192,146484,1,0,0:0:0:50:LR_Drum_Rpd x2.wav
384,192,146484,128,0,146603:0:0:0:0:
469,192,146484,128,0,146603:0:0:0:0:
42,192,146722,128,0,146841:0:0:0:50:LR_Drum_Rpd x2.wav
213,192,146722,1,0,0:0:0:40:Kick1.wav
298,192,146722,128,0,146841:0:0:0:0:
384,192,146722,128,0,146841:0:0:0:0:
42,192,146960,128,0,147080:0:0:0:50:LR_Drum_Rpd x2.wav
213,192,146960,1,0,0:0:0:0:
298,192,146960,128,0,147080:0:0:0:0:
384,192,146960,128,0,147080:0:0:0:0:
42,192,147199,128,0,147318:0:0:0:50:LR_Drum_Rpd x2.wav
213,192,147199,1,0,0:0:0:40:Kick1.wav
298,192,147199,128,0,147318:0:0:0:0:
384,192,147199,128,0,147318:0:0:0:0:
42,192,147437,128,0,147556:0:0:0:50:LR_Drum_Rpd x2.wav
213,192,147437,1,0,0:0:0:0:
298,192,147437,128,0,147556:0:0:0:0:
384,192,147437,128,0,147556:0:0:0:0:
42,192,147675,1,0,0:0:0:40:Clap1.wav
384,192,147675,1,0,0:0:0:40:Kick1.wav
469,192,147675,1,0,0:0:0:0:
298,192,147734,1,0,0:0:0:0:
128,192,147794,1,0,0:0:0:15:Clap1.wav
213,192,147794,1,0,0:0:0:0:
298,192,147913,1,0,0:0:0:30:Clap1.wav
469,192,147913,1,0,0:0:0:0:
384,192,147913,1,0,0:0:0:0:
42,192,148032,1,0,0:0:0:30:Clap1.wav
213,192,148032,1,0,0:0:0:0:
128,192,148032,1,0,0:0:0:0:
42,192,148151,1,0,0:0:0:40:Clap1.wav
128,192,148151,1,0,0:0:0:40:Kick1.wav
469,192,148151,1,0,0:0:0:0:
213,192,148210,1,0,0:0:0:0:
298,192,148270,1,0,0:0:0:15:Clap1.wav
384,192,148270,1,0,0:0:0:0:
42,192,148389,1,0,0:0:0:30:Clap1.wav
213,192,148389,1,0,0:0:0:0:
128,192,148389,1,0,0:0:0:0:
298,192,148508,1,0,0:0:0:40:Clap1.wav
469,192,148508,1,0,0:0:0:0:
384,192,148508,1,0,0:0:0:0:
42,192,148627,128,0,149103:0:0:0:100:Cymbal.wav
128,192,148627,1,0,0:0:0:40:Kick1.wav
384,192,148627,1,0,0:0:0:0:
469,192,148627,1,0,0:0:0:0:
213,192,148865,1,0,0:0:0:0:
384,192,148865,1,0,0:0:0:0:
128,192,149103,1,0,0:0:0:80:LR_Drum Rpd Fast1.wav
213,192,149103,128,0,149580:0:0:0:40:Kick1.wav
469,192,149103,1,0,0:0:0:0:
128,192,149341,1,0,0:0:0:0:
298,192,149341,1,0,0:0:0:0:
42,192,149580,1,0,0:0:0:40:Kick1.wav
298,192,149580,128,0,150056:0:0:0:0:
213,192,149818,1,0,0:0:0:0:
469,192,149818,1,0,0:0:0:0:
42,192,150056,1,0,0:0:0:80:LR_Drum Rpd Fast1.wav
384,192,150056,1,0,0:0:0:40:Kick1.wav
469,192,150056,128,0,150532:0:0:0:0:
42,192,150294,1,0,0:0:0:0:
128,192,150294,1,0,0:0:0:0:
128,192,150532,128,0,151008:0:0:0:40:Kick1.wav
384,192,150532,1,0,0:0:0:0:
213,192,150770,1,0,0:0:0:0:
469,192,150770,1,0,0:0:0:0:
42,192,151008,1,0,0:0:0:80:LR_Drum Rpd Fast1.wav
213,192,151008,128,0,151484:0:0:0:40:Kick1.wav
384,192,151008,1,0,0:0:0:0:
298,192,151246,1,0,0:0:0:0:
384,192,151246,1,0,0:0:0:0:
42,192,151484,1,0,0:0:0:40:Kick1.wav
298,192,151484,128,0,151960:0:0:0:0:
213,192,151722,1,0,0:0:0:0:
384,192,151722,1,0,0:0:0:0:
128,192,151960,1,0,0:0:0:80:LR_Drum Rpd Fast1.wav
384,192,151960,128,0,152437:0:0:0:40:Kick1.wav
469,192,151960,1,0,0:0:0:0:
42,192,152199,1,0,0:0:0:0:
469,192,152199,1,0,0:0:0:0:
128,192,152318,1,0,0:0:0:60:LR_Drum_Rpd x2.wav
213,192,152318,1,0,0:0:0:0:
42,192,152437,128,0,152913:0:0:0:40:Kick1.wav
298,192,152437,1,0,0:0:0:0:
128,192,152675,1,0,0:0:0:0:
384,192,152675,1,0,0:0:0:0:
128,192,152913,128,0,153389:0:0:0:80:LR_Drum Rpd Fast1.wav
298,192,152913,1,0,0:0:0:40:Kick1.wav
469,192,152913,1,0,0:0:0:0:
213,192,153151,1,0,0:0:0:0:
298,192,153151,1,0,0:0:0:0:
213,192,153389,128,0,153865:0:0:0:40:Kick1.wav
469,192,153389,1,0,0:0:0:0:
128,192,153627,1,0,0:0:0:0:
298,192,153627,1,0,0:0:0:0:
42,192,153865,1,0,0:0:0:80:LR_Drum Rpd Fast1.wav
298,192,153865,128,0,154341:0:0:0:40:Kick1.wav
384,192,153865,1,0,0:0:0:0:
42,192,154103,1,0,0:0:0:0:
469,192,154103,1,0,0:0:0:0:
213,192,154341,1,0,0:0:0:40:Kick1.wav
469,192,154341,128,0,154818:0:0:0:0:
298,192,154580,1,0,0:0:0:0:
384,192,154580,1,0,0:0:0:0:
42,192,154818,1,0,0:0:0:80:LR_Drum Rpd Fast1.wav
213,192,154818,1,0,0:0:0:40:Kick1.wav
384,192,154818,128,0,155294:0:0:0:0:
42,192,155056,1,0,0:0:0:0:
298,192,155056,1,0,0:0:0:0:
128,192,155294,1,0,0:0:0:40:Kick1.wav
298,192,155294,128,0,155532:0:0:0:0:
213,192,155532,128,0,155651:0:0:0:80:LR_Drum Rpd Fast1.wav
384,192,155532,1,0,0:0:0:0:
469,192,155532,1,0,0:0:0:0:
128,192,155651,128,0,155770:0:0:0:0:
213,192,155770,128,0,155889:0:0:0:60:LR_Drum Rpd Fast1.wav
384,192,155770,1,0,0:0:0:40:Kick1.wav
469,192,155770,1,0,0:0:0:0:
128,192,155889,128,0,156008:0:0:0:60:LR_Drum Rpd Fast1.wav
384,192,155889,1,0,0:0:0:0:
469,192,155889,1,0,0:0:0:0:
42,192,156008,1,0,0:0:0:70:LR_Tom Hit.wav
298,192,156008,1,0,0:0:0:0:
42,192,156246,128,0,156722:0:0:0:100:Cymbal.wav
128,192,156246,1,0,0:0:0:40:Kick1.wav
298,192,156246,1,0,0:0:0:0:
469,192,156246,1,0,0:0:0:0:
213,192,156484,1,0,0:0:0:0:
298,192,156484,1,0,0:0:0:0:
128,192,156722,1,0,0:0:0:80:LR_Drum Rpd Fast1.wav
213,192,156722,128,0,157199:0:0:0:40:Kick1.wav
469,192,156722,1,0,0:0:0:0:
128,192,156960,1,0,0:0:0:0:
298,192,156960,1,0,0:0:0:0:
42,192,157199,1,0,0:0:0:40:Kick1.wav
298,192,157199,128,0,157675:0:0:0:0:
213,192,157437,1,0,0:0:0:0:
469,192,157437,1,0,0:0:0:0:
42,192,157675,1,0,0:0:0:80:LR_Drum Rpd Fast1.wav
128,192,157675,1,0,0:0:0:40:Kick1.wav
469,192,157675,128,0,158032:0:0:0:0:
128,192,157913,1,0,0:0:0:0:
384,192,157913,1,0,0:0:0:0:
213,192,158151,1,0,0:0:0:40:Kick1.wav
469,192,158151,128,0,158627:0:0:0:0:
128,192,158389,1,0,0:0:0:0:
298,192,158389,1,0,0:0:0:0:
213,192,158627,1,0,0:0:0:80:LR_Drum Rpd Fast1.wav
298,192,158627,128,0,158865:0:0:0:40:Kick1.wav
384,192,158627,1,0,0:0:0:0:
42,192,158865,1,0,0:0:0:0:
213,192,158865,1,0,0:0:0:0:
298,192,158984,128,0,159103:0:0:0:0:
42,192,159103,128,0,159341:0:0:0:70:LR_Tom Hit.wav
384,192,159103,1,0,0:0:0:40:Kick1.wav
128,192,159341,128,0,159580:0:0:0:50:LR_Drum_Rpd x2.wav
469,192,159341,1,0,0:0:0:0:
213,192,159460,1,0,0:0:0:50:LR_Drum_Rpd x2.wav
298,192,159460,1,0,0:0:0:0:
42,192,159580,128,0,159818:0:0:0:80:LR_Drum Rpd Fast1.wav
384,192,159580,1,0,0:0:0:40:Kick1.wav
469,192,159580,1,0,0:0:0:0:
128,192,159699,1,0,0:0:0:60:LR_Drum_Rpd x2.wav
213,192,159699,1,0,0:0:0:0:
298,192,159818,1,0,0:0:0:100:LR_Tom Hit 2.wav
384,192,159818,1,0,0:0:0:0:
42,192,160056,1,0,0:0:0:100:Cymbal.wav
213,192,160056,128,0,160294:0:0:0:40:Kick1.wav
384,192,160056,1,0,0:0:0:0:
469,192,160056,1,0,0:0:0:0:
128,192,160294,128,0,160532:0:0:0:0:
469,192,160294,1,0,0:0:0:0:
384,192,160413,1,0,0:0:0:0:
42,192,160532,128,0,160770:0:0:0:80:LR_Drum Rpd Fast1.wav
213,192,160532,1,0,0:0:0:40:Kick1.wav
298,192,160532,128,0,160770:0:0:0:0:
469,192,160770,1,0,0:0:0:0:
128,192,160770,1,0,0:0:0:0:
298,192,160889,1,0,0:0:0:0:
213,192,161008,128,0,161246:0:0:0:40:Kick1.wav
128,192,161008,1,0,0:0:0:0:
469,192,161127,1,0,0:0:0:0:
128,192,161246,128,0,161484:0:0:0:0:
298,192,161246,1,0,0:0:0:0:
469,192,161365,1,0,0:0:0:0:
42,192,161484,128,0,161722:0:0:0:80:LR_Drum Rpd Fast1.wav
213,192,161484,1,0,0:0:0:40:Kick1.wav
298,192,161484,1,0,0:0:0:0:
469,192,161603,1,0,0:0:0:0:
128,192,161722,1,0,0:0:0:0:
384,192,161722,1,0,0:0:0:0:
298,192,161841,1,0,0:0:0:0:
128,192,161960,1,0,0:0:0:40:Kick1.wav
213,192,161960,128,0,162199:0:0:0:0:
298,192,162080,1,0,0:0:0:80:LR_Drum Rpd Fast1.wav
384,192,162080,1,0,0:0:0:0:
42,192,162199,128,0,162437:0:0:0:0:
469,192,162199,1,0,0:0:0:0:
384,192,162318,1,0,0:0:0:0:
128,192,162437,1,0,0:0:0:100:Cymbal.wav
213,192,162437,128,0,162675:0:0:0:60:LR_Drum Rpd Fast1.wav
469,192,162437,128,0,162794:0:0:0:40:Kick1.wav
298,192,162556,1,0,0:0:0:60:LR_Drum Rpd Fast1.wav
384,192,162556,1,0,0:0:0:0:
42,192,162675,1,0,0:0:0:0:
128,192,162675,128,0,162913:0:0:0:0:
298,192,162794,1,0,0:0:0:0:
42,192,162913,128,0,163270:0:0:0:60:LR_Drum Rpd Fast1.wav
469,192,162913,1,0,0:0:0:40:Kick1.wav
384,192,162913,1,0,0:0:0:0:
213,192,163032,1,0,0:0:0:60:LR_Drum Rpd Fast1.wav
298,192,163032,1,0,0:0:0:0:
128,192,163151,1,0,0:0:0:60:LR_Drum Rpd Fast1.wav
469,192,163151,1,0,0:0:0:0:
213,192,163270,1,0,0:0:0:60:LR_Drum Rpd Fast1.wav
298,192,163270,1,0,0:0:0:0:
128,192,163389,1,0,0:0:0:60:LR_Drum Rpd Fast1.wav
384,192,163389,1,0,0:0:0:40:Kick1.wav
469,192,163389,1,0,0:0:0:0:
213,192,163508,1,0,0:0:0:70:LR_Tom Hit.wav
298,192,163508,1,0,0:0:0:0:
128,192,163627,128,0,163865:0:0:0:100:LR_Tom Hit 2.wav
384,192,163627,128,0,163865:0:0:0:0:
42,192,163865,128,0,164341:0:0:0:100:Cymbal.wav
213,192,163865,1,0,0:0:0:40:Kick1.wav
298,192,163865,1,0,0:0:0:0:
469,192,163865,1,0,0:0:0:0:
128,192,164103,1,0,0:0:0:0:
298,192,164103,1,0,0:0:0:0:
128,192,164341,128,0,164818:0:0:0:80:LR_Drum Rpd Fast1.wav
213,192,164341,1,0,0:0:0:40:Kick1.wav
469,192,164341,1,0,0:0:0:0:
213,192,164580,1,0,0:0:0:0:
384,192,164580,1,0,0:0:0:0:
42,192,164818,1,0,0:0:0:40:Kick1.wav
384,192,164818,128,0,165294:0:0:0:0:
128,192,165056,1,0,0:0:0:0:
469,192,165056,1,0,0:0:0:0:
213,192,165294,1,0,0:0:0:80:LR_Drum Rpd Fast1.wav
298,192,165294,1,0,0:0:0:40:Kick1.wav
469,192,165294,128,0,165770:0:0:0:0:
42,192,165532,1,0,0:0:0:0:
298,192,165532,1,0,0:0:0:0:
42,192,165770,128,0,166246:0:0:0:40:Kick1.wav
384,192,165770,1,0,0:0:0:0:
213,192,166008,1,0,0:0:0:0:
469,192,166008,1,0,0:0:0:0:
128,192,166246,1,0,0:0:0:80:LR_Drum Rpd Fast1.wav
213,192,166246,128,0,166722:0:0:0:40:Kick1.wav
384,192,166246,1,0,0:0:0:0:
128,192,166484,1,0,0:0:0:0:
298,192,166484,1,0,0:0:0:0:
42,192,166722,1,0,0:0:0:40:Kick1.wav
298,192,166722,128,0,167199:0:0:0:0:
213,192,166960,1,0,0:0:0:0:
469,192,166960,1,0,0:0:0:0:
42,192,167199,1,0,0:0:0:80:LR_Drum Rpd Fast1.wav
128,192,167199,1,0,0:0:0:40:Kick1.wav
384,192,167199,1,0,0:0:0:0:
469,192,167199,128,0,167675:0:0:0:0:
213,192,167437,1,0,0:0:0:0:
384,192,167437,1,0,0:0:0:0:
128,192,167556,1,0,0:0:0:60:LR_Drum_Rpd x2.wav
298,192,167556,1,0,0:0:0:0:
42,192,167675,1,0,0:0:0:40:Kick1.wav
213,192,167675,1,0,0:0:0:0:
42,192,167913,128,0,168151:0:0:0:0:
469,192,167913,1,0,0:0:0:0:
128,192,168151,1,0,0:0:0:80:LR_Drum Rpd Fast1.wav
298,192,168151,1,0,0:0:0:40:Kick1.wav
469,192,168151,128,0,168389:0:0:0:0:
128,192,168389,128,0,168627:0:0:0:0:
384,192,168389,1,0,0:0:0:0:
213,192,168627,1,0,0:0:0:40:Kick1.wav
384,192,168627,128,0,168865:0:0:0:0:
213,192,168865,128,0,169103:0:0:0:0:
298,192,168865,1,0,0:0:0:0:
42,192,169103,1,0,0:0:0:80:LR_Drum Rpd Fast1.wav
128,192,169103,1,0,0:0:0:40:Kick1.wav
298,192,169103,128,0,169341:0:0:0:0:
42,192,169341,128,0,169580:0:0:0:0:
469,192,169341,1,0,0:0:0:0:
128,192,169580,1,0,0:0:0:40:Kick1.wav
469,192,169580,128,0,170056:0:0:0:0:
213,192,169818,1,0,0:0:0:0:
384,192,169818,1,0,0:0:0:0:
42,192,170056,1,0,0:0:0:80:LR_Drum Rpd Fast1.wav
128,192,170056,1,0,0:0:0:40:Kick1.wav
384,192,170056,128,0,170532:0:0:0:0:
42,192,170294,1,0,0:0:0:0:
213,192,170294,1,0,0:0:0:0:
213,192,170532,128,0,170770:0:0:0:40:Kick1.wav
298,192,170532,1,0,0:0:0:0:
42,192,170770,1,0,0:0:0:80:LR_Drum Rpd Fast1.wav
298,192,170770,128,0,171008:0:0:0:0:
469,192,170770,1,0,0:0:0:0:
213,192,171008,128,0,171246:0:0:0:60:LR_Drum Rpd Fast1.wav
384,192,171008,1,0,0:0:0:40:Kick1.wav
469,192,171008,1,0,0:0:0:0:
42,192,171127,1,0,0:0:0:60:LR_Drum Rpd Fast1.wav
384,192,171127,1,0,0:0:0:0:
469,192,171127,1,0,0:0:0:0:
128,192,171246,128,0,171484:0:0:0:70:LR_Tom Hit.wav
298,192,171246,1,0,0:0:0:0:
42,192,171484,1,0,0:0:0:100:Cymbal.wav
213,192,171484,1,0,0:0:0:40:Kick1.wav
384,192,171484,1,0,0:0:0:0:
469,192,171484,128,0,171960:0:0:0:0:
128,192,171722,1,0,0:0:0:0:
298,192,171722,1,0,0:0:0:0:
42,192,171960,1,0,0:0:0:80:LR_Drum Rpd Fast1.wav
213,192,171960,128,0,172199:0:0:0:40:Kick1.wav
298,192,171960,1,0,0:0:0:0:
128,192,172199,128,0,172437:0:0:0:0:
469,192,172199,1,0,0:0:0:0:
42,192,172437,128,0,172675:0:0:0:40:Kick1.wav
298,192,172437,1,0,0:0:0:0:
128,192,172675,128,0,172913:0:0:0:0:
469,192,172675,1,0,0:0:0:0:
42,192,172913,1,0,0:0:0:80:LR_Drum Rpd Fast1.wav
213,192,172913,128,0,173270:0:0:0:40:Kick1.wav
298,192,172913,1,0,0:0:0:0:
128,192,173151,1,0,0:0:0:0:
384,192,173151,1,0,0:0:0:0:
213,192,173389,1,0,0:0:0:40:Kick1.wav
469,192,173389,128,0,173865:0:0:0:0:
42,192,173627,1,0,0:0:0:0:
298,192,173627,1,0,0:0:0:0:
128,192,173865,1,0,0:0:0:80:LR_Drum Rpd Fast1.wav
213,192,173865,128,0,174103:0:0:0:40:Kick1.wav
298,192,173865,1,0,0:0:0:0:
42,192,174103,128,0,174341:0:0:0:0:
469,192,174103,1,0,0:0:0:0:
213,192,174341,128,0,174580:0:0:0:40:Kick1.wav
298,192,174341,1,0,0:0:0:0:
128,192,174580,128,0,174818:0:0:0:0:
469,192,174580,1,0,0:0:0:0:
213,192,174818,128,0,175175:0:0:0:80:LR_Drum Rpd Fast1.wav
42,192,174818,1,0,0:0:0:40:Kick1.wav
298,192,174818,1,0,0:0:0:0:
42,192,175056,1,0,0:0:0:0:
384,192,175056,1,0,0:0:0:0:
128,192,175175,1,0,0:0:0:60:LR_Drum_Rpd x2.wav
298,192,175175,1,0,0:0:0:0:
213,192,175294,1,0,0:0:0:40:Kick1.wav
469,192,175294,128,0,175770:0:0:0:0:
128,192,175532,1,0,0:0:0:0:
298,192,175532,1,0,0:0:0:0:
42,192,175770,1,0,0:0:0:100:Cymbal.wav
213,192,175770,128,0,176008:0:0:0:80:LR_Drum Rpd Fast1.wav
298,192,175770,1,0,0:0:0:40:Kick1.wav
384,192,175770,1,0,0:0:0:0:
42,192,176008,128,0,176246:0:0:0:0:
469,192,176008,1,0,0:0:0:0:
128,192,176127,1,0,0:0:0:60:LR_Drum_Rpd x2.wav
384,192,176127,1,0,0:0:0:0:
213,192,176246,128,0,176484:0:0:0:70:LR_Tom Hit.wav
298,192,176246,1,0,0:0:0:40:Kick1.wav
298,192,176484,1,0,0:0:0:50:LR_Drum_Rpd x2.wav
384,192,176484,1,0,0:0:0:0:
469,192,176484,1,0,0:0:0:0:
298,192,176603,1,0,0:0:0:50:LR_Drum_Rpd x2.wav
384,192,176603,1,0,0:0:0:0:
469,192,176603,1,0,0:0:0:0:
42,192,176722,1,0,0:0:0:40:Kick1.wav
128,192,176722,1,0,0:0:0:0:
213,192,176841,1,0,0:0:0:50:LR_Drum_Rpd x2.wav
384,192,176841,1,0,0:0:0:0:
469,192,176841,1,0,0:0:0:0:
42,192,176960,1,0,0:0:0:50:LR_Drum_Rpd x2.wav
128,192,176960,1,0,0:0:0:0:
298,192,176960,1,0,0:0:0:0:
42,192,177080,1,0,0:0:0:50:LR_Drum_Rpd x2.wav
128,192,177080,1,0,0:0:0:0:
298,192,177080,1,0,0:0:0:0:
213,192,177199,1,0,0:0:0:40:Clap1.wav
384,192,177199,1,0,0:0:0:0:
469,192,177199,1,0,0:0:0:0:
42,192,177318,1,0,0:0:0:100:Cymbal2.wav
128,192,177318,1,0,0:0:0:40:Kick1.wav
298,192,177318,1,0,0:0:0:0:
469,192,177318,1,0,0:0:0:0:
213,192,177556,1,0,0:0:0:50:LR_Drum_Rpd x2.wav
384,192,177556,1,0,0:0:0:0:
469,192,177556,1,0,0:0:0:0:
42,192,177675,1,0,0:0:0:100:Cymbal.wav
128,192,177675,1,0,0:0:0:40:Kick1.wav
298,192,177675,1,0,0:0:0:0:
469,192,177675,1,0,0:0:0:0:
213,192,177913,1,0,0:0:0:50:LR_Drum_Rpd x2.wav
384,192,177913,1,0,0:0:0:0:
469,192,177913,1,0,0:0:0:0:
42,192,178032,1,0,0:0:0:100:Cymbal2.wav
128,192,178032,1,0,0:0:0:40:Kick1.wav
298,192,178032,1,0,0:0:0:0:
469,192,178032,1,0,0:0:0:0:
42,192,178151,1,0,0:0:0:0:
298,192,178270,1,0,0:0:0:40:Clap1.wav
384,192,178270,1,0,0:0:0:0:
128,192,178389,1,0,0:0:0:70:LR_Tom Hit.wav
213,192,178389,1,0,0:0:0:0:
469,192,178508,1,0,0:0:0:0:
384,192,178548,1,0,0:0:0:0:
42,192,178587,1,0,0:0:0:0:
128,192,178627,1,0,0:0:0:40:Clap1.wav
213,192,178627,1,0,0:0:0:0:
384,192,178746,1,0,0:0:0:0:
469,192,178746,1,0,0:0:0:0:
298,192,178786,1,0,0:0:0:0:
42,192,178865,1,0,0:0:0:40:Clap1.wav
128,192,178865,1,0,0:0:0:0:
213,192,178945,1,0,0:0:0:0:
384,192,178984,1,0,0:0:0:0:
469,192,178984,1,0,0:0:0:0:
298,192,179024,1,0,0:0:0:0:
42,192,179103,5,0,0:0:0:100:Cymbal.wav
213,192,179103,128,0,179460:0:0:0:0:
128,192,179103,1,0,0:0:0:40:Kick1.wav
469,192,179341,1,0,0:0:0:0:
298,192,179341,1,0,0:0:0:0:
384,192,179580,1,0,0:0:0:0:
213,192,179580,128,0,179937:0:0:0:40:Kick1.wav
42,192,179580,1,0,0:0:0:80:LR_Drum Rpd Fast1.wav
469,192,179818,1,0,0:0:0:0:
298,192,179818,1,0,0:0:0:0:
213,192,180056,128,0,180413:0:0:0:0:
42,192,180056,1,0,0:0:0:40:Kick1.wav
469,192,180294,1,0,0:0:0:0:
298,192,180294,128,0,180651:0:0:0:0:
384,192,180532,1,0,0:0:0:0:
213,192,180532,128,0,180889:0:0:0:40:Kick1.wav
42,192,180532,1,0,0:0:0:80:LR_Drum Rpd Fast1.wav
469,192,180770,1,0,0:0:0:0:
298,192,180770,128,0,181008:0:0:0:0:
128,192,181008,1,0,0:0:0:0:
42,192,181008,128,0,181087:0:0:0:40:Kick1.wav
213,192,181127,128,0,181207:0:0:0:0:
384,192,181246,1,0,0:0:0:0:
469,192,181246,128,0,181326:0:0:0:0:
298,192,181365,128,0,181445:0:0:0:0:
469,192,181484,1,0,0:0:0:0:
42,192,181484,1,0,0:0:0:40:Kick1.wav
128,192,181484,128,0,181564:0:0:0:80:LR_Drum Rpd Fast1.wav
213,192,181603,128,0,181683:0:0:0:0:
469,192,181722,1,0,0:0:0:0:
384,192,181722,128,0,181802:0:0:0:0:
298,192,181841,128,0,181921:0:0:0:0:
128,192,181960,1,0,0:0:0:40:Kick1.wav
213,192,181960,128,0,182040:0:0:0:0:
42,192,182080,128,0,182159:0:0:0:0:
298,192,182199,1,0,0:0:0:0:
213,192,182199,128,0,182278:0:0:0:0:
469,192,182318,128,0,182397:0:0:0:0:
42,192,182437,1,0,0:0:0:40:Kick1.wav
128,192,182437,1,0,0:0:0:80:LR_Drum Rpd Fast1.wav
384,192,182437,128,0,182516:0:0:0:0:
298,192,182556,128,0,182635:0:0:0:0:
469,192,182675,1,0,0:0:0:0:
213,192,182675,128,0,182754:0:0:0:0:
128,192,182794,128,0,182873:0:0:0:0:
384,192,182794,1,0,0:0:0:60:LR_Drum_Rpd x2.wav
298,192,182913,128,0,182992:0:0:0:0:
42,192,182913,1,0,0:0:0:40:Kick1.wav
128,192,183032,128,0,183111:0:0:0:0:
469,192,183151,1,0,0:0:0:0:
384,192,183151,128,0,183230:0:0:0:0:
213,192,183270,128,0,183349:0:0:0:0:
42,192,183389,1,0,0:0:0:40:Kick1.wav
298,192,183389,1,0,0:0:0:80:LR_Drum Rpd Fast1.wav
469,192,183389,128,0,183468:0:0:0:0:
128,192,183508,128,0,183587:0:0:0:0:
298,192,183627,1,0,0:0:0:0:
384,192,183627,128,0,183707:0:0:0:0:
213,192,183746,128,0,183826:0:0:0:0:
42,192,183865,1,0,0:0:0:40:Kick1.wav
469,192,183865,128,0,184103:0:0:0:0:
298,192,184103,1,0,0:0:0:0:
213,192,184103,128,0,184183:0:0:0:0:
42,192,184222,128,0,184302:0:0:0:0:
384,192,184341,1,0,0:0:0:80:LR_Drum Rpd Fast1.wav
469,192,184341,1,0,0:0:0:0:
298,192,184341,128,0,184421:0:0:0:40:Kick1.wav
128,192,184460,128,0,184540:0:0:0:0:
42,192,184580,1,0,0:0:0:0:
384,192,184580,128,0,184659:0:0:0:0:
213,192,184699,128,0,184778:0:0:0:0:
469,192,184818,128,0,185056:0:0:0:0:
128,192,184818,1,0,0:0:0:40:Kick1.wav
213,192,185056,1,0,0:0:0:0:
42,192,185056,1,0,0:0:0:0:
298,192,185214,128,0,185294:0:0:0:0:
469,192,185294,1,0,0:0:0:0:
384,192,185294,1,0,0:0:0:40:Kick1.wav
128,192,185294,1,0,0:0:0:80:LR_Drum Rpd Fast1.wav
213,192,185413,1,0,0:0:0:0:
384,192,185532,1,0,0:0:0:0:
128,192,185532,128,0,186008:0:0:0:0:
298,192,185770,1,0,0:0:0:0:
469,192,185770,1,0,0:0:0:0:
42,192,185770,1,0,0:0:0:100:Cymbal.wav
213,192,185770,1,0,0:0:0:40:Kick1.wav
469,192,186008,1,0,0:0:0:0:
384,192,186008,1,0,0:0:0:0:
42,192,186008,1,0,0:0:0:80:LR_Drum Rpd Fast1.wav
128,192,186127,1,0,0:0:0:0:
469,192,186246,1,0,0:0:0:0:
213,192,186246,1,0,0:0:0:60:LR_Drum Rpd Fast1.wav
298,192,186246,128,0,186365:0:0:0:40:Kick1.wav
128,192,186365,128,0,186484:0:0:0:0:
384,192,186365,1,0,0:0:0:0:
42,192,186365,1,0,0:0:0:60:LR_Drum Rpd Fast1.wav
298,192,186484,128,0,186603:0:0:0:70:LR_Tom Hit.wav
469,192,186484,1,0,0:0:0:0:
213,192,186603,128,0,187199:0:0:0:0:
384,192,186722,1,0,0:0:0:0:
469,192,186722,1,0,0:0:0:0:
42,192,186722,1,0,0:0:0:100:Cymbal.wav
128,192,186722,1,0,0:0:0:40:Kick1.wav
384,192,186960,1,0,0:0:0:0:
298,192,186960,128,0,187199:0:0:0:0:
469,192,187199,1,0,0:0:0:0:
128,192,187199,128,0,187675:0:0:0:40:Kick1.wav
42,192,187199,1,0,0:0:0:80:LR_Drum Rpd Fast1.wav
384,192,187437,1,0,0:0:0:0:
213,192,187437,128,0,187675:0:0:0:0:
298,192,187675,128,0,187754:0:0:0:40:Kick1.wav
469,192,187675,1,0,0:0:0:0:
213,192,187794,128,0,187873:0:0:0:0:
298,192,187913,128,0,187992:0:0:0:0:
42,192,187913,1,0,0:0:0:0:
213,192,188032,128,0,188111:0:0:0:0:
128,192,188151,128,0,188230:0:0:0:80:LR_Drum Rpd Fast1.wav
469,192,188151,1,0,0:0:0:0:
384,192,188151,1,0,0:0:0:40:Kick1.wav
42,192,188270,128,0,188349:0:0:0:0:
469,192,188389,128,0,188627:0:0:0:0:
213,192,188389,1,0,0:0:0:0:
384,192,188627,128,0,188707:0:0:0:0:
128,192,188627,1,0,0:0:0:40:Kick1.wav
213,192,188746,128,0,188826:0:0:0:0:
298,192,188865,128,0,188945:0:0:0:0:
42,192,188865,1,0,0:0:0:0:
128,192,188984,128,0,189064:0:0:0:0:
469,192,189103,128,0,189183:0:0:0:0:
298,192,189103,1,0,0:0:0:40:Kick1.wav
42,192,189103,1,0,0:0:0:80:LR_Drum Rpd Fast1.wav
384,192,189222,128,0,189302:0:0:0:0:
298,192,189341,128,0,189421:0:0:0:0:
128,192,189341,1,0,0:0:0:0:
213,192,189460,128,0,189540:0:0:0:0:
384,192,189580,128,0,189659:0:0:0:40:Kick1.wav
42,192,189580,1,0,0:0:0:70:LR_Tom Hit.wav
298,192,189699,128,0,189778:0:0:0:0:
213,192,189818,128,0,189897:0:0:0:0:
469,192,189818,1,0,0:0:0:50:LR_Drum_Rpd x2.wav
384,192,189937,128,0,190175:0:0:0:0:
42,192,189937,1,0,0:0:0:50:LR_Drum_Rpd x2.wav
213,192,190056,1,0,0:0:0:80:LR_Drum Rpd Fast1.wav
298,192,190056,1,0,0:0:0:40:Kick1.wav
128,192,190056,1,0,0:0:0:0:
469,192,190175,1,0,0:0:0:0:
42,192,190175,1,0,0:0:0:50:LR_Drum_Rpd x2.wav
384,192,190294,1,0,0:0:0:0:
298,192,190294,128,0,190532:0:0:0:50:LR_Drum_Rpd x2.wav
213,192,190413,1,0,0:0:0:0:
42,192,190413,1,0,0:0:0:50:LR_Drum_Rpd x2.wav
213,192,190532,128,0,190770:0:0:0:0:
384,192,190532,1,0,0:0:0:0:
42,192,190532,1,0,0:0:0:100:Cymbal.wav
128,192,190532,1,0,0:0:0:40:Kick1.wav
128,192,190770,128,0,190849:0:0:0:0:
469,192,190770,1,0,0:0:0:0:
384,192,190889,1,0,0:0:0:0:
469,192,191008,128,0,191246:0:0:0:0:
213,192,191008,1,0,0:0:0:40:Kick1.wav
42,192,191008,128,0,191087:0:0:0:80:LR_Drum Rpd Fast1.wav
128,192,191127,128,0,191207:0:0:0:0:
298,192,191246,1,0,0:0:0:0:
213,192,191246,1,0,0:0:0:0:
469,192,191365,1,0,0:0:0:0:
42,192,191365,128,0,191722:0:0:0:0:
298,192,191484,1,0,0:0:0:0:
128,192,191484,1,0,0:0:0:40:Kick1.wav
469,192,191603,1,0,0:0:0:0:
213,192,191722,128,0,191802:0:0:0:0:
298,192,191722,1,0,0:0:0:0:
469,192,191841,1,0,0:0:0:0:
298,192,191960,1,0,0:0:0:0:
128,192,191960,1,0,0:0:0:40:Kick1.wav
42,192,191960,128,0,192040:0:0:0:80:LR_Drum Rpd Fast1.wav
469,192,192080,1,0,0:0:0:0:
213,192,192080,128,0,192159:0:0:0:0:
42,192,192199,1,0,0:0:0:0:
384,192,192199,1,0,0:0:0:0:
298,192,192318,1,0,0:0:0:0:
128,192,192318,128,0,192675:0:0:0:0:
469,192,192437,1,0,0:0:0:0:
213,192,192437,1,0,0:0:0:40:Kick1.wav
298,192,192556,1,0,0:0:0:0:
42,192,192556,1,0,0:0:0:80:LR_Drum Rpd Fast1.wav
213,192,192675,128,0,192754:0:0:0:0:
469,192,192675,1,0,0:0:0:0:
384,192,192794,1,0,0:0:0:0:
469,192,192913,128,0,193151:0:0:0:40:Kick1.wav
298,192,192913,1,0,0:0:0:60:LR_Drum Rpd Fast1.wav
128,192,192913,128,0,192992:0:0:0:100:Cymbal.wav
42,192,193032,1,0,0:0:0:60:LR_Drum Rpd Fast1.wav
213,192,193032,128,0,193111:0:0:0:0:
298,192,193151,1,0,0:0:0:0:
128,192,193151,1,0,0:0:0:0:
469,192,193270,1,0,0:0:0:0:
213,192,193270,128,0,193508:0:0:0:0:
298,192,193389,1,0,0:0:0:40:Kick1.wav
42,192,193389,1,0,0:0:0:60:LR_Drum Rpd Fast1.wav
384,192,193389,1,0,0:0:0:0:
128,192,193508,128,0,193587:0:0:0:60:LR_Drum Rpd Fast1.wav
469,192,193508,1,0,0:0:0:0:
213,192,193627,128,0,193707:0:0:0:60:LR_Drum Rpd Fast1.wav
298,192,193627,1,0,0:0:0:0:
42,192,193746,128,0,193826:0:0:0:60:LR_Drum Rpd Fast1.wav
469,192,193746,1,0,0:0:0:0:
128,192,193865,128,0,193945:0:0:0:60:LR_Drum Rpd Fast1.wav
384,192,193865,1,0,0:0:0:0:
298,192,193865,1,0,0:0:0:40:Kick1.wav
469,192,193984,1,0,0:0:0:0:
213,192,193984,1,0,0:0:0:0:
298,192,194103,128,0,194341:0:0:0:40:Kick1.wav
128,192,194103,1,0,0:0:0:100:Cymbal2.wav
384,192,194103,1,0,0:0:0:0:
42,192,194103,1,0,0:0:0:0:
384,192,194341,1,0,0:0:0:0:
469,192,194341,1,0,0:0:0:0:
42,192,194341,128,0,194460:0:0:0:100:Cymbal.wav
128,192,194341,1,0,0:0:0:40:Kick1.wav
469,192,194580,1,0,0:0:0:0:
42,192,194580,128,0,194699:0:0:0:0:
384,192,194818,1,0,0:0:0:0:
128,192,194818,1,0,0:0:0:40:Kick1.wav
42,192,194818,128,0,195056:0:0:0:80:LR_Drum Rpd Fast1.wav
469,192,195056,1,0,0:0:0:0:
213,192,195056,128,0,195294:0:0:0:0:
298,192,195294,1,0,0:0:0:0:
42,192,195294,128,0,195413:0:0:0:40:Kick1.wav
469,192,195532,1,0,0:0:0:0:
42,192,195532,128,0,195770:0:0:0:0:
384,192,195770,1,0,0:0:0:0:
213,192,195770,128,0,196008:0:0:0:40:Kick1.wav
128,192,195770,1,0,0:0:0:80:LR_Drum Rpd Fast1.wav
469,192,196008,1,0,0:0:0:0:
42,192,196008,128,0,196127:0:0:0:0:
298,192,196246,1,0,0:0:0:0:
42,192,196246,128,0,196484:0:0:0:40:Kick1.wav
469,192,196484,1,0,0:0:0:0:
298,192,196484,128,0,196722:0:0:0:0:
384,192,196722,1,0,0:0:0:0:
128,192,196722,1,0,0:0:0:40:Kick1.wav
42,192,196722,128,0,196960:0:0:0:80:LR_Drum Rpd Fast1.wav
469,192,196960,1,0,0:0:0:0:
298,192,196960,128,0,197199:0:0:0:0:
213,192,197199,1,0,0:0:0:0:
42,192,197199,128,0,197437:0:0:0:40:Kick1.wav
469,192,197437,1,0,0:0:0:0:
213,192,197437,128,0,197675:0:0:0:0:
384,192,197675,128,0,197913:0:0:0:0:
128,192,197675,1,0,0:0:0:40:Kick1.wav
42,192,197675,1,0,0:0:0:80:LR_Drum Rpd Fast1.wav
469,192,197913,1,0,0:0:0:0:
213,192,197913,128,0,198151:0:0:0:0:
128,192,198032,1,0,0:0:0:0:
42,192,198032,1,0,0:0:0:60:LR_Drum_Rpd x2.wav
469,192,198151,128,0,198508:0:0:0:0:
298,192,198151,1,0,0:0:0:40:Kick1.wav
384,192,198389,1,0,0:0:0:0:
42,192,198389,1,0,0:0:0:0:
384,192,198627,128,0,198865:0:0:0:0:
298,192,198627,1,0,0:0:0:40:Kick1.wav
128,192,198627,1,0,0:0:0:80:LR_Drum Rpd Fast1.wav
213,192,198865,1,0,0:0:0:0:
42,192,198865,1,0,0:0:0:0:
469,192,198984,128,0,199103:0:0:0:0:
384,192,199103,1,0,0:0:0:0:
298,192,199103,128,0,199341:0:0:0:40:Kick1.wav
469,192,199341,1,0,0:0:0:0:
42,192,199341,1,0,0:0:0:0:
213,192,199460,128,0,199540:0:0:0:0:
128,192,199580,1,0,0:0:0:0:
298,192,199580,1,0,0:0:0:40:Kick1.wav
469,192,199580,1,0,0:0:0:80:LR_Drum Rpd Fast1.wav
213,192,199699,128,0,199778:0:0:0:0:
128,192,199818,128,0,200056:0:0:0:0:
42,192,199818,1,0,0:0:0:0:
469,192,200056,1,0,0:0:0:0:
384,192,200056,1,0,0:0:0:40:Kick1.wav
213,192,200175,1,0,0:0:0:0:
298,192,200294,128,0,200413:0:0:0:0:
42,192,200294,1,0,0:0:0:0:
384,192,200532,1,0,0:0:0:0:
298,192,200532,128,0,200770:0:0:0:40:Kick1.wav
128,192,200532,1,0,0:0:0:80:LR_Drum Rpd Fast1.wav
213,192,200770,1,0,0:0:0:0:
42,192,200770,1,0,0:0:0:0:
298,192,200889,1,0,0:0:0:0:
213,192,201008,128,0,201127:0:0:0:40:Kick1.wav
469,192,201008,1,0,0:0:0:0:
298,192,201127,128,0,201246:0:0:0:0:
384,192,201246,1,0,0:0:0:0:
128,192,201246,1,0,0:0:0:0:
42,192,201246,1,0,0:0:0:80:LR_Drum Rpd Fast1.wav
469,192,201365,128,0,201484:0:0:0:0:
384,192,201484,1,0,0:0:0:0:
298,192,201484,1,0,0:0:0:40:Kick1.wav
42,192,201484,1,0,0:0:0:60:LR_Drum Rpd Fast1.wav
213,192,201603,1,0,0:0:0:0:
128,192,201603,1,0,0:0:0:0:
42,192,201603,1,0,0:0:0:60:LR_Drum Rpd Fast1.wav
298,192,201722,128,0,201960:0:0:0:70:LR_Tom Hit.wav
469,192,201722,1,0,0:0:0:0:
384,192,201960,1,0,0:0:0:0:
469,192,201960,1,0,0:0:0:0:
42,192,201960,128,0,202318:0:0:0:100:Cymbal.wav
128,192,201960,1,0,0:0:0:40:Kick1.wav
384,192,202199,1,0,0:0:0:0:
298,192,202199,1,0,0:0:0:0:
213,192,202437,128,0,202516:0:0:0:40:Kick1.wav
469,192,202437,1,0,0:0:0:0:
128,192,202437,1,0,0:0:0:80:LR_Drum Rpd Fast1.wav
42,192,202556,128,0,202635:0:0:0:0:
298,192,202675,128,0,202754:0:0:0:0:
213,192,202675,1,0,0:0:0:0:
128,192,202794,128,0,202873:0:0:0:0:
384,192,202913,128,0,202992:0:0:0:0:
42,192,202913,1,0,0:0:0:40:Kick1.wav
213,192,203032,128,0,203111:0:0:0:0:
384,192,203151,1,0,0:0:0:0:
298,192,203151,128,0,203389:0:0:0:0:
213,192,203389,128,0,203468:0:0:0:40:Kick1.wav
469,192,203389,1,0,0:0:0:0:
42,192,203389,1,0,0:0:0:80:LR_Drum Rpd Fast1.wav
128,192,203508,128,0,203587:0:0:0:0:
298,192,203627,128,0,203707:0:0:0:0:
384,192,203627,1,0,0:0:0:0:
42,192,203746,1,0,0:0:0:0:
384,192,203865,128,0,204103:0:0:0:0:
128,192,203865,1,0,0:0:0:40:Kick1.wav
298,192,204103,128,0,204183:0:0:0:0:
128,192,204103,1,0,0:0:0:0:
213,192,204222,128,0,204302:0:0:0:0:
384,192,204341,128,0,204421:0:0:0:0:
469,192,204341,1,0,0:0:0:40:Kick1.wav
42,192,204341,1,0,0:0:0:80:LR_Drum Rpd Fast1.wav
128,192,204460,128,0,204540:0:0:0:0:
298,192,204580,128,0,204659:0:0:0:0:
213,192,204580,1,0,0:0:0:0:
42,192,204699,128,0,204778:0:0:0:0:
384,192,204818,1,0,0:0:0:0:
128,192,204818,128,0,205056:0:0:0:40:Kick1.wav
469,192,205056,128,0,205413:0:0:0:0:
213,192,205056,1,0,0:0:0:0:
384,192,205294,1,0,0:0:0:0:
298,192,205294,1,0,0:0:0:40:Kick1.wav
42,192,205294,1,0,0:0:0:80:LR_Drum Rpd Fast1.wav
213,192,205413,128,0,205492:0:0:0:0:
384,192,205532,128,0,205611:0:0:0:0:
128,192,205532,1,0,0:0:0:0:
42,192,205651,128,0,205730:0:0:0:60:LR_Drum_Rpd x2.wav
298,192,205651,1,0,0:0:0:0:
469,192,205770,1,0,0:0:0:0:
213,192,205770,128,0,206127:0:0:0:40:Kick1.wav
298,192,206008,128,0,206365:0:0:0:0:
128,192,206008,1,0,0:0:0:0:
384,192,206246,1,0,0:0:0:40:Kick1.wav
469,192,206246,1,0,0:0:0:0:
42,192,206246,1,0,0:0:0:100:Cymbal.wav
213,192,206246,128,0,206603:0:0:0:80:LR_Drum Rpd Fast1.wav
298,192,206484,128,0,206802:0:0:0:0:
128,192,206484,1,0,0:0:0:0:
469,192,206603,1,0,0:0:0:0:
384,192,206603,1,0,0:0:0:60:LR_Drum_Rpd x2.wav
213,192,206722,128,0,206960:0:0:0:40:Kick1.wav
42,192,206722,1,0,0:0:0:70:LR_Tom Hit.wav
469,192,206960,1,0,0:0:0:0:
384,192,206960,1,0,0:0:0:0:
298,192,206960,1,0,0:0:0:50:LR_Drum_Rpd x2.wav
469,192,207080,1,0,0:0:0:0:
384,192,207080,1,0,0:0:0:0:
42,192,207080,1,0,0:0:0:50:LR_Drum_Rpd x2.wav
42,192,207199,1,0,0:0:0:80:LR_Drum Rpd Fast1.wav
298,192,207199,1,0,0:0:0:0:
128,192,207199,1,0,0:0:0:40:Kick1.wav
469,192,207318,1,0,0:0:0:0:
384,192,207318,1,0,0:0:0:0:
213,192,207318,1,0,0:0:0:50:LR_Drum_Rpd x2.wav
298,192,207437,1,0,0:0:0:0:
128,192,207437,1,0,0:0:0:0:
42,192,207437,1,0,0:0:0:50:LR_Drum_Rpd x2.wav
298,192,207556,1,0,0:0:0:0:
128,192,207556,1,0,0:0:0:0:
42,192,207556,1,0,0:0:0:50:LR_Drum_Rpd x2.wav
469,192,207675,1,0,0:0:0:0:
384,192,207675,1,0,0:0:0:0:
213,192,207675,1,0,0:0:0:50:LR_Drum_Rpd x2.wav
384,192,207794,1,0,0:0:0:0:
469,192,207794,1,0,0:0:0:0:
42,192,207794,128,0,208151:0:0:0:100:Cymbal.wav
128,192,207794,128,0,208151:0:0:0:40:Kick1.wav
384,192,208032,1,0,0:0:0:50:LR_Drum_Rpd x2.wav
469,192,208032,1,0,0:0:0:0:
298,192,208151,1,0,0:0:0:0:
213,192,208151,1,0,0:0:0:50:LR_Drum_Rpd x2.wav
384,192,208270,1,0,0:0:0:0:
469,192,208270,1,0,0:0:0:0:
42,192,208270,128,0,208389:0:0:0:100:Cymbal2.wav
128,192,208270,128,0,208389:0:0:0:40:Kick1.wav
384,192,208508,1,0,0:0:0:0:
469,192,208508,1,0,0:0:0:0:
42,192,208508,128,0,208746:0:0:0:100:Cymbal.wav
128,192,208508,128,0,208746:0:0:0:40:Kick1.wav
298,192,208746,1,0,0:0:0:0:
213,192,208746,1,0,0:0:0:50:LR_Drum_Rpd x2.wav
384,192,208865,128,0,208984:0:0:0:0:
469,192,208865,128,0,208984:0:0:0:0:
42,192,208865,1,0,0:0:0:100:Cymbal2.wav
128,192,208865,1,0,0:0:0:40:Kick1.wav
384,192,209103,128,0,209580:0:0:0:0:
469,192,209103,128,0,212675:0:0:0:0:
42,192,209103,1,0,0:0:0:100:Cymbal.wav
128,192,209103,1,0,0:0:0:40:Kick1.wav
42,192,209580,128,0,210056:0:0:0:100:Cymbal.wav
128,192,209580,1,0,0:0:0:70:A3S.wav
213,192,209580,1,0,0:0:0:40:Kick1.wav
298,192,209580,1,0,0:0:0:0:
213,192,210056,1,0,0:0:0:0:
42,192,210294,1,0,0:0:0:0:
298,192,210532,1,0,0:0:0:0:
42,192,210770,1,0,0:0:0:0:
213,192,211008,1,0,0:0:0:0:
42,192,211246,1,0,0:0:0:0:
42,192,211484,128,0,213151:0:0:0:60:G#3S_Ab3S.wav
128,192,211722,1,0,0:0:0:0:
213,192,211960,1,0,0:0:0:0:
128,192,212199,1,0,0:0:0:0:
298,192,212437,1,0,0:0:0:0:
128,192,212675,1,0,0:0:0:0:
213,192,212913,1,0,0:0:0:0:
128,192,213151,1,0,0:0:0:0:
42,192,213270,1,0,0:0:0:0:
213,192,213389,128,0,216722:0:0:0:50:C#4S_Db4S.wav
42,192,213627,1,0,0:0:0:0:
128,192,213865,1,0,0:0:0:0:
42,192,214103,1,0,0:0:0:0:
298,192,214341,1,0,0:0:0:0:
42,192,214580,1,0,0:0:0:0:
128,192,214818,1,0,0:0:0:0:
42,192,215056,1,0,0:0:0:0:
298,192,215294,1,0,0:0:0:0:
42,192,215532,1,0,0:0:0:0:
128,192,215770,1,0,0:0:0:0:
42,192,216008,1,0,0:0:0:0:
298,192,216246,1,0,0:0:0:0:
42,192,216484,1,0,0:0:0:0:
128,192,216722,1,0,0:0:0:0:
213,192,217020,1,0,0:0:0:0:
298,192,217109,1,0,0:0:0:0:
128,192,217199,128,0,218865:0:0:0:50:A3S.wav
42,192,217437,1,0,0:0:0:0:
213,192,217675,1,0,0:0:0:0:
42,192,217913,1,0,0:0:0:0:
298,192,218151,1,0,0:0:0:0:
42,192,218389,1,0,0:0:0:0:
213,192,218627,1,0,0:0:0:0:
42,192,218865,1,0,0:0:0:0:
213,192,218984,1,0,0:0:0:0:
42,192,219103,128,0,220770:0:0:0:50:G#3S_Ab3S.wav
128,192,219341,1,0,0:0:0:0:
213,192,219580,1,0,0:0:0:0:
128,192,219818,1,0,0:0:0:0:
298,192,220056,1,0,0:0:0:0:
128,192,220294,1,0,0:0:0:0:
213,192,220532,1,0,0:0:0:0:
128,192,220770,1,0,0:0:0:0:
42,192,220889,1,0,0:0:0:0:
213,192,221008,128,0,222675:0:0:0:50:C#4S_Db4S.wav
42,192,221246,1,0,0:0:0:0:
128,192,221484,1,0,0:0:0:0:
42,192,221722,1,0,0:0:0:0:
298,192,221960,1,0,0:0:0:0:
42,192,222199,1,0,0:0:0:0:
128,192,222437,1,0,0:0:0:0:
128,192,222675,128,0,222794:0:0:0:0:
298,192,222913,128,0,224580:0:0:0:30:E4S.wav
42,192,223151,1,0,0:0:0:0:
128,192,223389,1,0,0:0:0:0:
42,192,223627,1,0,0:0:0:0:
213,192,223865,1,0,0:0:0:0:
42,192,224103,1,0,0:0:0:0:
128,192,224341,1,0,0:0:0:0:
213,192,224580,1,0,0:0:0:0:
42,192,224699,1,0,0:0:0:0:
128,192,224818,1,0,0:0:0:50:A3S.wav
384,192,224818,128,0,225056:0:0:0:60:A4S.wav
213,192,225056,1,0,0:0:0:40:C#5S_Db5S.wav
298,192,225056,128,0,225294:0:0:0:0:
42,192,225294,1,0,0:0:0:0:
469,192,225294,128,0,225532:0:0:0:60:G#5S_Ab5S.wav
213,192,225532,1,0,0:0:0:0:
298,192,225532,1,0,0:0:0:0:
128,192,225770,1,0,0:0:0:0:
384,192,225770,128,0,226008:0:0:0:60:E5S.wav
213,192,226008,1,0,0:0:0:0:
298,192,226008,1,0,0:0:0:0:
42,192,226246,1,0,0:0:0:0:
469,192,226246,128,0,226484:0:0:0:60:G#5S_Ab5S.wav
213,192,226484,1,0,0:0:0:0:
298,192,226484,1,0,0:0:0:0:
42,192,226603,1,0,0:0:0:0:
213,192,226722,1,0,0:0:0:50:G#3S_Ab3S.wav
298,192,226722,128,0,226960:0:0:0:60:G#4S_Ab4S.wav
128,192,226960,1,0,0:0:0:0:
469,192,226960,128,0,227199:0:0:0:40:C4S.wav
42,192,227199,1,0,0:0:0:0:
384,192,227199,128,0,227437:0:0:0:60:F#5S_Gb5S.wav
128,192,227437,1,0,0:0:0:0:
469,192,227437,1,0,0:0:0:0:
213,192,227675,1,0,0:0:0:0:
298,192,227675,128,0,227913:0:0:0:60:E5S.wav
128,192,227913,1,0,0:0:0:0:
469,192,227913,1,0,0:0:0:0:
42,192,228151,1,0,0:0:0:0:
384,192,228151,128,0,228389:0:0:0:60:F#5S_Gb5S.wav
128,192,228389,1,0,0:0:0:0:
469,192,228389,1,0,0:0:0:0:
213,192,228508,1,0,0:0:0:0:
128,192,228627,1,0,0:0:0:50:C#4S_Db4S.wav
298,192,228627,128,0,228865:0:0:0:60:C#5S_Db5S.wav
42,192,228865,1,0,0:0:0:0:
384,192,228865,128,0,229103:0:0:0:40:E4S.wav
128,192,229103,1,0,0:0:0:0:
469,192,229103,128,0,229341:0:0:0:60:D#5S_Eb5S.wav
42,192,229341,1,0,0:0:0:0:
384,192,229341,1,0,0:0:0:0:
298,192,229580,128,0,229818:0:0:0:60:E5S.wav
213,192,229580,1,0,0:0:0:0:
42,192,229818,1,0,0:0:0:0:
384,192,229818,1,0,0:0:0:0:
128,192,230056,1,0,0:0:0:0:
469,192,230056,128,0,230294:0:0:0:60:D#5S_Eb5S.wav
42,192,230294,1,0,0:0:0:0:
384,192,230294,1,0,0:0:0:0:
128,192,230413,1,0,0:0:0:0:
42,192,230532,1,0,0:0:0:50:F#3S_Gb3S.wav
384,192,230532,128,0,230770:0:0:0:60:F#4S_Gb4S.wav
42,192,230770,1,0,0:0:0:0:
469,192,230770,128,0,231008:0:0:0:50:A#4S_Bb4S.wav
128,192,231008,1,0,0:0:0:0:
298,192,231008,128,0,231246:0:0:0:60:C#5S_Db5S.wav
42,192,231246,1,0,0:0:0:0:
469,192,231246,1,0,0:0:0:0:
213,192,231484,1,0,0:0:0:0:
384,192,231484,128,0,231722:0:0:0:60:E5S.wav
42,192,231722,1,0,0:0:0:0:
469,192,231722,1,0,0:0:0:0:
128,192,231960,1,0,0:0:0:0:
298,192,231960,128,0,232199:0:0:0:60:C#5S_Db5S.wav
42,192,232199,1,0,0:0:0:0:
384,192,232199,1,0,0:0:0:0:
469,192,232228,1,0,0:0:0:0:
213,192,232318,1,0,0:0:0:0:
128,192,232437,1,0,0:0:0:50:A3S.wav
384,192,232437,128,0,232675:0:0:0:60:A4S.wav
213,192,232675,1,0,0:0:0:0:
298,192,232675,128,0,232913:0:0:0:40:C#5S_Db5S.wav
42,192,232913,1,0,0:0:0:0:
469,192,232913,128,0,233151:0:0:0:60:G#5S_Ab5S.wav
213,192,233151,1,0,0:0:0:0:
298,192,233151,1,0,0:0:0:0:
128,192,233389,1,0,0:0:0:0:
384,192,233389,128,0,233627:0:0:0:60:E5S.wav
213,192,233627,1,0,0:0:0:0:
298,192,233627,1,0,0:0:0:0:
42,192,233865,1,0,0:0:0:0:
469,192,233865,128,0,234103:0:0:0:60:G#5S_Ab5S.wav
213,192,234103,1,0,0:0:0:0:
298,192,234103,1,0,0:0:0:0:
42,192,234222,1,0,0:0:0:0:
213,192,234341,1,0,0:0:0:50:G#3S_Ab3S.wav
298,192,234341,128,0,234580:0:0:0:60:G#4S_Ab4S.wav
128,192,234580,1,0,0:0:0:0:
469,192,234580,128,0,234818:0:0:0:40:B3S.wav
42,192,234818,1,0,0:0:0:0:
384,192,234818,128,0,235056:0:0:0:60:F#5S_Gb5S.wav
128,192,235056,1,0,0:0:0:0:
469,192,235056,1,0,0:0:0:0:
213,192,235294,1,0,0:0:0:0:
298,192,235294,128,0,235532:0:0:0:60:E5S.wav
128,192,235532,1,0,0:0:0:0:
469,192,235532,1,0,0:0:0:0:
42,192,235770,1,0,0:0:0:0:
384,192,235770,128,0,236008:0:0:0:60:F#5S_Gb5S.wav
128,192,236008,1,0,0:0:0:0:
469,192,236008,1,0,0:0:0:0:
42,192,236246,1,0,0:0:0:40:Clap1.wav
128,192,236246,1,0,0:0:0:0:
213,192,236246,1,0,0:0:0:0:
128,192,236365,1,0,0:0:0:100:Cymbal.wav
213,192,236365,1,0,0:0:0:40:Kick1.wav
298,192,236365,1,0,0:0:0:0:
384,192,236365,1,0,0:0:0:0:
469,192,236484,1,0,0:0:0:0:
42,192,236603,1,0,0:0:0:30:Clap1.wav
128,192,236603,1,0,0:0:0:0:
298,192,236603,1,0,0:0:0:0:
213,192,236722,1,0,0:0:0:40:Clap1.wav
384,192,236722,1,0,0:0:0:0:
469,192,236722,1,0,0:0:0:0:
42,192,236841,1,0,0:0:0:100:Cymbal.wav
128,192,236841,1,0,0:0:0:40:Kick1.wav
384,192,236841,1,0,0:0:0:0:
469,192,236841,1,0,0:0:0:0:
298,192,236960,1,0,0:0:0:0:
42,192,237080,1,0,0:0:0:40:Clap1.wav
128,192,237080,1,0,0:0:0:0:
213,192,237080,1,0,0:0:0:0:
42,192,237199,1,0,0:0:0:40:Kick1.wav
128,192,237199,1,0,0:0:0:0:
298,192,237199,1,0,0:0:0:0:
384,192,237199,1,0,0:0:0:0:
42,192,237437,1,0,0:0:0:40:Kick1.wav
213,192,237437,1,0,0:0:0:0:
298,192,237437,1,0,0:0:0:0:
469,192,237437,1,0,0:0:0:0:
128,192,237675,128,0,237913:0:0:0:40:Kick1.wav
213,192,237675,1,0,0:0:0:0:
384,192,237675,128,0,237913:0:0:0:0:
469,192,237675,1,0,0:0:0:0:
42,192,237913,128,0,238151:0:0:0:0:
298,192,237913,128,0,238151:0:0:0:0:
213,192,238032,1,0,0:0:0:0:
384,192,238151,1,0,0:0:0:100:LR_Tom Hit 2.wav
469,192,238151,1,0,0:0:0:40:Kick1.wav
42,192,238230,1,0,0:0:0:0:
128,192,238230,1,0,0:0:0:0:
384,192,238310,1,0,0:0:0:0:
469,192,238310,1,0,0:0:0:0:
213,192,238389,1,0,0:0:0:0:
128,192,238389,1,0,0:0:0:0:
384,192,238468,1,0,0:0:0:0:
469,192,238468,1,0,0:0:0:0:
42,192,238548,1,0,0:0:0:30:Clap1.wav
128,192,238548,1,0,0:0:0:0:
213,192,238548,1,0,0:0:0:0:
298,192,238627,1,0,0:0:0:40:Clap1.wav
384,192,238627,1,0,0:0:0:0:
469,192,238627,1,0,0:0:0:0:
42,192,238746,1,0,0:0:0:100:LR_Tom Hit.wav
128,192,238746,1,0,0:0:0:0:
469,192,238865,1,0,0:0:0:0:
384,192,238865,1,0,0:0:0:0:
42,192,238984,1,0,0:0:0:40:Clap1.wav
298,192,238984,1,0,0:0:0:0:
213,192,238984,1,0,0:0:0:0:
213,192,239103,1,0,0:0:0:40:Clap1.wav
298,192,239103,1,0,0:0:0:0:
469,192,239103,1,0,0:0:0:0:
42,192,239262,1,0,0:0:0:100:LR_Tom Hit.wav
128,192,239262,1,0,0:0:0:0:
213,192,239421,1,0,0:0:0:40:Kick1.wav
298,192,239421,1,0,0:0:0:0:
384,192,239580,1,0,0:0:0:100:LR_Tom Hit 2.wav
469,192,239580,1,0,0:0:0:0:
213,192,239738,1,0,0:0:0:40:Kick1.wav
298,192,239738,1,0,0:0:0:0:
42,192,239897,128,0,240056:0:0:0:100:this.wav
128,192,239897,128,0,240056:0:0:0:40:Clap1.wav
384,192,239897,1,0,0:0:0:0:
469,192,239897,1,0,0:0:0:0:
42,192,241008,128,0,241960:0:0:0:100:Cymbal.wav
128,192,241008,1,0,0:0:0:40:Kick1.wav
384,192,241008,1,0,0:0:0:0:
469,192,241008,1,0,0:0:0:0:
384,192,241246,1,0,0:0:0:0:
469,192,241246,1,0,0:0:0:0:
128,192,241484,1,0,0:0:0:80:LR_Drum Rpd Fast1.wav
213,192,241484,128,0,241960:0:0:0:40:Kick1.wav
298,192,241484,1,0,0:0:0:0:
384,192,241722,1,0,0:0:0:0:
469,192,241722,1,0,0:0:0:0:
298,192,241960,1,0,0:0:0:40:Kick1.wav
469,192,241960,128,0,242913:0:0:0:0:
42,192,242199,1,0,0:0:0:0:
128,192,242199,1,0,0:0:0:0:
213,192,242437,1,0,0:0:0:80:LR_Drum Rpd Fast1.wav
298,192,242437,128,0,242913:0:0:0:40:Kick1.wav
384,192,242437,1,0,0:0:0:0:
42,192,242675,1,0,0:0:0:0:
128,192,242675,1,0,0:0:0:0:
42,192,242913,1,0,0:0:0:40:Kick1.wav
213,192,242913,128,0,243865:0:0:0:0:
298,192,243151,1,0,0:0:0:0:
469,192,243151,1,0,0:0:0:0:
42,192,243389,128,0,243865:0:0:0:80:LR_Drum Rpd Fast1.wav
128,192,243389,1,0,0:0:0:40:Kick1.wav
384,192,243389,1,0,0:0:0:0:
298,192,243627,1,0,0:0:0:0:
469,192,243627,1,0,0:0:0:0:
298,192,243865,128,0,244818:0:0:0:40:Kick1.wav
384,192,243865,1,0,0:0:0:0:
42,192,244103,1,0,0:0:0:0:
213,192,244103,1,0,0:0:0:0:
128,192,244341,1,0,0:0:0:80:LR_Drum Rpd Fast1.wav
384,192,244341,1,0,0:0:0:40:Kick1.wav
469,192,244341,128,0,244818:0:0:0:0:
42,192,244580,1,0,0:0:0:0:
213,192,244580,1,0,0:0:0:0:
128,192,244699,1,0,0:0:0:60:LR_Drum_Rpd x2.wav
384,192,244699,1,0,0:0:0:0:
42,192,244818,128,0,245770:0:0:0:40:Kick1.wav
213,192,244818,1,0,0:0:0:0:
128,192,245056,1,0,0:0:0:0:
384,192,245056,1,0,0:0:0:0:
213,192,245294,128,0,245770:0:0:0:80:LR_Drum Rpd Fast1.wav
298,192,245294,1,0,0:0:0:40:Kick1.wav
469,192,245294,1,0,0:0:0:0:
128,192,245532,1,0,0:0:0:0:
384,192,245532,1,0,0:0:0:0:
298,192,245770,128,0,246603:0:0:0:40:Kick1.wav
469,192,245770,1,0,0:0:0:0:
128,192,246008,1,0,0:0:0:0:
384,192,246008,1,0,0:0:0:0:
42,192,246246,1,0,0:0:0:80:LR_Drum Rpd Fast1.wav
213,192,246246,1,0,0:0:0:40:Kick1.wav
469,192,246246,128,0,246603:0:0:0:0:
128,192,246484,1,0,0:0:0:0:
384,192,246484,1,0,0:0:0:0:
298,192,246722,1,0,0:0:0:40:Kick1.wav
469,192,246722,128,0,247199:0:0:0:0:
128,192,246960,1,0,0:0:0:0:
384,192,246960,1,0,0:0:0:0:
42,192,247199,1,0,0:0:0:80:LR_Drum Rpd Fast1.wav
213,192,247199,1,0,0:0:0:40:Kick1.wav
298,192,247199,128,0,247675:0:0:0:0:
128,192,247437,1,0,0:0:0:0:
384,192,247437,1,0,0:0:0:0:
42,192,247675,1,0,0:0:0:40:Kick1.wav
469,192,247675,128,0,247913:0:0:0:0:
213,192,247913,128,0,248032:0:0:0:80:LR_Drum Rpd Fast1.wav
298,192,247913,1,0,0:0:0:0:
384,192,247913,1,0,0:0:0:0:
42,192,248032,128,0,248151:0:0:0:0:
213,192,248151,128,0,248270:0:0:0:60:LR_Drum Rpd Fast1.wav
384,192,248151,1,0,0:0:0:40:Kick1.wav
469,192,248151,1,0,0:0:0:0:
42,192,248270,128,0,248389:0:0:0:80:LR_Drum Rpd Fast1.wav
128,192,248270,1,0,0:0:0:0:
469,192,248270,1,0,0:0:0:0:
213,192,248389,1,0,0:0:0:70:LR_Tom Hit.wav
298,192,248389,1,0,0:0:0:0:
42,192,248627,1,0,0:0:0:100:Cymbal.wav
128,192,248627,128,0,249580:0:0:0:40:Kick1.wav
384,192,248627,1,0,0:0:0:0:
469,192,248627,1,0,0:0:0:0:
42,192,248865,1,0,0:0:0:0:
469,192,248865,1,0,0:0:0:0:
213,192,249103,128,0,249580:0:0:0:80:LR_Drum Rpd Fast1.wav
298,192,249103,1,0,0:0:0:40:Kick1.wav
384,192,249103,1,0,0:0:0:0:
42,192,249341,1,0,0:0:0:0:
469,192,249341,1,0,0:0:0:0:
298,192,249580,128,0,250413:0:0:0:40:Kick1.wav
384,192,249580,1,0,0:0:0:0:
42,192,249818,1,0,0:0:0:0:
469,192,249818,1,0,0:0:0:0:
128,192,250056,1,0,0:0:0:80:LR_Drum Rpd Fast1.wav
213,192,250056,1,0,0:0:0:40:Kick1.wav
384,192,250056,128,0,250413:0:0:0:0:
42,192,250294,1,0,0:0:0:0:
469,192,250294,1,0,0:0:0:0:
298,192,250532,1,0,0:0:0:40:Kick1.wav
384,192,250532,128,0,251246:0:0:0:0:
42,192,250770,1,0,0:0:0:0:
469,192,250770,1,0,0:0:0:0:
128,192,251008,1,0,0:0:0:80:LR_Drum Rpd Fast1.wav
213,192,251008,1,0,0:0:0:40:Kick1.wav
298,192,251008,128,0,251246:0:0:0:0:
42,192,251246,1,0,0:0:0:0:
469,192,251246,1,0,0:0:0:0:
298,192,251365,128,0,251484:0:0:0:0:
42,192,251484,128,0,251722:0:0:0:70:LR_Tom Hit.wav
213,192,251484,1,0,0:0:0:40:Kick1.wav
128,192,251722,1,0,0:0:0:50:LR_Drum_Rpd x2.wav
213,192,251722,128,0,251960:0:0:0:0:
298,192,251841,1,0,0:0:0:50:LR_Drum_Rpd x2.wav
384,192,251841,1,0,0:0:0:0:
42,192,251960,128,0,252199:0:0:0:80:LR_Drum Rpd Fast1.wav
128,192,251960,1,0,0:0:0:40:Kick1.wav
469,192,251960,1,0,0:0:0:0:
298,192,252080,1,0,0:0:0:50:LR_Drum_Rpd x2.wav
384,192,252080,1,0,0:0:0:0:
128,192,252199,1,0,0:0:0:100:LR_Tom Hit 2.wav
213,192,252199,1,0,0:0:0:0:
42,192,252437,1,0,0:0:0:100:Cymbal.wav
213,192,252437,128,0,253151:0:0:0:40:Kick1.wav
298,192,252437,1,0,0:0:0:0:
469,192,252437,1,0,0:0:0:0:
128,192,252675,128,0,253151:0:0:0:0:
384,192,252675,1,0,0:0:0:0:
469,192,252794,1,0,0:0:0:0:
42,192,252913,128,0,253151:0:0:0:80:LR_Drum Rpd Fast1.wav
384,192,252913,1,0,0:0:0:40:Kick1.wav
298,192,252913,128,0,253151:0:0:0:0:
469,192,253151,1,0,0:0:0:0:
298,192,253270,1,0,0:0:0:0:
213,192,253389,128,0,254103:0:0:0:40:Kick1.wav
42,192,253389,1,0,0:0:0:0:
469,192,253508,1,0,0:0:0:0:
128,192,253627,128,0,254103:0:0:0:0:
298,192,253627,1,0,0:0:0:0:
469,192,253746,1,0,0:0:0:0:
42,192,253865,128,0,254103:0:0:0:80:LR_Drum Rpd Fast1.wav
298,192,253865,1,0,0:0:0:40:Kick1.wav
384,192,253865,1,0,0:0:0:0:
469,192,253984,1,0,0:0:0:0:
384,192,254103,1,0,0:0:0:0:
298,192,254222,1,0,0:0:0:0:
128,192,254341,128,0,254580:0:0:0:40:Kick1.wav
469,192,254341,1,0,0:0:0:0:
213,192,254460,1,0,0:0:0:80:LR_Drum Rpd Fast1.wav
298,192,254460,1,0,0:0:0:0:
42,192,254580,128,0,254818:0:0:0:0:
469,192,254580,1,0,0:0:0:0:
384,192,254699,1,0,0:0:0:0:
128,192,254818,1,0,0:0:0:100:Cymbal.wav
213,192,254818,128,0,255056:0:0:0:60:LR_Drum Rpd Fast1.wav
469,192,254818,128,0,255175:0:0:0:40:Kick1.wav
298,192,254937,1,0,0:0:0:60:LR_Drum Rpd Fast1.wav
384,192,254937,1,0,0:0:0:0:
128,192,255056,128,0,255294:0:0:0:0:
42,192,255056,1,0,0:0:0:0:
298,192,255175,1,0,0:0:0:0:
42,192,255294,128,0,255770:0:0:0:60:LR_Drum Rpd Fast1.wav
469,192,255294,1,0,0:0:0:40:Kick1.wav
384,192,255294,1,0,0:0:0:0:
213,192,255413,1,0,0:0:0:60:LR_Drum Rpd Fast1.wav
298,192,255413,1,0,0:0:0:0:
469,192,255532,1,0,0:0:0:60:LR_Drum Rpd Fast1.wav
128,192,255532,1,0,0:0:0:0:
213,192,255651,1,0,0:0:0:60:LR_Drum Rpd Fast1.wav
298,192,255651,1,0,0:0:0:0:
128,192,255770,128,0,256246:0:0:0:60:LR_Drum Rpd Fast1.wav
384,192,255770,1,0,0:0:0:40:Kick1.wav
469,192,255770,1,0,0:0:0:0:
213,192,255889,1,0,0:0:0:70:LR_Tom Hit.wav
298,192,255889,1,0,0:0:0:0:
384,192,256008,1,0,0:0:0:100:LR_Tom Hit 2.wav
469,192,256008,1,0,0:0:0:0:
42,192,256246,128,0,256722:0:0:0:100:Cymbal.wav
213,192,256246,1,0,0:0:0:40:Kick1.wav
298,192,256246,1,0,0:0:0:0:
469,192,256246,128,0,259937:0:0:0:0:
213,192,256484,1,0,0:0:0:0:
298,192,256484,1,0,0:0:0:0:
128,192,256722,1,0,0:0:0:80:LR_Drum Rpd Fast1.wav
213,192,256722,128,0,257199:0:0:0:40:Kick1.wav
384,192,256722,1,0,0:0:0:0:
42,192,256960,1,0,0:0:0:0:
128,192,256960,1,0,0:0:0:0:
128,192,257199,128,0,257675:0:0:0:40:Kick1.wav
298,192,257199,1,0,0:0:0:0:
298,192,257437,1,0,0:0:0:0:
384,192,257437,1,0,0:0:0:0:
42,192,257675,1,0,0:0:0:80:LR_Drum Rpd Fast1.wav
213,192,257675,1,0,0:0:0:40:Kick1.wav
384,192,257675,128,0,258151:0:0:0:0:
42,192,257913,1,0,0:0:0:0:
128,192,257913,1,0,0:0:0:0:
42,192,258151,128,0,258627:0:0:0:40:Kick1.wav
298,192,258151,1,0,0:0:0:0:
213,192,258389,1,0,0:0:0:0:
298,192,258389,1,0,0:0:0:0:
128,192,258627,1,0,0:0:0:80:LR_Drum Rpd Fast1.wav
213,192,258627,128,0,259103:0:0:0:40:Kick1.wav
384,192,258627,1,0,0:0:0:0:
42,192,258865,1,0,0:0:0:0:
128,192,258865,1,0,0:0:0:0:
128,192,259103,128,0,259580:0:0:0:40:Kick1.wav
298,192,259103,1,0,0:0:0:0:
298,192,259341,1,0,0:0:0:0:
384,192,259341,1,0,0:0:0:0:
42,192,259580,1,0,0:0:0:80:LR_Drum Rpd Fast1.wav
213,192,259580,1,0,0:0:0:40:Kick1.wav
384,192,259580,128,0,259937:0:0:0:0:
42,192,259818,1,0,0:0:0:0:
128,192,259818,1,0,0:0:0:0:
213,192,259937,1,0,0:0:0:60:LR_Drum_Rpd x2.wav
298,192,259937,1,0,0:0:0:0:
42,192,260056,1,0,0:0:0:40:Kick1.wav
384,192,260056,1,0,0:0:0:0:
128,192,260294,1,0,0:0:0:0:
384,192,260294,128,0,260770:0:0:0:0:
128,192,260532,128,0,260770:0:0:0:80:LR_Drum Rpd Fast1.wav
213,192,260532,1,0,0:0:0:40:Kick1.wav
298,192,260532,1,0,0:0:0:0:
42,192,260770,1,0,0:0:0:0:
298,192,260770,128,0,261246:0:0:0:0:
42,192,261008,128,0,261246:0:0:0:40:Kick1.wav
384,192,261008,1,0,0:0:0:0:
128,192,261246,1,0,0:0:0:0:
384,192,261246,128,0,261722:0:0:0:0:
128,192,261484,128,0,261722:0:0:0:80:LR_Drum Rpd Fast1.wav
213,192,261484,1,0,0:0:0:40:Kick1.wav
298,192,261484,1,0,0:0:0:0:
298,192,261722,128,0,261960:0:0:0:0:
469,192,261722,1,0,0:0:0:0:
42,192,261960,1,0,0:0:0:40:Kick1.wav
469,192,261960,128,0,262675:0:0:0:0:
128,192,262199,1,0,0:0:0:0:
384,192,262199,1,0,0:0:0:0:
42,192,262437,1,0,0:0:0:80:LR_Drum Rpd Fast1.wav
213,192,262437,1,0,0:0:0:40:Kick1.wav
298,192,262437,128,0,262675:0:0:0:0:
128,192,262675,1,0,0:0:0:0:
384,192,262675,1,0,0:0:0:0:
42,192,262913,128,0,263389:0:0:0:40:Kick1.wav
384,192,262913,1,0,0:0:0:0:
128,192,263151,128,0,263389:0:0:0:80:LR_Drum Rpd Fast1.wav
298,192,263151,1,0,0:0:0:0:
469,192,263151,1,0,0:0:0:0:
213,192,263389,128,0,263865:0:0:0:60:LR_Drum Rpd Fast1.wav
384,192,263389,1,0,0:0:0:40:Kick1.wav
469,192,263389,1,0,0:0:0:0:
298,192,263508,1,0,0:0:0:60:LR_Drum Rpd Fast1.wav
384,192,263508,1,0,0:0:0:0:
469,192,263508,1,0,0:0:0:0:
42,192,263627,1,0,0:0:0:70:LR_Tom Hit.wav
128,192,263627,128,0,263865:0:0:0:0:
42,192,263865,1,0,0:0:0:100:Cymbal.wav
298,192,263865,1,0,0:0:0:40:Kick1.wav
384,192,263865,1,0,0:0:0:0:
469,192,263865,128,0,264341:0:0:0:0:
42,192,264103,1,0,0:0:0:0:
128,192,264103,1,0,0:0:0:0:
213,192,264341,1,0,0:0:0:80:LR_Drum Rpd Fast1.wav
298,192,264341,1,0,0:0:0:40:Kick1.wav
384,192,264341,128,0,264818:0:0:0:0:
42,192,264580,1,0,0:0:0:0:
128,192,264580,128,0,264818:0:0:0:0:
298,192,264818,128,0,265056:0:0:0:40:Kick1.wav
469,192,264818,1,0,0:0:0:0:
42,192,265056,1,0,0:0:0:0:
213,192,265056,128,0,265651:0:0:0:0:
298,192,265294,128,0,265651:0:0:0:80:LR_Drum Rpd Fast1.wav
384,192,265294,1,0,0:0:0:40:Kick1.wav
469,192,265294,1,0,0:0:0:0:
42,192,265532,1,0,0:0:0:0:
128,192,265532,1,0,0:0:0:0:
298,192,265770,1,0,0:0:0:40:Kick1.wav
469,192,265770,128,0,266246:0:0:0:0:
42,192,266008,1,0,0:0:0:0:
213,192,266008,1,0,0:0:0:0:
128,192,266246,1,0,0:0:0:80:LR_Drum Rpd Fast1.wav
298,192,266246,128,0,266722:0:0:0:40:Kick1.wav
384,192,266246,1,0,0:0:0:0:
42,192,266484,1,0,0:0:0:0:
213,192,266484,128,0,266722:0:0:0:0:
384,192,266722,128,0,266960:0:0:0:40:Kick1.wav
469,192,266722,1,0,0:0:0:0:
42,192,266960,1,0,0:0:0:0:
128,192,266960,128,0,267556:0:0:0:0:
298,192,267199,1,0,0:0:0:80:LR_Drum Rpd Fast1.wav
384,192,267199,128,0,267556:0:0:0:40:Kick1.wav
469,192,267199,1,0,0:0:0:0:
42,192,267437,1,0,0:0:0:0:
213,192,267437,1,0,0:0:0:0:
298,192,267556,1,0,0:0:0:60:LR_Drum_Rpd x2.wav
469,192,267556,1,0,0:0:0:0:
42,192,267675,1,0,0:0:0:40:Kick1.wav
213,192,267675,128,0,267913:0:0:0:0:
298,192,267913,1,0,0:0:0:0:
384,192,267913,1,0,0:0:0:0:
469,192,268032,128,0,268389:0:0:0:0:
42,192,268151,1,0,0:0:0:100:Cymbal.wav
128,192,268151,1,0,0:0:0:80:LR_Drum Rpd Fast1.wav
213,192,268151,1,0,0:0:0:40:Kick1.wav
298,192,268151,1,0,0:0:0:0:
213,192,268389,1,0,0:0:0:0:
384,192,268389,128,0,268627:0:0:0:0:
42,192,268508,1,0,0:0:0:60:LR_Drum_Rpd x2.wav
128,192,268508,1,0,0:0:0:0:
213,192,268627,128,0,268865:0:0:0:70:LR_Tom Hit.wav
298,192,268627,1,0,0:0:0:40:Kick1.wav
298,192,268865,1,0,0:0:0:50:LR_Drum_Rpd x2.wav
384,192,268865,1,0,0:0:0:0:
469,192,268865,1,0,0:0:0:0:
42,192,268984,128,0,269341:0:0:0:50:LR_Drum_Rpd x2.wav
384,192,268984,1,0,0:0:0:0:
469,192,268984,1,0,0:0:0:0:
128,192,269103,1,0,0:0:0:40:Kick1.wav
213,192,269103,1,0,0:0:0:0:
298,192,269222,1,0,0:0:0:50:LR_Drum_Rpd x2.wav
384,192,269222,1,0,0:0:0:0:
469,192,269222,1,0,0:0:0:0:
298,192,269341,128,0,269580:0:0:0:50:LR_Drum_Rpd x2.wav
384,192,269341,1,0,0:0:0:0:
469,192,269341,1,0,0:0:0:0:
42,192,269460,1,0,0:0:0:50:LR_Drum_Rpd x2.wav
128,192,269460,1,0,0:0:0:0:
213,192,269460,1,0,0:0:0:0:
42,192,269580,1,0,0:0:0:100:Cymbal.wav
128,192,269580,1,0,0:0:0:40:Kick1.wav
384,192,269580,128,0,270056:0:0:0:0:
469,192,269580,1,0,0:0:0:0:
213,192,269818,1,0,0:0:0:0:
298,192,269818,1,0,0:0:0:0:
42,192,270056,1,0,0:0:0:40:Kick1.wav
469,192,270056,1,0,0:0:0:0:
128,192,270175,1,0,0:0:0:40:LR_Drum_Rpd x2.wav
213,192,270175,1,0,0:0:0:0:
298,192,270294,1,0,0:0:0:40:LR_Drum_Rpd x2.wav
384,192,270294,1,0,0:0:0:0:
128,192,270413,1,0,0:0:0:40:LR_Drum_Rpd x2.wav
213,192,270413,1,0,0:0:0:0:
42,192,270532,1,0,0:0:0:40:Kick1.wav
469,192,270532,1,0,0:0:0:0:
298,192,270651,1,0,0:0:0:50:LR_Drum_Rpd x2.wav
384,192,270651,1,0,0:0:0:0:
128,192,270770,1,0,0:0:0:50:LR_Drum_Rpd x2.wav
213,192,270770,1,0,0:0:0:0:
298,192,270889,1,0,0:0:0:50:LR_Drum_Rpd x2.wav
384,192,270889,1,0,0:0:0:0:
42,192,271008,1,0,0:0:0:40:Kick1.wav
128,192,271008,1,0,0:0:0:0:
298,192,271127,1,0,0:0:0:50:LR_Drum_Rpd x2.wav
469,192,271127,1,0,0:0:0:0:
384,192,271127,1,0,0:0:0:50:LR_Drum Rpd Fast1.wav
298,192,271246,1,0,0:0:0:65:LR_Drum Rpd Fast1.wav
384,192,271246,1,0,0:0:0:50:LR_Drum_Rpd x2.wav
469,192,271246,1,0,0:0:0:0:
384,192,271365,1,0,0:0:0:80:LR_Drum Rpd Fast1.wav
298,192,271365,1,0,0:0:0:50:LR_Drum_Rpd x2.wav
469,192,271365,1,0,0:0:0:0:
42,192,271484,128,0,272913:0:0:0:100:Cymbal.wav
128,192,271484,1,0,0:0:0:40:Kick1.wav
213,192,271484,1,0,0:0:0:0:
469,192,271484,1,0,0:0:0:0:
213,192,271722,1,0,0:0:0:0:
298,192,271722,1,0,0:0:0:0:
128,192,271960,128,0,272913:0:0:0:80:LR_Drum Rpd Fast1.wav
213,192,271960,1,0,0:0:0:40:Kick1.wav
384,192,271960,1,0,0:0:0:0:
298,192,272199,1,0,0:0:0:0:
384,192,272199,1,0,0:0:0:0:
213,192,272437,128,0,273389:0:0:0:40:Kick1.wav
298,192,272437,1,0,0:0:0:0:
384,192,272675,1,0,0:0:0:0:
469,192,272675,1,0,0:0:0:0:
298,192,272913,1,0,0:0:0:80:LR_Drum Rpd Fast1.wav
384,192,272913,1,0,0:0:0:40:Kick1.wav
469,192,272913,128,0,273389:0:0:0:0:
42,192,273151,1,0,0:0:0:0:
298,192,273151,1,0,0:0:0:0:
42,192,273389,128,0,274818:0:0:0:40:Kick1.wav
128,192,273389,1,0,0:0:0:0:
213,192,273627,1,0,0:0:0:0:
469,192,273627,1,0,0:0:0:0:
128,192,273865,128,0,274818:0:0:0:80:LR_Drum Rpd Fast1.wav
213,192,273865,1,0,0:0:0:40:Kick1.wav
384,192,273865,1,0,0:0:0:0:
384,192,274103,1,0,0:0:0:0:
469,192,274103,1,0,0:0:0:0:
213,192,274341,128,0,275294:0:0:0:40:Kick1.wav
469,192,274341,1,0,0:0:0:0:
298,192,274580,1,0,0:0:0:0:
384,192,274580,1,0,0:0:0:0:
298,192,274818,128,0,275294:0:0:0:80:LR_Drum Rpd Fast1.wav
384,192,274818,1,0,0:0:0:40:Kick1.wav
469,192,274818,1,0,0:0:0:0:
42,192,275056,1,0,0:0:0:0:
469,192,275056,1,0,0:0:0:0:
128,192,275175,1,0,0:0:0:60:LR_Drum_Rpd x2.wav
384,192,275175,1,0,0:0:0:0:
42,192,275294,128,0,276722:0:0:0:40:Kick1.wav
469,192,275294,1,0,0:0:0:0:
213,192,275532,1,0,0:0:0:0:
298,192,275532,1,0,0:0:0:0:
128,192,275770,128,0,276722:0:0:0:80:LR_Drum Rpd Fast1.wav
213,192,275770,1,0,0:0:0:40:Kick1.wav
384,192,275770,1,0,0:0:0:0:
298,192,276008,1,0,0:0:0:0:
384,192,276008,1,0,0:0:0:0:
213,192,276246,128,0,277199:0:0:0:40:Kick1.wav
298,192,276246,1,0,0:0:0:0:
384,192,276484,1,0,0:0:0:0:
469,192,276484,1,0,0:0:0:0:
298,192,276722,1,0,0:0:0:80:LR_Drum Rpd Fast1.wav
384,192,276722,128,0,277199:0:0:0:40:Kick1.wav
469,192,276722,1,0,0:0:0:0:
42,192,276960,1,0,0:0:0:0:
128,192,276960,1,0,0:0:0:0:
42,192,277199,1,0,0:0:0:40:Kick1.wav
469,192,277199,128,0,278627:0:0:0:0:
213,192,277437,1,0,0:0:0:0:
298,192,277437,1,0,0:0:0:0:
128,192,277675,1,0,0:0:0:80:LR_Drum Rpd Fast1.wav
298,192,277675,1,0,0:0:0:40:Kick1.wav
384,192,277675,128,0,278627:0:0:0:0:
128,192,277913,1,0,0:0:0:0:
213,192,277913,1,0,0:0:0:0:
42,192,278151,1,0,0:0:0:100:Cymbal.wav
128,192,278151,1,0,0:0:0:40:Kick1.wav
213,192,278151,1,0,0:0:0:0:
298,192,278151,128,0,278627:0:0:0:0:
42,192,278389,1,0,0:0:0:80:LR_Drum Rpd Fast1.wav
128,192,278389,1,0,0:0:0:0:
213,192,278389,1,0,0:0:0:0:
42,192,278627,1,0,0:0:0:60:LR_Drum Rpd Fast1.wav
128,192,278627,1,0,0:0:0:40:Kick1.wav
213,192,278627,1,0,0:0:0:0:
42,192,278746,1,0,0:0:0:60:LR_Drum Rpd Fast1.wav
128,192,278746,1,0,0:0:0:0:
469,192,278746,1,0,0:0:0:0:
298,192,278865,1,0,0:0:0:70:LR_Tom Hit.wav
384,192,278865,1,0,0:0:0:0:
42,192,279103,128,0,280056:0:0:0:100:Cymbal.wav
213,192,279103,1,0,0:0:0:40:Kick1.wav
384,192,279103,1,0,0:0:0:0:
469,192,279103,1,0,0:0:0:0:
128,192,279341,1,0,0:0:0:0:
298,192,279341,1,0,0:0:0:0:
298,192,279580,128,0,280532:0:0:0:80:LR_Drum Rpd Fast1.wav
384,192,279580,1,0,0:0:0:40:Kick1.wav
469,192,279580,1,0,0:0:0:0:
213,192,279818,1,0,0:0:0:0:
469,192,279818,1,0,0:0:0:0:
128,192,280056,1,0,0:0:0:40:Kick1.wav
213,192,280056,128,0,281008:0:0:0:0:
42,192,280294,1,0,0:0:0:0:
469,192,280294,1,0,0:0:0:0:
128,192,280532,1,0,0:0:0:80:LR_Drum Rpd Fast1.wav
384,192,280532,1,0,0:0:0:40:Kick1.wav
469,192,280532,128,0,281008:0:0:0:0:
128,192,280770,1,0,0:0:0:0:
298,192,280770,1,0,0:0:0:0:
42,192,281008,128,0,281960:0:0:0:40:Kick1.wav
298,192,281008,1,0,0:0:0:0:
213,192,281246,1,0,0:0:0:0:
384,192,281246,1,0,0:0:0:0:
128,192,281484,1,0,0:0:0:80:LR_Drum Rpd Fast1.wav
213,192,281484,128,0,282199:0:0:0:40:Kick1.wav
469,192,281484,1,0,0:0:0:0:
298,192,281722,1,0,0:0:0:0:
469,192,281722,1,0,0:0:0:0:
128,192,281960,1,0,0:0:0:65:LR_Tom Hit.wav
298,192,281960,128,0,282199:0:0:0:40:Kick1.wav
384,192,282199,128,0,282437:0:0:0:50:LR_Drum_Rpd x2.wav
469,192,282199,1,0,0:0:0:0:
213,192,282318,1,0,0:0:0:50:LR_Drum_Rpd x2.wav
298,192,282318,1,0,0:0:0:0:
42,192,282437,1,0,0:0:0:80:LR_Drum Rpd Fast1.wav
128,192,282437,1,0,0:0:0:40:Kick1.wav
469,192,282437,128,0,282913:0:0:0:0:
42,192,282556,1,0,0:0:0:50:LR_Drum_Rpd x2.wav
128,192,282556,1,0,0:0:0:0:
298,192,282675,1,0,0:0:0:50:LR_Drum_Rpd x2.wav
384,192,282675,1,0,0:0:0:0:
42,192,282794,1,0,0:0:0:50:LR_Drum_Rpd x2.wav
128,192,282794,1,0,0:0:0:0:
42,192,282913,1,0,0:0:0:100:Cymbal.wav
128,192,282913,1,0,0:0:0:40:Kick1.wav
213,192,282913,1,0,0:0:0:0:
298,192,282913,128,0,283389:0:0:0:0:
384,192,283151,1,0,0:0:0:0:
469,192,283151,1,0,0:0:0:0:
42,192,283389,1,0,0:0:0:80:LR_Drum Rpd Fast1.wav
128,192,283389,1,0,0:0:0:40:Kick1.wav
469,192,283389,128,0,283627:0:0:0:0:
213,192,283627,1,0,0:0:0:0:
298,192,283627,128,0,283746:0:0:0:0:
42,192,283865,1,0,0:0:0:40:Kick1.wav
298,192,283865,128,0,284341:0:0:0:0:
213,192,284103,1,0,0:0:0:0:
384,192,284103,1,0,0:0:0:0:
42,192,284341,1,0,0:0:0:80:LR_Drum Rpd Fast1.wav
128,192,284341,1,0,0:0:0:40:Kick1.wav
469,192,284341,128,0,284460:0:0:0:0:
384,192,284460,128,0,284580:0:0:0:0:
298,192,284580,1,0,0:0:0:0:
42,192,284580,1,0,0:0:0:0:
128,192,284659,128,0,285056:0:0:0:0:
384,192,284818,1,0,0:0:0:40:Kick1.wav
469,192,284818,1,0,0:0:0:0:
384,192,284937,1,0,0:0:0:80:LR_Drum Rpd Fast1.wav
469,192,284937,1,0,0:0:0:0:
213,192,285056,1,0,0:0:0:0:
298,192,285056,128,0,285175:0:0:0:0:
42,192,285294,1,0,0:0:0:100:Cymbal.wav
384,192,285294,1,0,0:0:0:60:LR_Drum Rpd Fast1.wav
469,192,285294,1,0,0:0:0:40:Kick1.wav
384,192,285413,1,0,0:0:0:60:LR_Drum Rpd Fast1.wav
469,192,285413,1,0,0:0:0:0:
128,192,285532,1,0,0:0:0:0:
213,192,285532,1,0,0:0:0:0:
42,192,285770,1,0,0:0:0:40:Kick1.wav
469,192,285770,1,0,0:0:0:0:
298,192,285889,128,0,286008:0:0:0:0:
128,192,286008,1,0,0:0:0:0:
213,192,286008,128,0,286127:0:0:0:0:
298,192,286127,128,0,286246:0:0:0:0:
42,192,286246,128,0,286405:0:0:0:40:Kick1.wav
469,192,286246,1,0,0:0:0:0:
298,192,286405,1,0,0:0:0:0:
213,192,286484,128,0,286603:0:0:0:100:Cymbal2.wav
469,192,286484,1,0,0:0:0:40:Kick1.wav
384,192,286484,1,0,0:0:0:0:
42,192,286484,1,0,0:0:0:0:
128,192,286603,128,0,286722:0:0:0:0:
42,192,286722,128,0,287675:0:0:0:100:Cymbal.wav
298,192,286722,1,0,0:0:0:40:Kick1.wav
384,192,286722,1,0,0:0:0:0:
469,192,286722,1,0,0:0:0:0:
213,192,286960,1,0,0:0:0:0:
298,192,286960,1,0,0:0:0:0:
128,192,287199,128,0,288151:0:0:0:80:LR_Drum Rpd Fast1.wav
298,192,287199,1,0,0:0:0:40:Kick1.wav
384,192,287199,1,0,0:0:0:0:
384,192,287437,1,0,0:0:0:0:
469,192,287437,1,0,0:0:0:0:
213,192,287675,1,0,0:0:0:40:Kick1.wav
384,192,287675,128,0,288627:0:0:0:0:
213,192,287913,1,0,0:0:0:0:
298,192,287913,1,0,0:0:0:0:
42,192,288151,1,0,0:0:0:80:LR_Drum Rpd Fast1.wav
298,192,288151,1,0,0:0:0:40:Kick1.wav
469,192,288151,128,0,288627:0:0:0:0:
42,192,288389,1,0,0:0:0:0:
128,192,288389,1,0,0:0:0:0:
128,192,288627,128,0,289580:0:0:0:40:Kick1.wav
213,192,288627,1,0,0:0:0:0:
213,192,288865,1,0,0:0:0:0:
298,192,288865,1,0,0:0:0:0:
213,192,289103,128,0,290056:0:0:0:80:LR_Drum Rpd Fast1.wav
298,192,289103,1,0,0:0:0:40:Kick1.wav
384,192,289103,1,0,0:0:0:0:
384,192,289341,1,0,0:0:0:0:
469,192,289341,1,0,0:0:0:0:
298,192,289580,128,0,290532:0:0:0:40:Kick1.wav
469,192,289580,1,0,0:0:0:0:
42,192,289818,1,0,0:0:0:0:
128,192,289818,1,0,0:0:0:0:
128,192,290056,1,0,0:0:0:80:LR_Drum Rpd Fast1.wav
384,192,290056,128,0,290532:0:0:0:40:Kick1.wav
469,192,290056,1,0,0:0:0:0:
42,192,290294,1,0,0:0:0:0:
469,192,290294,1,0,0:0:0:0:
128,192,290413,1,0,0:0:0:60:LR_Drum Rpd Fast1.wav
213,192,290413,1,0,0:0:0:0:
42,192,290532,1,0,0:0:0:40:Kick1.wav
469,192,290532,1,0,0:0:0:0:
128,192,290770,1,0,0:0:0:0:
384,192,290770,128,0,291484:0:0:0:0:
128,192,291008,128,0,291484:0:0:0:80:LR_Drum Rpd Fast1.wav
213,192,291008,1,0,0:0:0:40:Kick1.wav
469,192,291008,1,0,0:0:0:0:
42,192,291246,1,0,0:0:0:0:
298,192,291246,128,0,291960:0:0:0:0:
42,192,291484,128,0,291960:0:0:0:40:Kick1.wav
469,192,291484,1,0,0:0:0:0:
128,192,291722,1,0,0:0:0:0:
384,192,291722,128,0,292437:0:0:0:0:
128,192,291960,128,0,292437:0:0:0:80:LR_Drum Rpd Fast1.wav
213,192,291960,1,0,0:0:0:40:Kick1.wav
469,192,291960,1,0,0:0:0:0:
42,192,292199,1,0,0:0:0:0:
298,192,292199,128,0,292437:0:0:0:0:
213,192,292437,1,0,0:0:0:40:Kick1.wav
469,192,292437,128,0,293389:0:0:0:0:
298,192,292675,1,0,0:0:0:0:
384,192,292675,1,0,0:0:0:0:
128,192,292913,1,0,0:0:0:80:LR_Drum Rpd Fast1.wav
213,192,292913,128,0,293389:0:0:0:40:Kick1.wav
384,192,292913,1,0,0:0:0:0:
42,192,293151,1,0,0:0:0:0:
128,192,293151,1,0,0:0:0:0:
42,192,293389,128,0,293865:0:0:0:40:Kick1.wav
298,192,293389,1,0,0:0:0:0:
213,192,293627,128,0,293865:0:0:0:80:LR_Drum Rpd Fast1.wav
384,192,293627,1,0,0:0:0:0:
469,192,293627,1,0,0:0:0:0:
298,192,293865,1,0,0:0:0:60:LR_Drum Rpd Fast1.wav
384,192,293865,1,0,0:0:0:40:Kick1.wav
469,192,293865,128,0,294341:0:0:0:0:
213,192,293984,1,0,0:0:0:60:LR_Drum Rpd Fast1.wav
298,192,293984,1,0,0:0:0:0:
384,192,293984,1,0,0:0:0:0:
42,192,294103,128,0,294341:0:0:0:70:LR_Tom Hit.wav
128,192,294103,1,0,0:0:0:0:
128,192,294341,1,0,0:0:0:100:Cymbal.wav
213,192,294341,1,0,0:0:0:40:Kick1.wav
298,192,294341,1,0,0:0:0:0:
384,192,294341,128,0,295056:0:0:0:0:
128,192,294580,1,0,0:0:0:0:
213,192,294580,1,0,0:0:0:0:
42,192,294818,1,0,0:0:0:80:LR_Drum Rpd Fast1.wav
213,192,294818,128,0,295294:0:0:0:40:Kick1.wav
298,192,294818,1,0,0:0:0:0:
42,192,295056,128,0,295532:0:0:0:0:
128,192,295056,1,0,0:0:0:0:
384,192,295294,128,0,295770:0:0:0:40:Kick1.wav
469,192,295294,1,0,0:0:0:0:
128,192,295532,1,0,0:0:0:0:
213,192,295532,128,0,296246:0:0:0:0:
42,192,295770,1,0,0:0:0:80:LR_Drum Rpd Fast1.wav
298,192,295770,128,0,296246:0:0:0:40:Kick1.wav
469,192,295770,1,0,0:0:0:0:
42,192,296008,1,0,0:0:0:0:
128,192,296008,1,0,0:0:0:0:
128,192,296246,1,0,0:0:0:40:Kick1.wav
469,192,296246,128,0,296960:0:0:0:0:
213,192,296484,1,0,0:0:0:0:
298,192,296484,1,0,0:0:0:0:
42,192,296722,1,0,0:0:0:80:LR_Drum Rpd Fast1.wav
298,192,296722,128,0,297199:0:0:0:40:Kick1.wav
384,192,296722,1,0,0:0:0:0:
42,192,296960,1,0,0:0:0:0:
128,192,296960,128,0,297437:0:0:0:0:
384,192,297199,1,0,0:0:0:40:Kick1.wav
469,192,297199,128,0,297675:0:0:0:0:
213,192,297437,1,0,0:0:0:0:
298,192,297437,128,0,297913:0:0:0:0:
42,192,297675,1,0,0:0:0:100:Cymbal.wav
128,192,297675,1,0,0:0:0:80:LR_Drum Rpd Fast1.wav
213,192,297675,1,0,0:0:0:40:Kick1.wav
384,192,297675,128,0,297913:0:0:0:0:
42,192,297913,1,0,0:0:0:60:LR_Drum Rpd Fast1.wav
128,192,297913,1,0,0:0:0:0:
213,192,297913,1,0,0:0:0:0:
298,192,298032,1,0,0:0:0:60:LR_Drum Rpd Fast1.wav
384,192,298032,1,0,0:0:0:0:
469,192,298032,1,0,0:0:0:0:
128,192,298151,1,0,0:0:0:100:Cymbal.wav
213,192,298151,1,0,0:0:0:40:Kick1.wav
298,192,298151,1,0,0:0:0:0:
384,192,298151,1,0,0:0:0:0:
213,192,298389,1,0,0:0:0:0:
298,192,298389,1,0,0:0:0:0:
42,192,298627,1,0,0:0:0:80:LR_Drum Rpd Fast1.wav
384,192,298627,1,0,0:0:0:40:Kick1.wav
469,192,298627,1,0,0:0:0:0:
128,192,298746,1,0,0:0:0:40:LR_Drum_Rpd x2.wav
213,192,298746,1,0,0:0:0:0:
298,192,298865,1,0,0:0:0:40:LR_Drum_Rpd x2.wav
384,192,298865,1,0,0:0:0:0:
128,192,298984,1,0,0:0:0:40:LR_Drum_Rpd x2.wav
213,192,298984,1,0,0:0:0:0:
42,192,299103,1,0,0:0:0:40:Kick1.wav
469,192,299103,1,0,0:0:0:0:
128,192,299222,1,0,0:0:0:50:LR_Drum_Rpd x2.wav
213,192,299222,1,0,0:0:0:0:
384,192,299341,1,0,0:0:0:50:LR_Drum_Rpd x2.wav
469,192,299341,1,0,0:0:0:0:
128,192,299460,1,0,0:0:0:50:LR_Drum_Rpd x2.wav
213,192,299460,1,0,0:0:0:0:
384,192,299580,1,0,0:0:0:40:Kick1.wav
469,192,299580,1,0,0:0:0:0:
42,192,299580,1,0,0:0:0:80:LR_Drum Rpd Fast1.wav
298,192,299699,1,0,0:0:0:60:LR_Drum_Rpd x2.wav
384,192,299699,1,0,0:0:0:0:
469,192,299699,1,0,0:0:0:0:
42,192,299818,1,0,0:0:0:60:LR_Drum_Rpd x2.wav
128,192,299818,1,0,0:0:0:0:
213,192,299818,1,0,0:0:0:0:
42,192,299937,1,0,0:0:0:60:LR_Drum_Rpd x2.wav
128,192,299937,1,0,0:0:0:0:
213,192,299937,1,0,0:0:0:0:
298,192,300056,1,0,0:0:0:40:Clap1.wav
384,192,300056,1,0,0:0:0:0:
469,192,300056,1,0,0:0:0:0:
42,192,300175,128,0,300294:0:0:0:40:Kick1.wav
213,192,300175,128,0,300294:0:0:0:0:
298,192,300175,128,0,300294:0:0:0:0:
128,192,300413,128,0,300532:0:0:0:40:Kick1.wav
298,192,300413,128,0,300532:0:0:0:0:
384,192,300413,128,0,300532:0:0:0:0:
213,192,300651,128,0,300770:0:0:0:40:Kick1.wav
384,192,300651,128,0,300770:0:0:0:0:
469,192,300651,128,0,300770:0:0:0:0:
298,192,300770,1,0,0:0:0:100:LR_Tom Hit.wav
213,192,300849,1,0,0:0:0:0:
298,192,300929,1,0,0:0:0:0:
42,192,301008,1,0,0:0:0:40:Clap1.wav
128,192,301008,1,0,0:0:0:0:
213,192,301008,1,0,0:0:0:0:
42,192,301127,128,0,301246:0:0:0:40:Kick1.wav
298,192,301127,128,0,301246:0:0:0:0:
384,192,301127,128,0,301246:0:0:0:0:
128,192,301365,128,0,301484:0:0:0:40:Kick1.wav
298,192,301365,128,0,301484:0:0:0:0:
469,192,301365,128,0,301484:0:0:0:0:
213,192,301603,128,0,301722:0:0:0:40:Kick1.wav
384,192,301603,128,0,301722:0:0:0:0:
469,192,301603,128,0,301722:0:0:0:0:
42,192,301841,128,0,303786:0:0:0:100:Cymbal.wav
128,192,301841,128,0,303707:0:0:0:40:Kick1.wav
298,192,301841,128,0,303548:0:0:0:0:
384,192,301841,128,0,303468:0:0:0:0:
469,192,301841,128,0,303389:0:0:0:0:
213,192,302556,128,0,303627:0:0:0:0:
469,192,303627,1,0,0:0:0:0:
384,192,303707,1,0,0:0:0:70:LR_Tom Hit 2.wav
298,192,303786,1,0,0:0:0:70:LR_Tom_Hit_3.wav
42,192,303865,1,0,0:0:0:100:LR_Tom_Hit_3.wav
128,192,303865,1,0,0:0:0:40:Kick1.wav
213,192,303865,1,0,0:0:0:0:
