osu file format v14

[General]
AudioFilename: audio.mp3
AudioLeadIn: 0
PreviewTime: 209757
Countdown: 0
SampleSet: Soft
StackLeniency: 0.7
Mode: 3
LetterboxInBreaks: 0
SpecialStyle: 0
WidescreenStoryboard: 0

[Editor]
DistanceSpacing: 1
BeatDivisor: 4
GridSize: 32
TimelineZoom: 2.8

[Metadata]
Title:Hype feat. Such (lapix Remix)
TitleUnicode:Hype feat. Such (lapix Remix)
Artist:PSYQUI
ArtistUnicode:PSYQUI
Creator:GTDD
Version:Here We Go!
Source:
Tags:c94 critical megarex mrx-027
BeatmapID:2002495
BeatmapSetID:956530

[Difficulty]
HPDrainRate:8.7
CircleSize:4
OverallDifficulty:7.7
ApproachRate:5
SliderMultiplier:1.4
SliderTickRate:1

[Events]
//Background and Video events
0,0,"hfs.jpg",0,0
//Break Periods
//Storyboard Layer 0 (Background)
//Storyboard Layer 1 (Fail)
//Storyboard Layer 2 (Pass)
//Storyboard Layer 3 (Foreground)
//Storyboard Sound Samples
Sample,13642,0,"BassKickReverbXD.wav",100
Sample,90442,0,"C.wav",100
Sample,123357,0,"BassKickReverbXD.wav",100
Sample,200500,0,"clap.wav",70
Sample,201185,0,"clap.wav",70
Sample,202557,0,"clap.wav",70
Sample,203928,0,"clap.wav",70
Sample,204614,0,"clap.wav",70
Sample,211471,0,"S.wav",70
Sample,212157,0,"S.wav",70
Sample,213528,0,"S.wav",70
Sample,214900,0,"S.wav",70
Sample,215585,0,"S.wav",70
Sample,216957,0,"S.wav",70
Sample,217642,0,"S.wav",70
Sample,219014,0,"S.wav",70
Sample,223128,0,"S.wav",70
Sample,224500,0,"S.wav",70
Sample,229985,0,"S.wav",70
Sample,233414,0,"S.wav",70
Sample,235471,0,"S.wav",70
Sample,236842,0,"S.wav",70
Sample,237528,0,"S.wav",70
Sample,238900,0,"S.wav",70
Sample,239585,0,"S.wav",70
Sample,244385,0,"S.wav",70
Sample,245071,0,"S.wav",70
Sample,247814,0,"S.wav",70
Sample,265985,0,"BassKickReverbXD.wav",100

[TimingPoints]
1300,342.857142857143,4,2,1,60,1,0
68500,-100,4,2,1,60,0,1
79300,-100,4,2,1,60,0,0
79471,-100,4,2,1,60,0,1
89071,-100,4,2,1,60,0,0
90442,-100,4,2,1,60,0,1
112385,-100,4,2,1,60,0,0
123357,-100,4,2,1,60,0,1
145300,-100,4,2,1,60,0,0
211128,-100,4,2,1,60,0,1
231700,-100,4,2,1,60,0,0
233071,-100,4,2,1,60,0,1
253642,-100,4,2,1,60,0,0

[HitObjects]
64,192,1300,5,0,0:0:0:100:K.wav
192,192,1300,1,0,0:0:0:0:
448,192,1300,1,0,0:0:0:0:
320,192,1471,1,0,0:0:0:0:
448,192,1471,128,0,1557:0:0:0:0:
64,192,1642,1,0,0:0:0:70:K.wav
192,192,1642,1,0,0:0:0:0:
320,192,1728,1,0,0:0:0:70:K.wav
448,192,1728,1,0,0:0:0:0:
64,192,1814,1,0,0:0:0:70:K.wav
192,192,1814,1,0,0:0:0:0:
320,192,1900,1,0,0:0:0:70:K.wav
448,192,1900,1,0,0:0:0:0:
64,192,1985,1,0,0:0:0:70:K.wav
192,192,1985,1,0,0:0:0:70:S2.wav
320,192,2071,1,0,0:0:0:70:S2.wav
192,192,2157,1,0,0:0:0:70:S2.wav
448,192,2242,1,0,0:0:0:70:S2.wav
64,192,2328,1,0,0:0:0:70:S2.wav
64,192,2414,1,0,0:0:0:70:S2.wav
320,192,2500,1,0,0:0:0:70:S2.wav
320,192,2585,1,0,0:0:0:70:S2.wav
64,192,2671,1,0,0:0:0:70:K.wav
192,192,2671,1,0,0:0:0:100:C.wav
448,192,2671,1,0,0:0:0:100:BassKickReverbXD.wav
320,192,2757,1,0,0:0:0:0:
192,192,2842,1,0,0:0:0:0:
320,192,2928,1,0,0:0:0:0:
448,192,2928,1,0,0:0:0:0:
64,192,3014,1,0,0:0:0:70:S2.wav
192,192,3014,1,0,0:0:0:70:clap.wav
64,192,3185,128,0,3271:0:0:0:0:
320,192,3185,128,0,3271:0:0:0:0:
448,192,3185,128,0,3271:0:0:0:0:
192,192,3271,1,0,0:0:0:0:
320,192,3357,1,0,0:0:0:70:K.wav
448,192,3357,1,0,0:0:0:0:
64,192,3442,1,0,0:0:0:0:
192,192,3528,1,0,0:0:0:0:
320,192,3614,1,0,0:0:0:0:
448,192,3614,1,0,0:0:0:0:
64,192,3700,1,0,0:0:0:70:S2.wav
192,192,3700,1,0,0:0:0:70:clap.wav
320,192,3871,1,0,0:0:0:0:
320,192,3957,1,0,0:0:0:0:
64,192,4042,1,0,0:0:0:70:K.wav
448,192,4042,1,0,0:0:0:0:
192,192,4128,1,0,0:0:0:0:
320,192,4214,1,0,0:0:0:0:
64,192,4300,1,0,0:0:0:0:
448,192,4300,1,0,0:0:0:0:
192,192,4385,1,0,0:0:0:70:S2.wav
320,192,4385,1,0,0:0:0:70:clap.wav
320,192,4557,1,0,0:0:0:0:
448,192,4557,1,0,0:0:0:0:
192,192,4642,1,0,0:0:0:0:
64,192,4728,1,0,0:0:0:70:K.wav
448,192,4728,1,0,0:0:0:0:
192,192,4814,1,0,0:0:0:0:
320,192,4900,1,0,0:0:0:0:
64,192,4985,1,0,0:0:0:0:
448,192,4985,1,0,0:0:0:0:
192,192,5071,1,0,0:0:0:70:S2.wav
320,192,5071,1,0,0:0:0:70:clap.wav
192,192,5242,128,0,5414:0:0:0:0:
320,192,5328,1,0,0:0:0:0:
64,192,5414,1,0,0:0:0:70:K.wav
448,192,5414,128,0,5757:0:0:0:0:
192,192,5500,1,0,0:0:0:0:
320,192,5585,1,0,0:0:0:0:
64,192,5671,1,0,0:0:0:0:
192,192,5757,128,0,6100:0:0:0:70:S2.wav
320,192,5757,1,0,0:0:0:70:clap.wav
64,192,5928,128,0,6014:0:0:0:0:
448,192,5928,128,0,6014:0:0:0:0:
320,192,6014,1,0,0:0:0:0:
64,192,6100,128,0,6442:0:0:0:70:K.wav
448,192,6100,1,0,0:0:0:0:
192,192,6185,1,0,0:0:0:0:
320,192,6271,1,0,0:0:0:0:
448,192,6357,1,0,0:0:0:0:
192,192,6442,1,0,0:0:0:70:S2.wav
320,192,6442,128,0,6614:0:0:0:70:clap.wav
448,192,6614,128,0,6957:0:0:0:0:
320,192,6700,1,0,0:0:0:0:
64,192,6785,1,0,0:0:0:70:K.wav
192,192,6785,1,0,0:0:0:0:
320,192,6871,1,0,0:0:0:0:
64,192,6957,1,0,0:0:0:0:
192,192,6957,1,0,0:0:0:0:
64,192,7042,1,0,0:0:0:0:
192,192,7042,1,0,0:0:0:0:
320,192,7128,128,0,7471:0:0:0:70:S2.wav
448,192,7128,1,0,0:0:0:70:clap.wav
192,192,7214,128,0,7300:0:0:0:0:
448,192,7300,128,0,7385:0:0:0:0:
192,192,7385,128,0,7471:0:0:0:0:
64,192,7471,1,0,0:0:0:70:K.wav
448,192,7471,128,0,7814:0:0:0:0:
320,192,7557,128,0,7728:0:0:0:0:
192,192,7642,128,0,7728:0:0:0:0:
64,192,7728,128,0,7814:0:0:0:0:
192,192,7814,128,0,8157:0:0:0:70:S2.wav
320,192,7814,128,0,7985:0:0:0:70:clap.wav
448,192,7900,128,0,8071:0:0:0:0:
64,192,7985,128,0,8071:0:0:0:0:
320,192,8071,128,0,8157:0:0:0:0:
64,192,8157,1,0,0:0:0:70:K.wav
448,192,8157,1,0,0:0:0:0:
320,192,8242,1,0,0:0:0:0:
64,192,8328,1,0,0:0:0:0:
192,192,8328,1,0,0:0:0:0:
320,192,8414,1,0,0:0:0:0:
448,192,8414,1,0,0:0:0:0:
64,192,8500,1,0,0:0:0:70:S2.wav
192,192,8500,1,0,0:0:0:70:clap.wav
64,192,8671,128,0,8757:0:0:0:0:
192,192,8671,128,0,8757:0:0:0:0:
448,192,8671,128,0,8757:0:0:0:0:
320,192,8757,1,0,0:0:0:0:
64,192,8842,1,0,0:0:0:70:K.wav
448,192,8842,1,0,0:0:0:0:
192,192,8928,1,0,0:0:0:0:
320,192,9014,1,0,0:0:0:0:
64,192,9100,1,0,0:0:0:0:
448,192,9100,1,0,0:0:0:0:
192,192,9185,1,0,0:0:0:70:S2.wav
320,192,9185,1,0,0:0:0:70:clap.wav
192,192,9357,1,0,0:0:0:0:
192,192,9442,1,0,0:0:0:0:
64,192,9528,1,0,0:0:0:70:K.wav
448,192,9528,1,0,0:0:0:0:
320,192,9614,1,0,0:0:0:0:
192,192,9700,1,0,0:0:0:0:
64,192,9785,1,0,0:0:0:0:
320,192,9785,1,0,0:0:0:0:
192,192,9871,1,0,0:0:0:70:S2.wav
448,192,9871,1,0,0:0:0:70:clap.wav
64,192,10042,1,0,0:0:0:0:
448,192,10042,1,0,0:0:0:0:
192,192,10128,1,0,0:0:0:0:
320,192,10214,1,0,0:0:0:70:K.wav
448,192,10214,1,0,0:0:0:0:
64,192,10300,1,0,0:0:0:0:
192,192,10385,1,0,0:0:0:0:
320,192,10471,1,0,0:0:0:0:
64,192,10557,1,0,0:0:0:70:S2.wav
192,192,10557,1,0,0:0:0:70:clap.wav
448,192,10557,1,0,0:0:0:0:
320,192,10728,1,0,0:0:0:0:
320,192,10814,1,0,0:0:0:0:
64,192,10900,1,0,0:0:0:70:K.wav
192,192,10900,1,0,0:0:0:0:
320,192,10985,1,0,0:0:0:0:
64,192,11071,1,0,0:0:0:0:
448,192,11071,1,0,0:0:0:0:
192,192,11157,1,0,0:0:0:0:
320,192,11157,1,0,0:0:0:0:
64,192,11242,1,0,0:0:0:70:S2.wav
448,192,11242,1,0,0:0:0:70:clap.wav
64,192,11414,128,0,11500:0:0:0:0:
192,192,11414,128,0,11500:0:0:0:0:
320,192,11414,128,0,11500:0:0:0:0:
448,192,11500,1,0,0:0:0:0:
64,192,11585,1,0,0:0:0:70:K.wav
320,192,11585,1,0,0:0:0:0:
192,192,11671,1,0,0:0:0:0:
448,192,11757,1,0,0:0:0:0:
192,192,11842,1,0,0:0:0:0:
320,192,11842,1,0,0:0:0:0:
64,192,11928,1,0,0:0:0:70:S2.wav
448,192,11928,1,0,0:0:0:70:clap.wav
320,192,12100,1,0,0:0:0:0:
320,192,12185,1,0,0:0:0:0:
64,192,12271,1,0,0:0:0:70:K.wav
192,192,12271,1,0,0:0:0:0:
448,192,12442,1,0,0:0:0:0:
320,192,12485,1,0,0:0:0:0:
192,192,12528,1,0,0:0:0:0:
64,192,12571,1,0,0:0:0:0:
320,192,12614,1,0,0:0:0:70:S2.wav
448,192,12614,1,0,0:0:0:70:clap.wav
64,192,12785,1,0,0:0:0:0:
192,192,12828,1,0,0:0:0:0:
320,192,12871,1,0,0:0:0:0:
448,192,12914,1,0,0:0:0:0:
64,192,12957,1,0,0:0:0:70:K.wav
192,192,12957,1,0,0:0:0:0:
448,192,13128,1,0,0:0:0:0:
320,192,13171,1,0,0:0:0:0:
192,192,13214,1,0,0:0:0:0:
64,192,13257,1,0,0:0:0:0:
320,192,13300,1,0,0:0:0:70:S2.wav
448,192,13300,1,0,0:0:0:70:clap.wav
64,192,13471,1,0,0:0:0:0:
192,192,13514,1,0,0:0:0:0:
320,192,13557,1,0,0:0:0:0:
448,192,13600,1,0,0:0:0:0:
64,192,13642,1,0,0:0:0:70:K.wav
192,192,13642,1,0,0:0:0:100:C.wav
320,192,13728,1,0,0:0:0:0:
192,192,13814,1,0,0:0:0:0:
448,192,13814,1,0,0:0:0:0:
64,192,13900,1,0,0:0:0:0:
320,192,13900,1,0,0:0:0:0:
192,192,13985,1,0,0:0:0:70:S2.wav
448,192,13985,1,0,0:0:0:70:clap.wav
64,192,14157,128,0,14242:0:0:0:0:
192,192,14157,128,0,14242:0:0:0:0:
320,192,14157,128,0,14242:0:0:0:0:
448,192,14242,1,0,0:0:0:0:
64,192,14328,1,0,0:0:0:70:K.wav
192,192,14328,1,0,0:0:0:0:
320,192,14414,1,0,0:0:0:0:
448,192,14500,1,0,0:0:0:0:
64,192,14585,1,0,0:0:0:0:
320,192,14585,1,0,0:0:0:0:
192,192,14671,1,0,0:0:0:70:S2.wav
448,192,14671,1,0,0:0:0:70:clap.wav
64,192,14842,1,0,0:0:0:0:
64,192,14928,1,0,0:0:0:0:
192,192,15014,1,0,0:0:0:70:K.wav
320,192,15014,1,0,0:0:0:0:
448,192,15100,1,0,0:0:0:0:
192,192,15185,1,0,0:0:0:0:
64,192,15271,1,0,0:0:0:0:
320,192,15271,1,0,0:0:0:0:
192,192,15357,1,0,0:0:0:70:S2.wav
448,192,15357,1,0,0:0:0:70:clap.wav
320,192,15528,1,0,0:0:0:0:
448,192,15528,1,0,0:0:0:0:
64,192,15614,1,0,0:0:0:0:
192,192,15700,1,0,0:0:0:70:K.wav
320,192,15700,1,0,0:0:0:0:
448,192,15785,1,0,0:0:0:0:
64,192,15871,1,0,0:0:0:0:
192,192,15957,1,0,0:0:0:0:
448,192,15957,1,0,0:0:0:0:
64,192,16042,1,0,0:0:0:70:S2.wav
320,192,16042,1,0,0:0:0:70:clap.wav
64,192,16214,1,0,0:0:0:0:
192,192,16214,128,0,16385:0:0:0:0:
448,192,16300,1,0,0:0:0:0:
320,192,16385,128,0,16728:0:0:0:70:K.wav
192,192,16471,1,0,0:0:0:0:
448,192,16557,1,0,0:0:0:0:
64,192,16642,1,0,0:0:0:0:
192,192,16728,1,0,0:0:0:70:S2.wav
448,192,16728,128,0,17071:0:0:0:70:clap.wav
64,192,16900,128,0,16985:0:0:0:0:
320,192,16900,128,0,16985:0:0:0:0:
192,192,16985,1,0,0:0:0:0:
64,192,17071,1,0,0:0:0:70:K.wav
320,192,17071,128,0,17414:0:0:0:0:
448,192,17157,1,0,0:0:0:0:
192,192,17242,1,0,0:0:0:0:
64,192,17328,1,0,0:0:0:0:
192,192,17414,1,0,0:0:0:70:S2.wav
448,192,17414,128,0,17585:0:0:0:70:clap.wav
64,192,17585,128,0,17928:0:0:0:0:
192,192,17671,1,0,0:0:0:0:
320,192,17757,1,0,0:0:0:70:K.wav
448,192,17757,1,0,0:0:0:0:
192,192,17842,1,0,0:0:0:0:
320,192,17928,1,0,0:0:0:0:
448,192,17928,1,0,0:0:0:0:
320,192,18014,1,0,0:0:0:0:
448,192,18014,1,0,0:0:0:0:
64,192,18100,1,0,0:0:0:70:S2.wav
192,192,18100,128,0,18442:0:0:0:70:clap.wav
320,192,18185,128,0,18271:0:0:0:0:
448,192,18271,128,0,18357:0:0:0:0:
64,192,18357,128,0,18442:0:0:0:0:
320,192,18442,128,0,18785:0:0:0:70:K.wav
448,192,18442,1,0,0:0:0:0:
192,192,18528,128,0,18700:0:0:0:0:
64,192,18614,128,0,18700:0:0:0:0:
448,192,18700,128,0,18785:0:0:0:0:
64,192,18785,128,0,18957:0:0:0:70:S2.wav
192,192,18785,128,0,19128:0:0:0:70:clap.wav
320,192,18871,128,0,19042:0:0:0:0:
448,192,18957,128,0,19042:0:0:0:0:
64,192,19042,128,0,19128:0:0:0:0:
320,192,19128,1,0,0:0:0:70:K.wav
448,192,19128,128,0,19300:0:0:0:0:
192,192,19214,1,0,0:0:0:0:
64,192,19300,1,0,0:0:0:0:
320,192,19385,1,0,0:0:0:0:
192,192,19471,1,0,0:0:0:70:S2.wav
448,192,19471,128,0,19642:0:0:0:70:clap.wav
320,192,19557,1,0,0:0:0:0:
64,192,19642,128,0,19728:0:0:0:0:
192,192,19728,1,0,0:0:0:0:
320,192,19814,1,0,0:0:0:70:K.wav
448,192,19814,128,0,19985:0:0:0:0:
64,192,19900,1,0,0:0:0:0:
192,192,19985,1,0,0:0:0:0:
320,192,20071,1,0,0:0:0:0:
192,192,20157,1,0,0:0:0:70:S2.wav
448,192,20157,128,0,20328:0:0:0:70:clap.wav
64,192,20242,1,0,0:0:0:0:
320,192,20328,1,0,0:0:0:0:
192,192,20414,1,0,0:0:0:0:
64,192,20500,1,0,0:0:0:70:K.wav
448,192,20500,128,0,20585:0:0:0:0:
320,192,20585,1,0,0:0:0:0:
192,192,20671,1,0,0:0:0:0:
448,192,20671,128,0,20757:0:0:0:0:
64,192,20757,1,0,0:0:0:0:
320,192,20842,128,0,20928:0:0:0:70:S2.wav
448,192,20842,1,0,0:0:0:70:clap.wav
192,192,20928,1,0,0:0:0:0:
64,192,21014,1,0,0:0:0:0:
320,192,21014,128,0,21100:0:0:0:0:
448,192,21100,1,0,0:0:0:0:
192,192,21185,128,0,21271:0:0:0:70:K.wav
320,192,21185,1,0,0:0:0:0:
64,192,21271,1,0,0:0:0:0:
192,192,21357,128,0,21442:0:0:0:0:
448,192,21357,1,0,0:0:0:0:
320,192,21442,1,0,0:0:0:0:
64,192,21528,128,0,21614:0:0:0:70:S2.wav
192,192,21528,1,0,0:0:0:70:clap.wav
448,192,21614,1,0,0:0:0:0:
64,192,21700,128,0,21785:0:0:0:0:
320,192,21700,1,0,0:0:0:0:
192,192,21785,1,0,0:0:0:0:
320,192,21871,1,0,0:0:0:70:K.wav
448,192,21871,128,0,21957:0:0:0:0:
64,192,21957,128,0,22042:0:0:0:0:
192,192,21957,1,0,0:0:0:0:
320,192,22042,1,0,0:0:0:0:
448,192,22042,128,0,22128:0:0:0:0:
64,192,22128,128,0,22214:0:0:0:0:
192,192,22128,1,0,0:0:0:0:
320,192,22214,1,0,0:0:0:70:S2.wav
448,192,22214,128,0,22300:0:0:0:70:clap.wav
64,192,22300,128,0,22385:0:0:0:0:
192,192,22300,1,0,0:0:0:0:
320,192,22385,128,0,22471:0:0:0:0:
448,192,22385,128,0,22471:0:0:0:0:
64,192,22471,128,0,22557:0:0:0:0:
192,192,22471,1,0,0:0:0:0:
320,192,22557,1,0,0:0:0:70:K.wav
448,192,22557,128,0,22642:0:0:0:0:
64,192,22642,128,0,22728:0:0:0:0:
192,192,22642,1,0,0:0:0:0:
320,192,22728,1,0,0:0:0:0:
448,192,22728,128,0,22814:0:0:0:0:
64,192,22814,128,0,22900:0:0:0:0:
192,192,22814,1,0,0:0:0:0:
320,192,22900,1,0,0:0:0:70:S2.wav
448,192,22900,128,0,22985:0:0:0:70:clap.wav
64,192,22985,128,0,23071:0:0:0:0:
192,192,22985,1,0,0:0:0:0:
320,192,23071,1,0,0:0:0:0:
448,192,23071,128,0,23157:0:0:0:0:
64,192,23157,128,0,23242:0:0:0:0:
192,192,23157,1,0,0:0:0:0:
320,192,23242,1,0,0:0:0:70:K.wav
448,192,23242,128,0,24614:0:0:0:100:BassKickReverbXD.wav
64,192,24614,128,0,25985:0:0:0:100:BassKickReverbXD.wav
192,192,24614,1,0,0:0:0:0:
320,192,24614,1,0,0:0:0:0:
448,192,25300,128,0,25642:0:0:0:0:
192,192,25642,128,0,25814:0:0:0:0:
320,192,25814,128,0,26328:0:0:0:0:
192,192,25985,128,0,27357:0:0:0:0:
448,192,25985,1,0,0:0:0:0:
448,192,26328,128,0,26671:0:0:0:0:
448,192,27014,128,0,27357:0:0:0:0:
64,192,27357,128,0,27614:0:0:0:0:
320,192,27357,128,0,28557:0:0:0:0:
448,192,27700,128,0,28042:0:0:0:0:
192,192,28042,128,0,28385:0:0:0:0:
64,192,28385,128,0,28557:0:0:0:0:
192,192,28557,128,0,29414:0:0:0:0:
448,192,28557,128,0,29757:0:0:0:0:
64,192,29757,1,0,0:0:0:0:
192,192,29757,128,0,30100:0:0:0:0:
320,192,29757,128,0,30100:0:0:0:0:
64,192,30100,128,0,31471:0:0:0:0:
448,192,30100,128,0,30442:0:0:0:0:
192,192,30442,128,0,30785:0:0:0:0:
320,192,30785,128,0,31128:0:0:0:0:
448,192,31128,128,0,31471:0:0:0:0:
192,192,31471,128,0,31814:0:0:0:0:
320,192,31471,128,0,32157:0:0:0:0:
64,192,31814,128,0,32157:0:0:0:0:
192,192,32157,128,0,32500:0:0:0:0:
448,192,32157,128,0,32842:0:0:0:0:
320,192,32500,128,0,33185:0:0:0:0:
64,192,32842,1,0,0:0:0:0:
192,192,32842,128,0,34042:0:0:0:0:
64,192,33185,128,0,33528:0:0:0:0:
448,192,33528,128,0,33871:0:0:0:0:
320,192,33871,128,0,34042:0:0:0:0:
64,192,34042,128,0,34385:0:0:0:0:
448,192,34042,128,0,34900:0:0:0:0:
64,192,34557,128,0,34900:0:0:0:0:
192,192,34900,128,0,35071:0:0:0:0:
320,192,34900,128,0,35585:0:0:0:0:
448,192,35071,128,0,35585:0:0:0:0:
64,192,35242,128,0,35585:0:0:0:0:
192,192,35585,1,0,0:0:0:0:
448,192,35671,1,0,0:0:0:0:
320,192,35757,1,0,0:0:0:0:
192,192,35842,1,0,0:0:0:0:
448,192,35928,1,0,0:0:0:0:
64,192,35928,1,0,0:0:0:0:
320,192,36014,1,0,0:0:0:0:
192,192,36100,1,0,0:0:0:0:
320,192,36185,1,0,0:0:0:0:
64,192,36271,1,0,0:0:0:0:
448,192,36271,1,0,0:0:0:0:
192,192,36357,1,0,0:0:0:0:
448,192,36442,1,0,0:0:0:0:
320,192,36528,1,0,0:0:0:0:
192,192,36614,1,0,0:0:0:0:
64,192,36614,1,0,0:0:0:0:
320,192,36700,1,0,0:0:0:0:
192,192,36785,1,0,0:0:0:0:
448,192,36785,1,0,0:0:0:0:
64,192,36871,1,0,0:0:0:0:
448,192,36957,1,0,0:0:0:0:
320,192,36957,1,0,0:0:0:0:
192,192,37042,1,0,0:0:0:0:
64,192,37128,1,0,0:0:0:0:
320,192,37214,1,0,0:0:0:0:
448,192,37300,1,0,0:0:0:0:
192,192,37300,1,0,0:0:0:0:
64,192,37385,1,0,0:0:0:0:
320,192,37471,1,0,0:0:0:0:
192,192,37557,1,0,0:0:0:0:
64,192,37642,1,0,0:0:0:0:
448,192,37642,1,0,0:0:0:0:
320,192,37728,1,0,0:0:0:0:
192,192,37814,1,0,0:0:0:0:
320,192,37900,1,0,0:0:0:0:
192,192,37985,1,0,0:0:0:0:
64,192,37985,1,0,0:0:0:0:
448,192,38071,1,0,0:0:0:0:
320,192,38157,1,0,0:0:0:0:
192,192,38242,1,0,0:0:0:0:
448,192,38328,1,0,0:0:0:0:
64,192,38328,1,0,0:0:0:0:
320,192,38414,1,0,0:0:0:0:
192,192,38500,1,0,0:0:0:0:
320,192,38585,1,0,0:0:0:0:
448,192,38671,1,0,0:0:0:0:
64,192,38671,1,0,0:0:0:0:
192,192,38757,1,0,0:0:0:0:
320,192,38842,1,0,0:0:0:0:
448,192,38842,1,0,0:0:0:0:
64,192,38928,1,0,0:0:0:0:
192,192,39014,1,0,0:0:0:0:
320,192,39100,1,0,0:0:0:0:
192,192,39185,1,0,0:0:0:0:
448,192,39185,1,0,0:0:0:0:
64,192,39271,1,0,0:0:0:0:
320,192,39357,1,0,0:0:0:0:
192,192,39442,1,0,0:0:0:0:
64,192,39528,1,0,0:0:0:0:
320,192,39528,1,0,0:0:0:0:
448,192,39614,1,0,0:0:0:0:
192,192,39700,1,0,0:0:0:0:
64,192,39785,1,0,0:0:0:0:
320,192,39871,1,0,0:0:0:0:
448,192,39871,1,0,0:0:0:0:
192,192,39957,1,0,0:0:0:0:
448,192,40042,1,0,0:0:0:0:
64,192,40042,1,0,0:0:0:0:
320,192,40128,1,0,0:0:0:0:
192,192,40214,1,0,0:0:0:0:
448,192,40300,1,0,0:0:0:0:
192,192,40385,1,0,0:0:0:0:
64,192,40385,1,0,0:0:0:0:
320,192,40471,1,0,0:0:0:0:
448,192,40557,1,0,0:0:0:0:
192,192,40642,1,0,0:0:0:0:
320,192,40728,1,0,0:0:0:0:
64,192,40728,1,0,0:0:0:0:
448,192,40814,1,0,0:0:0:0:
192,192,40900,1,0,0:0:0:0:
64,192,40985,1,0,0:0:0:0:
448,192,41071,1,0,0:0:0:0:
192,192,41071,1,0,0:0:0:0:
320,192,41157,1,0,0:0:0:0:
64,192,41242,1,0,0:0:0:0:
192,192,41328,1,0,0:0:0:0:
448,192,41414,1,0,0:0:0:0:
320,192,41414,1,0,0:0:0:0:
64,192,41500,1,0,0:0:0:0:
192,192,41585,1,0,0:0:0:0:
320,192,41671,1,0,0:0:0:0:
448,192,41757,1,0,0:0:0:0:
192,192,41757,1,0,0:0:0:0:
64,192,41842,1,0,0:0:0:0:
320,192,41928,1,0,0:0:0:0:
448,192,42014,1,0,0:0:0:0:
192,192,42100,1,0,0:0:0:0:
64,192,42100,1,0,0:0:0:0:
320,192,42185,1,0,0:0:0:0:
448,192,42271,1,0,0:0:0:0:
64,192,42357,1,0,0:0:0:0:
320,192,42442,1,0,0:0:0:0:
192,192,42442,1,0,0:0:0:0:
448,192,42528,1,0,0:0:0:0:
320,192,42614,1,0,0:0:0:0:
192,192,42700,1,0,0:0:0:0:
448,192,42785,1,0,0:0:0:0:
64,192,42785,1,0,0:0:0:0:
320,192,42871,1,0,0:0:0:0:
192,192,42957,1,0,0:0:0:0:
320,192,43042,1,0,0:0:0:0:
448,192,43128,1,0,0:0:0:0:
64,192,43128,1,0,0:0:0:0:
192,192,43214,1,0,0:0:0:0:
320,192,43300,1,0,0:0:0:0:
448,192,43385,1,0,0:0:0:0:
320,192,43471,1,0,0:0:0:0:
64,192,43471,1,0,0:0:0:0:
192,192,43557,1,0,0:0:0:0:
448,192,43642,1,0,0:0:0:0:
320,192,43728,1,0,0:0:0:0:
192,192,43814,1,0,0:0:0:0:
64,192,43814,1,0,0:0:0:0:
448,192,43900,1,0,0:0:0:0:
320,192,43985,1,0,0:0:0:0:
192,192,44071,1,0,0:0:0:0:
448,192,44157,1,0,0:0:0:0:
64,192,44157,1,0,0:0:0:0:
192,192,44242,1,0,0:0:0:0:
320,192,44328,1,0,0:0:0:0:
64,192,44414,1,0,0:0:0:0:
320,192,44500,1,0,0:0:0:0:
192,192,44500,1,0,0:0:0:0:
448,192,44585,1,0,0:0:0:0:
192,192,44671,1,0,0:0:0:0:
64,192,44671,1,0,0:0:0:0:
320,192,44757,1,0,0:0:0:0:
448,192,44842,1,0,0:0:0:0:
64,192,44842,1,0,0:0:0:0:
192,192,44928,1,0,0:0:0:0:
448,192,45014,1,0,0:0:0:0:
320,192,45014,1,0,0:0:0:0:
64,192,45100,1,0,0:0:0:0:
192,192,45185,1,0,0:0:0:0:
448,192,45271,1,0,0:0:0:0:
192,192,45357,1,0,0:0:0:0:
320,192,45357,1,0,0:0:0:0:
64,192,45442,1,0,0:0:0:0:
448,192,45528,1,0,0:0:0:0:
320,192,45528,1,0,0:0:0:0:
192,192,45614,1,0,0:0:0:0:
320,192,45700,1,0,0:0:0:0:
64,192,45785,1,0,0:0:0:0:
448,192,45871,1,0,0:0:0:0:
192,192,45871,1,0,0:0:0:0:
320,192,45957,1,0,0:0:0:0:
192,192,46042,1,0,0:0:0:0:
64,192,46128,1,0,0:0:0:0:
448,192,46214,1,0,0:0:0:0:
320,192,46300,1,0,0:0:0:0:
192,192,46385,1,0,0:0:0:0:
448,192,46471,1,0,0:0:0:0:
192,192,46557,1,0,0:0:0:100:BassKickReverbXD.wav
320,192,46557,1,0,0:0:0:0:
64,192,46557,128,0,46900:0:0:0:70:clap.wav
320,192,46900,1,0,0:0:0:70:clap.wav
448,192,46900,1,0,0:0:0:0:
192,192,47071,1,0,0:0:0:0:
64,192,47114,1,0,0:0:0:0:
320,192,47157,1,0,0:0:0:0:
448,192,47200,1,0,0:0:0:0:
64,192,47242,1,0,0:0:0:70:clap.wav
192,192,47242,128,0,47414:0:0:0:0:
320,192,47414,128,0,47500:0:0:0:0:
448,192,47500,128,0,47585:0:0:0:0:
64,192,47585,1,0,0:0:0:70:clap.wav
192,192,47585,1,0,0:0:0:0:
320,192,47671,128,0,47757:0:0:0:0:
448,192,47757,128,0,47928:0:0:0:0:
192,192,47928,128,0,48100:0:0:0:70:clap.wav
320,192,47928,1,0,0:0:0:0:
64,192,48100,128,0,48271:0:0:0:0:
320,192,48271,1,0,0:0:0:70:clap.wav
448,192,48271,128,0,48614:0:0:0:0:
192,192,48614,128,0,48785:0:0:0:70:clap.wav
320,192,48614,1,0,0:0:0:0:
64,192,48785,128,0,48871:0:0:0:0:
320,192,48871,128,0,48957:0:0:0:0:
64,192,48957,1,0,0:0:0:70:clap.wav
448,192,48957,1,0,0:0:0:0:
192,192,49042,1,0,0:0:0:0:
192,192,49128,128,0,49300:0:0:0:0:
64,192,49300,1,0,0:0:0:70:clap.wav
320,192,49300,128,0,49642:0:0:0:0:
192,192,49642,1,0,0:0:0:70:clap.wav
448,192,49642,128,0,49985:0:0:0:0:
64,192,49985,128,0,50328:0:0:0:70:clap.wav
320,192,49985,1,0,0:0:0:0:
192,192,50328,1,0,0:0:0:70:clap.wav
320,192,50328,128,0,50500:0:0:0:0:
448,192,50500,128,0,50842:0:0:0:0:
64,192,50671,1,0,0:0:0:70:clap.wav
192,192,50671,1,0,0:0:0:0:
320,192,50842,1,0,0:0:0:0:
320,192,50928,1,0,0:0:0:0:
64,192,51014,1,0,0:0:0:70:clap.wav
192,192,51014,128,0,51357:0:0:0:0:
64,192,51357,128,0,51700:0:0:0:70:clap.wav
448,192,51357,1,0,0:0:0:0:
192,192,51700,1,0,0:0:0:70:clap.wav
320,192,51700,128,0,51871:0:0:0:0:
448,192,51871,1,0,0:0:0:0:
320,192,51914,1,0,0:0:0:0:
192,192,51957,1,0,0:0:0:0:
64,192,52000,1,0,0:0:0:0:
320,192,52042,1,0,0:0:0:70:clap.wav
448,192,52042,128,0,52214:0:0:0:0:
192,192,52214,1,0,0:0:0:0:
192,192,52300,1,0,0:0:0:0:
320,192,52385,1,0,0:0:0:70:clap.wav
448,192,52385,1,0,0:0:0:0:
64,192,52471,1,0,0:0:0:0:
64,192,52557,1,0,0:0:0:0:
448,192,52600,1,0,0:0:0:0:
320,192,52642,1,0,0:0:0:0:
192,192,52685,1,0,0:0:0:0:
64,192,52728,1,0,0:0:0:70:clap.wav
448,192,52728,128,0,52900:0:0:0:0:
192,192,52900,128,0,52985:0:0:0:0:
320,192,52985,128,0,53157:0:0:0:0:
64,192,53071,1,0,0:0:0:70:clap.wav
448,192,53071,1,0,0:0:0:0:
192,192,53157,128,0,53242:0:0:0:0:
448,192,53242,128,0,53414:0:0:0:0:
64,192,53414,1,0,0:0:0:70:clap.wav
320,192,53414,128,0,53585:0:0:0:0:
192,192,53585,128,0,53757:0:0:0:0:
320,192,53757,1,0,0:0:0:70:clap.wav
448,192,53757,128,0,54100:0:0:0:0:
64,192,54100,128,0,54271:0:0:0:70:clap.wav
192,192,54100,1,0,0:0:0:0:
320,192,54271,1,0,0:0:0:0:
320,192,54357,1,0,0:0:0:0:
192,192,54442,1,0,0:0:0:70:clap.wav
448,192,54442,1,0,0:0:0:0:
192,192,54528,1,0,0:0:0:0:
64,192,54614,128,0,54785:0:0:0:0:
192,192,54785,1,0,0:0:0:70:clap.wav
320,192,54785,128,0,55128:0:0:0:0:
192,192,55128,128,0,55471:0:0:0:70:clap.wav
448,192,55128,1,0,0:0:0:0:
64,192,55471,128,0,55814:0:0:0:70:clap.wav
320,192,55471,1,0,0:0:0:0:
192,192,55814,1,0,0:0:0:70:clap.wav
448,192,55814,128,0,55985:0:0:0:0:
320,192,55985,128,0,56328:0:0:0:0:
64,192,56157,1,0,0:0:0:70:clap.wav
448,192,56157,1,0,0:0:0:0:
192,192,56328,1,0,0:0:0:0:
192,192,56414,1,0,0:0:0:0:
320,192,56500,1,0,0:0:0:70:clap.wav
448,192,56500,128,0,56842:0:0:0:0:
64,192,56842,1,0,0:0:0:70:clap.wav
192,192,56842,128,0,57185:0:0:0:0:
64,192,57185,128,0,57528:0:0:0:70:clap.wav
320,192,57185,1,0,0:0:0:0:
192,192,57528,1,0,0:0:0:70:K.wav
448,192,57528,128,0,57700:0:0:0:70:clap.wav
320,192,57614,1,0,0:0:0:0:
64,192,57700,1,0,0:0:0:0:
192,192,57785,1,0,0:0:0:0:
320,192,57871,1,0,0:0:0:70:clap.wav
448,192,57871,128,0,58042:0:0:0:0:
192,192,57957,1,0,0:0:0:0:
64,192,58042,1,0,0:0:0:0:
320,192,58128,1,0,0:0:0:0:
192,192,58214,1,0,0:0:0:70:clap.wav
448,192,58214,128,0,58385:0:0:0:0:
64,192,58300,1,0,0:0:0:0:
320,192,58385,1,0,0:0:0:0:
192,192,58471,1,0,0:0:0:0:
64,192,58557,1,0,0:0:0:70:clap.wav
448,192,58557,128,0,58728:0:0:0:0:
192,192,58642,1,0,0:0:0:0:
320,192,58728,1,0,0:0:0:0:
448,192,58814,1,0,0:0:0:0:
64,192,58900,1,0,0:0:0:70:clap.wav
192,192,58900,128,0,59071:0:0:0:0:
320,192,58985,1,0,0:0:0:0:
448,192,59071,1,0,0:0:0:0:
320,192,59157,1,0,0:0:0:0:
64,192,59242,1,0,0:0:0:70:clap.wav
192,192,59242,128,0,59414:0:0:0:0:
448,192,59328,1,0,0:0:0:0:
320,192,59414,1,0,0:0:0:0:
64,192,59500,1,0,0:0:0:0:
192,192,59585,128,0,59757:0:0:0:70:clap.wav
448,192,59585,1,0,0:0:0:0:
320,192,59671,1,0,0:0:0:0:
64,192,59757,1,0,0:0:0:0:
320,192,59842,1,0,0:0:0:0:
192,192,59928,128,0,60100:0:0:0:70:clap.wav
448,192,59928,1,0,0:0:0:0:
64,192,60014,1,0,0:0:0:0:
320,192,60100,1,0,0:0:0:0:
448,192,60185,1,0,0:0:0:0:
64,192,60271,1,0,0:0:0:70:clap.wav
320,192,60271,128,0,60442:0:0:0:0:
192,192,60357,1,0,0:0:0:0:
448,192,60442,1,0,0:0:0:0:
64,192,60528,1,0,0:0:0:0:
192,192,60614,1,0,0:0:0:70:clap.wav
320,192,60614,128,0,60785:0:0:0:0:
448,192,60700,1,0,0:0:0:0:
192,192,60785,1,0,0:0:0:0:
64,192,60871,1,0,0:0:0:0:
320,192,60957,128,0,61128:0:0:0:70:clap.wav
448,192,60957,1,0,0:0:0:0:
64,192,61042,1,0,0:0:0:0:
192,192,61128,1,0,0:0:0:0:
448,192,61214,1,0,0:0:0:0:
64,192,61300,1,0,0:0:0:70:clap.wav
320,192,61300,128,0,61471:0:0:0:0:
448,192,61385,1,0,0:0:0:0:
192,192,61471,1,0,0:0:0:0:
192,192,61557,1,0,0:0:0:0:
64,192,61642,128,0,61985:0:0:0:70:clap.wav
448,192,61642,1,0,0:0:0:0:
320,192,61728,1,0,0:0:0:0:
192,192,61814,1,0,0:0:0:0:
320,192,61900,1,0,0:0:0:0:
448,192,61985,128,0,62328:0:0:0:70:clap.wav
192,192,62071,1,0,0:0:0:0:
320,192,62157,1,0,0:0:0:0:
64,192,62242,1,0,0:0:0:0:
320,192,62328,128,0,62671:0:0:0:70:clap.wav
448,192,62414,1,0,0:0:0:0:
192,192,62500,1,0,0:0:0:0:
64,192,62585,1,0,0:0:0:0:
192,192,62671,128,0,63014:0:0:0:70:clap.wav
448,192,62757,1,0,0:0:0:0:
320,192,62842,1,0,0:0:0:0:
64,192,62928,1,0,0:0:0:0:
320,192,63014,128,0,63100:0:0:0:40:K.wav
448,192,63014,1,0,0:0:0:70:clap.wav
64,192,63100,1,0,0:0:0:40:K.wav
192,192,63185,128,0,63271:0:0:0:40:K.wav
448,192,63185,1,0,0:0:0:0:
320,192,63271,1,0,0:0:0:40:K.wav
64,192,63357,128,0,63442:0:0:0:40:K.wav
192,192,63357,1,0,0:0:0:70:clap.wav
320,192,63442,1,0,0:0:0:40:K.wav
64,192,63528,128,0,63614:0:0:0:40:K.wav
448,192,63528,1,0,0:0:0:0:
192,192,63614,1,0,0:0:0:40:K.wav
320,192,63700,1,0,0:0:0:45:K.wav
448,192,63700,128,0,63785:0:0:0:70:clap.wav
192,192,63785,1,0,0:0:0:45:K.wav
64,192,63871,1,0,0:0:0:45:K.wav
448,192,63871,128,0,63957:0:0:0:0:
320,192,63957,1,0,0:0:0:45:K.wav
64,192,64042,1,0,0:0:0:45:K.wav
192,192,64042,128,0,64128:0:0:0:70:clap.wav
448,192,64128,1,0,0:0:0:45:K.wav
192,192,64214,1,0,0:0:0:45:K.wav
320,192,64214,128,0,64300:0:0:0:0:
64,192,64300,1,0,0:0:0:45:K.wav
320,192,64385,1,0,0:0:0:50:K.wav
448,192,64385,128,0,64471:0:0:0:70:clap.wav
192,192,64471,1,0,0:0:0:50:K.wav
64,192,64557,128,0,64642:0:0:0:50:K.wav
448,192,64557,1,0,0:0:0:0:
320,192,64642,1,0,0:0:0:50:K.wav
64,192,64728,1,0,0:0:0:50:K.wav
192,192,64728,128,0,64814:0:0:0:70:clap.wav
320,192,64814,1,0,0:0:0:50:K.wav
64,192,64900,1,0,0:0:0:50:K.wav
448,192,64900,128,0,64985:0:0:0:0:
192,192,64985,1,0,0:0:0:50:K.wav
320,192,65071,128,0,65157:0:0:0:55:K.wav
448,192,65071,1,0,0:0:0:70:clap.wav
64,192,65157,1,0,0:0:0:55:K.wav
192,192,65242,128,0,65328:0:0:0:55:K.wav
320,192,65242,1,0,0:0:0:0:
448,192,65328,1,0,0:0:0:55:K.wav
64,192,65414,128,0,65500:0:0:0:55:K.wav
192,192,65414,1,0,0:0:0:70:clap.wav
320,192,65500,1,0,0:0:0:55:K.wav
64,192,65585,1,0,0:0:0:55:K.wav
448,192,65585,128,0,65671:0:0:0:0:
192,192,65671,1,0,0:0:0:55:K.wav
320,192,65757,128,0,65842:0:0:0:60:K.wav
448,192,65757,1,0,0:0:0:70:clap.wav
64,192,65842,1,0,0:0:0:60:K.wav
192,192,65842,128,0,65928:0:0:0:0:
320,192,65928,128,0,66014:0:0:0:60:K.wav
448,192,65928,1,0,0:0:0:0:
64,192,66014,1,0,0:0:0:60:K.wav
192,192,66014,128,0,66100:0:0:0:0:
320,192,66100,128,0,66185:0:0:0:60:K.wav
448,192,66100,1,0,0:0:0:70:clap.wav
64,192,66185,1,0,0:0:0:60:K.wav
192,192,66185,128,0,66271:0:0:0:0:
320,192,66271,128,0,66357:0:0:0:60:K.wav
448,192,66271,1,0,0:0:0:0:
64,192,66357,1,0,0:0:0:60:K.wav
192,192,66357,128,0,66442:0:0:0:0:
320,192,66442,1,0,0:0:0:60:K.wav
448,192,66442,128,0,66528:0:0:0:70:clap.wav
64,192,66528,128,0,66614:0:0:0:60:K.wav
192,192,66528,1,0,0:0:0:0:
320,192,66614,1,0,0:0:0:60:K.wav
448,192,66614,128,0,66700:0:0:0:0:
64,192,66700,128,0,66785:0:0:0:60:K.wav
192,192,66700,1,0,0:0:0:0:
320,192,66785,1,0,0:0:0:60:K.wav
448,192,66785,128,0,66871:0:0:0:70:clap.wav
64,192,66871,128,0,66957:0:0:0:60:K.wav
192,192,66871,1,0,0:0:0:0:
320,192,66957,1,0,0:0:0:60:K.wav
448,192,66957,128,0,67042:0:0:0:0:
64,192,67042,128,0,67128:0:0:0:60:K.wav
192,192,67042,1,0,0:0:0:0:
320,192,67128,1,0,0:0:0:60:S2.wav
448,192,67128,1,0,0:0:0:0:
64,192,67214,1,0,0:0:0:60:S2.wav
192,192,67300,1,0,0:0:0:60:S2.wav
320,192,67300,1,0,0:0:0:0:
192,192,67385,1,0,0:0:0:60:S2.wav
320,192,67385,1,0,0:0:0:0:
64,192,67471,128,0,67557:0:0:0:60:S2.wav
448,192,67471,128,0,67814:0:0:0:0:
192,192,67557,128,0,67642:0:0:0:60:S2.wav
320,192,67642,128,0,67728:0:0:0:60:S2.wav
64,192,67728,128,0,67814:0:0:0:60:S2.wav
192,192,67814,128,0,67985:0:0:0:60:S2.wav
320,192,67814,128,0,68071:0:0:0:0:
448,192,67900,128,0,68071:0:0:0:60:S2.wav
64,192,67985,128,0,68414:0:0:0:60:S2.wav
192,192,68071,128,0,68414:0:0:0:60:S2.wav
320,192,68157,128,0,68414:0:0:0:70:S.wav
448,192,68157,128,0,68414:0:0:0:0:
64,192,68500,128,0,68757:0:0:0:70:K.wav
192,192,68500,128,0,68757:0:0:0:100:C.wav
320,192,68500,128,0,68757:0:0:0:100:BassKickReverbXD.wav
448,192,68500,128,0,68757:0:0:0:0:
64,192,68842,1,0,0:0:0:70:S.wav
320,192,68842,1,0,0:0:0:0:
448,192,68842,1,0,0:0:0:0:
192,192,68928,128,0,69014:0:0:0:0:
320,192,69014,128,0,69100:0:0:0:0:
448,192,69100,128,0,69185:0:0:0:0:
64,192,69185,1,0,0:0:0:70:K.wav
192,192,69185,1,0,0:0:0:0:
320,192,69271,128,0,69357:0:0:0:0:
448,192,69357,128,0,69442:0:0:0:0:
192,192,69442,128,0,69528:0:0:0:0:
64,192,69528,1,0,0:0:0:70:S.wav
320,192,69528,1,0,0:0:0:0:
448,192,69528,1,0,0:0:0:0:
192,192,69614,128,0,69700:0:0:0:0:
320,192,69700,128,0,69785:0:0:0:0:
64,192,69785,128,0,69871:0:0:0:0:
320,192,69871,1,0,0:0:0:70:K.wav
448,192,69871,1,0,0:0:0:0:
192,192,69957,128,0,70042:0:0:0:0:
320,192,70042,128,0,70128:0:0:0:0:
64,192,70128,128,0,70214:0:0:0:0:
192,192,70214,1,0,0:0:0:70:S.wav
320,192,70214,1,0,0:0:0:0:
448,192,70214,1,0,0:0:0:0:
64,192,70300,128,0,70385:0:0:0:0:
448,192,70385,128,0,70471:0:0:0:0:
320,192,70471,128,0,70557:0:0:0:0:
64,192,70557,1,0,0:0:0:70:K.wav
192,192,70557,1,0,0:0:0:0:
320,192,70642,128,0,70728:0:0:0:0:
192,192,70728,128,0,70814:0:0:0:0:
64,192,70814,128,0,70900:0:0:0:0:
192,192,70900,128,0,70985:0:0:0:70:S.wav
320,192,70900,128,0,71157:0:0:0:0:
448,192,70900,128,0,71071:0:0:0:0:
64,192,70985,128,0,71157:0:0:0:0:
192,192,71071,128,0,71157:0:0:0:0:
448,192,71157,128,0,71328:0:0:0:0:
64,192,71242,128,0,71500:0:0:0:70:K.wav
192,192,71242,128,0,71500:0:0:0:0:
320,192,71242,128,0,71500:0:0:0:0:
448,192,71414,128,0,71500:0:0:0:0:
64,192,71585,1,0,0:0:0:70:S.wav
192,192,71585,1,0,0:0:0:0:
320,192,71585,1,0,0:0:0:0:
448,192,71671,128,0,71757:0:0:0:0:
192,192,71757,128,0,71842:0:0:0:0:
320,192,71842,128,0,71928:0:0:0:0:
64,192,71928,1,0,0:0:0:70:K.wav
448,192,71928,1,0,0:0:0:0:
192,192,72014,128,0,72100:0:0:0:0:
320,192,72100,128,0,72185:0:0:0:0:
448,192,72185,128,0,72271:0:0:0:0:
64,192,72271,1,0,0:0:0:70:S.wav
192,192,72271,1,0,0:0:0:0:
320,192,72271,1,0,0:0:0:0:
448,192,72357,128,0,72442:0:0:0:0:
64,192,72442,128,0,72528:0:0:0:0:
192,192,72528,128,0,72614:0:0:0:0:
320,192,72614,1,0,0:0:0:70:K.wav
448,192,72614,1,0,0:0:0:0:
64,192,72700,128,0,72785:0:0:0:0:
320,192,72785,128,0,72871:0:0:0:0:
192,192,72871,128,0,72957:0:0:0:0:
64,192,72957,1,0,0:0:0:70:S.wav
320,192,72957,1,0,0:0:0:0:
448,192,72957,1,0,0:0:0:0:
192,192,73042,128,0,73128:0:0:0:0:
448,192,73128,128,0,73214:0:0:0:0:
320,192,73214,128,0,73300:0:0:0:0:
64,192,73300,1,0,0:0:0:70:K.wav
192,192,73300,1,0,0:0:0:0:
448,192,73385,128,0,73471:0:0:0:0:
320,192,73471,128,0,73557:0:0:0:0:
64,192,73557,128,0,73642:0:0:0:0:
192,192,73642,128,0,73814:0:0:0:70:S.wav
320,192,73642,128,0,73900:0:0:0:0:
448,192,73642,128,0,73728:0:0:0:0:
64,192,73728,128,0,73900:0:0:0:0:
448,192,73814,128,0,73900:0:0:0:0:
192,192,73900,128,0,74242:0:0:0:0:
64,192,73985,128,0,74242:0:0:0:70:K.wav
320,192,73985,128,0,74242:0:0:0:100:C.wav
448,192,73985,128,0,74242:0:0:0:0:
64,192,74328,1,0,0:0:0:70:S.wav
192,192,74328,1,0,0:0:0:0:
448,192,74328,1,0,0:0:0:0:
320,192,74414,128,0,74500:0:0:0:0:
192,192,74500,128,0,74585:0:0:0:0:
448,192,74585,128,0,74671:0:0:0:0:
64,192,74671,1,0,0:0:0:70:K.wav
320,192,74671,1,0,0:0:0:0:
192,192,74757,128,0,74842:0:0:0:0:
448,192,74842,128,0,74928:0:0:0:0:
64,192,74928,128,0,75014:0:0:0:0:
192,192,75014,1,0,0:0:0:70:S.wav
320,192,75014,1,0,0:0:0:0:
448,192,75014,1,0,0:0:0:0:
64,192,75100,128,0,75185:0:0:0:0:
320,192,75185,128,0,75271:0:0:0:0:
192,192,75271,128,0,75357:0:0:0:0:
64,192,75357,1,0,0:0:0:70:K.wav
448,192,75357,1,0,0:0:0:0:
320,192,75442,128,0,75528:0:0:0:0:
192,192,75528,128,0,75614:0:0:0:0:
448,192,75614,128,0,75700:0:0:0:0:
64,192,75700,1,0,0:0:0:70:S.wav
192,192,75700,1,0,0:0:0:0:
320,192,75700,1,0,0:0:0:0:
448,192,75785,128,0,75871:0:0:0:0:
64,192,75871,128,0,75957:0:0:0:0:
320,192,75957,128,0,76042:0:0:0:0:
192,192,76042,1,0,0:0:0:70:K.wav
448,192,76042,1,0,0:0:0:0:
64,192,76128,128,0,76214:0:0:0:0:
320,192,76214,128,0,76300:0:0:0:0:
192,192,76300,128,0,76385:0:0:0:0:
64,192,76385,128,0,76557:0:0:0:70:S.wav
320,192,76385,128,0,76642:0:0:0:0:
448,192,76385,128,0,76471:0:0:0:0:
192,192,76471,128,0,76642:0:0:0:0:
448,192,76557,128,0,76642:0:0:0:0:
64,192,76642,128,0,76814:0:0:0:0:
192,192,76728,128,0,76985:0:0:0:70:K.wav
320,192,76728,128,0,76985:0:0:0:0:
448,192,76728,128,0,76985:0:0:0:0:
64,192,76900,128,0,76985:0:0:0:0:
64,192,77071,1,0,0:0:0:70:S.wav
192,192,77071,1,0,0:0:0:0:
448,192,77071,1,0,0:0:0:0:
320,192,77157,128,0,77242:0:0:0:0:
192,192,77242,128,0,77328:0:0:0:0:
448,192,77328,128,0,77414:0:0:0:0:
64,192,77414,1,0,0:0:0:70:K.wav
320,192,77414,1,0,0:0:0:0:
192,192,77500,128,0,77585:0:0:0:0:
448,192,77585,128,0,77671:0:0:0:0:
320,192,77671,128,0,77757:0:0:0:0:
64,192,77757,1,0,0:0:0:70:S.wav
192,192,77757,1,0,0:0:0:0:
448,192,77757,1,0,0:0:0:0:
320,192,77842,128,0,77928:0:0:0:0:
192,192,77928,128,0,78014:0:0:0:0:
64,192,78014,128,0,78100:0:0:0:0:
320,192,78100,128,0,78185:0:0:0:70:K.wav
448,192,78100,128,0,78528:0:0:0:0:
64,192,78271,128,0,78357:0:0:0:0:
320,192,78271,128,0,78357:0:0:0:0:
64,192,78442,128,0,78871:0:0:0:70:S.wav
192,192,78442,128,0,78528:0:0:0:0:
320,192,78442,128,0,78528:0:0:0:0:
192,192,78614,128,0,78700:0:0:0:0:
448,192,78614,128,0,78700:0:0:0:0:
320,192,78785,128,0,79214:0:0:0:70:K.wav
448,192,78785,128,0,78871:0:0:0:0:
64,192,78957,128,0,79042:0:0:0:0:
192,192,78957,128,0,79042:0:0:0:0:
64,192,79128,128,0,79214:0:0:0:70:S.wav
192,192,79128,128,0,79385:0:0:0:0:
448,192,79128,128,0,79214:0:0:0:0:
320,192,79300,128,0,79385:0:0:0:0:
448,192,79300,128,0,79385:0:0:0:0:
64,192,79471,128,0,79728:0:0:0:70:K.wav
192,192,79471,128,0,79728:0:0:0:100:C.wav
320,192,79471,128,0,79728:0:0:0:0:
448,192,79471,128,0,79728:0:0:0:0:
192,192,79814,1,0,0:0:0:70:S.wav
320,192,79814,1,0,0:0:0:0:
448,192,79814,1,0,0:0:0:0:
64,192,79900,128,0,79985:0:0:0:0:
320,192,79985,128,0,80071:0:0:0:0:
192,192,80071,128,0,80157:0:0:0:0:
64,192,80157,1,0,0:0:0:70:K.wav
448,192,80157,128,0,80242:0:0:0:0:
320,192,80242,128,0,80328:0:0:0:0:
192,192,80328,128,0,80414:0:0:0:0:
448,192,80414,128,0,80500:0:0:0:0:
64,192,80500,1,0,0:0:0:70:S.wav
192,192,80500,1,0,0:0:0:0:
320,192,80500,1,0,0:0:0:0:
448,192,80585,128,0,80671:0:0:0:0:
64,192,80671,128,0,80757:0:0:0:0:
320,192,80757,128,0,80842:0:0:0:0:
192,192,80842,1,0,0:0:0:70:K.wav
448,192,80842,1,0,0:0:0:0:
64,192,80928,128,0,81014:0:0:0:0:
320,192,81014,128,0,81100:0:0:0:0:
192,192,81100,128,0,81185:0:0:0:0:
64,192,81185,128,0,81271:0:0:0:70:S.wav
320,192,81185,1,0,0:0:0:0:
448,192,81185,1,0,0:0:0:0:
192,192,81271,128,0,81357:0:0:0:0:
448,192,81357,128,0,81442:0:0:0:0:
64,192,81442,128,0,81528:0:0:0:0:
192,192,81528,1,0,0:0:0:70:K.wav
320,192,81528,128,0,81614:0:0:0:0:
448,192,81614,128,0,81700:0:0:0:0:
64,192,81700,128,0,81785:0:0:0:0:
192,192,81785,128,0,81871:0:0:0:0:
64,192,81871,128,0,82128:0:0:0:70:S.wav
320,192,81871,128,0,81957:0:0:0:0:
448,192,81871,128,0,82042:0:0:0:0:
192,192,81957,128,0,82128:0:0:0:0:
320,192,82042,128,0,82128:0:0:0:0:
448,192,82128,128,0,82300:0:0:0:0:
64,192,82214,128,0,82471:0:0:0:70:K.wav
192,192,82214,128,0,82471:0:0:0:0:
320,192,82214,128,0,82471:0:0:0:0:
448,192,82385,128,0,82471:0:0:0:0:
192,192,82557,1,0,0:0:0:70:S.wav
320,192,82557,1,0,0:0:0:0:
448,192,82557,128,0,82642:0:0:0:0:
64,192,82642,128,0,82728:0:0:0:0:
320,192,82728,128,0,82814:0:0:0:0:
192,192,82814,128,0,82900:0:0:0:0:
64,192,82900,128,0,82985:0:0:0:70:K.wav
448,192,82900,1,0,0:0:0:0:
320,192,82985,128,0,83071:0:0:0:0:
192,192,83071,128,0,83157:0:0:0:0:
448,192,83157,128,0,83242:0:0:0:0:
64,192,83242,1,0,0:0:0:70:S.wav
192,192,83242,1,0,0:0:0:0:
320,192,83242,1,0,0:0:0:0:
448,192,83328,128,0,83414:0:0:0:0:
64,192,83414,128,0,83500:0:0:0:0:
192,192,83500,128,0,83585:0:0:0:0:
320,192,83585,1,0,0:0:0:70:K.wav
448,192,83585,1,0,0:0:0:0:
192,192,83671,128,0,83757:0:0:0:0:
64,192,83757,128,0,83842:0:0:0:0:
320,192,83842,128,0,83928:0:0:0:0:
64,192,83928,1,0,0:0:0:70:S.wav
192,192,83928,1,0,0:0:0:0:
448,192,83928,1,0,0:0:0:0:
320,192,84014,128,0,84100:0:0:0:0:
192,192,84100,128,0,84185:0:0:0:0:
448,192,84185,128,0,84271:0:0:0:0:
64,192,84271,128,0,84357:0:0:0:70:K.wav
320,192,84271,1,0,0:0:0:0:
192,192,84357,128,0,84442:0:0:0:0:
448,192,84442,128,0,84528:0:0:0:0:
64,192,84528,128,0,84614:0:0:0:0:
192,192,84614,128,0,84785:0:0:0:70:S.wav
320,192,84614,128,0,84700:0:0:0:0:
448,192,84614,128,0,84871:0:0:0:0:
64,192,84700,128,0,84871:0:0:0:0:
320,192,84785,128,0,84871:0:0:0:0:
192,192,84871,128,0,84957:0:0:0:0:
64,192,84957,128,0,85214:0:0:0:70:K.wav
320,192,84957,128,0,85214:0:0:0:100:C.wav
448,192,84957,128,0,85214:0:0:0:0:
192,192,85214,128,0,85300:0:0:0:0:
64,192,85300,1,0,0:0:0:70:S.wav
320,192,85300,1,0,0:0:0:0:
448,192,85300,1,0,0:0:0:0:
320,192,85414,1,0,0:0:0:0:
192,192,85528,1,0,0:0:0:0:
64,192,85642,1,0,0:0:0:70:K.wav
192,192,85642,1,0,0:0:0:0:
320,192,85757,1,0,0:0:0:0:
448,192,85871,1,0,0:0:0:0:
64,192,85985,1,0,0:0:0:70:S.wav
192,192,85985,1,0,0:0:0:0:
448,192,85985,1,0,0:0:0:0:
192,192,86100,1,0,0:0:0:0:
320,192,86214,1,0,0:0:0:0:
64,192,86328,1,0,0:0:0:70:K.wav
320,192,86328,1,0,0:0:0:0:
192,192,86442,1,0,0:0:0:0:
64,192,86557,1,0,0:0:0:0:
64,192,86671,1,0,0:0:0:70:S.wav
320,192,86671,1,0,0:0:0:0:
448,192,86671,1,0,0:0:0:0:
192,192,86785,1,0,0:0:0:0:
320,192,86900,1,0,0:0:0:0:
64,192,87014,1,0,0:0:0:70:K.wav
320,192,87014,1,0,0:0:0:0:
448,192,87128,1,0,0:0:0:0:
192,192,87242,1,0,0:0:0:0:
192,192,87357,1,0,0:0:0:70:S.wav
320,192,87357,1,0,0:0:0:0:
448,192,87357,1,0,0:0:0:0:
448,192,87471,1,0,0:0:0:0:
64,192,87585,1,0,0:0:0:0:
64,192,87700,128,0,87957:0:0:0:70:K.wav
320,192,87700,128,0,87957:0:0:0:70:C.wav
448,192,87700,128,0,87957:0:0:0:0:
192,192,87871,128,0,87957:0:0:0:0:
64,192,88042,1,0,0:0:0:70:S.wav
320,192,88042,1,0,0:0:0:70:C.wav
448,192,88042,1,0,0:0:0:0:
192,192,88128,128,0,88214:0:0:0:0:
320,192,88214,128,0,88300:0:0:0:0:
448,192,88300,128,0,88385:0:0:0:0:
64,192,88385,1,0,0:0:0:70:K.wav
192,192,88385,1,0,0:0:0:70:C.wav
320,192,88385,1,0,0:0:0:0:
448,192,88471,128,0,88557:0:0:0:0:
192,192,88557,128,0,88642:0:0:0:0:
320,192,88642,128,0,88728:0:0:0:0:
64,192,88728,1,0,0:0:0:70:S.wav
192,192,88728,1,0,0:0:0:70:C.wav
448,192,88728,1,0,0:0:0:0:
320,192,88814,128,0,88900:0:0:0:0:
192,192,88900,128,0,88985:0:0:0:0:
64,192,88985,128,0,89071:0:0:0:0:
192,192,89071,1,0,0:0:0:70:K.wav
320,192,89071,1,0,0:0:0:70:C.wav
448,192,89071,128,0,89414:0:0:0:0:
320,192,89242,1,0,0:0:0:0:
192,192,89328,1,0,0:0:0:0:
64,192,89414,1,0,0:0:0:0:
320,192,89414,128,0,89757:0:0:0:0:
448,192,89500,1,0,0:0:0:0:
192,192,89585,1,0,0:0:0:0:
64,192,89671,1,0,0:0:0:0:
192,192,89757,128,0,90100:0:0:0:0:
448,192,89757,1,0,0:0:0:0:
320,192,89842,1,0,0:0:0:0:
64,192,89928,1,0,0:0:0:0:
448,192,90014,1,0,0:0:0:0:
64,192,90100,128,0,90357:0:0:0:80:S2.wav
320,192,90100,1,0,0:0:0:0:
192,192,90185,1,0,0:0:0:0:
448,192,90271,1,0,0:0:0:70:K.wav
320,192,90357,1,0,0:0:0:0:
192,192,90442,128,0,90528:0:0:0:70:K.wav
448,192,90442,128,0,90528:0:0:0:100:BassKickReverbXD.wav
64,192,90442,128,0,90528:0:0:0:0:
320,192,90528,1,0,0:0:0:0:
64,192,90614,1,0,0:0:0:0:
192,192,90700,1,0,0:0:0:0:
64,192,90785,1,0,0:0:0:70:S.wav
320,192,90785,1,0,0:0:0:0:
448,192,90785,1,0,0:0:0:0:
192,192,90871,1,0,0:0:0:0:
448,192,90957,1,0,0:0:0:0:
320,192,91042,1,0,0:0:0:0:
64,192,91128,128,0,91471:0:0:0:70:K.wav
192,192,91128,1,0,0:0:0:0:
448,192,91214,1,0,0:0:0:0:
320,192,91300,1,0,0:0:0:0:
192,192,91385,1,0,0:0:0:0:
320,192,91471,128,0,91642:0:0:0:70:S.wav
448,192,91471,1,0,0:0:0:0:
192,192,91557,1,0,0:0:0:0:
64,192,91642,1,0,0:0:0:0:
448,192,91642,128,0,92157:0:0:0:0:
320,192,91728,1,0,0:0:0:0:
64,192,91814,1,0,0:0:0:70:K.wav
192,192,91814,1,0,0:0:0:0:
320,192,91900,1,0,0:0:0:0:
192,192,91985,1,0,0:0:0:0:
64,192,92071,1,0,0:0:0:0:
192,192,92157,128,0,92500:0:0:0:70:S.wav
320,192,92157,1,0,0:0:0:0:
448,192,92242,1,0,0:0:0:0:
64,192,92328,1,0,0:0:0:0:
320,192,92414,1,0,0:0:0:0:
64,192,92500,1,0,0:0:0:70:K.wav
448,192,92500,1,0,0:0:0:0:
192,192,92585,1,0,0:0:0:0:
320,192,92671,1,0,0:0:0:0:
64,192,92757,1,0,0:0:0:0:
192,192,92842,1,0,0:0:0:70:S.wav
320,192,92842,1,0,0:0:0:0:
448,192,92842,1,0,0:0:0:0:
64,192,92928,1,0,0:0:0:0:
192,192,93014,1,0,0:0:0:0:
448,192,93100,1,0,0:0:0:0:
64,192,93185,1,0,0:0:0:70:K.wav
320,192,93185,1,0,0:0:0:0:
192,192,93271,1,0,0:0:0:0:
448,192,93357,1,0,0:0:0:0:
64,192,93442,1,0,0:0:0:0:
192,192,93528,1,0,0:0:0:70:S.wav
320,192,93528,1,0,0:0:0:0:
448,192,93528,1,0,0:0:0:0:
64,192,93614,1,0,0:0:0:0:
320,192,93700,1,0,0:0:0:0:
192,192,93785,1,0,0:0:0:0:
64,192,93871,1,0,0:0:0:70:K.wav
448,192,93871,1,0,0:0:0:0:
320,192,93957,1,0,0:0:0:0:
192,192,94042,1,0,0:0:0:0:
448,192,94128,1,0,0:0:0:0:
64,192,94214,1,0,0:0:0:70:S.wav
192,192,94214,1,0,0:0:0:0:
320,192,94214,1,0,0:0:0:0:
448,192,94300,1,0,0:0:0:0:
64,192,94385,1,0,0:0:0:0:
192,192,94385,1,0,0:0:0:0:
320,192,94471,1,0,0:0:0:0:
64,192,94557,1,0,0:0:0:70:K.wav
448,192,94557,1,0,0:0:0:0:
192,192,94642,1,0,0:0:0:0:
320,192,94728,1,0,0:0:0:0:
448,192,94814,1,0,0:0:0:0:
64,192,94900,1,0,0:0:0:70:S.wav
192,192,94900,1,0,0:0:0:0:
320,192,94900,1,0,0:0:0:0:
448,192,94985,1,0,0:0:0:0:
192,192,95071,1,0,0:0:0:0:
64,192,95157,1,0,0:0:0:0:
320,192,95242,1,0,0:0:0:70:K.wav
448,192,95242,1,0,0:0:0:0:
192,192,95328,1,0,0:0:0:0:
64,192,95414,1,0,0:0:0:0:
320,192,95500,1,0,0:0:0:0:
64,192,95585,1,0,0:0:0:70:S.wav
192,192,95585,1,0,0:0:0:0:
448,192,95585,1,0,0:0:0:0:
320,192,95671,1,0,0:0:0:0:
192,192,95757,1,0,0:0:0:0:
448,192,95842,1,0,0:0:0:0:
64,192,95928,1,0,0:0:0:70:K.wav
320,192,95928,1,0,0:0:0:0:
192,192,96014,1,0,0:0:0:0:
320,192,96100,1,0,0:0:0:0:
64,192,96185,1,0,0:0:0:0:
192,192,96271,1,0,0:0:0:70:S.wav
320,192,96271,1,0,0:0:0:0:
448,192,96271,1,0,0:0:0:0:
64,192,96357,1,0,0:0:0:0:
448,192,96442,1,0,0:0:0:0:
192,192,96528,1,0,0:0:0:0:
64,192,96614,1,0,0:0:0:70:K.wav
320,192,96614,1,0,0:0:0:0:
448,192,96700,1,0,0:0:0:0:
192,192,96785,1,0,0:0:0:0:
320,192,96871,1,0,0:0:0:0:
64,192,96957,1,0,0:0:0:70:S.wav
192,192,96957,1,0,0:0:0:0:
448,192,96957,1,0,0:0:0:0:
320,192,97042,1,0,0:0:0:0:
64,192,97128,1,0,0:0:0:0:
448,192,97214,1,0,0:0:0:0:
192,192,97300,1,0,0:0:0:70:K.wav
320,192,97300,1,0,0:0:0:0:
64,192,97385,1,0,0:0:0:0:
448,192,97471,1,0,0:0:0:0:
192,192,97557,1,0,0:0:0:0:
64,192,97642,1,0,0:0:0:70:S.wav
320,192,97642,1,0,0:0:0:0:
448,192,97642,1,0,0:0:0:0:
192,192,97728,1,0,0:0:0:0:
320,192,97814,1,0,0:0:0:0:
64,192,97900,1,0,0:0:0:0:
192,192,97985,1,0,0:0:0:70:K.wav
448,192,97985,1,0,0:0:0:0:
320,192,98071,1,0,0:0:0:0:
64,192,98157,1,0,0:0:0:0:
448,192,98242,1,0,0:0:0:0:
64,192,98328,1,0,0:0:0:70:S.wav
192,192,98328,1,0,0:0:0:0:
320,192,98328,1,0,0:0:0:0:
448,192,98414,1,0,0:0:0:0:
192,192,98500,1,0,0:0:0:0:
320,192,98585,1,0,0:0:0:0:
64,192,98671,1,0,0:0:0:70:K.wav
448,192,98671,1,0,0:0:0:0:
192,192,98757,1,0,0:0:0:0:
320,192,98842,1,0,0:0:0:0:
64,192,98928,1,0,0:0:0:0:
192,192,99014,1,0,0:0:0:70:S.wav
320,192,99014,1,0,0:0:0:0:
448,192,99014,1,0,0:0:0:0:
64,192,99100,1,0,0:0:0:0:
448,192,99185,1,0,0:0:0:0:
192,192,99271,1,0,0:0:0:0:
64,192,99357,1,0,0:0:0:70:K.wav
320,192,99357,1,0,0:0:0:0:
448,192,99442,1,0,0:0:0:0:
192,192,99528,1,0,0:0:0:0:
320,192,99614,1,0,0:0:0:0:
64,192,99700,1,0,0:0:0:70:S.wav
192,192,99700,1,0,0:0:0:0:
448,192,99700,1,0,0:0:0:0:
320,192,99785,1,0,0:0:0:0:
64,192,99871,1,0,0:0:0:0:
192,192,99871,1,0,0:0:0:0:
448,192,99957,1,0,0:0:0:0:
64,192,100042,1,0,0:0:0:70:K.wav
192,192,100042,1,0,0:0:0:0:
320,192,100128,1,0,0:0:0:0:
448,192,100214,1,0,0:0:0:0:
64,192,100300,1,0,0:0:0:0:
192,192,100385,1,0,0:0:0:70:S.wav
320,192,100385,1,0,0:0:0:0:
448,192,100385,1,0,0:0:0:0:
64,192,100471,1,0,0:0:0:0:
320,192,100557,1,0,0:0:0:0:
192,192,100642,1,0,0:0:0:0:
64,192,100728,1,0,0:0:0:70:K.wav
448,192,100728,1,0,0:0:0:0:
320,192,100814,1,0,0:0:0:0:
64,192,100900,1,0,0:0:0:0:
192,192,100900,1,0,0:0:0:0:
320,192,100985,1,0,0:0:0:0:
64,192,101071,1,0,0:0:0:70:S.wav
192,192,101071,1,0,0:0:0:0:
448,192,101071,1,0,0:0:0:0:
320,192,101157,1,0,0:0:0:0:
448,192,101242,1,0,0:0:0:0:
192,192,101328,1,0,0:0:0:0:
64,192,101414,128,0,101671:0:0:0:70:K.wav
320,192,101414,128,0,101671:0:0:0:100:C.wav
448,192,101414,128,0,101671:0:0:0:0:
64,192,101757,1,0,0:0:0:70:S.wav
320,192,101757,1,0,0:0:0:0:
448,192,101757,1,0,0:0:0:0:
192,192,101842,1,0,0:0:0:0:
320,192,101928,1,0,0:0:0:0:
448,192,102014,1,0,0:0:0:0:
64,192,102100,128,0,102442:0:0:0:70:K.wav
192,192,102100,1,0,0:0:0:0:
448,192,102185,1,0,0:0:0:0:
320,192,102271,1,0,0:0:0:0:
192,192,102357,1,0,0:0:0:0:
320,192,102442,128,0,102614:0:0:0:70:S.wav
448,192,102442,1,0,0:0:0:0:
64,192,102528,1,0,0:0:0:0:
192,192,102614,128,0,103128:0:0:0:0:
320,192,102700,1,0,0:0:0:0:
64,192,102785,1,0,0:0:0:70:K.wav
448,192,102785,1,0,0:0:0:0:
320,192,102871,1,0,0:0:0:0:
448,192,102957,1,0,0:0:0:0:
64,192,103042,1,0,0:0:0:0:
320,192,103128,1,0,0:0:0:70:S.wav
448,192,103128,128,0,103471:0:0:0:0:
192,192,103214,1,0,0:0:0:0:
64,192,103300,1,0,0:0:0:0:
320,192,103385,1,0,0:0:0:0:
64,192,103471,1,0,0:0:0:70:K.wav
192,192,103471,1,0,0:0:0:0:
448,192,103557,1,0,0:0:0:0:
192,192,103642,1,0,0:0:0:0:
320,192,103728,1,0,0:0:0:0:
64,192,103814,1,0,0:0:0:70:S.wav
192,192,103814,1,0,0:0:0:0:
448,192,103814,1,0,0:0:0:0:
320,192,103900,1,0,0:0:0:0:
64,192,103985,1,0,0:0:0:0:
448,192,104071,1,0,0:0:0:0:
64,192,104157,1,0,0:0:0:70:K.wav
320,192,104157,1,0,0:0:0:0:
192,192,104242,1,0,0:0:0:0:
320,192,104328,1,0,0:0:0:0:
448,192,104414,1,0,0:0:0:0:
64,192,104500,1,0,0:0:0:70:S.wav
192,192,104500,1,0,0:0:0:0:
320,192,104500,1,0,0:0:0:0:
448,192,104585,1,0,0:0:0:0:
64,192,104671,1,0,0:0:0:0:
192,192,104671,1,0,0:0:0:0:
320,192,104757,1,0,0:0:0:0:
192,192,104842,1,0,0:0:0:70:K.wav
448,192,104842,1,0,0:0:0:0:
64,192,104928,1,0,0:0:0:0:
320,192,105014,1,0,0:0:0:0:
448,192,105014,1,0,0:0:0:0:
192,192,105100,1,0,0:0:0:0:
64,192,105185,1,0,0:0:0:70:S.wav
320,192,105185,1,0,0:0:0:0:
448,192,105185,1,0,0:0:0:0:
192,192,105271,1,0,0:0:0:0:
320,192,105357,1,0,0:0:0:0:
448,192,105357,1,0,0:0:0:0:
64,192,105442,1,0,0:0:0:0:
192,192,105528,1,0,0:0:0:70:K.wav
320,192,105528,1,0,0:0:0:0:
448,192,105614,1,0,0:0:0:0:
64,192,105700,1,0,0:0:0:0:
192,192,105785,1,0,0:0:0:0:
64,192,105871,1,0,0:0:0:70:S.wav
320,192,105871,1,0,0:0:0:0:
448,192,105871,1,0,0:0:0:0:
192,192,105957,1,0,0:0:0:0:
320,192,106042,1,0,0:0:0:0:
448,192,106128,1,0,0:0:0:0:
64,192,106214,1,0,0:0:0:70:K.wav
192,192,106214,1,0,0:0:0:0:
320,192,106300,1,0,0:0:0:0:
64,192,106385,1,0,0:0:0:0:
448,192,106471,1,0,0:0:0:0:
64,192,106557,1,0,0:0:0:70:S.wav
192,192,106557,1,0,0:0:0:0:
320,192,106557,1,0,0:0:0:0:
448,192,106642,1,0,0:0:0:0:
192,192,106728,1,0,0:0:0:0:
320,192,106814,1,0,0:0:0:0:
64,192,106900,1,0,0:0:0:70:K.wav
448,192,106900,1,0,0:0:0:0:
192,192,106985,1,0,0:0:0:0:
320,192,107071,1,0,0:0:0:0:
448,192,107157,1,0,0:0:0:0:
64,192,107242,1,0,0:0:0:70:S.wav
192,192,107242,1,0,0:0:0:0:
320,192,107242,1,0,0:0:0:0:
448,192,107328,1,0,0:0:0:0:
192,192,107414,1,0,0:0:0:0:
320,192,107500,1,0,0:0:0:0:
64,192,107585,1,0,0:0:0:70:K.wav
448,192,107585,1,0,0:0:0:0:
192,192,107671,1,0,0:0:0:0:
320,192,107757,1,0,0:0:0:0:
192,192,107842,1,0,0:0:0:0:
64,192,107928,1,0,0:0:0:70:S.wav
320,192,107928,1,0,0:0:0:0:
448,192,107928,1,0,0:0:0:0:
192,192,108014,1,0,0:0:0:0:
448,192,108100,1,0,0:0:0:0:
320,192,108185,1,0,0:0:0:0:
64,192,108271,1,0,0:0:0:70:K.wav
192,192,108271,1,0,0:0:0:0:
448,192,108357,1,0,0:0:0:0:
320,192,108442,1,0,0:0:0:0:
192,192,108528,1,0,0:0:0:0:
64,192,108614,1,0,0:0:0:70:S.wav
320,192,108614,1,0,0:0:0:0:
448,192,108614,1,0,0:0:0:0:
192,192,108700,1,0,0:0:0:0:
448,192,108785,1,0,0:0:0:0:
64,192,108871,1,0,0:0:0:0:
192,192,108957,1,0,0:0:0:70:K.wav
320,192,108957,1,0,0:0:0:0:
448,192,109042,1,0,0:0:0:0:
64,192,109128,1,0,0:0:0:0:
320,192,109214,1,0,0:0:0:0:
64,192,109300,1,0,0:0:0:70:S.wav
192,192,109300,1,0,0:0:0:0:
448,192,109300,1,0,0:0:0:0:
320,192,109385,1,0,0:0:0:0:
192,192,109471,1,0,0:0:0:0:
448,192,109557,1,0,0:0:0:0:
64,192,109642,1,0,0:0:0:70:K.wav
320,192,109642,1,0,0:0:0:0:
192,192,109728,1,0,0:0:0:0:
448,192,109814,1,0,0:0:0:0:
320,192,109900,1,0,0:0:0:0:
64,192,109985,1,0,0:0:0:70:S.wav
192,192,109985,1,0,0:0:0:0:
448,192,109985,1,0,0:0:0:0:
320,192,110071,1,0,0:0:0:0:
64,192,110157,1,0,0:0:0:0:
192,192,110242,1,0,0:0:0:0:
320,192,110328,1,0,0:0:0:70:K.wav
448,192,110328,1,0,0:0:0:0:
192,192,110414,1,0,0:0:0:0:
64,192,110500,1,0,0:0:0:0:
448,192,110500,1,0,0:0:0:0:
320,192,110585,1,0,0:0:0:0:
64,192,110671,1,0,0:0:0:70:S.wav
192,192,110671,1,0,0:0:0:0:
448,192,110671,1,0,0:0:0:0:
320,192,110757,1,0,0:0:0:0:
64,192,110842,1,0,0:0:0:0:
192,192,110842,1,0,0:0:0:0:
448,192,110928,1,0,0:0:0:0:
64,192,111014,1,0,0:0:0:70:K.wav
320,192,111014,1,0,0:0:0:60:S2.wav
192,192,111100,1,0,0:0:0:60:S2.wav
320,192,111185,1,0,0:0:0:60:S2.wav
448,192,111185,1,0,0:0:0:0:
64,192,111271,1,0,0:0:0:60:S2.wav
192,192,111357,1,0,0:0:0:60:S2.wav
320,192,111357,1,0,0:0:0:0:
448,192,111442,1,0,0:0:0:60:S2.wav
64,192,111528,1,0,0:0:0:60:S2.wav
192,192,111614,1,0,0:0:0:60:S2.wav
320,192,111700,1,0,0:0:0:60:S2.wav
448,192,111700,1,0,0:0:0:0:
64,192,111785,1,0,0:0:0:60:S2.wav
192,192,111871,1,0,0:0:0:60:S2.wav
320,192,111957,1,0,0:0:0:60:S2.wav
64,192,112042,128,0,112300:0:0:0:70:S.wav
192,192,112042,128,0,112300:0:0:0:0:
448,192,112042,128,0,112300:0:0:0:0:
64,192,112385,128,0,113071:0:0:0:70:K.wav
192,192,112385,1,0,0:0:0:70:clap.wav
320,192,112385,1,0,0:0:0:100:BassKickReverbXD.wav
448,192,112385,1,0,0:0:0:0:
448,192,112728,1,0,0:0:0:70:clap.wav
192,192,113071,128,0,113757:0:0:0:70:clap.wav
320,192,113071,1,0,0:0:0:0:
448,192,113071,1,0,0:0:0:0:
320,192,113414,1,0,0:0:0:70:clap.wav
448,192,113414,1,0,0:0:0:0:
64,192,113585,1,0,0:0:0:0:
320,192,113757,128,0,114442:0:0:0:70:clap.wav
448,192,113757,1,0,0:0:0:0:
192,192,114100,1,0,0:0:0:70:clap.wav
448,192,114100,1,0,0:0:0:0:
192,192,114442,128,0,115128:0:0:0:70:clap.wav
448,192,114442,1,0,0:0:0:0:
448,192,114785,1,0,0:0:0:70:clap.wav
64,192,115128,128,0,115814:0:0:0:70:clap.wav
448,192,115128,1,0,0:0:0:0:
448,192,115471,1,0,0:0:0:70:clap.wav
320,192,115814,128,0,116071:0:0:0:70:clap.wav
448,192,115814,1,0,0:0:0:0:
320,192,116157,128,0,116500:0:0:0:70:clap.wav
448,192,116157,1,0,0:0:0:0:
192,192,116500,128,0,117185:0:0:0:70:clap.wav
448,192,116500,1,0,0:0:0:0:
448,192,116842,1,0,0:0:0:70:clap.wav
64,192,117185,128,0,117871:0:0:0:70:clap.wav
448,192,117185,1,0,0:0:0:0:
320,192,117528,128,0,117871:0:0:0:70:clap.wav
448,192,117528,1,0,0:0:0:0:
192,192,117871,128,0,118214:0:0:0:40:K.wav
448,192,117871,1,0,0:0:0:70:clap.wav
320,192,117957,1,0,0:0:0:40:K.wav
64,192,118042,1,0,0:0:0:40:K.wav
448,192,118128,1,0,0:0:0:40:K.wav
64,192,118214,1,0,0:0:0:40:K.wav
320,192,118214,128,0,118557:0:0:0:70:clap.wav
192,192,118300,1,0,0:0:0:40:K.wav
448,192,118385,1,0,0:0:0:40:K.wav
64,192,118471,1,0,0:0:0:40:K.wav
192,192,118557,1,0,0:0:0:45:K.wav
448,192,118557,128,0,118900:0:0:0:70:clap.wav
320,192,118642,1,0,0:0:0:45:K.wav
64,192,118728,1,0,0:0:0:45:K.wav
192,192,118814,1,0,0:0:0:45:K.wav
64,192,118900,128,0,119242:0:0:0:45:K.wav
320,192,118900,1,0,0:0:0:70:clap.wav
448,192,118985,1,0,0:0:0:45:K.wav
320,192,119071,1,0,0:0:0:45:K.wav
192,192,119157,1,0,0:0:0:45:K.wav
320,192,119242,128,0,119585:0:0:0:50:K.wav
448,192,119242,1,0,0:0:0:70:clap.wav
64,192,119328,1,0,0:0:0:50:K.wav
192,192,119414,1,0,0:0:0:50:K.wav
64,192,119500,1,0,0:0:0:50:K.wav
192,192,119585,128,0,119928:0:0:0:50:K.wav
448,192,119585,1,0,0:0:0:70:clap.wav
320,192,119671,1,0,0:0:0:50:K.wav
64,192,119757,1,0,0:0:0:50:K.wav
448,192,119842,1,0,0:0:0:50:K.wav
64,192,119928,128,0,120271:0:0:0:55:K.wav
320,192,119928,1,0,0:0:0:70:clap.wav
192,192,120014,1,0,0:0:0:55:K.wav
448,192,120100,1,0,0:0:0:55:K.wav
320,192,120185,1,0,0:0:0:55:K.wav
192,192,120271,1,0,0:0:0:55:K.wav
448,192,120271,128,0,120614:0:0:0:70:clap.wav
64,192,120357,1,0,0:0:0:55:K.wav
320,192,120442,1,0,0:0:0:55:K.wav
192,192,120528,1,0,0:0:0:55:K.wav
64,192,120614,1,0,0:0:0:60:K.wav
320,192,120614,128,0,120957:0:0:0:70:clap.wav
448,192,120700,1,0,0:0:0:60:K.wav
192,192,120785,1,0,0:0:0:60:K.wav
64,192,120871,1,0,0:0:0:60:K.wav
192,192,120957,128,0,121300:0:0:0:60:K.wav
448,192,120957,1,0,0:0:0:70:clap.wav
320,192,121042,1,0,0:0:0:60:K.wav
64,192,121128,1,0,0:0:0:60:K.wav
448,192,121214,1,0,0:0:0:60:K.wav
64,192,121300,128,0,121471:0:0:0:60:K.wav
320,192,121300,1,0,0:0:0:70:clap.wav
192,192,121385,1,0,0:0:0:60:K.wav
320,192,121471,128,0,121642:0:0:0:60:K.wav
448,192,121557,1,0,0:0:0:60:K.wav
64,192,121642,128,0,121814:0:0:0:60:K.wav
192,192,121642,1,0,0:0:0:70:clap.wav
320,192,121728,1,0,0:0:0:60:K.wav
448,192,121814,128,0,121985:0:0:0:60:K.wav
192,192,121900,1,0,0:0:0:60:K.wav
64,192,121985,1,0,0:0:0:70:clap.wav
320,192,121985,1,0,0:0:0:0:
192,192,122071,1,0,0:0:0:0:
448,192,122071,1,0,0:0:0:0:
64,192,122157,1,0,0:0:0:0:
320,192,122157,1,0,0:0:0:0:
192,192,122328,1,0,0:0:0:70:clap.wav
320,192,122328,1,0,0:0:0:0:
64,192,122414,1,0,0:0:0:0:
448,192,122414,1,0,0:0:0:0:
320,192,122671,1,0,0:0:0:70:clap.wav
448,192,122671,1,0,0:0:0:0:
64,192,122757,1,0,0:0:0:0:
192,192,122757,1,0,0:0:0:0:
64,192,122928,1,0,0:0:0:70:K.wav
192,192,122928,1,0,0:0:0:0:
64,192,123014,1,0,0:0:0:70:S2.wav
320,192,123014,1,0,0:0:0:70:clap.wav
448,192,123014,1,0,0:0:0:0:
320,192,123185,1,0,0:0:0:70:K.wav
448,192,123185,1,0,0:0:0:0:
320,192,123271,128,0,123442:0:0:0:0:
448,192,123271,128,0,123614:0:0:0:0:
64,192,123357,128,0,123614:0:0:0:70:K.wav
192,192,123357,128,0,123614:0:0:0:100:C.wav
320,192,123528,128,0,123614:0:0:0:0:
64,192,123700,1,0,0:0:0:70:S2.wav
320,192,123700,1,0,0:0:0:0:
448,192,123700,1,0,0:0:0:0:
192,192,123785,128,0,123871:0:0:0:0:
320,192,123871,1,0,0:0:0:0:
448,192,123957,1,0,0:0:0:0:
64,192,124042,128,0,124128:0:0:0:0:
192,192,124128,1,0,0:0:0:0:
320,192,124214,1,0,0:0:0:70:K.wav
448,192,124214,1,0,0:0:0:0:
64,192,124300,128,0,124385:0:0:0:0:
192,192,124385,1,0,0:0:0:70:S2.wav
320,192,124385,1,0,0:0:0:0:
448,192,124385,1,0,0:0:0:0:
64,192,124471,1,0,0:0:0:0:
192,192,124557,128,0,124642:0:0:0:0:
320,192,124642,128,0,124728:0:0:0:0:
448,192,124728,1,0,0:0:0:0:
64,192,124814,1,0,0:0:0:0:
192,192,124900,128,0,124985:0:0:0:70:K.wav
320,192,124900,1,0,0:0:0:0:
448,192,124985,1,0,0:0:0:0:
64,192,125071,1,0,0:0:0:70:S2.wav
192,192,125071,1,0,0:0:0:0:
320,192,125071,1,0,0:0:0:0:
448,192,125157,128,0,125242:0:0:0:0:
64,192,125242,1,0,0:0:0:0:
320,192,125328,1,0,0:0:0:0:
192,192,125414,128,0,125500:0:0:0:0:
64,192,125500,1,0,0:0:0:0:
320,192,125585,1,0,0:0:0:70:K.wav
448,192,125585,1,0,0:0:0:0:
192,192,125671,128,0,125757:0:0:0:0:
64,192,125757,128,0,126014:0:0:0:70:S2.wav
320,192,125757,128,0,125842:0:0:0:0:
448,192,125757,128,0,125928:0:0:0:0:
192,192,125842,128,0,126014:0:0:0:0:
320,192,125928,128,0,126014:0:0:0:0:
448,192,126014,128,0,126185:0:0:0:0:
64,192,126100,128,0,126357:0:0:0:70:K.wav
192,192,126100,128,0,126357:0:0:0:0:
320,192,126100,128,0,126271:0:0:0:0:
448,192,126271,128,0,126357:0:0:0:0:
320,192,126357,1,0,0:0:0:0:
64,192,126442,1,0,0:0:0:70:S2.wav
192,192,126442,1,0,0:0:0:0:
448,192,126442,1,0,0:0:0:0:
320,192,126528,128,0,126614:0:0:0:0:
192,192,126614,1,0,0:0:0:0:
64,192,126700,1,0,0:0:0:0:
448,192,126785,128,0,126871:0:0:0:0:
192,192,126871,1,0,0:0:0:0:
64,192,126957,1,0,0:0:0:70:K.wav
320,192,126957,1,0,0:0:0:0:
448,192,127042,128,0,127128:0:0:0:0:
64,192,127128,1,0,0:0:0:70:S2.wav
192,192,127128,1,0,0:0:0:0:
320,192,127128,1,0,0:0:0:0:
448,192,127214,1,0,0:0:0:0:
192,192,127300,128,0,127385:0:0:0:0:
320,192,127385,128,0,127471:0:0:0:0:
64,192,127471,1,0,0:0:0:0:
192,192,127557,1,0,0:0:0:0:
320,192,127642,1,0,0:0:0:70:K.wav
448,192,127642,1,0,0:0:0:0:
64,192,127728,1,0,0:0:0:0:
192,192,127814,1,0,0:0:0:70:S2.wav
320,192,127814,1,0,0:0:0:0:
448,192,127814,1,0,0:0:0:0:
64,192,127900,1,0,0:0:0:0:
192,192,127985,1,0,0:0:0:0:
448,192,128071,1,0,0:0:0:0:
320,192,128157,1,0,0:0:0:0:
192,192,128242,1,0,0:0:0:0:
320,192,128328,1,0,0:0:0:70:K.wav
448,192,128328,1,0,0:0:0:0:
64,192,128414,1,0,0:0:0:0:
192,192,128500,1,0,0:0:0:70:S2.wav
320,192,128500,1,0,0:0:0:0:
448,192,128500,1,0,0:0:0:0:
64,192,128585,1,0,0:0:0:0:
448,192,128671,1,0,0:0:0:0:
192,192,128757,1,0,0:0:0:0:
64,192,128842,128,0,129100:0:0:0:70:K.wav
320,192,128842,128,0,129100:0:0:0:100:BassKickReverbXD.wav
448,192,128842,128,0,129100:0:0:0:0:
192,192,129014,128,0,129100:0:0:0:0:
64,192,129185,1,0,0:0:0:70:S2.wav
320,192,129185,1,0,0:0:0:0:
448,192,129185,1,0,0:0:0:0:
192,192,129271,128,0,129357:0:0:0:0:
320,192,129357,1,0,0:0:0:0:
448,192,129442,1,0,0:0:0:0:
64,192,129528,128,0,129614:0:0:0:0:
320,192,129614,1,0,0:0:0:0:
192,192,129700,1,0,0:0:0:70:K.wav
448,192,129700,1,0,0:0:0:0:
64,192,129785,128,0,129871:0:0:0:0:
192,192,129871,1,0,0:0:0:70:S2.wav
320,192,129871,1,0,0:0:0:0:
448,192,129871,1,0,0:0:0:0:
64,192,129957,1,0,0:0:0:0:
320,192,130042,128,0,130128:0:0:0:0:
192,192,130128,128,0,130214:0:0:0:0:
448,192,130214,1,0,0:0:0:0:
64,192,130300,1,0,0:0:0:0:
192,192,130385,1,0,0:0:0:70:K.wav
320,192,130385,128,0,130471:0:0:0:0:
448,192,130471,1,0,0:0:0:0:
64,192,130557,1,0,0:0:0:70:S2.wav
192,192,130557,1,0,0:0:0:0:
320,192,130557,1,0,0:0:0:0:
448,192,130642,128,0,130728:0:0:0:0:
64,192,130728,1,0,0:0:0:0:
320,192,130814,1,0,0:0:0:0:
192,192,130900,128,0,130985:0:0:0:0:
64,192,130985,1,0,0:0:0:0:
320,192,131071,1,0,0:0:0:70:K.wav
448,192,131071,1,0,0:0:0:0:
192,192,131157,128,0,131242:0:0:0:0:
64,192,131242,128,0,131328:0:0:0:70:S2.wav
320,192,131242,128,0,131414:0:0:0:0:
448,192,131242,128,0,131500:0:0:0:0:
192,192,131328,128,0,131500:0:0:0:0:
64,192,131414,128,0,131500:0:0:0:0:
320,192,131500,128,0,131671:0:0:0:0:
64,192,131585,128,0,131842:0:0:0:70:K.wav
192,192,131585,128,0,131757:0:0:0:0:
448,192,131585,128,0,131842:0:0:0:0:
320,192,131757,128,0,131842:0:0:0:0:
192,192,131842,1,0,0:0:0:0:
64,192,131928,1,0,0:0:0:70:S2.wav
320,192,131928,1,0,0:0:0:0:
448,192,131928,1,0,0:0:0:0:
192,192,132014,128,0,132100:0:0:0:0:
448,192,132100,1,0,0:0:0:0:
320,192,132185,1,0,0:0:0:0:
64,192,132271,128,0,132357:0:0:0:0:
448,192,132357,1,0,0:0:0:0:
192,192,132442,1,0,0:0:0:70:K.wav
320,192,132442,1,0,0:0:0:0:
64,192,132528,128,0,132614:0:0:0:0:
192,192,132614,1,0,0:0:0:70:S2.wav
320,192,132614,1,0,0:0:0:0:
448,192,132614,1,0,0:0:0:0:
64,192,132700,1,0,0:0:0:0:
448,192,132785,128,0,132871:0:0:0:0:
192,192,132871,128,0,132957:0:0:0:0:
320,192,132957,128,0,133042:0:0:0:0:
448,192,133042,1,0,0:0:0:0:
64,192,133128,1,0,0:0:0:70:K.wav
192,192,133128,1,0,0:0:0:0:
320,192,133214,1,0,0:0:0:0:
64,192,133300,128,0,133385:0:0:0:70:S2.wav
192,192,133300,1,0,0:0:0:0:
448,192,133300,1,0,0:0:0:0:
320,192,133385,1,0,0:0:0:0:
448,192,133471,1,0,0:0:0:0:
192,192,133557,1,0,0:0:0:0:
320,192,133642,128,0,133728:0:0:0:0:
64,192,133728,1,0,0:0:0:0:
192,192,133814,128,0,133900:0:0:0:70:K.wav
448,192,133814,1,0,0:0:0:0:
320,192,133900,1,0,0:0:0:0:
64,192,133985,1,0,0:0:0:70:S2.wav
192,192,133985,1,0,0:0:0:0:
448,192,133985,128,0,134071:0:0:0:0:
320,192,134071,1,0,0:0:0:0:
64,192,134157,128,0,134242:0:0:0:0:
192,192,134242,1,0,0:0:0:0:
64,192,134328,128,0,134585:0:0:0:70:K.wav
320,192,134328,128,0,134585:0:0:0:100:BassKickReverbXD.wav
448,192,134328,128,0,134585:0:0:0:0:
192,192,134500,128,0,134585:0:0:0:0:
64,192,134671,1,0,0:0:0:70:S2.wav
320,192,134671,1,0,0:0:0:0:
448,192,134671,1,0,0:0:0:0:
192,192,134757,128,0,134842:0:0:0:0:
320,192,134842,1,0,0:0:0:0:
64,192,134928,1,0,0:0:0:0:
192,192,135014,128,0,135100:0:0:0:0:
448,192,135100,1,0,0:0:0:0:
64,192,135185,1,0,0:0:0:70:K.wav
320,192,135185,1,0,0:0:0:0:
192,192,135271,128,0,135357:0:0:0:0:
64,192,135357,1,0,0:0:0:70:S2.wav
320,192,135357,1,0,0:0:0:0:
448,192,135357,1,0,0:0:0:0:
192,192,135442,1,0,0:0:0:0:
448,192,135528,128,0,135614:0:0:0:0:
64,192,135614,128,0,135700:0:0:0:0:
320,192,135700,1,0,0:0:0:0:
448,192,135785,1,0,0:0:0:0:
64,192,135871,1,0,0:0:0:70:K.wav
192,192,135871,128,0,135957:0:0:0:0:
320,192,135957,1,0,0:0:0:0:
64,192,136042,1,0,0:0:0:70:S2.wav
192,192,136042,1,0,0:0:0:0:
448,192,136042,1,0,0:0:0:0:
320,192,136128,128,0,136214:0:0:0:0:
448,192,136214,1,0,0:0:0:0:
64,192,136300,1,0,0:0:0:0:
192,192,136385,128,0,136471:0:0:0:0:
320,192,136471,1,0,0:0:0:0:
64,192,136557,1,0,0:0:0:70:K.wav
448,192,136557,1,0,0:0:0:0:
192,192,136642,128,0,136728:0:0:0:0:
64,192,136728,128,0,136985:0:0:0:70:S2.wav
320,192,136728,128,0,136814:0:0:0:0:
448,192,136728,128,0,136900:0:0:0:0:
192,192,136814,128,0,136985:0:0:0:0:
320,192,136900,128,0,136985:0:0:0:0:
448,192,136985,128,0,137328:0:0:0:0:
64,192,137071,128,0,137157:0:0:0:70:K.wav
192,192,137071,128,0,137242:0:0:0:0:
320,192,137071,128,0,137328:0:0:0:0:
64,192,137242,128,0,137328:0:0:0:0:
192,192,137328,1,0,0:0:0:0:
64,192,137414,1,0,0:0:0:70:S2.wav
320,192,137414,1,0,0:0:0:0:
448,192,137414,1,0,0:0:0:0:
192,192,137500,128,0,137585:0:0:0:0:
320,192,137585,1,0,0:0:0:0:
448,192,137671,1,0,0:0:0:0:
192,192,137757,128,0,137842:0:0:0:0:
320,192,137842,1,0,0:0:0:0:
64,192,137928,1,0,0:0:0:70:K.wav
448,192,137928,1,0,0:0:0:0:
192,192,138014,128,0,138100:0:0:0:0:
64,192,138100,1,0,0:0:0:70:S2.wav
320,192,138100,1,0,0:0:0:0:
448,192,138100,1,0,0:0:0:0:
192,192,138185,1,0,0:0:0:0:
320,192,138271,128,0,138357:0:0:0:0:
64,192,138357,128,0,138442:0:0:0:0:
448,192,138442,1,0,0:0:0:0:
320,192,138528,1,0,0:0:0:0:
64,192,138614,1,0,0:0:0:70:K.wav
192,192,138614,128,0,138700:0:0:0:0:
448,192,138700,1,0,0:0:0:0:
64,192,138785,1,0,0:0:0:70:S2.wav
192,192,138785,1,0,0:0:0:0:
320,192,138785,1,0,0:0:0:0:
448,192,138871,128,0,138957:0:0:0:0:
320,192,138957,1,0,0:0:0:0:
192,192,139042,1,0,0:0:0:0:
64,192,139128,128,0,139214:0:0:0:0:
448,192,139214,1,0,0:0:0:0:
192,192,139300,1,0,0:0:0:70:K.wav
320,192,139300,1,0,0:0:0:0:
64,192,139385,128,0,139471:0:0:0:0:
192,192,139471,1,0,0:0:0:70:S2.wav
320,192,139471,1,0,0:0:0:0:
448,192,139471,1,0,0:0:0:0:
64,192,139557,1,0,0:0:0:0:
448,192,139642,128,0,139728:0:0:0:0:
192,192,139728,128,0,140071:0:0:0:0:
64,192,139814,128,0,140071:0:0:0:70:K.wav
320,192,139814,128,0,139900:0:0:0:0:
448,192,139814,128,0,140071:0:0:0:0:
320,192,139985,128,0,140071:0:0:0:0:
64,192,140157,1,0,0:0:0:70:S2.wav
192,192,140157,1,0,0:0:0:0:
448,192,140157,1,0,0:0:0:0:
320,192,140242,128,0,140328:0:0:0:0:
192,192,140328,1,0,0:0:0:0:
64,192,140414,1,0,0:0:0:0:
448,192,140500,128,0,140585:0:0:0:0:
320,192,140585,1,0,0:0:0:0:
64,192,140671,1,0,0:0:0:70:K.wav
192,192,140671,1,0,0:0:0:0:
448,192,140757,128,0,140842:0:0:0:0:
64,192,140842,1,0,0:0:0:70:S2.wav
192,192,140842,1,0,0:0:0:0:
320,192,140842,1,0,0:0:0:0:
448,192,140928,1,0,0:0:0:0:
320,192,141014,128,0,141100:0:0:0:0:
64,192,141100,128,0,141185:0:0:0:0:
192,192,141185,1,0,0:0:0:0:
64,192,141271,1,0,0:0:0:0:
320,192,141357,128,0,141442:0:0:0:70:K.wav
448,192,141357,1,0,0:0:0:0:
192,192,141442,1,0,0:0:0:0:
64,192,141528,1,0,0:0:0:70:S2.wav
320,192,141528,1,0,0:0:0:0:
448,192,141528,1,0,0:0:0:0:
192,192,141614,128,0,141700:0:0:0:0:
64,192,141700,1,0,0:0:0:0:
320,192,141785,1,0,0:0:0:0:
448,192,141871,128,0,141957:0:0:0:0:
192,192,141957,1,0,0:0:0:0:
64,192,142042,1,0,0:0:0:70:K.wav
320,192,142042,1,0,0:0:0:0:
448,192,142128,128,0,142214:0:0:0:0:
64,192,142214,128,0,142471:0:0:0:70:S2.wav
192,192,142214,128,0,142300:0:0:0:0:
320,192,142214,128,0,142385:0:0:0:0:
448,192,142300,128,0,142471:0:0:0:0:
192,192,142385,128,0,142471:0:0:0:0:
320,192,142471,128,0,142642:0:0:0:0:
64,192,142557,128,0,142814:0:0:0:70:K.wav
192,192,142557,128,0,142814:0:0:0:0:
448,192,142557,128,0,142728:0:0:0:0:
320,192,142728,128,0,142814:0:0:0:0:
448,192,142814,1,0,0:0:0:0:
64,192,142900,1,0,0:0:0:70:S2.wav
192,192,142900,1,0,0:0:0:0:
320,192,142900,1,0,0:0:0:0:
448,192,142985,128,0,143071:0:0:0:0:
192,192,143071,1,0,0:0:0:0:
320,192,143157,1,0,0:0:0:0:
64,192,143242,128,0,143328:0:0:0:70:K.wav
448,192,143242,1,0,0:0:0:0:
192,192,143328,1,0,0:0:0:0:
320,192,143414,1,0,0:0:0:0:
64,192,143500,128,0,143585:0:0:0:0:
192,192,143585,1,0,0:0:0:70:S2.wav
320,192,143585,1,0,0:0:0:0:
448,192,143585,1,0,0:0:0:0:
64,192,143671,1,0,0:0:0:0:
448,192,143757,128,0,143842:0:0:0:0:
192,192,143842,128,0,143928:0:0:0:0:
64,192,143928,1,0,0:0:0:70:K.wav
320,192,143928,128,0,144271:0:0:0:0:
64,192,144100,128,0,144185:0:0:0:0:
192,192,144271,128,0,144614:0:0:0:0:
448,192,144271,1,0,0:0:0:0:
320,192,144357,128,0,144442:0:0:0:0:
64,192,144442,1,0,0:0:0:0:
448,192,144528,1,0,0:0:0:0:
64,192,144614,128,0,144957:0:0:0:0:
320,192,144614,128,0,144700:0:0:0:0:
192,192,144700,1,0,0:0:0:0:
448,192,144785,1,0,0:0:0:0:
320,192,144871,128,0,144957:0:0:0:0:
192,192,144957,1,0,0:0:0:70:S2.wav
448,192,144957,128,0,145300:0:0:0:0:
64,192,145042,1,0,0:0:0:0:
320,192,145128,128,0,145214:0:0:0:0:
192,192,145214,128,0,145300:0:0:0:0:
64,192,145300,1,0,0:0:0:70:K.wav
320,192,145300,1,0,0:0:0:100:BassKickReverbXD.wav
448,192,145471,1,0,0:0:0:0:
64,192,145642,1,0,0:0:0:70:K.wav
192,192,145642,1,0,0:0:0:0:
320,192,145728,1,0,0:0:0:0:
448,192,145814,1,0,0:0:0:0:
192,192,145900,1,0,0:0:0:0:
64,192,145985,1,0,0:0:0:70:K.wav
320,192,145985,1,0,0:0:0:0:
320,192,146157,1,0,0:0:0:0:
64,192,146328,1,0,0:0:0:70:K.wav
192,192,146328,1,0,0:0:0:0:
320,192,146414,1,0,0:0:0:0:
448,192,146500,1,0,0:0:0:0:
192,192,146585,1,0,0:0:0:0:
64,192,146671,1,0,0:0:0:70:K.wav
320,192,146671,1,0,0:0:0:0:
448,192,146842,1,0,0:0:0:0:
64,192,147014,1,0,0:0:0:70:K.wav
448,192,147014,1,0,0:0:0:0:
320,192,147100,1,0,0:0:0:0:
192,192,147185,1,0,0:0:0:0:
320,192,147271,1,0,0:0:0:0:
64,192,147357,1,0,0:0:0:70:K.wav
448,192,147357,1,0,0:0:0:0:
64,192,147700,1,0,0:0:0:70:K.wav
320,192,147700,1,0,0:0:0:0:
64,192,148042,1,0,0:0:0:70:K.wav
192,192,148042,1,0,0:0:0:0:
448,192,148214,1,0,0:0:0:0:
64,192,148385,1,0,0:0:0:70:K.wav
320,192,148385,1,0,0:0:0:0:
448,192,148471,1,0,0:0:0:0:
192,192,148557,1,0,0:0:0:0:
320,192,148642,1,0,0:0:0:0:
64,192,148728,1,0,0:0:0:70:K.wav
448,192,148728,1,0,0:0:0:0:
192,192,148900,1,0,0:0:0:0:
448,192,148985,1,0,0:0:0:0:
64,192,149071,1,0,0:0:0:70:K.wav
320,192,149071,1,0,0:0:0:0:
192,192,149157,1,0,0:0:0:0:
448,192,149242,1,0,0:0:0:0:
320,192,149328,1,0,0:0:0:0:
64,192,149414,1,0,0:0:0:70:K.wav
448,192,149414,1,0,0:0:0:0:
320,192,149585,1,0,0:0:0:0:
192,192,149671,1,0,0:0:0:0:
64,192,149757,1,0,0:0:0:70:K.wav
320,192,149757,1,0,0:0:0:0:
448,192,149842,1,0,0:0:0:0:
192,192,149928,1,0,0:0:0:0:
320,192,150014,1,0,0:0:0:0:
64,192,150100,1,0,0:0:0:70:K.wav
192,192,150100,1,0,0:0:0:0:
448,192,150185,1,0,0:0:0:0:
320,192,150271,1,0,0:0:0:0:
192,192,150357,1,0,0:0:0:0:
64,192,150442,1,0,0:0:0:70:K.wav
448,192,150442,1,0,0:0:0:0:
320,192,150528,1,0,0:0:0:0:
192,192,150614,1,0,0:0:0:0:
64,192,150785,1,0,0:0:0:70:K.wav
320,192,150785,1,0,0:0:0:0:
448,192,150957,1,0,0:0:0:0:
192,192,151042,1,0,0:0:0:0:
64,192,151128,1,0,0:0:0:70:K.wav
320,192,151128,1,0,0:0:0:0:
448,192,151214,1,0,0:0:0:0:
320,192,151300,1,0,0:0:0:0:
192,192,151385,1,0,0:0:0:0:
64,192,151471,1,0,0:0:0:70:K.wav
448,192,151471,1,0,0:0:0:0:
320,192,151642,1,0,0:0:0:0:
192,192,151728,1,0,0:0:0:0:
64,192,151814,1,0,0:0:0:70:K.wav
448,192,151814,1,0,0:0:0:0:
320,192,151900,1,0,0:0:0:0:
192,192,151985,1,0,0:0:0:0:
320,192,152071,1,0,0:0:0:0:
64,192,152157,1,0,0:0:0:70:K.wav
448,192,152157,1,0,0:0:0:0:
320,192,152328,1,0,0:0:0:0:
64,192,152500,1,0,0:0:0:70:K.wav
192,192,152500,1,0,0:0:0:0:
320,192,152585,1,0,0:0:0:0:
448,192,152671,1,0,0:0:0:0:
192,192,152757,1,0,0:0:0:0:
64,192,152842,1,0,0:0:0:70:K.wav
320,192,152842,1,0,0:0:0:0:
448,192,152928,1,0,0:0:0:0:
320,192,153014,1,0,0:0:0:0:
192,192,153100,1,0,0:0:0:0:
64,192,153185,1,0,0:0:0:70:K.wav
448,192,153185,1,0,0:0:0:0:
320,192,153271,1,0,0:0:0:0:
192,192,153357,1,0,0:0:0:0:
448,192,153442,1,0,0:0:0:0:
64,192,153528,1,0,0:0:0:70:K.wav
320,192,153528,1,0,0:0:0:0:
192,192,153700,1,0,0:0:0:0:
64,192,153871,1,0,0:0:0:70:K.wav
448,192,153871,1,0,0:0:0:0:
192,192,153957,1,0,0:0:0:0:
320,192,154042,1,0,0:0:0:0:
448,192,154128,1,0,0:0:0:0:
64,192,154214,1,0,0:0:0:70:K.wav
192,192,154214,1,0,0:0:0:0:
448,192,154385,1,0,0:0:0:0:
64,192,154557,1,0,0:0:0:70:K.wav
192,192,154557,1,0,0:0:0:0:
448,192,154642,1,0,0:0:0:0:
320,192,154728,1,0,0:0:0:0:
192,192,154814,1,0,0:0:0:0:
64,192,154900,1,0,0:0:0:70:K.wav
320,192,154900,1,0,0:0:0:0:
448,192,155071,1,0,0:0:0:0:
64,192,155242,1,0,0:0:0:70:K.wav
192,192,155242,1,0,0:0:0:0:
320,192,155328,1,0,0:0:0:0:
448,192,155414,1,0,0:0:0:0:
320,192,155500,1,0,0:0:0:0:
64,192,155585,1,0,0:0:0:70:K.wav
192,192,155585,1,0,0:0:0:0:
448,192,155757,1,0,0:0:0:0:
64,192,155928,1,0,0:0:0:70:K.wav
320,192,155928,1,0,0:0:0:0:
192,192,156014,1,0,0:0:0:0:
448,192,156100,128,0,156185:0:0:0:0:
64,192,156271,1,0,0:0:0:70:K.wav
448,192,156271,128,0,156785:0:0:0:0:
192,192,156442,1,0,0:0:0:0:
64,192,156614,1,0,0:0:0:70:K.wav
192,192,156614,1,0,0:0:0:0:
320,192,156785,128,0,156871:0:0:0:0:
192,192,156957,1,0,0:0:0:70:K.wav
320,192,156957,128,0,157642:0:0:0:0:
448,192,157128,1,0,0:0:0:0:
64,192,157300,1,0,0:0:0:70:K.wav
448,192,157300,1,0,0:0:0:0:
64,192,157471,1,0,0:0:0:0:
192,192,157642,128,0,158157:0:0:0:70:K.wav
448,192,157642,1,0,0:0:0:0:
320,192,157814,1,0,0:0:0:0:
64,192,157985,1,0,0:0:0:70:K.wav
320,192,157985,1,0,0:0:0:0:
448,192,158157,128,0,158328:0:0:0:0:
192,192,158328,128,0,159014:0:0:0:70:K.wav
320,192,158328,1,0,0:0:0:0:
320,192,158500,1,0,0:0:0:0:
64,192,158671,1,0,0:0:0:70:K.wav
448,192,158671,1,0,0:0:0:0:
448,192,158842,1,0,0:0:0:0:
64,192,159014,128,0,159528:0:0:0:70:K.wav
320,192,159014,1,0,0:0:0:0:
192,192,159185,1,0,0:0:0:0:
320,192,159357,1,0,0:0:0:70:K.wav
448,192,159357,1,0,0:0:0:0:
320,192,159528,128,0,159700:0:0:0:0:
192,192,159700,1,0,0:0:0:70:K.wav
448,192,159700,128,0,160385:0:0:0:0:
64,192,159871,1,0,0:0:0:0:
64,192,160042,1,0,0:0:0:70:K.wav
320,192,160042,1,0,0:0:0:0:
192,192,160214,1,0,0:0:0:0:
64,192,160385,1,0,0:0:0:70:K.wav
192,192,160385,128,0,160900:0:0:0:0:
448,192,160557,1,0,0:0:0:0:
320,192,160728,1,0,0:0:0:70:K.wav
448,192,160728,1,0,0:0:0:0:
320,192,160900,128,0,161071:0:0:0:0:
64,192,161071,128,0,161757:0:0:0:70:K.wav
448,192,161071,1,0,0:0:0:0:
192,192,161242,1,0,0:0:0:0:
192,192,161414,1,0,0:0:0:70:K.wav
448,192,161414,1,0,0:0:0:0:
448,192,161585,1,0,0:0:0:0:
192,192,161757,1,0,0:0:0:70:K.wav
320,192,161757,1,0,0:0:0:0:
320,192,161928,1,0,0:0:0:0:
64,192,162100,1,0,0:0:0:70:K.wav
448,192,162100,1,0,0:0:0:0:
64,192,162271,1,0,0:0:0:0:
192,192,162442,1,0,0:0:0:70:K.wav
320,192,162442,1,0,0:0:0:0:
320,192,162614,1,0,0:0:0:0:
64,192,162785,1,0,0:0:0:70:K.wav
448,192,162785,1,0,0:0:0:0:
448,192,162957,1,0,0:0:0:0:
64,192,163128,1,0,0:0:0:70:K.wav
320,192,163128,1,0,0:0:0:0:
64,192,163300,1,0,0:0:0:0:
192,192,163471,1,0,0:0:0:70:K.wav
448,192,163471,1,0,0:0:0:0:
448,192,163642,1,0,0:0:0:0:
192,192,163814,1,0,0:0:0:70:K.wav
320,192,163814,1,0,0:0:0:0:
192,192,163985,1,0,0:0:0:0:
64,192,164157,1,0,0:0:0:70:K.wav
320,192,164157,1,0,0:0:0:0:
64,192,164328,1,0,0:0:0:0:
192,192,164500,1,0,0:0:0:70:K.wav
448,192,164500,1,0,0:0:0:0:
448,192,164671,1,0,0:0:0:0:
64,192,164842,1,0,0:0:0:70:K.wav
192,192,164842,1,0,0:0:0:0:
192,192,165014,1,0,0:0:0:0:
320,192,165185,1,0,0:0:0:70:K.wav
448,192,165185,1,0,0:0:0:0:
320,192,165357,1,0,0:0:0:0:
64,192,165528,1,0,0:0:0:70:K.wav
192,192,165528,1,0,0:0:0:0:
64,192,165700,1,0,0:0:0:0:
192,192,165871,1,0,0:0:0:70:K.wav
448,192,165871,128,0,165957:0:0:0:0:
448,192,166042,128,0,166128:0:0:0:0:
64,192,166214,128,0,166300:0:0:0:70:K.wav
320,192,166214,1,0,0:0:0:0:
64,192,166385,128,0,166471:0:0:0:0:
192,192,166557,128,0,166642:0:0:0:70:K.wav
320,192,166557,1,0,0:0:0:0:
192,192,166728,128,0,166814:0:0:0:0:
64,192,166900,1,0,0:0:0:70:K.wav
320,192,166900,128,0,166985:0:0:0:0:
320,192,167071,128,0,167157:0:0:0:0:
64,192,167242,128,0,168614:0:0:0:100:BassKickReverbXD.wav
192,192,167242,128,0,167928:0:0:0:0:
448,192,167757,128,0,168100:0:0:0:0:
320,192,167928,128,0,168271:0:0:0:0:
192,192,168614,128,0,169300:0:0:0:0:
448,192,168614,128,0,169642:0:0:0:0:
64,192,169128,128,0,169471:0:0:0:0:
320,192,169300,128,0,169814:0:0:0:0:
192,192,169642,128,0,169985:0:0:0:0:
64,192,169814,128,0,169985:0:0:0:0:
320,192,169985,128,0,171185:0:0:0:0:
448,192,169985,128,0,170671:0:0:0:0:
192,192,170500,128,0,170842:0:0:0:0:
64,192,170671,128,0,171014:0:0:0:0:
64,192,171185,128,0,172385:0:0:0:0:
192,192,171185,1,0,0:0:0:0:
448,192,171357,128,0,172042:0:0:0:0:
192,192,171871,128,0,172128:0:0:0:0:
320,192,172042,128,0,172385:0:0:0:0:
192,192,172385,128,0,172728:0:0:0:0:
448,192,172385,1,0,0:0:0:0:
320,192,172557,128,0,172728:0:0:0:0:
64,192,172728,128,0,173414:0:0:0:0:
448,192,172728,128,0,173757:0:0:0:0:
192,192,173242,128,0,173585:0:0:0:0:
320,192,173414,128,0,173928:0:0:0:0:
64,192,173757,128,0,174100:0:0:0:0:
192,192,173928,128,0,174271:0:0:0:0:
320,192,174100,128,0,174785:0:0:0:0:
448,192,174100,128,0,174614:0:0:0:0:
192,192,174614,128,0,174957:0:0:0:0:
64,192,174785,128,0,175128:0:0:0:0:
448,192,174785,128,0,175128:0:0:0:0:
192,192,175128,128,0,175471:0:0:0:0:
448,192,175300,128,0,175471:0:0:0:0:
64,192,175471,128,0,176157:0:0:0:0:
320,192,175471,128,0,176842:0:0:0:0:
192,192,175985,128,0,176328:0:0:0:0:
448,192,176157,128,0,176671:0:0:0:0:
64,192,176842,128,0,178042:0:0:0:0:
192,192,176842,128,0,177357:0:0:0:0:
320,192,177357,128,0,178214:0:0:0:0:
192,192,177528,128,0,178042:0:0:0:0:
448,192,177528,128,0,178214:0:0:0:0:
64,192,178214,128,0,179414:0:0:0:0:
192,192,178214,128,0,178728:0:0:0:0:
320,192,178557,128,0,179242:0:0:0:0:
192,192,178900,128,0,179242:0:0:0:0:
448,192,179242,128,0,179414:0:0:0:0:
192,192,179414,128,0,179928:0:0:0:0:
320,192,179414,128,0,179585:0:0:0:0:
448,192,179585,128,0,180957:0:0:0:0:
64,192,179757,128,0,180271:0:0:0:0:
320,192,180100,128,0,180614:0:0:0:0:
192,192,180442,128,0,180785:0:0:0:0:
64,192,180785,128,0,181128:0:0:0:0:
192,192,180957,128,0,181642:0:0:0:0:
320,192,180957,128,0,181471:0:0:0:0:
448,192,181300,128,0,181814:0:0:0:0:
64,192,181642,128,0,182157:0:0:0:0:
320,192,181642,128,0,182328:0:0:0:0:
192,192,181985,128,0,182500:0:0:0:0:
64,192,182328,128,0,183014:0:0:0:0:
448,192,182328,128,0,182842:0:0:0:0:
320,192,182671,128,0,183185:0:0:0:0:
192,192,182671,1,0,0:0:0:0:
448,192,183014,128,0,183528:0:0:0:0:
192,192,183014,128,0,183357:0:0:0:0:
64,192,183357,128,0,183871:0:0:0:0:
320,192,183357,128,0,183700:0:0:0:0:
448,192,183700,128,0,185071:0:0:0:0:
192,192,183700,128,0,184214:0:0:0:0:
320,192,184385,128,0,184900:0:0:0:0:
64,192,184728,128,0,185242:0:0:0:0:
192,192,184900,128,0,185414:0:0:0:0:
320,192,185071,128,0,187728:0:0:0:0:
448,192,185242,128,0,185757:0:0:0:0:
192,192,185757,128,0,186271:0:0:0:0:
64,192,185928,128,0,187728:0:0:0:0:
448,192,186100,128,0,189100:0:0:0:0:
192,192,186442,128,0,187728:0:0:0:0:
64,192,187814,1,0,0:0:0:60:S2.wav
192,192,187900,1,0,0:0:0:60:S2.wav
320,192,187985,1,0,0:0:0:60:S2.wav
192,192,188071,1,0,0:0:0:60:S2.wav
64,192,188157,1,0,0:0:0:60:S2.wav
320,192,188242,1,0,0:0:0:60:S2.wav
192,192,188328,1,0,0:0:0:60:S2.wav
64,192,188414,1,0,0:0:0:60:S2.wav
320,192,188500,1,0,0:0:0:60:S2.wav
64,192,188585,1,0,0:0:0:60:S2.wav
192,192,188671,1,0,0:0:0:60:S2.wav
320,192,188757,1,0,0:0:0:60:S2.wav
64,192,188842,1,0,0:0:0:70:S.wav
192,192,188842,1,0,0:0:0:0:
64,192,189185,128,0,189528:0:0:0:70:clap.wav
192,192,189185,1,0,0:0:0:100:BassKickReverbXD.wav
320,192,189185,1,0,0:0:0:0:
448,192,189185,1,0,0:0:0:0:
320,192,189528,1,0,0:0:0:70:clap.wav
448,192,189528,1,0,0:0:0:0:
192,192,189700,1,0,0:0:0:0:
64,192,189742,1,0,0:0:0:0:
320,192,189785,1,0,0:0:0:0:
448,192,189828,1,0,0:0:0:0:
64,192,189871,1,0,0:0:0:70:clap.wav
192,192,189871,128,0,190042:0:0:0:0:
320,192,190042,128,0,190128:0:0:0:0:
64,192,190128,128,0,190214:0:0:0:0:
192,192,190214,1,0,0:0:0:70:clap.wav
448,192,190214,1,0,0:0:0:0:
320,192,190300,128,0,190385:0:0:0:0:
192,192,190385,128,0,190557:0:0:0:0:
64,192,190557,1,0,0:0:0:70:clap.wav
448,192,190557,128,0,190728:0:0:0:0:
320,192,190728,128,0,190900:0:0:0:0:
64,192,190900,1,0,0:0:0:70:clap.wav
192,192,190900,128,0,191242:0:0:0:0:
64,192,191242,128,0,191414:0:0:0:70:clap.wav
448,192,191242,1,0,0:0:0:0:
320,192,191414,1,0,0:0:0:0:
320,192,191500,1,0,0:0:0:0:
64,192,191585,1,0,0:0:0:70:clap.wav
192,192,191585,1,0,0:0:0:0:
448,192,191671,1,0,0:0:0:0:
448,192,191757,128,0,191928:0:0:0:0:
192,192,191928,128,0,192271:0:0:0:70:clap.wav
320,192,191928,1,0,0:0:0:0:
64,192,192271,128,0,192614:0:0:0:70:clap.wav
448,192,192271,1,0,0:0:0:0:
192,192,192614,1,0,0:0:0:70:clap.wav
320,192,192614,128,0,192957:0:0:0:0:
64,192,192957,1,0,0:0:0:70:clap.wav
448,192,192957,128,0,193128:0:0:0:0:
192,192,193128,128,0,193471:0:0:0:0:
320,192,193300,1,0,0:0:0:70:clap.wav
448,192,193300,1,0,0:0:0:0:
320,192,193471,1,0,0:0:0:0:
320,192,193557,1,0,0:0:0:0:
64,192,193642,128,0,193985:0:0:0:70:clap.wav
448,192,193642,1,0,0:0:0:0:
192,192,193985,1,0,0:0:0:70:clap.wav
448,192,193985,128,0,194328:0:0:0:0:
64,192,194328,1,0,0:0:0:70:clap.wav
320,192,194328,128,0,194500:0:0:0:0:
448,192,194500,1,0,0:0:0:0:
64,192,194542,1,0,0:0:0:0:
192,192,194585,1,0,0:0:0:0:
320,192,194628,1,0,0:0:0:0:
64,192,194671,128,0,194842:0:0:0:70:clap.wav
448,192,194671,1,0,0:0:0:0:
320,192,194842,1,0,0:0:0:0:
320,192,194928,1,0,0:0:0:0:
64,192,195014,1,0,0:0:0:70:clap.wav
192,192,195014,1,0,0:0:0:0:
448,192,195014,1,0,0:0:0:0:
192,192,195100,1,0,0:0:0:0:
320,192,195185,1,0,0:0:0:0:
448,192,195228,1,0,0:0:0:0:
64,192,195271,1,0,0:0:0:0:
192,192,195314,1,0,0:0:0:0:
320,192,195357,1,0,0:0:0:70:clap.wav
448,192,195357,128,0,195528:0:0:0:0:
64,192,195528,128,0,195614:0:0:0:0:
192,192,195614,128,0,195785:0:0:0:0:
320,192,195700,1,0,0:0:0:70:clap.wav
448,192,195700,1,0,0:0:0:0:
64,192,195785,128,0,195871:0:0:0:0:
448,192,195871,128,0,196042:0:0:0:0:
64,192,196042,128,0,196214:0:0:0:70:clap.wav
320,192,196042,1,0,0:0:0:0:
192,192,196214,128,0,196385:0:0:0:0:
320,192,196385,1,0,0:0:0:70:clap.wav
448,192,196385,128,0,196728:0:0:0:0:
64,192,196728,1,0,0:0:0:70:clap.wav
192,192,196728,128,0,196900:0:0:0:0:
448,192,196900,1,0,0:0:0:0:
448,192,196985,1,0,0:0:0:0:
64,192,197071,1,0,0:0:0:70:clap.wav
192,192,197071,1,0,0:0:0:0:
64,192,197157,1,0,0:0:0:0:
320,192,197242,128,0,197414:0:0:0:0:
192,192,197414,128,0,197757:0:0:0:70:clap.wav
448,192,197414,1,0,0:0:0:0:
64,192,197757,128,0,198100:0:0:0:70:clap.wav
320,192,197757,1,0,0:0:0:0:
192,192,198100,1,0,0:0:0:70:clap.wav
320,192,198100,128,0,198442:0:0:0:0:
64,192,198442,1,0,0:0:0:70:clap.wav
192,192,198442,128,0,198614:0:0:0:0:
448,192,198614,128,0,198957:0:0:0:0:
192,192,198785,1,0,0:0:0:70:clap.wav
320,192,198785,1,0,0:0:0:0:
64,192,198957,1,0,0:0:0:0:
64,192,199042,1,0,0:0:0:0:
320,192,199128,128,0,199471:0:0:0:70:clap.wav
448,192,199128,1,0,0:0:0:0:
64,192,199471,1,0,0:0:0:70:clap.wav
192,192,199471,128,0,199814:0:0:0:0:
64,192,199814,128,0,200157:0:0:0:70:clap.wav
448,192,199814,128,0,199900:0:0:0:0:
320,192,199900,128,0,199985:0:0:0:0:
192,192,199985,128,0,200071:0:0:0:0:
320,192,200071,128,0,200157:0:0:0:0:
192,192,200157,1,0,0:0:0:70:clap.wav
448,192,200157,128,0,200328:0:0:0:100:BassKickReverbXD.wav
64,192,200328,128,0,200414:0:0:0:0:
320,192,200414,128,0,200585:0:0:0:0:
448,192,200500,1,0,0:0:0:0:
192,192,200500,1,0,0:0:0:0:
64,192,200585,128,0,200671:0:0:0:0:
192,192,200671,128,0,200842:0:0:0:0:
320,192,200842,128,0,201014:0:0:0:70:clap.wav
64,192,200842,1,0,0:0:0:0:
448,192,201014,128,0,201100:0:0:0:0:
192,192,201100,128,0,201271:0:0:0:0:
64,192,201185,1,0,0:0:0:0:
320,192,201185,1,0,0:0:0:0:
448,192,201271,128,0,201357:0:0:0:0:
64,192,201357,128,0,201528:0:0:0:0:
320,192,201528,128,0,201614:0:0:0:70:clap.wav
448,192,201528,1,0,0:0:0:0:
192,192,201614,128,0,201700:0:0:0:0:
320,192,201700,128,0,201785:0:0:0:0:
64,192,201785,128,0,201871:0:0:0:0:
448,192,201871,128,0,202042:0:0:0:70:clap.wav
192,192,201871,1,0,0:0:0:0:
192,192,202042,128,0,202128:0:0:0:0:
320,192,202128,128,0,202214:0:0:0:0:
448,192,202214,128,0,202385:0:0:0:70:clap.wav
64,192,202214,1,0,0:0:0:0:
64,192,202385,128,0,202471:0:0:0:0:
448,192,202471,128,0,202642:0:0:0:0:
320,192,202557,1,0,0:0:0:0:
64,192,202557,1,0,0:0:0:0:
192,192,202642,128,0,202728:0:0:0:0:
448,192,202728,128,0,202900:0:0:0:0:
320,192,202900,128,0,202985:0:0:0:70:clap.wav
64,192,202900,1,0,0:0:0:0:
192,192,202985,128,0,203071:0:0:0:0:
64,192,203071,128,0,203242:0:0:0:0:
320,192,203242,128,0,203414:0:0:0:70:clap.wav
448,192,203242,1,0,0:0:0:0:
192,192,203414,128,0,203500:0:0:0:0:
320,192,203500,128,0,203585:0:0:0:0:
448,192,203585,128,0,203757:0:0:0:70:clap.wav
64,192,203585,1,0,0:0:0:0:
64,192,203757,128,0,203842:0:0:0:0:
192,192,203842,128,0,204014:0:0:0:0:
320,192,203928,1,0,0:0:0:0:
448,192,203928,1,0,0:0:0:0:
64,192,204014,128,0,204100:0:0:0:0:
320,192,204100,128,0,204271:0:0:0:0:
448,192,204271,128,0,204442:0:0:0:70:clap.wav
64,192,204271,1,0,0:0:0:0:
192,192,204442,128,0,204528:0:0:0:0:
320,192,204528,128,0,204700:0:0:0:0:
448,192,204614,1,0,0:0:0:0:
192,192,204614,1,0,0:0:0:0:
64,192,204700,128,0,204785:0:0:0:0:
320,192,204785,128,0,204871:0:0:0:0:
192,192,204871,128,0,204957:0:0:0:0:
448,192,204957,128,0,205128:0:0:0:70:clap.wav
64,192,204957,1,0,0:0:0:0:
64,192,205128,128,0,205214:0:0:0:0:
320,192,205214,128,0,205300:0:0:0:0:
192,192,205300,128,0,205471:0:0:0:70:clap.wav
448,192,205300,1,0,0:0:0:0:
448,192,205471,128,0,205557:0:0:0:0:
320,192,205557,128,0,205642:0:0:0:0:
64,192,205642,1,0,0:0:0:40:K.wav
192,192,205642,1,0,0:0:0:70:clap.wav
320,192,205728,1,0,0:0:0:40:K.wav
64,192,205814,1,0,0:0:0:40:K.wav
448,192,205814,1,0,0:0:0:0:
192,192,205900,1,0,0:0:0:40:K.wav
320,192,205985,1,0,0:0:0:40:K.wav
448,192,205985,1,0,0:0:0:70:clap.wav
64,192,206071,1,0,0:0:0:40:K.wav
192,192,206157,1,0,0:0:0:40:K.wav
320,192,206157,1,0,0:0:0:0:
448,192,206242,1,0,0:0:0:40:K.wav
64,192,206328,1,0,0:0:0:45:K.wav
192,192,206328,1,0,0:0:0:70:clap.wav
320,192,206414,1,0,0:0:0:45:K.wav
64,192,206500,1,0,0:0:0:45:K.wav
448,192,206500,1,0,0:0:0:0:
192,192,206585,1,0,0:0:0:45:K.wav
320,192,206671,1,0,0:0:0:45:K.wav
448,192,206671,1,0,0:0:0:70:clap.wav
64,192,206757,1,0,0:0:0:45:K.wav
192,192,206842,1,0,0:0:0:45:K.wav
320,192,206842,1,0,0:0:0:0:
448,192,206928,1,0,0:0:0:45:K.wav
64,192,207014,1,0,0:0:0:50:K.wav
192,192,207014,1,0,0:0:0:70:clap.wav
320,192,207100,1,0,0:0:0:50:K.wav
192,192,207185,1,0,0:0:0:50:K.wav
448,192,207185,1,0,0:0:0:0:
64,192,207271,1,0,0:0:0:50:K.wav
320,192,207357,1,0,0:0:0:50:K.wav
448,192,207357,1,0,0:0:0:70:clap.wav
192,192,207442,1,0,0:0:0:50:K.wav
64,192,207528,1,0,0:0:0:50:K.wav
448,192,207528,1,0,0:0:0:0:
320,192,207614,1,0,0:0:0:50:K.wav
64,192,207700,1,0,0:0:0:55:K.wav
192,192,207700,1,0,0:0:0:70:clap.wav
448,192,207785,1,0,0:0:0:55:K.wav
192,192,207871,1,0,0:0:0:55:K.wav
320,192,207871,1,0,0:0:0:0:
64,192,207957,1,0,0:0:0:55:K.wav
320,192,208042,1,0,0:0:0:55:K.wav
448,192,208042,1,0,0:0:0:70:clap.wav
192,192,208128,1,0,0:0:0:55:K.wav
64,192,208214,1,0,0:0:0:55:K.wav
320,192,208214,1,0,0:0:0:0:
448,192,208300,1,0,0:0:0:55:K.wav
64,192,208385,1,0,0:0:0:60:K.wav
192,192,208385,1,0,0:0:0:70:clap.wav
320,192,208471,1,0,0:0:0:60:K.wav
448,192,208471,1,0,0:0:0:0:
64,192,208557,1,0,0:0:0:60:K.wav
192,192,208557,1,0,0:0:0:0:
320,192,208642,1,0,0:0:0:60:K.wav
448,192,208642,1,0,0:0:0:0:
64,192,208728,1,0,0:0:0:60:K.wav
192,192,208728,1,0,0:0:0:70:clap.wav
320,192,208814,1,0,0:0:0:60:K.wav
448,192,208814,1,0,0:0:0:0:
64,192,208900,1,0,0:0:0:60:K.wav
192,192,208900,1,0,0:0:0:0:
320,192,208985,1,0,0:0:0:60:K.wav
64,192,209071,1,0,0:0:0:60:K.wav
448,192,209071,1,0,0:0:0:70:clap.wav
192,192,209157,1,0,0:0:0:60:K.wav
320,192,209157,1,0,0:0:0:0:
64,192,209242,1,0,0:0:0:60:K.wav
448,192,209242,1,0,0:0:0:0:
192,192,209328,1,0,0:0:0:60:K.wav
320,192,209328,1,0,0:0:0:0:
64,192,209414,1,0,0:0:0:60:K.wav
448,192,209414,1,0,0:0:0:70:clap.wav
192,192,209500,1,0,0:0:0:60:K.wav
320,192,209500,1,0,0:0:0:0:
64,192,209585,1,0,0:0:0:60:K.wav
448,192,209585,1,0,0:0:0:0:
320,192,209671,1,0,0:0:0:60:K.wav
64,192,209757,1,0,0:0:0:60:S2.wav
192,192,209757,1,0,0:0:0:0:
320,192,209842,1,0,0:0:0:60:S2.wav
448,192,209842,1,0,0:0:0:0:
64,192,209928,1,0,0:0:0:60:S2.wav
192,192,209928,1,0,0:0:0:0:
64,192,210014,1,0,0:0:0:60:S2.wav
192,192,210014,1,0,0:0:0:0:
320,192,210100,128,0,210185:0:0:0:60:S2.wav
448,192,210100,128,0,210271:0:0:0:0:
192,192,210185,128,0,210271:0:0:0:60:S2.wav
64,192,210271,128,0,210357:0:0:0:60:S2.wav
320,192,210357,128,0,210442:0:0:0:60:S2.wav
192,192,210442,128,0,210528:0:0:0:60:S2.wav
448,192,210442,128,0,210614:0:0:0:0:
64,192,210528,128,0,210614:0:0:0:60:S2.wav
320,192,210614,128,0,210700:0:0:0:60:S2.wav
192,192,210700,128,0,210785:0:0:0:60:S2.wav
64,192,210785,128,0,211042:0:0:0:70:S.wav
448,192,210785,128,0,211042:0:0:0:0:
64,192,211128,128,0,211214:0:0:0:70:K.wav
192,192,211128,128,0,211214:0:0:0:100:C.wav
320,192,211128,128,0,211300:0:0:0:100:BassKickReverbXD.wav
448,192,211128,128,0,211300:0:0:0:0:
64,192,211300,128,0,211385:0:0:0:0:
192,192,211385,128,0,211557:0:0:0:0:
448,192,211385,128,0,211557:0:0:0:0:
64,192,211471,128,0,211557:0:0:0:70:K.wav
320,192,211557,128,0,211642:0:0:0:0:
64,192,211642,128,0,211814:0:0:0:0:
448,192,211642,128,0,211814:0:0:0:0:
192,192,211814,128,0,211985:0:0:0:70:K.wav
320,192,211814,128,0,211985:0:0:0:0:
448,192,211985,128,0,212071:0:0:0:0:
64,192,212071,128,0,212242:0:0:0:0:
320,192,212071,128,0,212242:0:0:0:0:
448,192,212157,128,0,212242:0:0:0:70:K.wav
192,192,212242,128,0,212328:0:0:0:0:
320,192,212328,128,0,212585:0:0:0:0:
448,192,212328,128,0,212585:0:0:0:0:
64,192,212500,128,0,212928:0:0:0:70:K.wav
192,192,212500,128,0,212757:0:0:0:0:
320,192,212671,128,0,212757:0:0:0:0:
448,192,212671,128,0,212757:0:0:0:0:
192,192,212842,128,0,212928:0:0:0:70:K.wav
320,192,212842,128,0,212928:0:0:0:70:S.wav
448,192,212842,128,0,213014:0:0:0:0:
64,192,213014,128,0,213100:0:0:0:0:
320,192,213014,128,0,213100:0:0:0:0:
192,192,213100,128,0,213185:0:0:0:0:
448,192,213100,128,0,213185:0:0:0:0:
64,192,213185,128,0,213357:0:0:0:70:K.wav
320,192,213185,128,0,213357:0:0:0:0:
448,192,213357,128,0,213442:0:0:0:0:
64,192,213442,128,0,213614:0:0:0:0:
192,192,213442,128,0,213614:0:0:0:0:
448,192,213528,128,0,213614:0:0:0:70:K.wav
320,192,213614,128,0,213700:0:0:0:0:
64,192,213700,128,0,213871:0:0:0:0:
448,192,213700,128,0,213871:0:0:0:0:
320,192,213871,128,0,214214:0:0:0:70:K.wav
192,192,213957,128,0,214128:0:0:0:0:
64,192,214042,128,0,214128:0:0:0:0:
448,192,214042,128,0,214128:0:0:0:0:
64,192,214214,128,0,214471:0:0:0:70:K.wav
192,192,214214,128,0,214385:0:0:0:70:S.wav
448,192,214214,128,0,214300:0:0:0:0:
320,192,214385,128,0,214557:0:0:0:0:
448,192,214471,128,0,214557:0:0:0:0:
64,192,214557,128,0,214728:0:0:0:70:K.wav
192,192,214557,128,0,214728:0:0:0:0:
320,192,214728,128,0,214814:0:0:0:0:
192,192,214814,128,0,214985:0:0:0:0:
448,192,214814,128,0,214985:0:0:0:0:
320,192,214900,128,0,214985:0:0:0:70:K.wav
64,192,214985,128,0,215071:0:0:0:0:
192,192,215071,128,0,215242:0:0:0:0:
320,192,215071,128,0,215242:0:0:0:0:
64,192,215242,128,0,215414:0:0:0:70:K.wav
448,192,215242,128,0,215414:0:0:0:0:
320,192,215414,128,0,215500:0:0:0:0:
192,192,215500,128,0,215671:0:0:0:0:
448,192,215500,128,0,215671:0:0:0:0:
320,192,215585,128,0,215671:0:0:0:70:K.wav
64,192,215671,128,0,215757:0:0:0:0:
320,192,215757,128,0,215928:0:0:0:0:
448,192,215757,128,0,215842:0:0:0:0:
192,192,215842,128,0,215928:0:0:0:0:
64,192,215928,128,0,216271:0:0:0:70:K.wav
448,192,215928,128,0,216100:0:0:0:0:
320,192,216014,128,0,216185:0:0:0:0:
192,192,216100,128,0,216185:0:0:0:0:
448,192,216185,128,0,216357:0:0:0:0:
192,192,216271,128,0,216442:0:0:0:70:K.wav
320,192,216271,128,0,216614:0:0:0:70:S.wav
64,192,216357,128,0,216528:0:0:0:0:
448,192,216442,128,0,216528:0:0:0:0:
192,192,216528,128,0,216614:0:0:0:0:
64,192,216614,128,0,216785:0:0:0:70:K.wav
448,192,216614,128,0,216785:0:0:0:0:
192,192,216785,128,0,216871:0:0:0:0:
64,192,216871,128,0,217042:0:0:0:0:
320,192,216871,128,0,217042:0:0:0:0:
192,192,216957,128,0,217042:0:0:0:70:K.wav
448,192,217042,128,0,217128:0:0:0:0:
64,192,217128,128,0,217300:0:0:0:0:
192,192,217128,128,0,217300:0:0:0:0:
320,192,217300,128,0,217471:0:0:0:70:K.wav
448,192,217300,128,0,217471:0:0:0:0:
192,192,217471,128,0,217557:0:0:0:0:
320,192,217557,128,0,217728:0:0:0:0:
448,192,217557,128,0,217728:0:0:0:0:
64,192,217642,128,0,217728:0:0:0:70:K.wav
192,192,217728,128,0,217814:0:0:0:0:
320,192,217814,128,0,218071:0:0:0:0:
448,192,217814,128,0,218071:0:0:0:0:
64,192,217985,128,0,218414:0:0:0:70:K.wav
192,192,217985,128,0,218071:0:0:0:0:
192,192,218157,128,0,218242:0:0:0:0:
448,192,218157,128,0,218242:0:0:0:0:
192,192,218328,128,0,218414:0:0:0:70:K.wav
320,192,218328,128,0,218585:0:0:0:70:S.wav
448,192,218328,128,0,218414:0:0:0:0:
64,192,218500,128,0,218671:0:0:0:0:
192,192,218585,128,0,218671:0:0:0:0:
320,192,218671,128,0,218842:0:0:0:70:K.wav
448,192,218671,128,0,218842:0:0:0:0:
64,192,218842,128,0,218928:0:0:0:0:
192,192,218928,128,0,219100:0:0:0:0:
320,192,218928,128,0,219100:0:0:0:0:
64,192,219014,128,0,219100:0:0:0:70:K.wav
448,192,219100,128,0,219185:0:0:0:0:
64,192,219185,128,0,219442:0:0:0:0:
192,192,219185,128,0,219442:0:0:0:0:
320,192,219357,128,0,219700:0:0:0:70:K.wav
448,192,219357,128,0,219442:0:0:0:0:
64,192,219528,128,0,219614:0:0:0:0:
192,192,219614,128,0,219700:0:0:0:0:
64,192,219700,128,0,220042:0:0:0:70:K.wav
448,192,219700,128,0,219785:0:0:0:70:S.wav
192,192,219871,128,0,219957:0:0:0:0:
320,192,219957,128,0,220042:0:0:0:0:
192,192,220042,128,0,220385:0:0:0:70:K.wav
448,192,220042,128,0,220128:0:0:0:0:
320,192,220214,128,0,220300:0:0:0:0:
448,192,220300,128,0,220385:0:0:0:0:
64,192,220385,128,0,220471:0:0:0:70:K.wav
320,192,220385,128,0,220728:0:0:0:70:S.wav
448,192,220557,128,0,220642:0:0:0:0:
192,192,220642,128,0,220728:0:0:0:0:
64,192,220728,128,0,220814:0:0:0:70:K.wav
448,192,220728,128,0,221071:0:0:0:0:
320,192,220900,128,0,220985:0:0:0:0:
192,192,220985,128,0,221071:0:0:0:0:
320,192,221071,128,0,221328:0:0:0:70:K.wav
64,192,221071,128,0,221157:0:0:0:70:S.wav
192,192,221242,128,0,221328:0:0:0:0:
64,192,221328,128,0,221414:0:0:0:0:
192,192,221414,128,0,221757:0:0:0:70:K.wav
320,192,221414,128,0,221500:0:0:0:0:
448,192,221500,128,0,221585:0:0:0:0:
64,192,221585,128,0,221671:0:0:0:0:
320,192,221671,128,0,221757:0:0:0:0:
64,192,221757,128,0,222014:0:0:0:70:K.wav
448,192,221757,128,0,221842:0:0:0:70:S.wav
192,192,221842,128,0,221928:0:0:0:0:
320,192,221928,128,0,222014:0:0:0:0:
192,192,222014,128,0,222100:0:0:0:0:
64,192,222100,128,0,222357:0:0:0:70:K.wav
448,192,222100,128,0,222271:0:0:0:0:
320,192,222271,128,0,222357:0:0:0:0:
448,192,222357,128,0,222528:0:0:0:0:
64,192,222442,128,0,222785:0:0:0:70:K.wav
192,192,222442,128,0,222528:0:0:0:70:S.wav
320,192,222528,128,0,222614:0:0:0:0:
448,192,222614,128,0,222785:0:0:0:0:
192,192,222785,128,0,222957:0:0:0:70:K.wav
320,192,222785,128,0,222957:0:0:0:0:
448,192,222957,128,0,223042:0:0:0:0:
64,192,223042,128,0,223214:0:0:0:0:
192,192,223042,128,0,223214:0:0:0:0:
448,192,223128,128,0,223214:0:0:0:70:K.wav
320,192,223214,128,0,223300:0:0:0:0:
192,192,223300,128,0,223557:0:0:0:0:
448,192,223300,128,0,223557:0:0:0:0:
64,192,223471,128,0,223557:0:0:0:70:K.wav
320,192,223471,128,0,223814:0:0:0:0:
192,192,223642,128,0,223814:0:0:0:0:
448,192,223642,128,0,223728:0:0:0:0:
64,192,223814,128,0,223900:0:0:0:70:K.wav
448,192,223814,128,0,224157:0:0:0:70:S.wav
320,192,223985,128,0,224071:0:0:0:0:
192,192,224071,128,0,224157:0:0:0:0:
64,192,224157,128,0,224328:0:0:0:70:K.wav
320,192,224157,128,0,224328:0:0:0:0:
448,192,224328,128,0,224414:0:0:0:0:
64,192,224414,128,0,224585:0:0:0:0:
192,192,224414,128,0,224585:0:0:0:0:
448,192,224500,128,0,224585:0:0:0:70:K.wav
320,192,224585,128,0,224671:0:0:0:0:
64,192,224671,128,0,224842:0:0:0:0:
448,192,224671,128,0,224842:0:0:0:0:
192,192,224842,128,0,225100:0:0:0:70:K.wav
320,192,224842,128,0,225185:0:0:0:0:
64,192,224928,128,0,225100:0:0:0:0:
448,192,225014,128,0,225100:0:0:0:0:
64,192,225185,128,0,225442:0:0:0:70:K.wav
192,192,225185,128,0,225271:0:0:0:70:S.wav
448,192,225185,128,0,225271:0:0:0:0:
320,192,225357,128,0,225528:0:0:0:0:
448,192,225442,128,0,225528:0:0:0:0:
64,192,225528,128,0,225614:0:0:0:70:K.wav
192,192,225528,128,0,225785:0:0:0:0:
448,192,225700,128,0,225785:0:0:0:0:
64,192,225785,128,0,225871:0:0:0:0:
320,192,225785,128,0,226128:0:0:0:0:
192,192,225871,128,0,226042:0:0:0:70:K.wav
448,192,225871,128,0,225957:0:0:0:70:S.wav
64,192,225957,128,0,226042:0:0:0:0:
448,192,226042,128,0,226214:0:0:0:0:
64,192,226214,128,0,226385:0:0:0:70:K.wav
192,192,226214,128,0,226300:0:0:0:0:
320,192,226214,128,0,226471:0:0:0:0:
192,192,226385,128,0,226471:0:0:0:0:
64,192,226471,128,0,226728:0:0:0:0:
448,192,226471,128,0,226557:0:0:0:0:
192,192,226557,128,0,226642:0:0:0:70:K.wav
320,192,226557,128,0,226642:0:0:0:70:S.wav
448,192,226642,128,0,226728:0:0:0:0:
192,192,226728,128,0,226900:0:0:0:0:
320,192,226728,128,0,226814:0:0:0:0:
64,192,226814,128,0,226900:0:0:0:0:
320,192,226900,128,0,226985:0:0:0:70:K.wav
448,192,226900,128,0,227242:0:0:0:0:
64,192,227071,128,0,227157:0:0:0:0:
192,192,227157,128,0,227242:0:0:0:0:
64,192,227242,128,0,227500:0:0:0:70:K.wav
320,192,227242,128,0,227328:0:0:0:70:S.wav
448,192,227414,128,0,227500:0:0:0:0:
192,192,227500,128,0,227585:0:0:0:0:
64,192,227585,128,0,227671:0:0:0:70:K.wav
320,192,227585,128,0,227757:0:0:0:0:
448,192,227671,128,0,227757:0:0:0:0:
64,192,227757,128,0,227842:0:0:0:0:
320,192,227842,128,0,228014:0:0:0:0:
192,192,227928,128,0,228014:0:0:0:70:K.wav
448,192,227928,128,0,228014:0:0:0:70:S.wav
64,192,228014,128,0,228100:0:0:0:0:
320,192,228100,128,0,228357:0:0:0:0:
192,192,228100,128,0,228185:0:0:0:0:
448,192,228185,128,0,228271:0:0:0:0:
64,192,228271,128,0,228357:0:0:0:70:K.wav
192,192,228271,128,0,228442:0:0:0:0:
448,192,228357,128,0,228442:0:0:0:0:
64,192,228442,128,0,228614:0:0:0:0:
320,192,228442,128,0,228528:0:0:0:0:
192,192,228528,128,0,228614:0:0:0:0:
320,192,228614,128,0,228700:0:0:0:70:K.wav
448,192,228614,128,0,228785:0:0:0:70:S.wav
64,192,228700,128,0,228785:0:0:0:0:
192,192,228785,128,0,228871:0:0:0:0:
448,192,228871,128,0,228957:0:0:0:0:
320,192,228871,128,0,229042:0:0:0:0:
192,192,228957,128,0,229042:0:0:0:70:K.wav
64,192,228957,128,0,229042:0:0:0:0:
448,192,229042,128,0,229128:0:0:0:0:
64,192,229128,128,0,229214:0:0:0:0:
320,192,229128,128,0,229300:0:0:0:0:
192,192,229214,128,0,229385:0:0:0:0:
64,192,229300,128,0,229471:0:0:0:70:K.wav
448,192,229300,128,0,229385:0:0:0:70:S.wav
320,192,229385,128,0,229471:0:0:0:0:
192,192,229471,128,0,229642:0:0:0:0:
320,192,229557,128,0,229728:0:0:0:0:
64,192,229642,128,0,229814:0:0:0:70:K.wav
448,192,229642,128,0,229814:0:0:0:0:
192,192,229728,128,0,229900:0:0:0:0:
320,192,229814,128,0,229985:0:0:0:0:
64,192,229900,128,0,230157:0:0:0:0:
448,192,229985,128,0,230157:0:0:0:70:K.wav
192,192,229985,128,0,230071:0:0:0:0:
320,192,230071,128,0,230242:0:0:0:0:
192,192,230157,128,0,230328:0:0:0:0:
448,192,230242,128,0,230328:0:0:0:0:
64,192,230328,128,0,230671:0:0:0:70:K.wav
320,192,230328,128,0,230414:0:0:0:70:C.wav
192,192,230414,128,0,230500:0:0:0:0:
448,192,230500,128,0,230757:0:0:0:0:
192,192,230671,128,0,230842:0:0:0:70:K.wav
320,192,230671,128,0,230757:0:0:0:70:S.wav
64,192,230757,128,0,230928:0:0:0:0:
448,192,230842,128,0,231014:0:0:0:0:
320,192,230928,128,0,231014:0:0:0:0:
64,192,231014,128,0,231357:0:0:0:70:K.wav
192,192,231014,128,0,231100:0:0:0:70:C.wav
320,192,231100,128,0,231185:0:0:0:0:
448,192,231185,128,0,231271:0:0:0:0:
192,192,231271,128,0,231357:0:0:0:0:
320,192,231357,128,0,231442:0:0:0:70:K.wav
448,192,231357,128,0,231700:0:0:0:70:S.wav
192,192,231442,128,0,231528:0:0:0:0:
64,192,231528,128,0,231614:0:0:0:0:
320,192,231614,128,0,231700:0:0:0:0:
64,192,231700,128,0,232042:0:0:0:60:S2.wav
192,192,231700,128,0,231785:0:0:0:70:C.wav
320,192,231785,128,0,231871:0:0:0:60:S2.wav
448,192,231871,128,0,231957:0:0:0:60:S2.wav
192,192,231957,128,0,232042:0:0:0:60:S2.wav
320,192,232042,128,0,232128:0:0:0:60:S2.wav
448,192,232128,128,0,232214:0:0:0:60:S2.wav
64,192,232214,128,0,232300:0:0:0:60:S2.wav
192,192,232300,128,0,232385:0:0:0:60:S2.wav
320,192,232385,128,0,232557:0:0:0:60:S2.wav
64,192,232471,128,0,232642:0:0:0:60:S2.wav
448,192,232557,128,0,232642:0:0:0:60:S2.wav
192,192,232642,128,0,232728:0:0:0:60:S2.wav
64,192,232728,128,0,232985:0:0:0:60:S2.wav
320,192,232728,128,0,232814:0:0:0:70:S.wav
448,192,232728,128,0,232900:0:0:0:0:
192,192,232814,128,0,232985:0:0:0:60:S2.wav
320,192,232900,128,0,232985:0:0:0:60:S2.wav
448,192,232985,128,0,233071:0:0:0:60:S2.wav
64,192,233071,128,0,233242:0:0:0:70:K.wav
192,192,233071,128,0,233157:0:0:0:100:C.wav
320,192,233071,128,0,233242:0:0:0:100:BassKickReverbXD.wav
448,192,233242,128,0,233328:0:0:0:0:
64,192,233328,128,0,233500:0:0:0:0:
192,192,233328,128,0,233500:0:0:0:0:
320,192,233414,128,0,233500:0:0:0:70:K.wav
448,192,233500,128,0,233585:0:0:0:0:
64,192,233585,128,0,233757:0:0:0:0:
192,192,233585,128,0,233757:0:0:0:0:
320,192,233757,128,0,233928:0:0:0:70:K.wav
448,192,233757,128,0,234100:0:0:0:0:
192,192,233928,128,0,234014:0:0:0:0:
320,192,234014,128,0,234185:0:0:0:0:
64,192,234100,128,0,234357:0:0:0:70:K.wav
192,192,234100,128,0,234185:0:0:0:70:S.wav
448,192,234185,128,0,234271:0:0:0:0:
192,192,234271,128,0,234871:0:0:0:0:
320,192,234271,128,0,234528:0:0:0:0:
448,192,234442,128,0,234700:0:0:0:70:K.wav
64,192,234614,128,0,234700:0:0:0:0:
320,192,234614,128,0,234700:0:0:0:0:
64,192,234785,128,0,234871:0:0:0:70:K.wav
320,192,234785,128,0,234957:0:0:0:70:S.wav
448,192,234785,128,0,235128:0:0:0:0:
64,192,234957,128,0,235042:0:0:0:0:
192,192,234957,128,0,235042:0:0:0:0:
320,192,235042,128,0,235128:0:0:0:0:
64,192,235128,128,0,235300:0:0:0:70:K.wav
192,192,235128,128,0,235300:0:0:0:0:
448,192,235300,128,0,235385:0:0:0:0:
64,192,235385,128,0,235557:0:0:0:0:
320,192,235385,128,0,235557:0:0:0:0:
448,192,235471,128,0,235728:0:0:0:70:K.wav
192,192,235557,128,0,235642:0:0:0:0:
64,192,235642,128,0,235814:0:0:0:0:
320,192,235642,128,0,235814:0:0:0:0:
192,192,235814,128,0,236157:0:0:0:70:K.wav
448,192,235814,128,0,235900:0:0:0:0:
64,192,235900,128,0,236071:0:0:0:0:
320,192,235985,128,0,236071:0:0:0:0:
448,192,235985,128,0,236071:0:0:0:0:
64,192,236157,128,0,236328:0:0:0:70:K.wav
448,192,236157,128,0,236414:0:0:0:70:S.wav
320,192,236157,128,0,236242:0:0:0:0:
320,192,236328,128,0,236500:0:0:0:0:
192,192,236414,128,0,236500:0:0:0:0:
64,192,236500,128,0,236671:0:0:0:70:K.wav
448,192,236500,128,0,236671:0:0:0:0:
192,192,236671,128,0,236757:0:0:0:0:
320,192,236757,128,0,236928:0:0:0:0:
448,192,236757,128,0,236928:0:0:0:0:
192,192,236842,128,0,237014:0:0:0:70:K.wav
64,192,236928,128,0,237014:0:0:0:0:
320,192,237014,128,0,237528:0:0:0:0:
448,192,237014,128,0,237185:0:0:0:0:
64,192,237185,128,0,237357:0:0:0:70:K.wav
192,192,237185,128,0,237357:0:0:0:0:
448,192,237357,128,0,237442:0:0:0:0:
64,192,237442,128,0,237614:0:0:0:0:
192,192,237442,128,0,237614:0:0:0:0:
448,192,237528,128,0,237614:0:0:0:70:K.wav
320,192,237614,128,0,237700:0:0:0:0:
64,192,237700,128,0,237871:0:0:0:0:
192,192,237700,128,0,237871:0:0:0:0:
320,192,237871,128,0,237957:0:0:0:70:K.wav
448,192,237871,128,0,238128:0:0:0:0:
192,192,238042,128,0,238128:0:0:0:0:
320,192,238128,128,0,238214:0:0:0:0:
64,192,238214,128,0,238471:0:0:0:70:K.wav
448,192,238214,128,0,238471:0:0:0:70:S.wav
192,192,238300,128,0,238385:0:0:0:0:
320,192,238385,128,0,238471:0:0:0:0:
192,192,238471,128,0,238557:0:0:0:0:
64,192,238557,128,0,238900:0:0:0:70:K.wav
448,192,238557,128,0,238728:0:0:0:0:
192,192,238728,128,0,238814:0:0:0:0:
320,192,238814,128,0,238985:0:0:0:0:
448,192,238814,128,0,238985:0:0:0:0:
192,192,238900,128,0,239242:0:0:0:70:K.wav
64,192,238985,128,0,239071:0:0:0:0:
320,192,239071,128,0,239157:0:0:0:0:
448,192,239071,128,0,239242:0:0:0:0:
64,192,239242,128,0,239414:0:0:0:70:K.wav
320,192,239242,128,0,239585:0:0:0:0:
192,192,239414,128,0,239500:0:0:0:0:
64,192,239500,128,0,239671:0:0:0:0:
448,192,239500,128,0,239671:0:0:0:0:
192,192,239585,128,0,240014:0:0:0:70:K.wav
320,192,239671,128,0,239757:0:0:0:0:
64,192,239757,128,0,240014:0:0:0:0:
448,192,239757,128,0,239842:0:0:0:0:
320,192,239928,128,0,240185:0:0:0:70:K.wav
448,192,239928,128,0,240357:0:0:0:0:
64,192,240100,128,0,240185:0:0:0:0:
192,192,240100,128,0,240185:0:0:0:0:
64,192,240271,128,0,240528:0:0:0:70:K.wav
192,192,240271,128,0,240357:0:0:0:70:S.wav
320,192,240271,128,0,240357:0:0:0:0:
448,192,240442,128,0,240614:0:0:0:0:
320,192,240528,128,0,240614:0:0:0:0:
64,192,240614,128,0,240785:0:0:0:70:K.wav
192,192,240614,128,0,241042:0:0:0:0:
448,192,240785,128,0,240871:0:0:0:0:
320,192,240871,128,0,240957:0:0:0:0:
64,192,240957,128,0,241042:0:0:0:70:K.wav
448,192,240957,128,0,241557:0:0:0:70:S.wav
320,192,241042,128,0,241128:0:0:0:0:
64,192,241128,128,0,241300:0:0:0:0:
192,192,241300,128,0,241385:0:0:0:70:K.wav
320,192,241300,128,0,241642:0:0:0:0:
64,192,241471,128,0,241557:0:0:0:0:
192,192,241557,128,0,241642:0:0:0:0:
64,192,241642,128,0,241985:0:0:0:70:K.wav
448,192,241642,128,0,241728:0:0:0:70:S.wav
192,192,241814,128,0,241900:0:0:0:0:
320,192,241900,128,0,241985:0:0:0:0:
192,192,241985,128,0,242328:0:0:0:70:K.wav
448,192,241985,128,0,242071:0:0:0:0:
320,192,242157,128,0,242242:0:0:0:0:
448,192,242242,128,0,242328:0:0:0:0:
64,192,242328,128,0,242414:0:0:0:70:K.wav
320,192,242328,128,0,242585:0:0:0:70:S.wav
64,192,242500,128,0,242671:0:0:0:0:
448,192,242500,128,0,242585:0:0:0:0:
192,192,242585,128,0,242671:0:0:0:0:
320,192,242671,128,0,242757:0:0:0:70:K.wav
448,192,242671,128,0,243014:0:0:0:0:
192,192,242842,128,0,242928:0:0:0:0:
320,192,242928,128,0,243014:0:0:0:0:
64,192,243014,128,0,243100:0:0:0:70:K.wav
192,192,243014,128,0,243357:0:0:0:70:S.wav
320,192,243185,128,0,243271:0:0:0:0:
64,192,243271,128,0,243357:0:0:0:0:
320,192,243357,128,0,243614:0:0:0:70:K.wav
448,192,243357,128,0,243442:0:0:0:0:
448,192,243528,128,0,243614:0:0:0:0:
192,192,243528,128,0,243700:0:0:0:0:
64,192,243614,128,0,243700:0:0:0:0:
320,192,243700,128,0,243785:0:0:0:70:K.wav
448,192,243700,128,0,244042:0:0:0:70:S.wav
192,192,243785,128,0,243871:0:0:0:0:
64,192,243871,128,0,243957:0:0:0:0:
192,192,243957,128,0,244042:0:0:0:0:
64,192,244042,128,0,244214:0:0:0:70:K.wav
320,192,244042,128,0,244214:0:0:0:0:
192,192,244214,128,0,244300:0:0:0:0:
320,192,244300,128,0,244471:0:0:0:0:
448,192,244300,128,0,244557:0:0:0:0:
192,192,244385,128,0,244471:0:0:0:70:K.wav
64,192,244471,128,0,244557:0:0:0:0:
192,192,244557,128,0,244728:0:0:0:0:
320,192,244557,128,0,244728:0:0:0:0:
64,192,244728,128,0,244900:0:0:0:70:K.wav
448,192,244728,128,0,244985:0:0:0:0:
192,192,244900,128,0,244985:0:0:0:0:
64,192,244985,128,0,245157:0:0:0:0:
320,192,244985,128,0,245157:0:0:0:0:
448,192,245071,128,0,245242:0:0:0:70:K.wav
192,192,245157,128,0,245242:0:0:0:0:
64,192,245242,128,0,245500:0:0:0:0:
320,192,245242,128,0,245671:0:0:0:0:
192,192,245414,128,0,245500:0:0:0:70:K.wav
448,192,245414,128,0,245842:0:0:0:0:
64,192,245585,128,0,245671:0:0:0:0:
192,192,245585,128,0,245671:0:0:0:0:
192,192,245757,128,0,246100:0:0:0:70:K.wav
320,192,245757,128,0,245842:0:0:0:70:S.wav
64,192,245928,128,0,246014:0:0:0:0:
448,192,245928,128,0,246014:0:0:0:0:
320,192,246014,128,0,246100:0:0:0:0:
64,192,246100,128,0,246271:0:0:0:70:K.wav
448,192,246100,128,0,246271:0:0:0:0:
192,192,246271,128,0,246357:0:0:0:0:
320,192,246357,128,0,246528:0:0:0:0:
192,192,246442,128,0,246528:0:0:0:70:K.wav
448,192,246442,128,0,246700:0:0:0:70:S.wav
64,192,246528,128,0,246614:0:0:0:0:
192,192,246614,128,0,246785:0:0:0:0:
320,192,246614,128,0,246785:0:0:0:0:
64,192,246785,128,0,247128:0:0:0:70:K.wav
448,192,246785,128,0,247042:0:0:0:0:
320,192,246871,128,0,247042:0:0:0:0:
192,192,246957,128,0,247042:0:0:0:0:
192,192,247128,128,0,247214:0:0:0:70:K.wav
320,192,247128,128,0,247214:0:0:0:70:S.wav
448,192,247128,128,0,247385:0:0:0:0:
64,192,247300,128,0,247471:0:0:0:0:
192,192,247385,128,0,247471:0:0:0:0:
320,192,247471,128,0,247642:0:0:0:70:K.wav
448,192,247471,128,0,247642:0:0:0:0:
192,192,247642,128,0,247900:0:0:0:0:
64,192,247728,128,0,247900:0:0:0:0:
320,192,247814,128,0,247900:0:0:0:70:K.wav
448,192,247900,128,0,247985:0:0:0:0:
192,192,247985,128,0,248157:0:0:0:0:
320,192,247985,128,0,248328:0:0:0:0:
64,192,248157,128,0,248414:0:0:0:70:K.wav
448,192,248157,128,0,248242:0:0:0:0:
192,192,248328,128,0,248500:0:0:0:0:
320,192,248414,128,0,248500:0:0:0:0:
64,192,248500,128,0,248585:0:0:0:70:K.wav
448,192,248500,128,0,248671:0:0:0:70:S.wav
192,192,248585,128,0,248671:0:0:0:0:
320,192,248671,128,0,248757:0:0:0:0:
448,192,248757,128,0,248842:0:0:0:0:
192,192,248842,128,0,249100:0:0:0:70:K.wav
320,192,248842,128,0,249014:0:0:0:0:
64,192,249014,128,0,249185:0:0:0:0:
320,192,249100,128,0,249185:0:0:0:0:
192,192,249185,128,0,249271:0:0:0:70:K.wav
448,192,249185,128,0,249442:0:0:0:70:S.wav
320,192,249357,128,0,249442:0:0:0:0:
192,192,249442,128,0,249528:0:0:0:0:
64,192,249528,128,0,249785:0:0:0:70:K.wav
448,192,249528,128,0,249614:0:0:0:0:
192,192,249614,128,0,249700:0:0:0:0:
320,192,249700,128,0,249785:0:0:0:0:
448,192,249785,128,0,249871:0:0:0:0:
64,192,249871,128,0,249957:0:0:0:70:K.wav
192,192,249871,128,0,250128:0:0:0:70:S.wav
320,192,249957,128,0,250042:0:0:0:0:
448,192,250042,128,0,250128:0:0:0:0:
64,192,250128,128,0,250214:0:0:0:0:
192,192,250214,128,0,250300:0:0:0:70:K.wav
320,192,250214,128,0,250471:0:0:0:0:
448,192,250300,128,0,250385:0:0:0:0:
64,192,250385,128,0,250471:0:0:0:0:
192,192,250471,128,0,250557:0:0:0:0:
320,192,250557,128,0,250642:0:0:0:70:K.wav
448,192,250557,128,0,250814:0:0:0:70:S.wav
64,192,250642,128,0,250728:0:0:0:0:
192,192,250728,128,0,250814:0:0:0:0:
320,192,250814,128,0,250900:0:0:0:0:
64,192,250900,128,0,250985:0:0:0:70:K.wav
448,192,250900,128,0,251157:0:0:0:0:
320,192,250985,128,0,251071:0:0:0:0:
192,192,251071,128,0,251157:0:0:0:0:
64,192,251157,128,0,251242:0:0:0:0:
320,192,251242,128,0,251500:0:0:0:70:K.wav
448,192,251242,128,0,251328:0:0:0:70:S.wav
192,192,251328,128,0,251414:0:0:0:0:
64,192,251414,128,0,251500:0:0:0:0:
448,192,251500,128,0,251585:0:0:0:0:
192,192,251585,128,0,251842:0:0:0:70:K.wav
320,192,251585,128,0,251671:0:0:0:0:
64,192,251671,128,0,251757:0:0:0:0:
448,192,251757,128,0,251842:0:0:0:0:
320,192,251842,128,0,251928:0:0:0:0:
64,192,251928,128,0,252185:0:0:0:70:K.wav
192,192,251928,128,0,252014:0:0:0:70:S.wav
448,192,252014,128,0,252100:0:0:0:0:
320,192,252100,128,0,252185:0:0:0:0:
192,192,252185,128,0,252271:0:0:0:0:
64,192,252271,128,0,252442:0:0:0:70:K.wav
448,192,252271,128,0,252614:0:0:0:0:
320,192,252357,128,0,252528:0:0:0:0:
192,192,252442,128,0,252700:0:0:0:0:
64,192,252614,128,0,252871:0:0:0:70:K.wav
320,192,252614,128,0,252700:0:0:0:70:S.wav
448,192,252700,128,0,252785:0:0:0:0:
192,192,252785,128,0,252871:0:0:0:0:
320,192,252871,128,0,252957:0:0:0:0:
192,192,252957,128,0,253042:0:0:0:70:K.wav
448,192,252957,128,0,253214:0:0:0:0:
64,192,253042,128,0,253128:0:0:0:0:
320,192,253128,128,0,253214:0:0:0:0:
192,192,253214,128,0,253300:0:0:0:0:
64,192,253300,128,0,253385:0:0:0:70:K.wav
448,192,253300,128,0,253728:0:0:0:70:S.wav
320,192,253385,128,0,253471:0:0:0:0:
192,192,253471,128,0,253557:0:0:0:0:
64,192,253557,128,0,253728:0:0:0:0:
192,192,253642,128,0,253728:0:0:0:100:K.wav
320,192,253642,128,0,253728:0:0:0:0:
64,192,253814,128,0,253900:0:0:0:0:
448,192,253814,128,0,253900:0:0:0:0:
192,192,253985,128,0,254071:0:0:0:70:K.wav
320,192,253985,128,0,254071:0:0:0:0:
64,192,254071,128,0,254157:0:0:0:70:K.wav
448,192,254071,128,0,254157:0:0:0:0:
192,192,254157,128,0,254242:0:0:0:70:K.wav
320,192,254157,128,0,254242:0:0:0:0:
64,192,254242,128,0,254328:0:0:0:70:K.wav
448,192,254242,128,0,254328:0:0:0:0:
192,192,254328,128,0,254500:0:0:0:70:K.wav
320,192,254328,128,0,254585:0:0:0:70:S2.wav
448,192,254414,128,0,254671:0:0:0:70:S2.wav
64,192,254500,128,0,254671:0:0:0:70:S2.wav
192,192,254585,128,0,254757:0:0:0:70:S2.wav
320,192,254671,128,0,254842:0:0:0:70:S2.wav
64,192,254757,128,0,254928:0:0:0:70:S2.wav
448,192,254757,128,0,254928:0:0:0:0:
192,192,254842,128,0,254928:0:0:0:70:S2.wav
320,192,254928,128,0,255014:0:0:0:70:S2.wav
64,192,255014,1,0,0:0:0:70:K.wav
192,192,255014,1,0,0:0:0:100:C.wav
448,192,255014,1,0,0:0:0:100:BassKickReverbXD.wav
320,192,255100,1,0,0:0:0:0:
192,192,255185,1,0,0:0:0:0:
320,192,255271,1,0,0:0:0:0:
448,192,255271,1,0,0:0:0:0:
64,192,255357,1,0,0:0:0:70:S2.wav
192,192,255357,1,0,0:0:0:70:clap.wav
192,192,255528,128,0,255614:0:0:0:0:
320,192,255528,128,0,255614:0:0:0:0:
448,192,255528,128,0,255614:0:0:0:0:
64,192,255614,1,0,0:0:0:0:
320,192,255700,1,0,0:0:0:70:K.wav
448,192,255700,1,0,0:0:0:0:
192,192,255785,1,0,0:0:0:0:
64,192,255871,1,0,0:0:0:0:
320,192,255957,1,0,0:0:0:0:
448,192,255957,1,0,0:0:0:0:
64,192,256042,1,0,0:0:0:70:S2.wav
192,192,256042,1,0,0:0:0:70:clap.wav
320,192,256214,1,0,0:0:0:0:
320,192,256300,1,0,0:0:0:0:
64,192,256385,1,0,0:0:0:70:K.wav
448,192,256385,1,0,0:0:0:0:
192,192,256471,1,0,0:0:0:0:
320,192,256557,1,0,0:0:0:0:
192,192,256642,1,0,0:0:0:0:
448,192,256642,1,0,0:0:0:0:
64,192,256728,1,0,0:0:0:70:S2.wav
320,192,256728,1,0,0:0:0:70:clap.wav
64,192,256900,1,0,0:0:0:0:
192,192,256900,1,0,0:0:0:0:
320,192,256985,1,0,0:0:0:0:
192,192,257071,1,0,0:0:0:70:K.wav
448,192,257071,1,0,0:0:0:0:
64,192,257157,1,0,0:0:0:0:
320,192,257242,1,0,0:0:0:0:
64,192,257328,1,0,0:0:0:0:
192,192,257328,1,0,0:0:0:0:
320,192,257414,1,0,0:0:0:70:S2.wav
448,192,257414,1,0,0:0:0:70:clap.wav
64,192,257585,128,0,257757:0:0:0:0:
320,192,257671,1,0,0:0:0:0:
192,192,257757,128,0,258100:0:0:0:70:K.wav
448,192,257757,1,0,0:0:0:0:
64,192,257842,1,0,0:0:0:0:
320,192,257928,1,0,0:0:0:0:
448,192,258014,1,0,0:0:0:0:
64,192,258100,1,0,0:0:0:70:S2.wav
320,192,258100,128,0,258442:0:0:0:70:clap.wav
64,192,258271,128,0,258357:0:0:0:0:
448,192,258271,128,0,258357:0:0:0:0:
192,192,258357,1,0,0:0:0:0:
64,192,258442,1,0,0:0:0:70:K.wav
448,192,258442,128,0,258785:0:0:0:0:
320,192,258528,1,0,0:0:0:0:
192,192,258614,1,0,0:0:0:0:
64,192,258700,1,0,0:0:0:0:
192,192,258785,128,0,258957:0:0:0:70:S2.wav
320,192,258785,1,0,0:0:0:70:clap.wav
320,192,258957,128,0,259300:0:0:0:0:
448,192,259042,1,0,0:0:0:0:
64,192,259128,1,0,0:0:0:70:K.wav
192,192,259128,1,0,0:0:0:0:
448,192,259214,1,0,0:0:0:0:
64,192,259300,1,0,0:0:0:0:
192,192,259300,1,0,0:0:0:0:
64,192,259385,1,0,0:0:0:0:
192,192,259385,1,0,0:0:0:0:
320,192,259471,128,0,259814:0:0:0:70:S2.wav
448,192,259471,128,0,259557:0:0:0:70:clap.wav
64,192,259557,128,0,259642:0:0:0:0:
192,192,259642,128,0,259728:0:0:0:0:
448,192,259728,128,0,259814:0:0:0:0:
64,192,259814,128,0,259900:0:0:0:70:K.wav
192,192,259814,128,0,260157:0:0:0:0:
320,192,259900,128,0,260071:0:0:0:0:
64,192,259985,128,0,260071:0:0:0:0:
448,192,260071,128,0,260157:0:0:0:0:
64,192,260157,128,0,260500:0:0:0:70:S2.wav
320,192,260157,128,0,260328:0:0:0:70:clap.wav
192,192,260242,128,0,260414:0:0:0:0:
448,192,260328,128,0,260414:0:0:0:0:
320,192,260414,128,0,260500:0:0:0:0:
192,192,260500,1,0,0:0:0:70:K.wav
448,192,260500,1,0,0:0:0:0:
64,192,260585,1,0,0:0:0:0:
320,192,260671,1,0,0:0:0:0:
192,192,260757,1,0,0:0:0:0:
448,192,260757,1,0,0:0:0:0:
64,192,260842,1,0,0:0:0:70:S2.wav
320,192,260842,1,0,0:0:0:70:clap.wav
64,192,261014,128,0,261100:0:0:0:0:
320,192,261014,128,0,261100:0:0:0:0:
448,192,261014,128,0,261100:0:0:0:0:
192,192,261100,1,0,0:0:0:0:
320,192,261185,1,0,0:0:0:70:K.wav
448,192,261185,1,0,0:0:0:0:
64,192,261271,1,0,0:0:0:0:
192,192,261357,1,0,0:0:0:0:
320,192,261442,1,0,0:0:0:0:
448,192,261442,1,0,0:0:0:0:
64,192,261528,1,0,0:0:0:70:S2.wav
192,192,261528,1,0,0:0:0:70:clap.wav
192,192,261700,1,0,0:0:0:0:
192,192,261785,1,0,0:0:0:0:
320,192,261871,1,0,0:0:0:70:K.wav
448,192,261871,1,0,0:0:0:0:
64,192,261957,1,0,0:0:0:0:
448,192,262042,1,0,0:0:0:0:
192,192,262128,1,0,0:0:0:0:
320,192,262128,1,0,0:0:0:0:
64,192,262214,1,0,0:0:0:70:S2.wav
448,192,262214,1,0,0:0:0:70:clap.wav
64,192,262385,1,0,0:0:0:0:
192,192,262385,1,0,0:0:0:0:
320,192,262471,1,0,0:0:0:0:
64,192,262557,1,0,0:0:0:70:K.wav
448,192,262557,1,0,0:0:0:0:
192,192,262642,1,0,0:0:0:0:
320,192,262728,1,0,0:0:0:0:
192,192,262814,1,0,0:0:0:0:
64,192,262900,1,0,0:0:0:70:S2.wav
320,192,262900,1,0,0:0:0:70:clap.wav
448,192,262900,1,0,0:0:0:0:
320,192,263071,1,0,0:0:0:0:
320,192,263157,1,0,0:0:0:0:
64,192,263242,1,0,0:0:0:70:K.wav
192,192,263242,1,0,0:0:0:0:
320,192,263328,1,0,0:0:0:0:
64,192,263414,1,0,0:0:0:0:
448,192,263414,1,0,0:0:0:0:
192,192,263500,1,0,0:0:0:0:
320,192,263500,1,0,0:0:0:0:
64,192,263585,1,0,0:0:0:70:S2.wav
448,192,263585,1,0,0:0:0:70:clap.wav
192,192,263757,128,0,263842:0:0:0:0:
320,192,263757,128,0,263842:0:0:0:0:
448,192,263757,128,0,263842:0:0:0:0:
64,192,263842,1,0,0:0:0:0:
192,192,263928,1,0,0:0:0:70:K.wav
448,192,263928,1,0,0:0:0:0:
320,192,264014,1,0,0:0:0:0:
64,192,264100,1,0,0:0:0:0:
192,192,264185,1,0,0:0:0:0:
448,192,264185,1,0,0:0:0:0:
64,192,264271,1,0,0:0:0:70:S2.wav
320,192,264271,1,0,0:0:0:70:clap.wav
192,192,264442,1,0,0:0:0:0:
192,192,264528,1,0,0:0:0:0:
320,192,264614,1,0,0:0:0:70:K.wav
448,192,264614,1,0,0:0:0:0:
192,192,264785,1,0,0:0:0:0:
64,192,264828,1,0,0:0:0:0:
320,192,264871,1,0,0:0:0:0:
448,192,264914,1,0,0:0:0:0:
64,192,264957,1,0,0:0:0:70:S2.wav
192,192,264957,1,0,0:0:0:70:clap.wav
448,192,265128,1,0,0:0:0:0:
320,192,265171,1,0,0:0:0:0:
64,192,265214,1,0,0:0:0:0:
192,192,265257,1,0,0:0:0:0:
320,192,265300,1,0,0:0:0:70:K.wav
448,192,265300,1,0,0:0:0:0:
64,192,265471,1,0,0:0:0:0:
192,192,265514,1,0,0:0:0:0:
448,192,265557,1,0,0:0:0:0:
320,192,265600,1,0,0:0:0:0:
64,192,265642,1,0,0:0:0:70:S2.wav
192,192,265642,1,0,0:0:0:70:clap.wav
320,192,265814,1,0,0:0:0:0:
448,192,265857,1,0,0:0:0:0:
192,192,265900,1,0,0:0:0:0:
64,192,265942,1,0,0:0:0:0:
320,192,265985,1,0,0:0:0:70:K.wav
448,192,265985,1,0,0:0:0:100:C.wav
192,192,266071,1,0,0:0:0:0:
64,192,266157,1,0,0:0:0:0:
320,192,266157,1,0,0:0:0:0:
192,192,266242,1,0,0:0:0:0:
448,192,266242,1,0,0:0:0:0:
64,192,266328,1,0,0:0:0:70:S2.wav
320,192,266328,1,0,0:0:0:70:clap.wav
64,192,266500,128,0,266585:0:0:0:0:
192,192,266500,128,0,266585:0:0:0:0:
320,192,266500,128,0,266585:0:0:0:0:
448,192,266585,1,0,0:0:0:0:
64,192,266671,1,0,0:0:0:70:K.wav
192,192,266671,1,0,0:0:0:0:
320,192,266757,1,0,0:0:0:0:
448,192,266842,1,0,0:0:0:0:
192,192,266928,1,0,0:0:0:0:
64,192,267014,1,0,0:0:0:70:S2.wav
320,192,267014,1,0,0:0:0:70:clap.wav
448,192,267014,1,0,0:0:0:0:
448,192,267185,1,0,0:0:0:0:
448,192,267271,1,0,0:0:0:0:
64,192,267357,1,0,0:0:0:70:K.wav
192,192,267357,1,0,0:0:0:0:
320,192,267442,1,0,0:0:0:0:
64,192,267528,1,0,0:0:0:0:
192,192,267614,1,0,0:0:0:0:
448,192,267614,1,0,0:0:0:0:
64,192,267700,1,0,0:0:0:70:S2.wav
320,192,267700,1,0,0:0:0:70:clap.wav
64,192,267871,1,0,0:0:0:0:
192,192,267871,1,0,0:0:0:0:
448,192,267957,1,0,0:0:0:0:
192,192,268042,1,0,0:0:0:70:K.wav
320,192,268042,1,0,0:0:0:0:
64,192,268128,1,0,0:0:0:0:
448,192,268214,1,0,0:0:0:0:
192,192,268300,1,0,0:0:0:0:
64,192,268385,1,0,0:0:0:70:S2.wav
320,192,268385,1,0,0:0:0:70:clap.wav
448,192,268385,1,0,0:0:0:0:
320,192,268557,128,0,268728:0:0:0:0:
192,192,268642,1,0,0:0:0:0:
64,192,268728,1,0,0:0:0:70:K.wav
448,192,268728,128,0,269071:0:0:0:0:
320,192,268814,1,0,0:0:0:0:
192,192,268900,1,0,0:0:0:0:
64,192,268985,1,0,0:0:0:0:
192,192,269071,128,0,269414:0:0:0:70:S2.wav
320,192,269071,1,0,0:0:0:70:clap.wav
320,192,269242,128,0,269328:0:0:0:0:
448,192,269242,128,0,269328:0:0:0:0:
64,192,269328,1,0,0:0:0:0:
320,192,269414,128,0,269757:0:0:0:70:K.wav
448,192,269414,1,0,0:0:0:0:
192,192,269500,1,0,0:0:0:0:
64,192,269585,1,0,0:0:0:0:
448,192,269671,1,0,0:0:0:0:
64,192,269757,128,0,269928:0:0:0:70:S2.wav
192,192,269757,1,0,0:0:0:70:clap.wav
320,192,269928,1,0,0:0:0:0:
448,192,269928,128,0,270271:0:0:0:0:
64,192,270014,1,0,0:0:0:0:
192,192,270100,1,0,0:0:0:70:K.wav
320,192,270100,1,0,0:0:0:0:
64,192,270185,1,0,0:0:0:0:
192,192,270271,1,0,0:0:0:0:
320,192,270271,1,0,0:0:0:0:
192,192,270357,1,0,0:0:0:0:
320,192,270357,1,0,0:0:0:0:
64,192,270442,128,0,270785:0:0:0:70:S2.wav
448,192,270442,128,0,270528:0:0:0:70:clap.wav
320,192,270528,128,0,270614:0:0:0:0:
192,192,270614,128,0,270700:0:0:0:0:
448,192,270700,128,0,270785:0:0:0:0:
192,192,270785,128,0,271128:0:0:0:70:K.wav
320,192,270785,1,0,0:0:0:0:
64,192,270871,128,0,271042:0:0:0:0:
448,192,270957,128,0,271042:0:0:0:0:
320,192,271042,128,0,271128:0:0:0:0:
64,192,271128,128,0,271214:0:0:0:70:S2.wav
448,192,271128,128,0,271471:0:0:0:70:clap.wav
192,192,271214,128,0,271385:0:0:0:0:
64,192,271300,128,0,271385:0:0:0:0:
320,192,271300,128,0,271471:0:0:0:0:
64,192,271471,128,0,271642:0:0:0:70:K.wav
192,192,271471,1,0,0:0:0:0:
320,192,271557,1,0,0:0:0:0:
448,192,271642,1,0,0:0:0:0:
192,192,271728,1,0,0:0:0:0:
64,192,271814,128,0,271985:0:0:0:70:S2.wav
320,192,271814,1,0,0:0:0:70:clap.wav
192,192,271900,1,0,0:0:0:0:
448,192,271985,128,0,272071:0:0:0:0:
320,192,272071,1,0,0:0:0:0:
64,192,272157,128,0,272328:0:0:0:70:K.wav
192,192,272157,1,0,0:0:0:0:
448,192,272242,1,0,0:0:0:0:
320,192,272328,1,0,0:0:0:0:
192,192,272414,1,0,0:0:0:0:
64,192,272500,128,0,272671:0:0:0:70:S2.wav
320,192,272500,1,0,0:0:0:70:clap.wav
448,192,272585,1,0,0:0:0:0:
192,192,272671,1,0,0:0:0:0:
320,192,272757,1,0,0:0:0:0:
64,192,272842,128,0,272928:0:0:0:70:K.wav
448,192,272842,1,0,0:0:0:0:
192,192,272928,1,0,0:0:0:0:
64,192,273014,128,0,273100:0:0:0:0:
320,192,273014,1,0,0:0:0:0:
448,192,273100,1,0,0:0:0:0:
64,192,273185,1,0,0:0:0:70:S2.wav
192,192,273185,128,0,273271:0:0:0:70:clap.wav
320,192,273271,1,0,0:0:0:0:
192,192,273357,128,0,273442:0:0:0:0:
448,192,273357,1,0,0:0:0:0:
64,192,273442,1,0,0:0:0:0:
192,192,273528,1,0,0:0:0:70:K.wav
320,192,273528,128,0,273614:0:0:0:0:
448,192,273614,1,0,0:0:0:0:
64,192,273700,1,0,0:0:0:0:
320,192,273700,128,0,273785:0:0:0:0:
192,192,273785,1,0,0:0:0:0:
320,192,273871,1,0,0:0:0:70:S2.wav
448,192,273871,128,0,273957:0:0:0:70:clap.wav
64,192,273957,1,0,0:0:0:0:
192,192,274042,1,0,0:0:0:0:
448,192,274042,128,0,274128:0:0:0:0:
320,192,274128,1,0,0:0:0:0:
64,192,274214,128,0,274300:0:0:0:70:K.wav
192,192,274214,1,0,0:0:0:0:
320,192,274300,1,0,0:0:0:0:
448,192,274300,128,0,274385:0:0:0:0:
64,192,274385,128,0,274471:0:0:0:0:
192,192,274385,1,0,0:0:0:0:
320,192,274471,1,0,0:0:0:0:
448,192,274471,128,0,274557:0:0:0:0:
64,192,274557,128,0,274642:0:0:0:70:S2.wav
192,192,274557,1,0,0:0:0:70:clap.wav
320,192,274642,1,0,0:0:0:0:
448,192,274642,128,0,274728:0:0:0:0:
64,192,274728,128,0,274814:0:0:0:0:
192,192,274728,128,0,274814:0:0:0:0:
320,192,274814,1,0,0:0:0:0:
448,192,274814,128,0,274900:0:0:0:0:
64,192,274900,128,0,274985:0:0:0:70:K.wav
192,192,274900,1,0,0:0:0:0:
320,192,274985,1,0,0:0:0:0:
448,192,274985,128,0,275071:0:0:0:0:
64,192,275071,128,0,275157:0:0:0:0:
192,192,275071,1,0,0:0:0:0:
320,192,275157,1,0,0:0:0:0:
448,192,275157,128,0,275242:0:0:0:0:
64,192,275242,128,0,275328:0:0:0:70:S2.wav
192,192,275242,1,0,0:0:0:70:clap.wav
320,192,275328,1,0,0:0:0:0:
448,192,275328,128,0,275414:0:0:0:0:
64,192,275414,128,0,275500:0:0:0:0:
192,192,275414,1,0,0:0:0:0:
320,192,275500,1,0,0:0:0:0:
448,192,275500,128,0,275585:0:0:0:0:
64,192,275585,128,0,276871:0:0:0:70:K.wav
192,192,275585,1,0,0:0:0:100:BassKickReverbXD.wav
192,192,275671,1,0,0:0:0:0:
320,192,275757,1,0,0:0:0:0:
320,192,275842,1,0,0:0:0:0:
448,192,275928,128,0,276271:0:0:0:0:
320,192,276271,128,0,276614:0:0:0:0:
192,192,276614,128,0,282442:0:0:0:0:
64,192,276957,128,0,282442:0:0:0:100:BassKickReverbXD.wav
320,192,276957,128,0,282442:0:0:0:0:
448,192,277128,128,0,277300:0:0:0:0:
448,192,277471,128,0,277642:0:0:0:0:
448,192,277814,128,0,277985:0:0:0:0:
448,192,278157,128,0,278328:0:0:0:0:
448,192,278500,128,0,278671:0:0:0:0:
448,192,278842,128,0,279014:0:0:0:0:
448,192,279185,128,0,279357:0:0:0:0:
448,192,279528,128,0,279700:0:0:0:0:
448,192,279871,128,0,280042:0:0:0:0:
448,192,280214,128,0,280385:0:0:0:0:
448,192,280557,128,0,280728:0:0:0:0:
448,192,280900,128,0,281071:0:0:0:0:
448,192,281242,128,0,281414:0:0:0:0:
448,192,281585,128,0,281757:0:0:0:0:
448,192,281928,128,0,282100:0:0:0:0:
448,192,282271,128,0,282442:0:0:0:0:
448,192,282614,128,0,282785:0:0:0:0:
448,192,282957,128,0,283128:0:0:0:0:
448,192,283300,128,0,283471:0:0:0:0:
448,192,283642,128,0,283814:0:0:0:0:
