osu file format v14

[General]
AudioFilename: audio.mp3
AudioLeadIn: 0
PreviewTime: 209507
Countdown: 0
SampleSet: Soft
StackLeniency: 0.7
Mode: 2
LetterboxInBreaks: 0
EpilepsyWarning: 1
WidescreenStoryboard: 1

[Editor]
Bookmarks: 46393,145136
DistanceSpacing: 1.3
BeatDivisor: 8
GridSize: 16
TimelineZoom: 2.599999

[Metadata]
Title:Hype feat. Such (lapix Remix)
TitleUnicode:Hype feat. Such (lapix Remix)
Artist:PSYQUI
ArtistUnicode:PSYQUI
Creator:Ascendance
Version:Rocma's Overdose
Source:
Tags:c94 critical megarex mrx-027 dnb drum and bass electronic wub sanyi sanyi4life ajamez jemzuu mbomb -_magic_bomb_- zirox sorcerer tomthewizard ster chara osu_gangster -plus- bunnrei jbh jbhyperion alienflybot afb rocma _asriel no492_shaymin spectator spec -luminate lumi bennybananas benny- benita -tochi ft clsw minato_yukina daiz_ix
BeatmapID:2194697
BeatmapSetID:1009824

[Difficulty]
HPDrainRate:6
CircleSize:4
OverallDifficulty:9.7
ApproachRate:9.7
SliderMultiplier:2.56
SliderTickRate:2

[Events]
//Background and Video events
0,0,"hype.jpg",0,0
//Break Periods
//Storyboard Layer 0 (Background)
//Storyboard Layer 1 (Fail)
//Storyboard Layer 2 (Pass)
//Storyboard Layer 3 (Foreground)
//Storyboard Layer 4 (Overlay)
//Storyboard Sound Samples

[TimingPoints]
1136,342.857142857143,4,2,22,55,1,0
1136,-40,4,2,22,55,0,0
1307,-100,4,2,22,55,0,0
2507,-100,4,2,22,70,0,0
3536,-100,4,2,22,70,0,0
3878,-100,4,2,22,70,0,0
12107,-100,4,2,22,70,0,0
15536,-100,4,2,22,70,0,0
15878,-100,4,2,22,70,0,0
16221,-100,4,2,1,70,0,0
16393,-100,4,2,22,70,0,0
17250,-100,4,2,22,70,0,0
18107,-100,4,2,22,45,0,0
18192,-100,4,2,22,70,0,0
18193,-100,4,2,22,70,0,0
18278,-100,4,2,22,70,0,0
18450,-100,4,2,22,45,0,0
18535,-100,4,2,69,45,0,0
18621,-100,4,2,22,70,0,0
18792,-100,4,2,22,45,0,0
18793,-100,4,2,69,45,0,0
18835,-100,4,2,22,45,0,0
18878,-100,4,2,69,45,0,0
18964,-100,4,2,22,70,0,0
20336,-100,4,2,22,67,0,0
21707,-100,4,2,22,65,0,0
22393,-100,4,2,22,65,0,0
23078,-100,4,2,22,40,0,0
23250,-100,4,2,22,25,0,0
24450,-100,4,2,22,55,0,0
25136,-100,4,2,22,65,0,0
26850,-100,4,2,1,65,0,0
27021,-100,4,2,1,14,0,0
27193,-100,4,2,1,65,0,0
32164,-100,4,2,22,14,0,0
32336,-100,4,2,1,65,0,0
35421,-100,4,2,21,45,0,0
39535,-100,4,2,21,46,0,0
39536,-100,4,2,21,46,0,0
39878,-100,4,2,21,47,0,0
40221,-100,4,2,21,49,0,0
40564,-100,4,2,21,51,0,0
40907,-100,4,2,22,53,0,0
41078,-100,4,2,21,53,0,0
42278,-100,4,2,22,55,0,0
42449,-100,4,2,21,55,0,0
42450,-100,4,2,21,55,0,0
43650,-100,4,2,22,57,0,0
43821,-100,4,2,21,57,0,0
46306,-100,4,2,21,15,0,0
46307,-100,4,2,21,15,0,0
46393,-100,4,2,22,57,0,0
54621,-100,4,2,1,50,0,0
55307,-100,4,2,1,55,0,0
55992,-100,4,2,1,60,0,0
55993,-100,4,2,1,60,0,0
56678,-100,4,2,1,65,0,0
57021,-100,4,2,22,50,0,0
60107,-100,4,2,22,55,0,0
62850,-100,4,2,22,60,0,0
64907,-100,4,2,22,60,0,0
66964,-100,4,2,20,60,0,0
67993,-100,4,2,20,80,0,0
68336,-100,4,2,2,90,0,1
68678,-100,4,2,2,90,0,1
73821,-100,4,2,2,90,0,1
74164,-100,4,2,2,90,0,1
77936,-40,4,2,2,90,0,1
78964,-100,4,2,2,90,0,1
79221,-100,4,2,2,90,0,0
79307,-100,4,2,2,90,0,1
79650,-100,4,2,2,90,0,1
80250,-100,4,2,2,90,0,1
80507,-100,4,2,2,90,0,1
80764,-100,4,2,2,90,0,1
81364,-100,4,2,2,90,0,1
81621,-100,4,2,2,90,0,1
81878,-100,4,2,2,90,0,1
82993,-100,4,2,2,90,0,1
83250,-100,4,2,2,90,0,1
84793,-100,4,2,2,90,0,1
85136,-100,4,2,2,90,0,1
85164,-100,4,2,2,50,0,1
85250,-100,4,2,2,90,0,1
85278,-100,4,2,2,50,0,1
85364,-100,4,2,2,90,0,1
85392,-100,4,2,2,50,0,1
85478,-100,4,2,2,90,0,1
85506,-100,4,2,2,50,0,1
85592,-100,4,2,2,90,0,1
85593,-100,4,2,2,90,0,1
85621,-100,4,2,2,50,0,1
85706,-100,4,2,2,90,0,1
85707,-100,4,2,2,90,0,1
85735,-100,4,2,2,50,0,1
85821,-100,4,2,2,90,0,1
85849,-100,4,2,2,50,0,1
85935,-100,4,2,2,90,0,1
85936,-100,4,2,2,90,0,1
85964,-100,4,2,2,50,0,1
86050,-100,4,2,2,90,0,1
86078,-100,4,2,2,50,0,1
86164,-100,4,2,2,90,0,1
86192,-100,4,2,2,50,0,1
86278,-100,4,2,2,90,0,1
86306,-100,4,2,2,50,0,1
86393,-100,4,2,2,90,0,1
86421,-100,4,2,2,50,0,1
86507,-100,4,2,2,90,0,1
86535,-100,4,2,2,50,0,1
86621,-100,4,2,2,90,0,1
86649,-100,4,2,2,50,0,1
86736,-100,4,2,2,90,0,1
86764,-100,4,2,2,50,0,1
86850,-100,4,2,2,90,0,1
86878,-100,4,2,2,50,0,1
86964,-100,4,2,2,90,0,1
86992,-100,4,2,2,50,0,1
87078,-100,4,2,2,90,0,1
87106,-100,4,2,2,50,0,1
87193,-100,4,2,2,90,0,1
87221,-100,4,2,2,50,0,1
87307,-100,4,2,2,90,0,1
87335,-100,4,2,2,50,0,1
87421,-100,4,2,2,90,0,1
87449,-100,4,2,2,50,0,1
87536,-100,4,2,2,90,0,1
87878,-100,4,2,2,75,0,1
89936,-100,4,2,2,75,0,1
90192,-100,4,2,2,90,0,1
90193,-100,4,2,2,90,0,0
90278,-100,4,2,2,90,0,1
90621,-100,4,2,2,90,0,1
101250,-100,4,2,4,90,0,1
101421,-100,4,2,2,90,0,1
101593,-100,4,2,2,90,0,1
109478,-100,4,2,2,90,0,1
109821,-100,4,2,2,90,0,1
110850,-100,4,2,2,90,0,0
111878,-100,4,2,2,90,0,0
112221,-100,4,2,22,60,0,0
112393,-100,4,2,21,60,0,0
113250,-100,4,2,21,58,0,0
114107,-100,4,2,21,55,0,0
114964,-100,4,2,21,53,0,0
116336,-100,4,2,21,51,0,0
117707,-100,4,2,22,51,0,0
118393,-100,4,2,22,53,0,0
119764,-100,4,2,22,55,0,0
120450,-100,4,2,22,57,0,0
121993,-100,4,2,22,60,0,0
122678,-100,4,2,22,63,0,0
123193,-40,4,2,24,90,0,1
123536,-100,4,2,24,90,0,1
124564,-100,4,2,24,90,0,1
124736,-40,4,2,24,90,0,1
124907,-100,4,2,24,90,0,1
125936,-40,4,2,24,90,0,1
126278,-100,4,2,24,90,0,1
127478,-40,4,2,24,90,0,1
127650,-100,4,2,24,90,0,1
127993,-100,4,2,24,90,0,1
128336,-100,4,2,24,90,0,1
128678,-40,4,2,24,90,0,1
129021,-100,4,2,24,90,0,1
130050,-100,4,2,24,90,0,1
130221,-40,4,2,24,90,0,1
130393,-100,4,2,24,90,0,1
131421,-40,4,2,24,90,0,1
131764,-100,4,2,24,90,0,1
134078,-100,4,2,24,90,0,0
134164,-100,4,2,24,90,0,1
134507,-100,4,2,24,90,0,1
139650,-100,4,2,24,90,0,1
139993,-100,4,2,24,90,0,1
143764,-100,4,2,24,60,0,0
144107,-100,4,2,20,60,0,0
144450,-100,4,2,24,60,0,0
144793,-100,4,2,24,70,0,0
145136,-100,4,2,3,60,0,0
150621,-100,4,2,3,50,0,0
150964,-100,4,2,3,50,0,0
151650,-100,4,2,3,50,0,0
152336,-100,4,2,3,50,0,0
153364,-100,4,2,3,45,0,0
153707,-100,4,2,3,45,0,0
154393,-100,4,2,3,40,0,0
155078,-100,4,2,3,35,0,0
155421,-100,4,2,3,35,0,0
157478,-100,4,2,3,35,0,0
158850,-100,4,2,3,30,0,0
160221,-100,4,2,3,30,0,0
161593,-100,4,2,3,35,0,0
162964,-100,4,2,3,30,0,0
164336,-100,4,2,1,43,0,0
165021,-100,4,2,1,45,0,0
165878,-100,4,2,1,48,0,0
167078,-100,4,2,21,50,0,0
176678,-100,4,2,21,50,0,0
180793,-100,4,2,21,50,0,0
182164,-100,4,2,21,50,0,0
182506,-100,4,2,21,53,0,0
182507,-100,4,2,21,53,0,0
182850,-100,4,2,21,53,0,0
183193,-100,4,2,21,53,0,0
183536,-100,4,2,21,53,0,0
186278,-100,4,2,21,55,0,0
187650,-100,4,2,22,55,0,0
188336,-100,4,2,22,55,0,0
188935,-100,4,2,21,10,0,0
188936,-100,4,2,21,10,0,0
189021,-100,4,2,21,55,0,0
195063,-100,4,2,21,20,0,0
195064,-100,4,2,21,20,0,0
195193,-100,4,2,21,55,0,0
195793,-100,4,2,21,15,0,0
195878,-100,4,2,21,55,0,0
197164,-100,4,2,21,20,0,0
197250,-100,4,2,21,55,0,0
197936,-100,4,2,21,57,0,0
198278,-100,4,2,21,58,0,0
199264,-100,4,2,21,46,0,0
199993,-100,4,2,22,50,0,0
202736,-100,4,2,22,52,0,0
204107,-100,4,2,22,54,0,0
204793,-100,4,2,22,56,0,0
205478,-100,4,2,22,50,0,0
206164,-100,4,2,22,53,0,0
206850,-100,4,2,22,55,0,0
207536,-100,4,2,22,57,0,0
208221,-80,4,2,22,60,0,0
208907,-80,4,2,22,62,0,0
209593,-80,4,2,20,62,0,0
209936,-80,4,2,20,64,0,0
210621,-80,4,2,20,48,0,0
210964,-100,4,2,26,90,0,1
215764,-100,4,2,4,90,0,1
216450,-100,4,2,26,90,0,1
219193,-100,4,2,26,90,0,1
221250,-100,4,2,26,90,0,1
230164,-100,4,2,4,90,0,1
230507,-100,4,2,26,90,0,1
230850,-100,4,2,4,90,0,1
230936,-100,4,2,26,90,0,1
232821,-100,4,2,26,90,0,0
232907,-100,4,2,26,90,0,1
238393,-100,4,2,4,90,0,1
238478,-100,4,2,26,90,0,1
239764,-100,4,2,4,90,0,1
239849,-100,4,2,26,90,0,1
241135,-100,4,2,4,90,0,1
241136,-100,4,2,4,90,0,1
241221,-100,4,2,26,90,0,1
249364,-100,4,2,4,90,0,1
249449,-100,4,2,26,90,0,1
250735,-100,4,2,4,90,0,1
250820,-100,4,2,26,90,0,1
252107,-100,4,2,4,90,0,1
252192,-100,4,2,26,90,0,1
253478,-100,4,2,26,90,0,0
253564,-100,4,2,26,75,0,0
254850,-100,4,2,22,70,0,0
270450,-100,4,2,22,70,0,0
270536,-100,4,2,22,70,0,0
270621,-100,4,2,22,70,0,0
270793,-100,4,2,69,70,0,0
270835,-100,4,2,22,70,0,0
270878,-100,4,2,22,70,0,0
270964,-100,4,2,22,70,0,0
271136,-100,4,2,69,70,0,0
271178,-100,4,2,22,70,0,0
271221,-100,4,2,22,70,0,0
274050,-100,4,2,22,60,0,0
275507,-100,4,2,22,35,0,0
276793,-83.3333333333333,4,2,22,30,0,0
279536,-83.3333333333333,4,2,22,25,0,0
280907,-83.3333333333333,4,2,22,20,0,0
282278,-83.3333333333333,4,2,22,15,0,0
283650,-83.3333333333333,4,2,22,10,0,0

[Colours]
Combo1 : 231,210,173
Combo2 : 237,145,105
Combo3 : 248,179,63

[HitObjects]
96,256,1136,6,0,L|464:256,1,320,8|2,0:0|0:1,0:0:0:0:
176,208,1478,2,8,L|96:208,3,64,0|0|0|0,0:0|0:0|0:0|0:0,0:0:0:0:
288,176,1821,6,0,L|288:112,1,64,8|2,0:0|0:0,0:0:0:0:
208,128,1993,2,0,L|208:64,1,64,2|2,0:0|0:0,0:0:0:0:
400,208,2164,2,0,L|336:208,3,64,8|8|0|0,0:0|0:0|0:0|0:0,0:0:0:0:
144,288,2507,6,0,L|80:288,1,64,4|0,0:0|0:0,0:0:0:0:
256,192,2678,2,0,L|192:192,1,64,0|2,0:0|0:1,0:0:0:0:
112,208,2850,2,0,L|176:208,1,64,0|8,0:0|0:0,0:0:0:0:
336,192,3021,2,0,L|256:192,1,64,2|0,0:0|0:0,0:0:0:0:
432,176,3193,6,0,L|448:96,3,64,0|2|0|0,0:0|0:0|0:0|0:0,0:0:0:0:
272,176,3536,2,0,L|336:176,1,64,10|0,0:0|0:0,0:0:0:0:
416,176,3707,2,0,L|432:96,1,64,8|8,0:0|0:0,0:0:0:0:
256,240,3878,6,0,L|192:240,1,64,8|0,0:0|0:0,0:0:0:0:
256,240,4050,2,0,L|336:240,1,64,0|2,0:0|0:1,0:0:0:0:
240,192,4221,2,0,L|224:128,1,64,0|0,0:0|0:0,0:0:0:0:
320,144,4393,2,0,L|304:80,1,64,8|0,0:0|0:0,0:0:0:0:
112,80,4564,5,8,0:0:0:0:
174,87,4649,1,2,0:0:0:0:
223,126,4735,1,0,0:0:0:0:
244,186,4821,1,8,0:0:0:0:
160,224,4907,1,10,0:0:0:0:
223,231,4992,1,0,0:0:0:0:
272,270,5078,1,8,0:0:0:0:
208,304,5164,1,8,0:0:0:0:
368,320,5250,5,8,0:0:0:0:
423,297,5335,1,0,0:0:0:0:
421,237,5421,1,0,0:0:0:0:
364,219,5507,1,2,0:1:0:0:
192,176,5593,1,0,0:0:0:0:
256,176,5678,1,0,0:0:0:0:
288,128,5764,1,8,0:0:0:0:
256,80,5850,1,0,0:0:0:0:
96,80,5936,6,0,L|176:80,1,64,8|2,0:0|0:0,0:0:0:0:
240,96,6107,2,0,L|160:96,1,64,0|8,0:0|0:0,0:0:0:0:
368,144,6278,2,0,L|432:144,1,64,2|2,0:0|0:0,0:0:0:0:
256,192,6450,5,2,0:0:0:0:
194,187,6535,1,2,0:0:0:0:
160,238,6621,1,10,0:0:0:0:
185,293,6707,1,0,0:0:0:0:
336,304,6793,2,0,L|368:304,2,32,2|0|0,0:1|0:0|0:0,0:0:0:0:
176,336,6964,2,8,L|96:336,1,64,8|0,0:0|0:0,0:0:0:0:
208,304,7136,1,2,0:1:0:0:
240,304,7178,1,0,0:0:0:0:
272,304,7221,1,0,0:0:0:0:
80,288,7307,6,0,L|80:224,1,64,8|0,0:0|0:0,0:0:0:0:
160,240,7478,2,0,L|176:176,1,64,2|8,0:1|0:0,0:0:0:0:
336,176,7650,2,0,L|352:112,1,64,8|0,0:0|0:0,0:0:0:0:
432,128,7821,2,0,L|432:64,1,64,12|0,0:3|0:0,0:0:0:0:
192,96,7993,6,0,L|128:96,1,64,8|0,0:0|0:0,0:0:0:0:
288,144,8164,2,0,L|288:208,1,64,0|2,0:0|0:1,0:0:0:0:
208,224,8336,2,0,L|208:288,1,64,0|0,0:0|0:0,0:0:0:0:
368,96,8507,2,0,L|304:96,1,64,8|0,0:0|0:0,0:0:0:0:
112,144,8678,6,0,L|176:144,1,64,8|2,0:0|0:0,0:0:0:0:
96,160,8850,2,0,L|80:256,1,64,0|8,0:0|0:0,0:0:0:0:
176,224,9021,2,0,L|160:304,1,64,2|0,0:0|0:0,0:0:0:0:
64,288,9193,2,0,L|144:288,1,64,8|0,0:0|0:0,0:0:0:0:
368,208,9364,6,0,L|272:208,1,64,8|0,0:0|0:0,0:0:0:0:
208,192,9536,2,0,L|272:192,1,64,0|2,0:0|0:1,0:0:0:0:
176,176,9707,1,0,0:0:0:0:
120,150,9792,1,0,0:0:0:0:
119,90,9878,1,8,0:0:0:0:
174,63,9964,1,0,0:0:0:0:
352,64,10050,6,0,L|368:144,1,64,8|2,0:0|0:0,0:0:0:0:
288,128,10221,2,0,L|272:208,1,64,0|8,0:0|0:0,0:0:0:0:
368,208,10393,2,0,L|432:208,3,64,2|0|8|8,0:0|0:0|0:0|0:0,0:0:0:0:
272,304,10736,6,8,L|208:304,1,64,8|0,0:0|0:0,0:0:0:0:
288,224,10907,2,0,L|224:224,1,64,0|2,0:0|0:1,0:0:0:0:
48,224,11078,1,0,0:0:0:0:
112,224,11163,1,0,0:0:0:0:
192,160,11249,1,8,0:0:0:0:
128,160,11336,1,0,0:0:0:0:
304,144,11421,5,8,0:0:0:0:
366,151,11506,1,2,0:0:0:0:
412,193,11592,1,0,0:0:0:0:
425,255,11678,1,8,0:0:0:0:
256,208,11764,1,2,0:0:0:0:
318,215,11849,1,2,0:0:0:0:
364,257,11935,1,8,0:0:0:0:
377,319,12021,1,8,0:0:0:0:
160,336,12107,6,8,L|160:272,1,64,0|0,0:0|0:0,0:0:0:0:
240,240,12278,1,2,0:1:0:0:
208,240,12320,1,0,0:0:0:0:
176,240,12363,1,0,0:0:0:0:
352,192,12450,2,0,L|352:128,1,64,8|0,0:2|0:2,0:2:0:0:
272,96,12621,1,2,0:2:0:0:
304,96,12663,1,0,0:0:0:0:
336,96,12706,1,0,0:2:0:0:
176,128,12793,6,0,L|112:128,1,64,8|0,0:2|0:2,0:2:0:0:
192,176,12964,2,0,L|224:176,2,32,2|0|0,0:2|0:0|0:2,0:2:0:0:
32,208,13136,6,0,L|96:208,1,64,8|0,0:2|0:2,0:2:0:0:
16,272,13307,2,0,L|96:272,1,64,4|0,0:3|0:0,0:0:0:0:
320,272,13478,6,0,L|320:208,1,64,8|0,0:0|0:0,0:0:0:0:
144,176,13650,2,0,L|208:176,1,64,0|2,0:0|0:1,0:0:0:0:
112,160,13821,2,0,L|112:80,1,64,0|0,0:0|0:0,0:0:0:0:
304,80,13993,2,0,L|384:80,1,64,8|0,0:0|0:0,0:0:0:0:
192,144,14164,6,0,L|176:240,1,64,8|2,0:0|0:0,0:0:0:0:
256,208,14336,2,0,L|272:304,1,64,0|8,0:0|0:0,0:0:0:0:
352,288,14507,1,2,0:0:0:0:
412,280,14592,1,0,0:0:0:0:
425,221,14678,1,8,0:0:0:0:
374,189,14764,1,8,0:0:0:0:
192,272,14850,6,0,L|192:208,1,64,8|0,0:0|0:0,0:0:0:0:
368,176,15022,2,0,L|304:176,1,64,0|2,0:0|0:1,0:0:0:0:
400,160,15193,2,0,L|400:80,1,64,0|0,0:0|0:0,0:0:0:0:
208,80,15365,2,0,L|128:80,1,64,8|0,0:0|0:0,0:0:0:0:
320,144,15536,6,0,L|336:240,1,64,8|2,0:0|0:0,0:0:0:0:
256,208,15708,2,0,L|240:304,1,64,0|8,0:0|0:0,0:0:0:0:
336,288,15879,1,2,0:0:0:0:
396,280,15964,1,0,0:0:0:0:
336,288,16050,1,8,0:0:0:0:
396,280,16135,1,8,0:0:0:0:
192,272,16221,6,0,L|192:208,1,64,4|0,0:0|0:0,0:0:0:0:
272,240,16393,2,0,L|272:176,1,64,0|2,0:0|0:1,0:0:0:0:
464,192,16564,2,0,L|464:128,1,64,0|0,0:0|0:0,0:0:0:0:
384,160,16736,2,0,L|384:96,1,64,8|0,0:0|0:0,0:0:0:0:
208,80,16907,2,0,L|272:80,1,64,8|2,0:0|0:0,0:0:0:0:
192,112,17078,2,0,L|128:112,1,64,0|8,0:0|0:0,0:0:0:0:
320,224,17250,1,2,0:0:0:0:
384,208,17335,1,0,0:0:0:0:
208,64,17421,6,0,L|144:64,1,64,8|8,0:0|0:0,0:0:0:0:
144,128,17593,2,0,L|256:128,1,64,2|2,0:1|0:0,0:0:0:0:
368,176,17764,1,2,0:0:0:0:
336,176,17806,1,0,0:0:0:0:
304,176,17849,1,2,0:0:0:0:
128,208,17936,2,0,L|128:144,1,64,8|0,0:0|0:0,0:0:0:0:
208,176,18107,1,0,0:0:0:0:
176,176,18149,1,0,0:0:0:0:
144,176,18192,1,0,0:0:0:0:
304,224,18278,5,8,0:0:0:0:
334,216,18320,1,0,0:0:0:0:
347,188,18363,1,0,0:0:0:0:
334,160,18406,1,0,0:0:0:0:
304,224,18450,1,0,0:0:0:0:
273,216,18492,1,0,0:0:0:0:
260,188,18535,1,0,0:0:0:0:
273,160,18578,1,0,0:0:0:0:
416,144,18621,2,0,L|448:128,6,32,8|0|0|0|0|0|0,0:0|0:0|0:0|0:0|0:0|0:0|0:0,0:0:0:0:
256,112,18964,6,0,L|112:112,1,128,8|0,0:0|0:0,0:0:0:0:
192,112,19221,1,0,0:0:0:0:
384,192,19307,2,8,L|240:192,1,128,8|0,0:0|0:0,0:0:0:0:
320,192,19564,1,0,0:0:0:0:
512,272,19650,2,0,L|368:272,1,128,8|0,0:0|0:0,0:0:0:0:
448,272,19907,1,0,0:0:0:0:
272,272,19993,2,0,L|128:272,1,128,8|0,0:0|0:0,0:0:0:0:
208,272,20250,1,0,0:0:0:0:
16,256,20336,6,0,L|32:192,1,64,8|0,0:0|0:0,0:0:0:0:
208,192,20507,2,0,L|224:128,1,64,8|0,0:0|0:0,0:0:0:0:
432,208,20678,2,0,L|416:144,1,64,8|0,0:0|0:0,0:0:0:0:
256,144,20851,2,0,L|240:80,1,64,8|0,0:0|0:0,0:0:0:0:
448,192,21021,2,0,L|432:128,1,64,8|0,0:0|0:0,0:0:0:0:
272,128,21194,2,0,L|256:64,1,64,8|0,0:0|0:0,0:0:0:0:
464,176,21364,2,0,L|448:112,1,64,8|0,0:0|0:0,0:0:0:0:
288,112,21536,2,0,L|272:48,1,64,8|0,0:0|0:0,0:0:0:0:
48,112,21707,6,0,L|112:112,3,64,8|8|8|8,0:0|0:0|0:0|0:0,0:0:0:0:
288,176,22050,2,8,L|224:176,3,64,8|8|8|8,0:0|0:0|0:0|0:0,0:0:0:0:
400,112,22393,2,0,L|464:112,3,64,8|8|8|8,0:0|0:0|0:0|0:0,0:0:0:0:
288,112,22736,2,8,L|208:112,1,64,10|10,0:0|0:0,0:0:0:0:
400,64,22907,2,8,L|480:64,1,64,10|10,0:0|0:0,0:0:0:0:
256,64,23078,5,6,0:3:0:0:
256,192,23250,12,4,24450,0:2:0:0:
160,288,25136,6,0,P|80:240|163:140,1,256,0|0,0:0|0:0,0:0:0:0:
256,144,25650,2,0,B|128:144|128:144|192:176|272:192|304:304|304:352,1,384,0|0,0:0|0:0,0:0:0:0:
112,320,26507,2,0,B|176:320|176:320|96:320,1,128,0|0,0:0|0:0,0:0:0:0:
240,288,26850,2,0,P|288:240|210:138,1,192,0|0,0:0|0:0,0:0:0:0:
160,128,27193,6,0,L|432:128,2,256,2|0|0,0:0|0:0|0:0,0:0:0:0:
176,208,28136,2,0,L|240:208,1,64,0|0,0:0|0:0,0:0:0:0:
160,368,28393,6,0,B|224:368|224:368|96:368|80:352|48:192|48:192|80:32|96:16|224:16,1,640,2|0,0:0|0:0,0:0:0:0:
192,240,29593,1,0,0:0:0:0:
368,224,29936,6,0,P|304:208|208:16,2,256,2|0|0,0:0|0:0|0:0,0:0:0:0:
240,256,30964,1,0,0:0:0:0:
368,224,31307,6,0,L|80:224,2,256,2|0|0,0:0|0:0|0:0,0:0:0:0:
176,256,32336,2,0,P|272:224|160:32,1,384,2|0,0:0|0:0,0:0:0:0:
304,16,33021,1,0,0:0:0:0:
128,112,33364,6,0,P|80:192|144:352,1,256,0|0,0:0|0:0,0:0:0:0:
384,112,33878,2,0,P|432:192|368:352,1,256,2|0,0:0|0:0,0:0:0:0:
288,352,34393,2,0,P|224:288|288:240,1,192,0|0,0:0|0:0,0:0:0:0:
368,224,34736,1,2,0:0:0:0:
240,208,34907,1,0,0:0:0:0:
368,176,35078,2,0,P|384:80|357:-35,1,192,0|0,0:0|0:0,0:0:0:0:
160,48,35421,6,0,L|128:128,7,64,2|0|0|0|0|0|0|0,0:0|0:0|0:0|0:0|0:0|0:0|0:0|0:0,0:0:0:0:
224,112,36107,6,0,L|256:192,3,64,2|0|0|0,0:0|0:0|0:0|0:0,0:0:0:0:
160,192,36450,2,0,L|128:272,1,64,0|0,0:0|0:0,0:0:0:0:
352,192,36621,6,0,L|384:272,5,64,2|0|2|0|0|0,0:0|0:0|0:0|0:0|0:0|0:0,0:0:0:0:
288,272,37136,2,0,L|256:352,3,64,0|0|0|0,0:0|0:0|0:0|0:0,0:0:0:0:
352,272,37478,6,0,L|384:352,1,64,2|0,0:0|0:0,0:0:0:0:
320,240,37650,2,0,L|352:320,1,64,0|0,0:0|0:0,0:0:0:0:
288,208,37821,2,0,L|320:288,1,64,0|0,0:0|0:0,0:0:0:0:
256,176,37993,2,0,L|288:256,1,64,0|0,0:0|0:0,0:0:0:0:
128,288,38164,6,0,L|96:224,3,64,2|0|0|0,0:0|0:0|0:0|0:0,0:0:0:0:
192,224,38507,2,0,L|224:160,1,64,0|0,0:0|0:0,0:0:0:0:
304,160,38678,2,0,L|272:96,3,64,2|0|0|0,0:0|0:0|0:0|0:0,0:0:0:0:
448,112,39021,6,0,L|480:48,3,64,2|0|0|0,0:0|0:0|0:0|0:0,0:0:0:0:
400,160,39364,2,0,L|368:96,4,64,2|0|2|0|0,0:0|0:0|0:0|0:0|0:0,0:0:0:0:
480,160,39793,1,0,0:0:0:0:
400,144,39878,6,0,L|368:80,3,64,2|0|0|0,0:0|0:0|0:0|0:0,0:0:0:0:
288,112,40221,2,0,L|320:48,3,64,2|0|0|0,0:0|0:0|0:0|0:0,0:0:0:0:
224,144,40564,1,2,0:0:0:0:
163,150,40649,1,0,0:0:0:0:
140,206,40735,1,0,0:0:0:0:
180,253,40821,1,0,0:0:0:0:
336,304,40907,5,8,0:0:0:0:
396,302,40992,1,0,0:0:0:0:
415,245,41078,1,0,0:0:0:0:
367,207,41164,1,0,0:0:0:0:
288,160,41250,1,2,0:0:0:0:
335,197,41336,1,0,0:0:0:0:
316,254,41422,1,0,0:0:0:0:
256,256,41507,1,0,0:0:0:0:
176,304,41593,5,2,0:0:0:0:
116,302,41678,1,0,0:0:0:0:
97,245,41764,1,0,0:0:0:0:
145,207,41850,1,0,0:0:0:0:
224,160,41936,1,2,0:0:0:0:
177,197,42022,1,0,0:0:0:0:
196,254,42108,1,0,0:0:0:0:
256,256,42193,1,0,0:0:0:0:
336,256,42278,6,2,L|352:192,3,64,8|0|0|0,0:0|0:0|0:0|0:0,0:0:0:0:
256,256,42621,1,2,0:0:0:0:
336,256,42707,2,0,L|352:192,2,64,0|0|0,0:0|0:0|0:0,0:0:0:0:
160,193,42964,6,0,L|176:256,3,64,2|0|0|0,0:0|0:0|0:0|0:0,0:0:0:0:
256,256,43307,1,2,0:0:0:0:
175,255,43393,2,0,L|160:193,2,64,0|0|0,0:0|0:0|0:0,0:0:0:0:
368,288,43650,5,8,0:0:0:0:
305,278,43735,1,0,0:0:0:0:
256,238,43821,1,0,0:0:0:0:
236,178,43907,1,0,0:0:0:0:
320,160,43993,1,2,0:0:0:0:
264,137,44078,1,0,0:0:0:0:
266,77,44164,1,0,0:0:0:0:
323,58,44250,1,0,0:0:0:0:
400,64,44336,6,0,L|384:144,1,64,0|0,0:0|0:0,0:0:0:0:
304,128,44507,2,0,L|288:208,1,64,2|0,0:0|0:0,0:0:0:0:
208,192,44678,2,0,L|192:272,1,64,0|0,0:0|0:0,0:0:0:0:
288,288,44850,1,2,0:0:0:0:
349,285,44935,1,0,0:0:0:0:
384,234,45021,1,0,0:0:0:0:
366,175,45107,1,0,0:0:0:0:
308,154,45192,1,0,0:0:0:0:
368,128,45278,1,0,0:0:0:0:
208,112,45364,5,2,0:0:0:0:
148,106,45449,1,0,0:0:0:0:
123,161,45535,1,0,0:0:0:0:
166,203,45621,1,0,0:0:0:0:
320,208,45707,1,2,0:0:0:0:
379,202,45792,1,0,0:0:0:0:
404,257,45878,1,0,0:0:0:0:
361,299,45964,1,0,0:0:0:0:
272,304,46050,2,0,L|336:304,1,64,8|0,0:3|0:0,0:0:0:0:
425,299,46221,2,0,L|345:299,1,64,0|0,0:0|0:0,0:0:0:0:
144,304,46393,6,0,B|144:176|144:176|64:176,1,192,12|0,0:0|0:0,0:0:0:0:
240,192,46736,2,0,L|240:64,1,128,0|0,0:0|0:0,0:0:0:0:
208,48,46950,2,0,L|256:48,1,32,0|0,0:0|0:0,0:0:0:0:
432,176,47078,5,0,0:0:0:0:
288,176,47250,2,0,L|272:96,2,64,0|0|0,0:0|0:0|0:0,0:0:0:0:
352,224,47507,2,0,L|272:224,2,64,0|0|0,0:0|0:0|0:0,0:0:0:0:
160,272,47764,6,0,L|128:272,1,32,0|0,0:0|0:0,0:0:0:0:
176,176,47936,1,0,0:0:0:0:
304,144,48107,2,0,P|240:208|320:256,1,192,0|0,0:0|0:0,0:0:0:0:
480,304,48450,6,0,L|336:304,1,128,0|0,0:0|0:0,0:0:0:0:
416,304,48707,1,0,0:0:0:0:
320,256,48793,1,0,0:0:0:0:
416,224,48878,1,0,0:0:0:0:
352,192,48964,1,0,0:0:0:0:
104,224,49136,6,0,L|232:224,1,128,0|0,0:0|0:0,0:0:0:0:
408,224,49478,2,0,L|280:224,1,128,0|0,0:0|0:0,0:0:0:0:
16,176,49821,6,0,L|160:176,2,128,0|0|0,0:0|0:0|0:0,0:0:0:0:
288,160,50336,2,0,B|160:160|160:160|240:160,1,192,0|0,0:0|0:0,0:0:0:0:
144,96,50678,2,0,L|224:96,1,64,0|0,0:0|0:0,0:0:0:0:
128,48,50850,6,0,P|64:112|144:208,1,192,0|0,0:0|0:0,0:0:0:0:
176,192,51193,2,0,P|240:256|160:352,1,192,0|0,0:0|0:0,0:0:0:0:
384,336,51536,2,0,P|352:288|352:208,1,128,0|0,0:0|0:0,0:0:0:0:
387,194,51750,1,0,0:0:0:0:
348,219,51793,1,0,0:0:0:0:
387,194,51836,1,0,0:0:0:0:
348,219,51878,6,0,L|348:75,1,128,0|0,0:0|0:0,0:0:0:0:
272,96,52136,1,0,0:0:0:0:
192,224,52221,2,0,L|192:144,1,64,0|0,0:0|0:0,0:0:0:0:
272,144,52393,2,0,L|304:144,2,32,0|0|0,0:0|0:0|0:0,0:0:0:0:
96,176,52564,6,0,L|240:176,1,128,0|0,0:0|0:0,0:0:0:0:
160,176,52821,1,0,0:0:0:0:
320,176,52907,2,0,L|352:144,2,32,0|0|0,0:0|0:0|0:0,0:0:0:0:
400,176,53078,2,0,L|416:96,1,64,0|0,0:0|0:0,0:0:0:0:
224,240,53250,6,0,L|224:208,1,32,0|0,0:0|0:0,0:0:0:0:
144,128,53421,1,0,0:0:0:0:
288,96,53593,2,0,P|352:128|400:256,1,192,0|0,0:0|0:0,0:0:0:0:
320,288,53936,6,0,L|480:288,1,128,0|0,0:0|0:0,0:0:0:0:
384,256,54193,1,0,0:0:0:0:
464,224,54278,1,0,0:0:0:0:
400,192,54364,1,0,0:0:0:0:
480,160,54450,1,0,0:0:0:0:
232,192,54621,6,0,L|104:192,1,128,0|0,0:0|0:0,0:0:0:0:
280,192,54964,2,0,L|408:192,1,128,0|0,0:0|0:0,0:0:0:0:
144,160,55307,2,0,L|0:160,2,128,0|0|0,0:0|0:0|0:0,0:0:0:0:
400,160,55821,2,0,L|256:160,1,128,0|0,0:0|0:0,0:0:0:0:
400,128,56164,6,0,L|416:32,1,64,0|0,0:0|0:0,0:0:0:0:
496,64,56336,2,0,P|464:160|368:192,1,192,0|0,0:0|0:0,0:0:0:0:
304,192,56678,2,0,P|336:288|432:320,1,192,0|0,0:0|0:0,0:0:0:0:
240,352,57021,2,0,P|214:262|129:222,1,192,0|0,0:0|0:0,0:0:0:0:
384,304,57364,6,0,B|384:176|384:176|448:176,1,192,8|0,3:2|0:0,3:2:0:0:
352,256,57707,2,0,B|352:128|352:128|288:128,1,192,0|0,3:2|0:0,3:2:0:0:
384,304,58050,2,0,B|384:176|384:176|448:176,1,192,0|0,3:2|0:0,3:2:0:0:
256,224,58393,2,0,B|256:96|256:96|320:96,1,192,0|0,3:2|0:0,3:2:0:0:
128,304,58736,6,0,B|128:176|128:176|64:176,1,192,8|0,3:2|0:0,3:2:0:0:
256,272,59079,2,0,B|256:144|256:144|320:144,1,192,0|0,3:2|0:0,3:2:0:0:
128,304,59422,2,0,B|128:176|128:176|64:176,1,192,0|0,3:2|0:0,3:2:0:0:
256,224,59765,2,0,B|256:96|256:96|192:96,1,192,0|0,3:2|0:0,3:2:0:0:
384,304,60107,6,0,B|343:253|343:253|384:207|384:207|463:208,1,192,8|0,3:2|0:0,3:2:0:0:
256,256,60450,2,0,B|297:205|297:205|256:159|256:159|177:160,1,192,0|0,3:2|0:0,3:2:0:0:
256,256,60793,2,0,B|215:205|215:205|256:159|256:159|335:160,1,192,0|0,3:2|0:0,3:2:0:0:
128,208,61136,2,0,B|80:160|80:160|128:111|128:111,1,128,0|2,3:2|3:2,0:0:0:0:
64,112,61393,1,2,3:2:0:0:
256,96,61478,6,0,L|400:96,1,128,2|0,0:1|0:0,0:0:0:0:
320,96,61736,1,0,0:0:0:0:
144,176,61821,2,0,L|288:176,1,128,2|0,0:1|0:0,0:0:0:0:
208,176,62079,1,0,0:0:0:0:
384,240,62164,2,0,P|448:176|416:112,1,128,2|0,0:1|0:0,0:0:0:0:
368,128,62421,1,0,0:0:0:0:
208,208,62507,2,0,P|144:144|176:80,1,128,2|2,0:1|0:0,0:1:0:0:
224,96,62764,1,0,0:0:0:0:
416,96,62850,6,0,L|416:160,1,64,8|0,3:2|3:2,0:0:0:0:
384,128,63021,2,0,L|384:192,1,64,0|0,3:2|3:2,0:0:0:0:
416,96,63193,2,0,L|416:176,1,64,8|0,3:2|3:2,3:2:0:0:
352,144,63364,2,0,L|352:208,1,64,0|0,3:2|3:2,3:2:0:0:
416,96,63536,2,0,L|416:160,1,64,8|0,3:2|3:2,0:0:0:0:
320,192,63707,2,0,L|256:192,1,64,0|0,3:2|3:2,0:0:0:0:
448,240,63878,2,0,L|384:240,1,64,8|0,3:2|3:2,3:2:0:0:
224,240,64050,2,0,L|288:240,1,64,0|0,3:2|3:2,3:2:0:0:
96,96,64221,6,0,L|96:160,1,64,8|0,3:2|3:2,3:2:0:0:
176,128,64392,2,0,L|176:192,1,64,0|0,3:2|3:2,3:2:0:0:
96,96,64564,2,0,L|96:160,1,64,8|0,3:2|3:2,3:2:0:0:
192,128,64735,2,0,L|192:192,1,64,0|0,3:2|3:2,3:2:0:0:
32,240,64907,2,0,L|96:240,1,64,8|0,3:2|3:2,3:2:0:0:
288,240,65078,2,0,L|208:240,1,64,0|0,3:2|3:2,3:2:0:0:
416,240,65250,2,0,L|480:240,1,64,8|0,3:2|3:2,3:2:0:0:
288,240,65421,2,0,L|208:240,1,64,0|0,3:2|3:2,3:2:0:0:
416,176,65593,6,0,L|432:112,1,64,8|8,0:0|0:0,0:0:0:0:
256,128,65764,2,0,L|256:64,1,64,8|8,0:0|0:0,0:0:0:0:
96,176,65936,2,0,L|80:112,1,64,8|8,0:0|0:0,0:0:0:0:
256,128,66107,2,0,L|256:64,1,64,8|8,0:0|0:0,0:0:0:0:
448,48,66278,2,0,L|384:48,1,64,8|8,0:0|0:0,0:0:0:0:
224,48,66450,2,0,L|288:48,1,64,8|8,0:0|0:0,0:0:0:0:
128,48,66621,2,8,L|64:48,1,64,0|0,0:0|0:0,0:0:0:0:
384,48,66793,2,8,L|448:48,1,64,8|0,0:0|0:0,0:0:0:0:
224,272,66964,6,0,L|208:192,1,64,8|2,0:0|0:0,0:0:0:0:
288,240,67136,2,0,L|272:160,1,64,2|2,0:0|0:0,0:0:0:0:
352,224,67307,2,0,P|400:176|320:112,1,192,0|0,0:0|0:0,0:0:0:0:
240,112,67650,2,0,L|272:176,3,64,8|8|8|8,2:3|2:3|2:3|2:3,0:0:0:0:
112,288,67993,2,0,P|48:256|128:192,1,192,12|0,1:2|0:0,0:0:0:0:
288,160,68336,6,0,L|320:160,3,32,4|0|0|0,0:0|0:0|0:0|0:0,0:0:0:0:
288,160,68507,1,0,0:0:0:0:
128,160,68593,1,0,0:0:0:0:
288,224,68678,6,0,L|288:288,1,64,8|0,0:1|0:0,0:0:0:0:
224,320,68850,2,0,L|288:320,1,64,0|0,0:0|0:0,0:0:0:0:
112,224,69021,2,0,L|112:288,1,64,8|0,0:0|0:0,0:0:0:0:
176,320,69193,2,0,L|112:320,1,64,0|0,0:0|0:0,0:0:0:0:
288,224,69364,2,0,L|288:288,1,64,8|0,0:1|0:0,0:0:0:0:
224,320,69536,2,0,L|288:320,1,64,0|0,0:0|0:0,0:0:0:0:
464,320,69707,6,0,L|400:320,1,64,8|0,0:0|0:0,0:0:0:0:
464,288,69879,2,0,L|464:224,1,64,0|0,0:0|0:0,0:0:0:0:
288,320,70050,2,0,L|208:320,1,64,8|0,0:1|0:0,0:0:0:0:
288,320,70221,2,0,L|288:256,1,64,0|0,0:0|0:0,0:0:0:0:
112,304,70393,6,0,L|192:304,1,64,8|0,0:0|0:0,0:0:0:0:
112,304,70564,2,0,L|112:240,1,64,0|0,0:0|0:0,0:0:0:0:
288,224,70736,2,0,L|368:224,3,64,8|0|0|0,0:1|0:0|0:0|0:0,0:0:0:0:
144,160,71078,6,0,L|112:160,3,32,12|0|0|0,0:3|0:0|0:0|0:0,0:0:0:0:
144,160,71249,1,0,0:0:0:0:
304,160,71335,1,0,0:0:0:0:
144,240,71421,6,0,L|144:320,2,64,8|0|0,0:1|0:0|0:0,0:0:0:0:
208,304,71678,1,0,0:0:0:0:
368,240,71764,2,0,L|368:320,2,64,8|0|0,0:0|0:0|0:0,0:0:0:0:
432,304,72021,1,0,0:0:0:0:
208,240,72107,2,0,L|208:320,2,64,8|0|0,0:1|0:0|0:0,0:0:0:0:
272,304,72364,1,0,0:0:0:0:
112,240,72450,6,0,L|112:304,1,64,8|0,0:0|0:0,0:0:0:0:
192,256,72621,2,0,L|192:320,1,64,2|0,0:0|0:0,0:0:0:0:
352,224,72793,2,0,L|352:304,2,64,8|0|0,0:1|0:0|0:0,0:0:0:0:
416,288,73050,1,0,0:0:0:0:
256,208,73136,2,0,L|176:208,1,64,8|0,0:3|0:0,0:0:0:0:
272,160,73307,2,0,L|192:160,1,64,8|0,0:3|0:0,0:0:0:0:
368,112,73478,2,0,L|432:112,2,64,4|0|8,0:3|0:0|0:3,0:0:0:0:
208,112,73736,1,0,0:0:0:0:
368,192,73821,5,12,0:3:0:0:
336,192,73863,1,0,0:0:0:0:
304,192,73906,1,0,0:0:0:0:
272,192,73949,1,0,0:0:0:0:
240,192,73992,1,0,0:0:0:0:
80,192,74078,1,0,0:0:0:0:
240,288,74164,6,0,L|320:288,1,64,8|0,0:1|0:0,0:0:0:0:
304,224,74336,2,0,L|224:224,1,64,0|0,0:0|0:0,0:0:0:0:
400,288,74507,2,0,L|480:288,1,64,8|0,0:0|0:0,0:0:0:0:
464,224,74679,2,0,L|384:224,1,64,0|0,0:0|0:0,0:0:0:0:
240,288,74850,2,0,L|320:288,1,64,8|0,0:1|0:0,0:0:0:0:
304,224,75022,2,0,L|224:224,1,64,0|0,0:0|0:0,0:0:0:0:
80,288,75193,6,0,L|0:288,1,64,8|0,0:0|0:0,0:0:0:0:
16,224,75365,2,0,L|96:224,1,64,0|0,0:0|0:0,0:0:0:0:
240,288,75536,2,0,L|160:288,1,64,8|0,0:1|0:0,0:0:0:0:
176,224,75708,2,0,L|256:224,1,64,0|0,0:0|0:0,0:0:0:0:
400,272,75878,6,0,L|320:272,1,64,8|0,0:0|0:0,0:0:0:0:
336,208,76050,2,0,L|416:208,1,64,0|0,0:0|0:0,0:0:0:0:
240,192,76221,2,0,L|160:192,3,64,8|0|0|0,0:1|0:0|0:0|0:0,0:0:0:0:
352,224,76564,5,8,0:3:0:0:
384,224,76606,1,0,0:0:0:0:
416,224,76649,1,0,0:0:0:0:
384,224,76692,1,0,0:0:0:0:
352,224,76735,1,0,0:0:0:0:
192,176,76821,1,0,0:0:0:0:
352,96,76907,6,0,L|416:96,1,64,8|0,0:1|0:0,0:0:0:0:
352,96,77078,2,0,L|352:176,1,64,0|0,0:0|0:0,0:0:0:0:
192,208,77250,2,0,L|256:208,1,64,8|0,0:0|0:0,0:0:0:0:
192,208,77421,2,0,L|192:288,1,64,0|0,0:0|0:0,0:0:0:0:
352,240,77593,2,0,L|288:240,1,64,8|0,0:1|0:0,0:0:0:0:
352,240,77764,2,0,L|352:320,1,64,0|0,0:0|0:0,0:0:0:0:
96,320,77936,6,0,L|464:320,1,320,2|0,0:0|0:0,0:0:0:0:
352,320,78193,1,0,0:0:0:0:
96,320,78278,2,0,L|64:224,4,80,8|0|0|0|8,0:1|0:0|0:0|0:0|0:3,0:0:0:0:
256,304,78536,1,0,0:0:0:0:
416,320,78621,6,0,L|48:320,1,320,2|0,0:0|0:0,0:0:0:0:
160,320,78878,1,0,0:0:0:0:
416,320,78964,2,0,L|432:288,4,32,8|0|0|0|0,0:1|0:0|0:0|0:0|0:0,0:0:0:0:
352,320,79221,1,0,0:0:0:0:
160,240,79307,5,4,0:0:0:0:
129,235,79349,1,0,0:0:0:0:
114,208,79392,1,0,0:0:0:0:
128,180,79435,1,0,0:0:0:0:
158,175,79478,1,0,0:0:0:0:
320,176,79564,1,0,0:0:0:0:
160,128,79650,6,0,L|96:128,3,64,8|0|0|0,0:1|0:0|0:0|0:0,0:0:0:0:
272,96,79993,6,0,L|288:176,1,64,10|0,0:0|0:0,0:0:0:0:
208,176,80164,1,0,0:0:0:0:
368,176,80250,2,0,L|384:256,1,64,2|0,0:0|0:0,0:0:0:0:
304,256,80421,1,0,0:0:0:0:
144,256,80507,2,0,L|128:336,1,64,2|0,0:0|0:0,0:0:0:0:
208,336,80678,1,8,0:0:0:0:
368,256,80764,6,0,L|384:336,1,64,2|0,0:0|0:0,0:0:0:0:
304,336,80935,1,0,0:0:0:0:
464,240,81021,2,0,L|480:320,1,64,2|0,0:0|0:0,0:0:0:0:
304,240,81193,2,0,L|288:320,1,64,2|0,0:0|0:0,0:0:0:0:
128,240,81364,2,0,L|112:320,1,64,10|0,0:0|0:0,0:0:0:0:
192,320,81535,1,0,0:0:0:0:
352,240,81621,2,0,L|368:320,1,64,0|2,0:0|0:0,0:0:0:0:
288,320,81792,1,0,0:0:0:0:
448,336,81878,2,0,L|384:336,1,64,2|2,0:0|0:0,0:0:0:0:
208,352,82050,5,12,0:3:0:0:
212,320,82092,1,0,0:0:0:0:
229,293,82135,1,0,0:0:0:0:
255,276,82178,1,0,0:0:0:0:
287,271,82221,1,0,0:0:0:0:
448,256,82307,1,0,0:0:0:0:
288,208,82393,2,0,L|208:208,3,64,2|0|2|0,0:0|0:0|0:0|0:0,0:0:0:0:
64,176,82736,5,10,0:0:0:0:
128,176,82821,1,0,0:0:0:0:
192,176,82907,1,0,0:0:0:0:
32,128,82993,1,2,0:0:0:0:
96,128,83078,1,0,0:0:0:0:
160,128,83164,1,2,0:0:0:0:
320,96,83250,2,0,L|256:96,1,64,2|0,0:0|0:0,0:0:0:0:
432,256,83421,6,0,L|432:176,1,64,8|0,0:3|0:0,0:0:0:0:
352,192,83593,2,0,L|352:128,1,64,4|0,0:3|0:0,0:0:0:0:
272,256,83764,2,0,L|272:192,1,64,10|0,0:1|0:0,0:0:0:0:
336,160,83936,2,0,L|256:160,1,64,4|0,0:3|0:0,0:0:0:0:
112,224,84107,6,0,L|192:224,1,64,10|0,0:0|0:0,0:0:0:0:
80,192,84278,2,0,L|64:96,1,64,8|0,0:0|0:0,0:0:0:0:
240,112,84450,2,0,L|272:112,2,32,8|0|0,0:3|0:0|0:0,0:0:0:0:
160,80,84621,2,0,L|128:80,2,32,4|0|0,0:3|0:0|0:0,0:0:0:0:
320,208,84793,6,0,L|352:208,3,32,12|0|0|0,0:3|0:0|0:0|0:0,0:0:0:0:
320,208,84964,1,0,0:0:0:0:
160,208,85050,1,0,0:0:0:0:
320,288,85136,6,0,L|432:288,1,85.3333333333333,8|0,0:1|0:0,0:0:0:0:
208,208,85364,1,0,0:0:0:0:
405,288,85478,5,8,0:0:0:0:
320,288,85592,1,0,0:0:0:0:
234,288,85706,1,0,0:0:0:0:
432,208,85821,2,0,L|304:208,1,85.3333333333333,8|0,0:1|0:0,0:0:0:0:
144,208,86050,1,0,0:0:0:0:
320,160,86164,6,0,L|320:64,1,85.3333333333333,8|0,0:0|0:0,0:0:0:0:
224,80,86393,1,0,0:0:0:0:
416,144,86507,2,0,L|416:48,1,85.3333333333333,8|0,0:1|0:0,0:0:0:0:
224,48,86736,1,0,0:0:0:0:
416,144,86850,2,0,L|416:48,1,85.3333333333333,8|0,0:0|0:0,0:0:0:0:
320,64,87078,1,0,0:0:0:0:
112,80,87193,5,8,0:1:0:0:
208,80,87307,1,0,0:0:0:0:
165,80,87364,1,0,0:0:0:0:
122,80,87421,1,0,0:0:0:0:
352,176,87536,6,0,L|384:176,3,32,12|0|0|0,0:3|0:0|0:0|0:0,0:0:0:0:
352,176,87707,1,0,0:0:0:0:
192,176,87793,1,0,0:0:0:0:
352,288,87878,5,8,0:1:0:0:
432,272,87964,2,0,L|384:224,2,64,0|0|0,0:0|0:0|0:0,0:0:0:0:
272,256,88221,1,8,0:0:0:0:
192,240,88307,2,0,L|240:192,2,64,0|0|0,0:0|0:0|0:0,0:0:0:0:
352,288,88564,5,8,0:1:0:0:
432,272,88650,2,0,L|384:224,2,64,0|0|0,0:0|0:0|0:0,0:0:0:0:
224,224,88907,5,2,0:0:0:0:
192,220,88949,1,0,0:0:0:0:
168,199,88992,1,0,0:0:0:0:
158,169,89035,1,0,0:0:0:0:
166,139,89078,1,0,0:0:0:0:
189,118,89121,1,0,0:0:0:0:
220,112,89164,1,0,0:0:0:0:
368,96,89250,5,2,0:0:0:0:
336,96,89292,1,0,0:0:0:0:
304,96,89335,1,0,0:0:0:0:
272,96,89378,1,0,0:0:0:0:
240,96,89421,1,0,0:0:0:0:
272,96,89464,1,0,0:0:0:0:
304,96,89507,1,0,0:0:0:0:
144,224,89593,5,10,0:0:0:0:
112,220,89635,1,0,0:0:0:0:
88,199,89678,1,0,0:0:0:0:
78,169,89721,1,0,0:0:0:0:
86,139,89764,1,0,0:0:0:0:
109,118,89807,1,0,0:0:0:0:
140,112,89850,1,0,0:0:0:0:
304,128,89936,5,8,1:3:0:0:
176,192,90107,2,0,L|240:192,1,64,0|0,0:0|0:0,0:0:0:0:
432,256,90278,5,4,0:0:0:0:
400,256,90320,1,0,0:0:0:0:
368,256,90363,1,0,0:0:0:0:
336,256,90406,1,0,0:0:0:0:
304,256,90449,1,0,0:0:0:0:
144,256,90536,1,0,0:0:0:0:
304,208,90621,6,0,L|320:128,1,64,8|0,0:1|0:0,0:0:0:0:
224,160,90793,2,0,L|240:80,1,64,0|0,0:0|0:0,0:0:0:0:
400,176,90964,2,0,L|384:96,1,64,10|0,0:0|0:0,0:0:0:0:
480,128,91136,2,0,L|464:48,1,64,0|0,0:0|0:0,0:0:0:0:
304,64,91307,2,0,L|384:64,1,64,8|0,0:1|0:0,0:0:0:0:
208,288,91478,6,0,L|192:208,1,64,2|0,0:0|0:0,0:0:0:0:
288,240,91650,2,0,L|272:160,1,64,8|0,0:0|0:0,0:0:0:0:
184,225,91821,2,0,L|168:145,1,64,0|0,0:0|0:0,0:0:0:0:
336,160,91993,2,0,L|320:80,1,64,10|0,0:1|0:0,0:0:0:0:
232,145,92164,2,0,L|216:65,1,64,0|0,0:0|0:0,0:0:0:0:
312,64,92336,5,8,0:0:0:0:
357,105,92421,1,0,0:0:0:0:
349,166,92507,1,0,0:0:0:0:
295,195,92593,1,0,0:0:0:0:
192,240,92678,2,0,L|288:240,3,64,10|0|0|0,0:1|0:0|0:0|0:0,0:0:0:0:
64,272,93021,6,0,L|80:176,1,64,10|0,0:0|0:0,0:0:0:0:
160,224,93193,2,0,L|176:128,1,64,0|0,0:0|0:0,0:0:0:0:
336,192,93364,2,0,L|320:96,1,64,10|0,0:1|0:0,0:0:0:0:
240,144,93536,2,0,L|224:48,1,64,0|0,0:0|0:0,0:0:0:0:
400,256,93707,2,0,L|384:160,1,64,10|0,0:0|0:0,0:0:0:0:
304,208,93879,2,0,L|288:112,1,64,0|0,0:0|0:0,0:0:0:0:
384,160,94050,2,0,L|368:64,1,64,10|0,0:1|0:0,0:0:0:0:
192,96,94221,2,0,L|256:96,1,64,2|0,0:0|0:0,0:0:0:0:
176,160,94393,5,8,0:0:0:0:
115,169,94478,1,0,0:0:0:0:
97,227,94564,1,0,0:0:0:0:
140,270,94650,1,0,0:0:0:0:
224,240,94736,1,8,0:1:0:0:
284,249,94821,1,0,0:0:0:0:
224,240,94907,1,2,0:0:0:0:
144,256,94993,1,0,0:0:0:0:
304,352,95078,5,8,0:0:0:0:
364,342,95163,1,0,0:0:0:0:
382,284,95249,1,0,0:0:0:0:
338,242,95335,1,0,0:0:0:0:
240,208,95421,2,0,L|320:208,3,64,10|0|0|0,0:1|0:0|0:0|0:0,0:0:0:0:
144,192,95764,6,0,L|128:112,1,64,10|0,0:0|0:0,0:0:0:0:
208,96,95936,2,0,L|272:96,1,64,0|0,0:0|0:0,0:0:0:0:
96,112,96107,2,0,L|112:32,1,64,10|0,0:1|0:0,0:0:0:0:
192,32,96278,2,0,L|256:32,1,64,0|0,0:0|0:0,0:0:0:0:
416,112,96450,6,0,L|400:32,1,64,10|0,0:0|0:0,0:0:0:0:
320,32,96621,2,0,L|256:32,1,64,0|0,0:0|0:0,0:0:0:0:
352,208,96793,2,0,L|368:128,1,64,10|0,0:1|0:0,0:0:0:0:
288,112,96965,2,0,L|224:112,1,64,0|0,0:0|0:0,0:0:0:0:
32,144,97136,6,0,L|112:144,1,64,10|0,0:0|0:0,0:0:0:0:
176,144,97307,2,0,L|256:144,1,64,0|0,0:0|0:0,0:0:0:0:
416,208,97478,2,0,L|320:208,1,64,10|0,0:1|0:0,0:0:0:0:
272,208,97650,2,0,L|192:208,1,64,0|0,0:0|0:0,0:0:0:0:
16,320,97821,6,0,L|32:240,1,64,10|0,0:0|0:0,0:0:0:0:
112,208,97993,2,0,L|32:208,1,64,0|0,0:0|0:0,0:0:0:0:
208,176,98164,2,0,L|272:176,1,64,10|0,0:1|0:0,0:0:0:0:
192,128,98336,2,0,L|128:128,1,64,0|0,0:0|0:0,0:0:0:0:
288,112,98507,2,0,L|352:112,1,64,8|0,0:0|0:0,0:0:0:0:
272,64,98679,2,0,L|208:64,1,64,0|0,0:0|0:0,0:0:0:0:
384,128,98850,6,0,L|400:224,1,64,10|0,0:1|0:0,0:0:0:0:
320,256,99021,2,0,L|400:256,1,64,0|0,0:0|0:0,0:0:0:0:
208,192,99193,2,0,L|192:288,1,64,10|0,0:0|0:0,0:0:0:0:
272,320,99364,2,0,L|192:320,1,64,0|0,0:0|0:0,0:0:0:0:
288,320,99536,2,0,L|368:320,1,64,10|0,0:1|0:0,0:0:0:0:
160,288,99707,2,0,L|80:288,1,64,2|0,0:0|0:0,0:0:0:0:
256,256,99878,6,0,L|256:192,1,64,8|0,0:0|0:0,0:0:0:0:
416,160,100050,2,0,L|448:160,2,32,0|0|0,0:0|0:0|0:0,0:0:0:0:
256,256,100221,2,0,L|256:192,1,64,10|0,0:1|0:0,0:0:0:0:
336,208,100393,2,0,L|336:144,1,64,0|0,0:0|0:0,0:0:0:0:
176,208,100564,6,0,L|176:144,1,64,8|0,0:0|0:0,0:0:0:0:
256,160,100736,2,0,L|176:160,1,64,8|0,0:0|0:0,0:0:0:0:
272,160,100907,1,8,0:1:0:0:
327,134,100992,1,0,0:0:0:0:
328,74,101078,1,8,0:3:0:0:
273,47,101164,1,0,0:0:0:0:
112,256,101250,5,2,0:0:0:0:
81,252,101292,1,0,0:0:0:0:
66,224,101335,1,0,0:0:0:0:
79,197,101378,1,0,0:0:0:0:
110,191,101421,1,0,0:0:0:0:
272,176,101507,1,0,0:0:0:0:
112,336,101593,6,0,L|128:256,1,64,8|0,0:1|0:0,0:0:0:0:
208,288,101764,2,0,L|224:208,1,64,0|0,0:0|0:0,0:0:0:0:
416,256,101936,2,0,L|400:176,1,64,10|0,0:0|0:0,0:0:0:0:
320,208,102107,2,0,L|304:128,1,64,0|0,0:0|0:0,0:0:0:0:
464,208,102278,2,0,L|448:128,1,64,10|0,0:1|0:0,0:0:0:0:
368,160,102450,2,0,L|432:160,1,64,2|0,0:0|0:0,0:0:0:0:
272,256,102621,1,8,0:0:0:0:
215,237,102706,1,0,0:0:0:0:
221,178,102792,1,0,0:0:0:0:
284,170,102878,1,0,0:0:0:0:
80,144,102964,6,0,L|80:224,1,64,10|0,0:1|0:0,0:0:0:0:
144,240,103136,2,0,L|64:240,1,64,0|0,0:0|0:0,0:0:0:0:
240,288,103307,2,0,L|320:288,1,64,8|0,0:0|0:0,0:0:0:0:
240,256,103478,2,0,L|176:256,1,64,0|0,0:0|0:0,0:0:0:0:
336,240,103650,1,10,0:1:0:0:
400,240,103736,2,0,L|416:176,2,64,0|0|0,0:0|0:0|0:0,0:0:0:0:
208,256,103993,6,0,L|208:192,1,64,10|0,0:0|0:0,0:0:0:0:
288,208,104164,2,0,L|288:144,1,64,0|0,0:0|0:0,0:0:0:0:
128,192,104336,2,0,L|128:128,1,64,10|0,0:1|0:0,0:0:0:0:
208,144,104507,2,0,L|144:144,1,64,2|0,0:0|0:0,0:0:0:0:
64,112,104678,2,0,L|160:112,1,64,8|0,0:0|0:0,0:0:0:0:
304,112,104850,6,0,L|224:112,1,64,2|0,0:0|0:0,0:0:0:0:
320,160,105021,2,0,L|384:160,1,64,8|0,0:1|0:0,0:0:0:0:
224,288,105193,2,0,L|128:288,1,64,2|0,0:0|0:0,0:0:0:0:
240,272,105364,6,0,L|256:192,1,64,8|0,0:0|0:0,0:0:0:0:
160,224,105536,2,0,L|176:144,1,64,2|0,0:0|0:0,0:0:0:0:
80,192,105707,2,0,L|96:112,1,64,8|0,0:1|0:0,0:0:0:0:
176,112,105878,2,0,L|288:112,1,64,2|0,0:0|0:0,0:0:0:0:
416,144,106050,2,0,L|336:144,1,64,8|0,0:0|0:0,0:0:0:0:
272,192,106221,2,0,L|352:192,1,64,4|0,0:3|0:0,0:0:0:0:
256,240,106393,2,0,L|240:320,1,64,8|0,0:3|0:0,0:0:0:0:
336,288,106564,2,0,L|320:368,1,64,4|0,0:3|0:0,0:0:0:0:
128,336,106736,5,6,0:0:0:0:
208,320,106821,2,0,L|224:240,2,64,0|0|0,0:0|0:0|0:0,0:0:0:0:
32,288,107078,1,10,0:1:0:0:
112,208,107164,2,0,L|99:270,2,64,0|0|0,0:0|0:3|0:0,0:0:0:0:
288,240,107421,5,10,0:0:0:0:
208,224,107507,2,0,L|160:160,2,64,0|0|0,0:0|0:3|0:0,0:0:0:0:
384,192,107763,1,10,0:1:0:0:
304,160,107850,2,0,L|342:211,2,64,0|4|0,0:0|0:3|0:0,0:0:0:0:
128,160,108107,5,10,0:0:0:0:
208,160,108193,1,0,0:0:0:0:
288,160,108278,2,0,L|304:80,1,64,0|0,0:0|0:0,0:0:0:0:
128,112,108450,1,10,0:1:0:0:
208,112,108536,1,0,0:0:0:0:
288,112,108621,2,0,L|304:32,1,64,0|0,0:3|0:0,0:0:0:0:
122,32,108793,6,0,L|112:96,1,64,10|0,0:0|0:0,0:0:0:0:
192,96,108964,1,8,0:3:0:0:
272,96,109050,1,0,0:0:0:0:
192,160,109136,2,0,L|181:223,1,64,10|0,0:1|0:0,0:0:0:0:
261,223,109307,1,4,0:3:0:0:
341,223,109393,1,0,0:0:0:0:
144,320,109478,5,12,0:0:0:0:
88,294,109563,1,0,0:0:0:0:
87,234,109649,1,0,0:0:0:0:
142,207,109735,1,0,0:0:0:0:
368,320,109821,1,10,0:1:0:0:
423,294,109906,1,0,0:0:0:0:
424,234,109992,1,0,0:0:0:0:
369,207,110078,1,0,0:0:0:0:
96,352,110164,6,0,L|96:288,1,64,8|0,0:3|0:0,0:0:0:0:
256,304,110336,2,0,L|256:240,1,64,8|0,0:3|0:0,0:0:0:0:
416,352,110507,2,0,L|416:288,1,64,10|0,0:1|0:0,0:0:0:0:
336,288,110678,2,0,L|336:192,1,64,4|0,0:3|0:0,0:0:0:0:
496,192,110850,2,0,L|416:192,1,64,8|0,0:0|0:0,0:0:0:0:
352,176,111021,2,0,L|416:176,1,64,0|0,0:0|0:0,0:0:0:0:
320,176,111193,5,2,0:0:0:0:
257,182,111278,1,0,0:0:0:0:
208,223,111364,1,0,0:0:0:0:
190,283,111450,1,0,0:0:0:0:
272,192,111536,1,2,0:0:0:0:
335,198,111621,1,0,0:0:0:0:
383,239,111707,1,0,0:0:0:0:
402,299,111793,1,0,0:0:0:0:
224,352,111878,2,0,L|224:224,1,128,8|0,1:3|0:0,0:0:0:0:
288,224,112136,1,0,0:0:0:0:
144,240,112221,6,0,B|127:111|127:111|252:90|252:90|129:58|129:58|149:185|149:185|275:164|275:164|302:292|302:292|424:266|424:266|393:141|393:141|141:184|141:184|239:196|367:216|452:256|463:329|423:354|386:372|242:365,1,1792,4|0,0:0|0:0,0:0:0:0:
256,352,114964,6,0,B|193:353|140:343|91:319|56:229|72:147|71:52|169:40|237:37|246:43|246:43|15:152|15:152|247:268|247:268|247:16|247:16|464:153|464:153|463:29|463:29|469:218,1,1792,2|0,0:0|0:0,0:0:0:0:
48,304,117707,6,0,L|32:240,1,64,10|0,3:2|3:0,0:0:0:0:
128,288,117878,2,0,L|112:224,1,64,0|0,3:0|3:0,0:0:0:0:
208,288,118050,2,0,L|192:224,1,64,0|0,3:2|3:0,3:0:0:0:
288,272,118221,2,0,L|272:208,1,64,0|0,3:0|3:0,3:0:0:0:
464,304,118393,2,0,L|480:240,1,64,8|0,3:2|3:0,0:0:0:0:
384,288,118564,2,0,L|400:224,1,64,0|0,3:0|3:0,0:0:0:0:
304,288,118736,2,0,L|320:224,1,64,0|0,3:0|3:0,0:0:0:0:
224,272,118907,2,0,L|240:208,1,64,0|0,3:0|3:0,0:0:0:0:
16,288,119078,6,0,L|32:224,1,64,8|0,3:2|3:0,0:0:0:0:
128,240,119250,2,0,L|144:176,1,64,0|0,3:0|3:0,0:0:0:0:
240,288,119421,2,0,L|256:224,1,64,0|0,3:0|3:0,3:0:0:0:
352,240,119593,2,0,L|368:176,1,64,0|0,3:0|3:0,3:0:0:0:
144,320,119764,6,0,L|160:256,1,64,8|0,3:2|3:0,3:0:0:0:
256,272,119936,2,0,L|272:208,1,64,0|0,3:0|3:0,0:0:0:0:
368,320,120107,2,0,L|384:256,1,64,0|0,3:0|3:0,3:0:0:0:
480,272,120279,2,0,L|496:208,1,64,0|0,3:0|3:0,3:0:0:0:
240,224,120450,5,8,3:2:0:0:
304,224,120536,1,0,3:0:0:0:
384,224,120621,1,0,3:0:0:0:
432,224,120707,1,0,3:0:0:0:
352,160,120793,1,0,3:0:0:0:
320,160,120878,1,0,3:0:0:0:
240,160,120964,1,0,3:0:0:0:
224,160,121050,1,0,3:0:0:0:
144,224,121136,6,0,L|144:304,1,64,8|0,3:0|3:2,3:2:0:0:
80,240,121307,2,0,L|80:320,1,64,0|0,3:2|3:2,3:2:0:0:
16,256,121478,2,0,L|16:336,1,64,0|0,3:2|3:2,3:2:0:0:
80,272,121650,2,0,L|80:352,1,64,0|0,3:2|3:2,3:2:0:0:
160,336,121821,6,0,L|176:256,1,64,8|0,0:0|0:0,0:0:0:0:
256,256,121993,2,0,L|224:192,2,64,2|0|0,0:0|0:0|0:0,0:0:0:0:
336,256,122250,2,0,L|304:192,2,64,2|0|0,0:0|0:0|0:0,0:0:0:0:
416,256,122507,2,0,L|384:192,2,64,2|0|0,0:0|0:0|0:0,0:0:0:0:
496,256,122764,1,2,0:0:0:0:
336,320,122850,1,8,0:0:0:0:
480,304,123021,2,0,L|400:304,1,64,8|8,0:0|0:0,0:0:0:0:
212,128,123193,6,0,B|148:288|148:288|100:144|100:144|416:144,1,640,4|8,0:0|0:1,0:0:0:0:
416,80,123621,1,0,0:0:0:0:
256,176,123707,2,0,L|256:96,1,64,0|0,0:0|0:0,0:0:0:0:
224,96,123836,1,0,0:0:0:0:
256,80,123878,1,0,0:0:0:0:
208,80,123921,1,0,0:0:0:0:
256,48,123964,1,0,0:0:0:0:
224,48,124007,1,0,0:0:0:0:
256,16,124050,6,0,L|352:16,1,64,0|0,0:0|0:0,0:0:0:0:
160,144,124221,2,0,L|16:144,1,128,8|0,0:1|0:0,0:0:0:0:
96,144,124478,1,0,0:0:0:0:
304,160,124564,6,0,L|304:240,1,64,4|0,0:3|0:0,0:0:0:0:
96,272,124736,2,0,L|432:272,1,320,0|8,0:0|0:1,0:0:0:0:
352,272,124993,1,0,0:0:0:0:
192,272,125078,2,0,L|288:272,1,64,8|0,0:0|0:0,0:0:0:0:
96,224,125250,6,0,L|32:224,2,64,2|0|0,0:0|0:0|0:0,0:0:0:0:
256,224,125507,1,0,0:0:0:0:
192,224,125592,1,8,0:1:0:0:
128,224,125678,1,0,0:0:0:0:
304,176,125764,2,0,L|384:176,1,64,0|0,0:0|0:0,0:0:0:0:
213,128,125936,6,0,B|149:288|149:288|101:144|101:144|416:144,1,640,8|8,0:3|0:1,0:0:0:0:
352,144,126364,1,0,0:0:0:0:
176,208,126450,2,0,L|240:208,1,64,8|0,0:0|0:0,0:0:0:0:
97,289,126621,6,0,L|49:289,1,32,2|0,0:3|0:0,0:0:0:0:
65,289,126707,2,0,L|113:289,1,32,0|0,0:0|0:0,0:0:0:0:
164,231,126793,2,0,L|164:183,1,32,2|0,0:0|0:0,0:0:0:0:
128,232,126878,2,0,L|128:184,1,32,0|0,0:0|0:0,0:0:0:0:
195,167,126964,6,0,L|259:167,1,64,8|0,0:1|0:0,0:0:0:0:
69,110,127136,2,0,L|165:110,1,64,0|0,0:0|0:0,0:0:0:0:
336,288,127307,2,0,L|368:288,3,32,8|0|0|0,0:3|0:0|0:0|0:0,0:0:0:0:
336,240,127478,2,0,L|0:240,1,320,0|8,0:0|0:1,0:0:0:0:
80,240,127736,1,0,0:0:0:0:
240,240,127821,1,0,0:0:0:0:
272,240,127864,1,0,0:0:0:0:
304,240,127907,1,0,0:0:0:0:
144,192,127993,5,2,0:0:0:0:
96,176,128036,1,0,0:0:0:0:
144,144,128078,1,0,0:0:0:0:
96,128,128121,1,0,0:0:0:0:
144,96,128164,1,0,0:0:0:0:
224,80,128250,1,0,0:0:0:0:
400,112,128336,2,0,L|320:112,1,64,8|0,0:1|0:3,0:0:0:0:
176,176,128507,2,8,L|256:176,1,64,8|0,0:0|0:0,0:0:0:0:
48,160,128678,6,0,B|80:320|80:320|160:176|160:176|496:176,1,640,8|8,0:3|0:1,0:0:0:0:
416,176,129107,1,0,0:0:0:0:
256,176,129193,2,0,L|256:96,1,64,0|0,0:0|0:0,0:0:0:0:
288,96,129322,1,0,0:0:0:0:
256,80,129364,1,10,0:0:0:0:
304,80,129407,1,0,0:0:0:0:
256,48,129450,1,0,0:0:0:0:
288,48,129493,1,0,0:0:0:0:
256,16,129536,6,0,L|160:16,1,64,0|0,0:0|0:0,0:0:0:0:
368,160,129707,2,0,L|224:160,1,128,8|8,0:1|0:0,0:0:0:0:
224,208,129964,1,0,0:0:0:0:
416,224,130050,6,0,L|448:224,3,32,4|0|0|0,0:3|0:0|0:0|0:0,0:0:0:0:
416,288,130221,2,0,L|80:288,1,320,0|8,0:0|0:1,0:0:0:0:
96,224,130478,1,0,0:0:0:0:
256,208,130564,1,8,0:0:0:0:
256,160,130650,1,0,0:0:0:0:
416,176,130736,5,2,0:0:0:0:
352,176,130821,1,0,0:0:0:0:
288,176,130907,1,0,0:0:0:0:
128,96,130993,1,0,0:0:0:0:
192,96,131078,1,8,0:1:0:0:
256,96,131164,1,0,0:0:0:0:
96,160,131250,2,0,L|192:160,1,64,0|0,0:0|0:0,0:0:0:0:
464,160,131421,6,0,B|432:320|432:320|352:176|352:176|16:176,1,640,8|8,0:3|0:1,0:0:0:0:
96,176,131850,1,0,0:0:0:0:
256,176,131936,1,8,0:0:0:0:
320,176,132021,1,0,0:0:0:0:
160,320,132107,6,0,L|160:288,1,32,2|0,0:3|0:0,0:0:0:0:
238,300,132193,2,0,L|238:252,1,32,0|0,0:0|0:0,0:0:0:0:
291,271,132278,2,0,L|291:239,1,32,2|0,0:0|0:0,0:0:0:0:
325,239,132364,2,0,L|325:207,1,32,0|0,0:0|0:0,0:0:0:0:
256,192,132450,2,0,L|192:192,1,64,8|0,0:1|0:0,0:0:0:0:
352,128,132621,2,8,L|432:128,1,64,0|0,0:0|0:0,0:0:0:0:
160,80,132793,6,0,L|160:224,1,128,8|0,0:3|0:0,0:0:0:0:
240,224,133050,1,0,0:0:0:0:
400,160,133136,2,0,L|400:304,1,128,8|0,0:1|0:0,0:0:0:0:
440,296,133350,1,0,0:0:0:0:
480,304,133393,1,0,0:0:0:0:
320,320,133478,5,8,0:0:0:0:
288,320,133520,1,0,0:0:0:0:
256,320,133563,1,0,0:0:0:0:
288,320,133607,1,0,0:0:0:0:
320,320,133649,1,8,0:3:0:0:
416,320,133736,1,0,0:0:0:0:
240,256,133821,2,0,L|176:256,1,64,8|0,0:1|0:0,0:0:0:0:
272,208,133993,2,0,L|352:208,1,64,4|0,0:3|0:0,0:0:0:0:
112,160,134164,6,0,L|256:160,1,128,12|0,0:3|0:0,0:0:0:0:
400,128,134421,1,0,0:0:0:0:
240,96,134507,2,0,L|176:96,2,64,8|0|0,0:1|0:0|0:0,0:0:0:0:
64,160,134764,6,0,L|80:224,1,64,2|0,0:0|0:0,0:0:0:0:
160,240,134936,1,0,0:0:0:0:
320,240,135021,2,0,L|304:304,1,64,8|0,0:0|0:0,0:0:0:0:
144,336,135193,2,0,L|208:336,2,64,8|0|0,0:1|0:0|0:0,0:0:0:0:
112,336,135407,2,0,L|160:336,1,32,0|0,0:0|0:0,0:0:0:0:
320,336,135536,6,0,L|416:336,1,64,4|0,0:3|0:0,0:0:0:0:
304,288,135707,2,0,L|384:288,1,64,8|0,0:0|0:0,0:0:0:0:
208,224,135878,2,0,L|128:224,2,64,8|0|0,0:1|0:0|0:0,0:0:0:0:
368,208,136136,1,2,0:0:0:0:
208,176,136221,5,0,0:0:0:0:
147,166,136306,1,0,0:0:0:0:
129,108,136392,1,8,0:0:0:0:
173,66,136478,1,0,0:0:0:0:
336,48,136564,2,0,L|256:48,3,64,8|0|0|0,0:1|0:0|0:0|0:0,0:0:0:0:
112,160,136907,6,0,L|128:240,1,64,8|0,0:3|0:0,0:0:0:0:
208,208,137078,2,0,L|224:288,1,64,8|0,0:0|0:0,0:0:0:0:
400,160,137250,2,0,L|384:240,1,64,8|0,0:1|0:0,0:0:0:0:
304,208,137421,2,0,L|288:288,1,64,8|0,0:0|0:0,0:0:0:0:
112,336,137593,5,2,0:3:0:0:
143,336,137635,1,0,0:0:0:0:
172,323,137678,1,0,0:0:0:0:
192,299,137721,1,0,0:0:0:0:
199,268,137764,1,2,0:0:0:0:
192,237,137807,1,0,0:0:0:0:
171,213,137850,1,0,0:0:0:0:
142,200,137892,1,0,0:0:0:0:
112,160,137936,2,0,L|192:160,1,64,8|0,0:1|0:0,0:0:0:0:
352,160,138107,6,0,L|272:160,1,64,2|0,0:0|0:0,0:0:0:0:
273,188,138236,2,0,L|289:156,5,32,0|0|0|0|0|8,0:0|0:0|0:0|0:0|0:0|0:0,0:0:0:0:
352,160,138536,1,0,0:0:0:0:
192,208,138621,2,0,L|112:208,2,64,8|0|0,0:1|0:0|0:0,0:0:0:0:
224,256,138836,2,0,L|192:256,1,32,0|2,0:0|0:0,0:0:0:0:
16,256,138964,5,0,0:0:0:0:
48,256,139006,1,0,0:0:0:0:
80,256,139049,1,0,0:0:0:0:
160,224,139136,2,0,L|80:224,1,64,8|0,0:0|0:0,0:0:0:0:
272,192,139307,2,0,L|272:112,1,64,8|0,0:1|0:0,0:0:0:0:
96,112,139478,2,0,L|176:112,1,64,0|0,0:0|0:0,0:0:0:0:
336,112,139650,6,0,L|192:112,1,128,8|0,0:3|0:0,0:0:0:0:
368,64,139907,1,0,0:0:0:0:
208,48,139993,2,0,L|128:48,1,64,8|0,0:1|0:0,0:0:0:0:
224,96,140164,2,0,L|240:176,1,64,8|0,0:0|0:0,0:0:0:0:
64,224,140336,5,2,0:0:0:0:
70,192,140378,1,0,0:0:0:0:
88,166,140421,1,0,0:0:0:0:
115,149,140464,1,0,0:0:0:0:
146,142,140507,1,0,0:0:0:0:
96,112,140593,1,0,0:0:0:0:
256,144,140678,2,0,L|336:144,1,64,8|0,0:1|0:0,0:0:0:0:
240,192,140850,2,0,L|224:272,1,64,8|0,0:0|0:0,0:0:0:0:
400,272,141021,6,0,L|320:272,2,64,4|0|0,0:3|0:0|0:0,0:0:0:0:
240,272,141278,1,0,0:0:0:0:
80,272,141364,2,0,L|176:272,1,64,8|0,0:1|0:0,0:0:0:0:
224,272,141536,2,0,L|304:272,1,64,8|0,0:0|0:0,0:0:0:0:
128,208,141707,6,0,L|32:208,3,64,2|0|0|0,0:0|0:0|0:0|0:0,0:0:0:0:
224,144,142050,2,0,L|320:144,1,64,8|0,0:1|0:0,0:0:0:0:
368,144,142222,2,0,L|448:144,1,64,0|0,0:0|0:0,0:0:0:0:
176,304,142393,6,0,L|128:304,4,32,8|0|0|0|0,0:3|0:0|0:0|0:0|0:0,0:0:0:0:
336,304,142650,1,0,0:0:0:0:
176,256,142736,2,0,L|96:256,1,64,8|0,0:1|0:0,0:0:0:0:
192,192,142907,2,0,L|112:192,1,64,8|0,0:0|0:0,0:0:0:0:
336,192,143078,5,2,0:3:0:0:
366,188,143120,1,0,0:0:0:0:
380,160,143163,1,0,0:0:0:0:
364,133,143206,1,0,0:0:0:0:
336,192,143250,1,2,0:0:0:0:
305,188,143292,1,0,0:0:0:0:
291,160,143335,1,0,0:0:0:0:
307,133,143378,1,0,0:0:0:0:
432,96,143421,2,0,L|368:96,3,64,8|0|8|0,0:1|0:0|0:0|0:0,0:0:0:0:
160,96,143764,6,0,L|144:240,1,128,2|0,3:2|3:2,3:2:0:0:
224,240,144021,1,0,3:2:0:0:
304,208,144107,2,0,L|288:352,1,128,2|0,3:0|3:2,3:2:0:0:
368,352,144364,1,0,3:2:0:0:
448,48,144450,6,0,L|464:192,1,128,2|0,3:2|3:2,0:0:0:0:
384,192,144707,1,0,3:2:0:0:
304,160,144793,2,0,L|448:160,1,128,8|0,0:1|3:2,3:2:0:0:
352,160,145050,1,0,3:2:0:0:
128,288,145136,5,4,3:2:0:0:
64,288,145221,2,0,L|48:224,2,64,0|0|0,0:0|0:0|0:0,0:0:0:0:
128,288,145478,1,8,0:0:0:0:
192,288,145564,2,0,L|208:224,2,64,0|0|0,0:0|0:0|0:0,0:0:0:0:
256,288,145821,1,8,0:0:0:0:
320,288,145907,2,0,L|336:224,2,64,0|0|0,0:0|0:0|0:0,0:0:0:0:
224,240,146164,2,0,L|208:176,1,64,8|0,0:0|0:0,0:0:0:0:
128,208,146336,2,0,L|112:144,1,64,0|0,0:0|0:0,0:0:0:0:
448,288,146507,6,0,L|464:224,2,64,8|0|0,0:0|0:0|0:0,0:0:0:0:
384,288,146764,1,0,0:0:0:0:
320,288,146850,2,0,L|304:224,2,64,8|0|0,0:0|0:0|0:0,0:0:0:0:
384,288,147107,1,0,0:0:0:0:
320,288,147193,2,0,L|304:224,2,64,8|0|0,0:0|0:0|0:0,0:0:0:0:
256,288,147450,1,0,0:0:0:0:
192,288,147536,2,0,L|192:80,1,192,8|0,0:0|0:0,0:0:0:0:
384,224,147878,5,8,0:0:0:0:
376,161,147963,1,0,0:0:0:0:
339,109,148049,1,0,0:0:0:0:
282,81,148135,1,0,0:0:0:0:
208,256,148221,1,8,0:0:0:0:
215,193,148306,1,0,0:0:0:0:
252,141,148392,1,0,0:0:0:0:
309,113,148478,1,0,0:0:0:0:
256,208,148564,5,8,0:0:0:0:
199,180,148650,1,0,0:0:0:0:
162,128,148736,1,0,0:0:0:0:
155,65,148821,1,0,0:0:0:0:
240,48,148907,2,0,L|256:128,1,64,8|0,0:0|0:0,0:0:0:0:
339,109,149078,2,0,L|355:189,1,64,0|0,0:0|0:0,0:0:0:0:
176,304,149250,6,0,L|160:224,2,64,8|0|0,0:0|0:0|0:0,0:0:0:0:
256,304,149507,1,0,0:0:0:0:
176,304,149593,2,0,L|192:240,1,64,8|0,0:0|0:0,0:0:0:0:
272,256,149764,2,0,L|288:192,1,64,0|0,0:0|0:0,0:0:0:0:
208,160,149936,6,0,L|192:80,2,64,8|0|0,0:0|0:0|0:0,0:0:0:0:
288,160,150193,1,0,0:0:0:0:
208,160,150278,2,0,L|208:368,1,192,8|0,0:0|0:0,0:0:0:0:
432,288,150621,6,0,L|304:288,2,128,8|0|8,0:0|0:0|0:0,0:0:0:0:
378,176,151050,1,0,0:0:0:0:
357,235,151136,1,0,0:0:0:0:
378,294,151222,1,0,0:0:0:0:
432,327,151307,1,8,0:0:0:0:
304,352,151478,1,0,0:0:0:0:
432,327,151650,5,8,0:0:0:0:
427,263,151735,1,0,0:0:0:0:
391,211,151821,1,0,0:0:0:0:
333,185,151907,1,0,0:0:0:0:
271,192,151992,1,8,0:0:0:0:
400,128,152164,1,0,0:0:0:0:
256,112,152336,2,0,L|192:112,4,64,8|0|0|0|8,0:0|0:0|0:0|0:0|0:0,0:0:0:0:
400,112,152850,2,0,L|272:112,2,128,0|8|0,0:0|0:0|0:0,0:0:0:0:
80,288,153364,6,0,L|208:288,2,128,8|0|8,0:0|0:0|0:0,0:0:0:0:
134,176,153793,1,0,0:0:0:0:
155,235,153879,1,0,0:0:0:0:
134,294,153965,1,0,0:0:0:0:
80,327,154050,1,8,0:0:0:0:
208,352,154221,1,0,0:0:0:0:
80,327,154393,5,8,0:0:0:0:
85,263,154478,1,0,0:0:0:0:
121,211,154564,1,0,0:0:0:0:
179,185,154650,1,0,0:0:0:0:
241,192,154735,1,8,0:0:0:0:
112,128,154907,1,0,0:0:0:0:
256,112,155079,2,0,L|192:112,4,64,8|0|0|0|8,0:0|0:0|0:0|0:0|0:0,0:0:0:0:
400,112,155593,2,0,L|272:112,2,128,0|8|0,0:0|0:0|0:0,0:0:0:0:
64,304,156107,6,0,L|48:160,1,128,8|0,0:0|0:0,0:0:0:0:
176,160,156450,1,0,0:0:0:0:
320,176,156621,2,0,L|336:32,1,128,0|8,0:0|0:0,0:0:0:0:
208,32,156964,1,0,0:0:0:0:
64,304,157136,2,0,L|48:160,1,128,0|2,0:0|0:3,0:0:0:0:
352,192,157478,6,0,L|480:192,2,128,8|0|0,0:0|0:0|0:0,0:0:0:0:
192,144,157993,2,0,L|320:144,2,128,0|8|0,0:0|0:0|0:0,0:0:0:0:
352,80,158507,2,0,L|480:80,1,128,0|2,0:0|0:3,0:0:0:0:
144,112,158850,6,8,L|128:240,1,128,0|0,0:0|0:0,0:0:0:0:
256,272,159193,1,0,0:0:0:0:
400,112,159364,2,0,L|416:240,1,128,0|8,0:0|0:0,0:0:0:0:
288,272,159707,1,0,0:0:0:0:
416,112,159878,2,0,L|432:240,1,128,0|2,0:0|0:3,0:0:0:0:
160,256,160221,5,8,0:0:0:0:
288,256,160392,1,0,0:0:0:0:
416,256,160563,1,0,0:0:0:0:
256,192,160736,2,0,L|112:192,2,128,0|8|0,0:0|0:0|0:0,0:0:0:0:
416,144,161250,1,8,0:0:0:0:
288,144,161421,1,2,0:0:0:0:
16,128,161593,5,8,0:0:0:0:
144,144,161764,2,0,L|160:288,1,128,0|8,0:0|0:0,0:0:0:0:
300,128,162107,1,0,0:0:0:0:
172,144,162278,2,0,L|156:288,1,128,8|0,0:0|0:0,0:0:0:0:
304,288,162621,2,0,L|320:224,1,64,8|0,0:0|0:0,0:0:0:0:
240,224,162793,2,0,L|224:160,1,64,2|0,0:0|0:0,0:0:0:0:
384,160,162964,6,0,L|400:32,1,128,8|0,0:0|0:0,0:0:0:0:
256,128,163307,2,0,L|240:0,1,128,8|0,0:0|0:0,0:0:0:0:
400,64,163650,2,0,L|272:64,1,128,8|0,0:0|0:0,0:0:0:0:
432,160,163993,2,0,L|304:160,1,128,8|2,0:0|0:0,0:0:0:0:
16,192,164336,6,0,L|144:192,2,128,0|0|0,0:0|0:0|0:0,0:0:0:0:
32,128,164764,1,0,0:0:0:0:
80,80,164850,1,0,0:0:0:0:
144,64,164936,1,0,0:0:0:0:
336,192,165021,6,0,L|208:192,2,128,0|0|0,0:0|0:0|0:0,0:0:0:0:
320,128,165449,1,0,0:0:0:0:
272,80,165535,1,0,0:0:0:0:
208,64,165621,1,0,0:0:0:0:
416,64,165707,6,0,L|432:192,1,128,0|0,0:0|0:0,0:0:0:0:
304,224,166050,2,0,L|288:288,1,64,0|0,0:0|0:0,0:0:0:0:
368,272,166221,2,0,L|384:336,1,64,0|0,0:0|0:0,0:0:0:0:
208,64,166393,6,0,L|192:192,1,128,0|0,0:0|0:0,0:0:0:0:
320,224,166736,2,0,L|336:288,1,64,0|0,0:3|0:0,0:0:0:0:
176,272,166907,2,0,L|160:336,1,64,0|0,0:0|0:0,0:0:0:0:
352,336,167078,6,0,P|432:256|336:176,1,256,4|0,0:0|0:0,0:0:0:0:
224,176,167593,1,2,0:0:0:0:
352,336,167764,2,0,P|432:256|336:176,1,256,0|8,0:0|0:3,0:0:0:0:
112,160,168450,6,0,P|128:256|272:320,1,256,2|0,0:0|0:0,0:0:0:0:
384,320,168964,1,0,0:0:0:0:
260,321,169136,2,0,P|144:278|112:160,1,256,2|8,0:0|0:3,0:0:0:0:
368,256,169821,6,0,P|286:179|368:96,1,256,2|0,0:0|0:0,0:0:0:0:
256,64,170336,1,0,0:0:0:0:
368,256,170507,2,0,P|286:179|368:96,1,256,2|4,0:0|0:3,0:0:0:0:
144,256,171193,6,0,P|226:179|144:96,1,256,2|0,0:0|0:0,0:0:0:0:
256,64,171708,1,2,0:0:0:0:
368,256,171878,2,0,P|286:179|368:96,1,256,2|8,0:0|0:3,0:0:0:0:
128,96,172564,6,0,P|160:192|304:240,1,256,2|0,0:0|0:0,0:0:0:0:
176,208,173078,1,0,0:0:0:0:
296,241,173250,2,0,P|415:208|464:95,1,256,2|4,0:0|0:3,0:0:0:0:
368,80,173764,1,4,0:3:0:0:
112,80,173936,6,0,P|48:128|135:266,1,256,2|0,0:0|0:0,0:0:0:0:
224,272,174450,1,0,0:0:0:0:
336,80,174621,2,0,P|400:128|313:266,1,256,2|8,0:0|0:3,0:0:0:0:
224,272,175136,1,4,0:3:0:0:
496,288,175307,6,0,P|464:192|304:128,1,256,2|0,0:0|0:0,0:0:0:0:
192,128,175821,1,0,0:0:0:0:
336,288,175993,2,0,P|304:192|144:128,1,256,2|8,0:0|0:3,0:0:0:0:
48,128,176507,1,0,0:0:0:0:
400,304,176678,6,0,P|432:224|384:32,1,256,2|2,0:0|0:0,0:0:0:0:
256,64,177193,1,0,0:3:0:0:
112,304,177364,2,0,P|80:224|128:32,1,256,2|4,0:0|0:3,0:0:0:0:
400,208,178050,6,0,B|370:70|224:48|224:48|256:64|357:160|256:240|224:256|224:256|366:244|400:96,1,768,2|8,0:0|0:3,0:0:0:0:
112,112,179421,6,0,L|304:112,1,170.666666666667,0|0,0:0|0:0,0:0:0:0:
112,208,179993,2,0,L|352:112,1,256,0|0,0:0|0:0,0:0:0:0:
112,208,180564,1,0,0:0:0:0:
448,288,180793,6,0,P|416:208|256:128,1,256,4|2,0:3|0:0,0:0:0:0:
448,288,181478,2,0,P|370:225|450:124,1,256,2|8,0:0|0:3,0:0:0:0:
256,288,182164,6,2,P|178:225|258:124,1,256,2|2,0:0|0:0,0:0:0:0:
464,112,182850,1,8,0:3:0:0:
256,96,183193,1,4,0:3:0:0:
48,112,183536,6,0,P|80:192|240:256,1,256,4|0,0:3|0:0,0:0:0:0:
464,112,184221,2,0,P|432:192|272:256,1,256,2|8,0:0|0:3,0:0:0:0:
416,288,184736,2,0,L|432:144,1,128,0|4,0:0|0:3,0:0:0:0:
272,144,185078,6,0,P|203:179|288:304,1,256,2|0,0:0|0:0,0:0:0:0:
400,288,185593,1,2,0:0:0:0:
272,256,185764,2,0,B|392:228|392:228|400:96,1,256,0|0,0:0|0:0,0:0:0:0:
256,192,186278,12,0,187478,0:0:0:0:
432,176,187650,6,0,L|400:112,3,64,0|0|0|0,3:2|3:2|3:2|3:2,0:0:0:0:
320,128,187993,2,0,L|352:64,3,64,0|0|0|0,3:2|3:2|3:2|3:2,0:0:0:0:
256,64,188336,6,0,L|224:144,1,64,0|0,3:2|3:2,0:0:0:0:
320,128,188507,2,0,L|352:208,1,64,0|0,3:2|3:2,0:0:0:0:
160,304,188678,2,0,B|160:176|160:176|96:176,1,192,8|0,0:3|0:0,0:0:0:0:
288,160,189021,6,0,B|416:160|416:160|272:160,1,256,4|2,0:0|0:0,0:0:0:0:
448,112,189707,1,2,0:0:0:0:
288,144,189878,2,0,L|288:208,1,64,2|2,0:0|0:0,0:0:0:0:
208,240,190050,1,0,0:0:0:0:
368,240,190221,1,0,0:0:0:0:
128,256,190393,6,0,L|144:208,1,32,2|0,0:0|0:0,0:0:0:0:
16,192,190564,1,0,0:0:0:0:
177,87,190736,2,0,B|128:205|128:205|256:208,1,256,2|2,0:0|0:0,0:0:0:0:
256,304,191250,1,2,0:3:0:0:
176,304,191336,1,2,0:3:0:0:
256,304,191507,1,2,0:3:0:0:
176,304,191593,1,2,0:3:0:0:
448,320,191764,6,0,B|464:192|464:192|400:192,1,192,2|0,0:0|0:0,0:0:0:0:
320,192,192107,2,0,B|304:64|304:64|240:64,1,192,0|0,0:0|0:0,0:0:0:0:
160,192,192450,2,0,B|176:64|176:64|112:64,1,192,2|0,0:0|0:0,0:0:0:0:
176,48,192793,1,2,0:3:0:0:
16,128,192964,2,0,L|224:128,1,192,2|0,0:0|0:0,0:0:0:0:
128,176,193307,2,0,L|208:176,1,64,2|2,0:0|0:0,0:0:0:0:
112,224,193478,6,0,P|96:128|0:64,1,192,2|0,0:0|0:0,0:0:0:0:
112,224,193821,2,0,P|128:128|224:64,1,192,2|0,0:0|0:0,0:0:0:0:
288,64,194164,5,2,0:0:0:0:
312,144,194336,1,2,0:3:0:0:
264,144,194378,1,2,0:3:0:0:
312,144,194421,1,2,0:3:0:0:
264,144,194463,1,0,0:0:0:0:
312,144,194507,6,0,L|320:272,1,128,2|0,0:3|0:0,0:0:0:0:
224,208,194764,2,0,L|216:336,1,128,2|0,0:3|0:0,0:0:0:0:
304,336,195021,2,0,L|308:301,1,32,2|0,0:3|0:3,0:3:0:0:
250,303,195107,2,0,L|254:268,1,32,2|0,0:3|0:0,0:0:0:0:
320,240,195193,6,0,L|480:240,1,128,2|0,0:0|0:0,0:0:0:0:
384,240,195450,1,2,0:3:0:0:
464,208,195536,2,0,L|459:168,1,32,0|0,0:0|0:0,0:0:0:0:
406,175,195621,2,0,L|401:135,1,32,0|0,0:0|0:0,0:0:0:0:
460,176,195707,1,0,0:0:0:0:
208,176,195878,6,0,L|256:176,1,32,2|0,0:0|0:0,0:0:0:0:
192,64,196050,1,2,0:3:0:0:
48,64,196221,2,0,B|32:192|32:192|176:192,1,256,0|2,0:0|0:0,0:0:0:0:
304,224,196736,2,0,L|304:288,1,64,0|2,0:0|0:3,0:0:0:0:
384,304,196907,1,0,0:3:0:0:
304,224,196993,2,0,L|304:288,1,64,2|2,0:3|0:3,0:0:0:0:
48,320,197250,6,0,B|80:192|80:192|160:192,1,192,2|0,0:0|0:0,0:0:0:0:
224,192,197593,2,0,B|240:64|240:64|304:64,1,192,0|0,0:0|0:0,0:0:0:0:
208,176,197936,2,2,B|192:48|192:48|128:48,1,192,2|0,0:0|0:0,0:0:0:0:
208,48,198278,1,2,0:0:0:0:
128,128,198450,1,2,0:3:0:0:
208,128,198536,1,0,0:0:0:0:
416,224,198621,6,0,L|240:224,1,128,0|2,0:0|0:3,0:0:0:0:
352,224,198878,1,0,0:0:0:0:
256,224,198964,2,0,L|80:224,1,128,0|0,0:0|0:0,0:0:0:0:
192,224,199221,1,0,0:0:0:0:
288,176,199307,6,0,L|192:176,3,64,2|0|0|0,0:3|0:0|0:0|0:0,0:0:0:0:
128,128,199650,2,0,L|224:128,3,64,2|2|2|2,0:0|0:0|0:0|0:0,0:0:0:0:
416,240,199993,5,8,3:2:0:0:
272,208,200164,2,0,L|352:208,1,64,2|2,3:1|3:1,0:0:0:0:
272,208,200336,2,0,L|272:144,2,64,0|2|2,0:0|3:1|3:1,0:0:0:0:
96,240,200678,5,2,3:2:0:0:
240,208,200850,2,0,L|160:208,1,64,0|2,3:1|3:2,0:0:0:0:
240,208,201021,2,0,L|240:144,1,64,0|0,0:0|3:1,0:0:0:0:
176,144,201193,1,2,3:2:0:0:
416,240,201364,6,0,L|272:240,2,128,8|2|2,3:2|3:1|3:1,0:0:0:0:
352,208,201793,2,0,L|352:144,1,64,0|0,0:0|3:1,0:0:0:0:
288,112,201964,1,0,3:1:0:0:
352,80,202050,1,2,3:2:0:0:
208,48,202221,2,0,L|288:48,2,64,2|2|0,3:1|3:2|0:0,3:1:0:0:
352,96,202564,2,0,L|352:160,1,64,2|0,3:2|0:0,0:0:0:0:
176,256,202736,6,0,L|256:256,1,64,8|0,3:2|3:1,3:1:0:0:
176,256,202907,2,0,P|112:224|96:128,1,128,2|2,3:1|3:1,0:0:0:0:
240,144,203250,2,0,L|256:64,1,64,0|0,3:1|3:1,0:0:0:0:
336,128,203421,2,0,L|240:16,1,128,2|0,3:2|3:2,3:1:0:0:
169,128,203678,2,0,L|73:16,1,128,2|0,3:2|3:1,3:1:0:0:
169,128,203936,2,0,L|215:71,1,64,2|0,3:1|3:1,3:1:0:0:
400,272,204107,6,0,L|384:128,1,128,8|0,3:2|3:1,3:1:0:0:
299,131,204364,2,0,L|443:115,1,128,2|2,3:2|3:1,0:0:0:0:
336,224,204621,2,0,L|320:112,1,64,2|0,3:2|3:2,0:0:0:0:
160,176,204793,6,0,L|144:32,1,128,2|0,3:1|3:1,3:1:0:0:
224,160,205050,2,0,L|216:81,1,64,0|2,3:1|3:1,0:0:0:0:
288,96,205221,1,0,0:0:0:0:
359,143,205307,2,0,L|351:64,1,64,0|0,3:1|3:1,0:0:0:0:
160,272,205478,6,0,L|160:192,1,64,8|0,3:2|3:2,3:2:0:0:
240,192,205650,1,0,3:2:0:0:
160,192,205736,1,0,3:2:0:0:
240,272,205821,2,0,L|240:192,1,64,8|0,3:2|3:2,0:0:0:0:
160,192,205993,1,0,3:2:0:0:
240,192,206079,1,0,3:2:0:0:
384,176,206164,5,8,3:2:0:0:
304,176,206250,1,0,3:2:0:0:
384,128,206336,1,0,3:3:0:0:
304,128,206421,1,0,3:2:0:0:
128,128,206507,1,8,3:2:0:0:
208,128,206592,1,0,3:2:0:0:
48,128,206678,1,2,3:1:0:0:
128,128,206763,1,0,3:2:0:0:
288,240,206850,5,8,3:2:0:0:
368,240,206936,1,0,3:2:0:0:
288,208,207021,2,0,L|288:144,1,64,0|0,3:2|3:2,3:2:0:0:
368,192,207193,1,8,3:2:0:0:
288,192,207279,1,0,3:2:0:0:
368,160,207364,2,0,L|368:96,1,64,0|0,3:2|3:2,0:0:0:0:
176,160,207536,5,8,3:2:0:0:
256,128,207621,2,0,L|256:64,1,64,0|0,0:0|3:2,0:0:0:0:
64,144,207793,1,0,3:2:0:0:
144,112,207878,1,8,3:2:0:0:
64,96,207964,1,0,3:2:0:0:
256,64,208050,1,2,3:1:0:0:
336,48,208136,1,0,3:2:0:0:
144,304,208221,6,0,L|48:304,1,80,8|0,3:2|3:2,3:2:0:0:
240,256,208393,2,0,L|64:256,1,160,2|8,3:1|3:2,3:2:0:0:
160,224,208650,1,8,3:2:0:0:
80,192,208736,1,8,3:2:0:0:
160,160,208821,1,8,3:2:0:0:
320,160,208907,6,8,L|320:80,1,80,0|0,0:0|0:0,0:0:0:0:
240,48,209078,2,8,L|320:48,1,80,0|0,0:0|0:0,0:0:0:0:
160,96,209250,2,0,L|80:96,1,80,8|8,0:0|0:0,0:0:0:0:
256,160,209421,2,0,L|352:160,1,80,8|8,0:0|0:0,0:0:0:0:
128,240,209593,6,2,L|96:240,1,20,0|0,0:0|0:0,0:0:0:0:
128,192,209678,2,0,L|160:192,1,20,0|0,0:0|0:0,0:0:0:0:
128,240,209764,2,0,L|96:240,1,20,0|0,0:0|0:0,0:0:0:0:
128,240,209850,2,0,L|96:240,1,20,0|0,0:0|0:0,0:0:0:0:
192,240,209936,5,0,0:2:0:0:
224,208,210022,1,0,0:2:0:0:
192,160,210108,2,0,L|192:240,1,80,0|0,0:2|0:2,0:2:0:0:
272,272,210279,2,8,L|272:192,1,80,8|8,0:3|0:3,0:3:0:0:
240,240,210450,1,8,0:3:0:0:
272,272,210535,1,8,0:3:0:0:
432,288,210621,2,0,L|432:48,1,240,12|0,0:0|0:0,0:0:0:0:
64,240,210964,6,0,L|224:240,1,128,14|0,0:0|0:0,0:0:0:0:
352,208,211221,2,2,L|208:208,1,128,2|0,0:2|0:0,0:0:0:0:
384,256,211478,2,0,L|464:256,1,64,2|0,0:0|0:0,0:0:0:0:
256,256,211650,6,0,L|240:112,1,128,8|0,0:0|0:0,0:0:0:0:
416,192,211907,2,0,L|432:48,1,128,2|0,0:0|0:0,0:0:0:0:
256,160,212164,2,0,L|240:96,1,64,2|0,0:0|0:0,0:0:0:0:
48,112,212336,6,0,L|208:112,2,128,8|0|8,0:0|0:1|0:1,0:0:0:0:
288,160,212850,2,0,L|224:160,1,64,0|0,0:0|0:0,0:0:0:0:
416,256,213021,2,0,L|432:128,1,128,10|0,0:0|0:0,0:0:0:0:
256,192,213278,2,0,L|240:64,1,128,2|0,0:0|0:0,0:0:0:0:
320,64,213536,2,0,L|336:144,1,64,2|0,0:0|0:0,0:0:0:0:
176,224,213707,6,0,L|240:224,1,64,8|0,0:0|0:0,0:0:0:0:
176,224,213878,2,0,L|160:96,1,128,0|8,0:0|0:1,0:0:0:0:
400,96,214221,2,0,L|416:160,1,64,0|0,0:0|0:0,0:0:0:0:
224,272,214393,6,8,L|96:272,1,128,8|2,0:0|0:0,0:0:0:0:
256,224,214650,2,0,L|320:224,2,64,0|8|0,0:0|0:1|0:0,0:0:0:0:
416,192,214907,2,0,L|480:192,1,64,2|0,0:0|0:0,0:0:0:0:
288,240,215078,6,0,L|272:96,1,128,8|2,0:0|0:0,0:0:0:0:
96,192,215336,2,0,L|112:48,1,128,0|0,0:0|0:0,0:0:0:0:
288,32,215593,2,0,L|224:32,1,64,2|0,0:0|0:0,0:0:0:0:
384,80,215764,6,2,L|416:224,1,128,10|0,0:2|0:0,0:0:0:0:
336,240,216021,1,0,0:0:0:0:
176,304,216107,2,0,L|256:304,1,64,2|0,0:0|0:0,0:0:0:0:
80,304,216278,2,0,L|0:304,1,64,0|0,0:0|0:0,0:0:0:0:
320,240,216450,6,0,L|448:240,1,128,14|0,0:0|0:0,0:0:0:0:
288,208,216707,2,0,L|160:208,1,128,2|0,0:0|0:0,0:0:0:0:
384,288,216964,2,0,L|448:288,1,64,2|0,0:0|0:0,0:0:0:0:
256,256,217136,6,0,L|240:112,1,128,8|0,0:0|0:0,0:0:0:0:
81,64,217393,2,0,L|96:192,1,128,2|0,0:0|0:0,0:0:0:0:
256,160,217650,2,0,L|272:96,1,64,2|0,0:0|0:0,0:0:0:0:
80,112,217822,6,0,L|240:112,2,128,8|0|8,0:0|0:0|0:1,0:0:0:0:
336,160,218336,2,0,L|400:160,1,64,0|0,0:0|0:0,0:0:0:0:
192,288,218507,2,0,L|176:160,1,128,2|0,0:0|0:0,0:0:0:0:
352,192,218764,2,0,L|368:64,1,128,2|0,0:0|0:0,0:0:0:0:
192,64,219022,2,0,L|272:64,1,64,2|0,0:0|0:0,0:0:0:0:
64,144,219193,6,0,L|48:304,1,128,12|0,0:3|0:3,0:3:0:0:
128,288,219450,1,0,0:0:0:0:
304,160,219536,2,0,L|320:320,1,128,8|8,0:1|0:3,0:0:0:0:
240,304,219793,1,0,0:0:0:0:
448,272,219878,6,0,L|320:272,1,128,8|2,0:0|0:3,0:0:0:0:
240,272,220136,1,0,0:0:0:0:
64,272,220221,2,8,L|192:272,1,128,8|4,0:1|0:3,0:3:0:0:
272,272,220478,1,0,0:0:0:0:
448,208,220564,6,8,L|432:80,1,128,8|4,0:0|0:3,0:0:0:0:
356,80,220821,1,0,0:0:0:0:
192,176,220907,2,8,L|208:48,1,128,8|8,0:1|0:0,0:1:0:0:
284,48,221164,1,8,0:0:0:0:
448,128,221250,6,0,L|368:128,3,64,8|0|4|4,0:3|0:0|0:3|0:3,0:0:0:0:
208,176,221593,2,4,L|272:176,1,64,8|4,0:1|0:3,0:3:0:0:
352,176,221764,2,8,L|416:176,1,64,8|12,0:3|0:3,0:3:0:0:
160,224,221936,6,0,L|0:224,1,128,10|0,0:0|0:0,0:0:0:0:
192,224,222193,1,0,0:0:0:0:
352,224,222278,2,0,L|512:224,1,128,2|0,0:0|0:0,0:0:0:0:
320,224,222535,1,0,0:0:0:0:
112,192,222621,5,2,0:0:0:0:
176,192,222706,1,0,0:0:0:0:
240,192,222792,1,0,0:0:0:0:
80,112,222878,1,2,0:0:0:0:
144,112,222963,1,0,0:0:0:0:
208,112,223049,1,0,0:0:0:0:
368,48,223136,2,0,L|304:48,1,64,2|0,0:0|0:0,0:0:0:0:
80,224,223307,6,0,L|224:224,1,128,8|0,0:0|0:0,0:0:0:0:
448,192,223650,2,0,L|304:192,1,128,8|0,0:1|0:0,0:0:0:0:
384,192,223907,1,0,0:0:0:0:
192,176,223993,6,0,L|112:176,2,64,10|0|0,0:0|0:0|0:0,0:0:0:0:
352,128,224250,2,0,L|272:128,2,64,2|0|0,0:0|0:0|0:0,0:0:0:0:
496,80,224507,2,0,L|432:80,1,64,2|0,0:0|0:0,0:0:0:0:
256,80,224678,6,0,L|320:80,2,64,8|0|0,0:0|0:0|0:0,0:0:0:0:
496,176,225021,1,8,0:1:0:0:
240,240,225193,2,0,L|224:176,1,64,0|0,0:0|0:0,0:0:0:0:
400,192,225364,6,0,L|416:48,1,128,8|0,0:0|0:0,0:0:0:0:
240,80,225621,1,2,0:0:0:0:
320,80,225707,2,0,L|336:160,1,64,8|0,0:1|0:0,0:0:0:0:
160,128,225878,2,0,L|144:208,1,64,2|0,0:0|0:0,0:0:0:0:
320,272,226050,5,8,0:0:0:0:
256,272,226135,1,0,0:0:0:0:
192,272,226221,1,0,0:0:0:0:
432,192,226393,1,8,0:1:0:0:
192,144,226564,2,0,L|176:80,1,64,2|0,0:0|0:0,0:0:0:0:
352,64,226736,6,0,L|480:64,1,128,2|0,0:0|0:0,0:0:0:0:
416,64,226993,1,0,0:0:0:0:
240,64,227078,2,0,L|112:64,1,128,8|0,0:1|0:0,0:0:0:0:
176,64,227335,1,0,0:0:0:0:
336,224,227421,6,0,L|192:224,1,128,10|0,0:0|0:0,0:0:0:0:
368,160,227678,2,0,L|224:160,1,128,2|0,0:0|0:0,0:0:0:0:
64,112,227936,2,0,L|128:112,1,64,2|0,0:0|0:0,0:0:0:0:
288,160,228107,6,0,L|208:160,1,64,8|0,0:0|0:0,0:0:0:0:
400,208,228278,2,8,L|416:288,1,64,2|0,0:0|0:0,0:1:0:0:
256,320,228450,2,0,L|240:176,1,128,8|0,0:1|0:0,0:0:0:0:
400,192,228707,2,0,L|416:48,1,128,2|0,0:0|0:0,0:0:0:0:
240,64,228964,2,0,L|232:142,1,64,2|0,0:0|0:0,0:0:0:0:
64,192,229136,6,0,L|144:192,1,64,8|0,0:1|0:0,0:0:0:0:
53,189,229307,2,2,L|37:109,1,64,0|0,0:0|0:0,0:0:0:0:
240,144,229478,2,0,L|160:144,1,64,10|0,0:0|0:0,0:0:0:0:
165,83,229650,2,0,L|229:83,1,64,0|0,0:0|0:0,0:0:0:0:
400,80,229821,2,0,L|336:80,1,64,2|0,0:0|0:0,0:0:0:0:
347,141,229993,2,0,L|411:141,1,64,0|0,0:0|0:0,0:0:0:0:
208,192,230164,6,0,L|64:192,1,128,10|0,0:2|0:0,0:0:0:0:
144,192,230421,1,0,0:0:0:0:
288,160,230507,2,0,L|224:160,3,64,8|0|8|0,0:1|0:0|0:0|0:0,0:0:0:0:
432,192,230850,6,0,L|304:192,1,128,10|0,0:0|0:0,0:0:0:0:
368,192,231107,1,0,0:0:0:0:
208,160,231193,2,0,L|208:96,1,64,8|0,0:1|0:0,0:0:0:0:
304,160,231364,2,0,L|304:96,1,64,8|0,0:0|0:0,0:0:0:0:
96,288,231536,6,0,L|112:144,1,128,12|0,0:0|0:0,0:0:0:0:
176,160,231793,1,0,0:0:0:0:
336,112,231878,2,2,L|272:112,1,64,0|0,0:0|0:0,0:0:0:0:
432,160,232050,2,2,L|496:160,1,64,0|0,0:0|0:0,0:0:0:0:
272,256,232221,6,2,L|192:256,1,64,0|0,0:0|0:0,0:0:0:0:
352,160,232393,2,2,L|256:160,1,64,0|0,0:0|0:0,0:0:0:0:
112,224,232564,2,0,L|32:224,1,64,12|0,0:1|0:0,0:0:0:0:
192,128,232736,2,0,L|96:128,1,64,8|0,0:0|0:0,0:0:0:0:
352,96,232907,6,0,L|512:96,1,128,12|0,0:0|0:0,0:0:0:0:
320,96,233164,1,0,0:0:0:0:
160,96,233250,2,0,L|0:96,1,128,8|0,0:1|0:0,0:0:0:0:
192,96,233507,1,0,0:0:0:0:
336,208,233593,5,8,0:0:0:0:
176,208,233764,2,0,L|240:208,1,64,0|0,0:0|0:0,0:0:0:0:
464,208,233936,1,8,0:1:0:0:
176,208,234107,1,2,0:0:0:0:
336,208,234278,6,0,L|352:64,1,128,8|0,0:0|0:0,0:0:0:0:
272,80,234536,1,0,0:0:0:0:
48,176,234621,2,0,L|32:32,1,128,8|0,0:1|0:0,0:0:0:0:
112,48,234879,1,0,0:0:0:0:
336,48,234964,1,10,0:0:0:0:
176,48,235136,1,0,0:0:0:0:
448,144,235307,2,0,L|384:144,1,64,0|0,0:0|0:0,0:0:0:0:
304,144,235478,2,0,L|224:144,1,64,2|0,0:0|0:0,0:0:0:0:
48,224,235650,6,0,L|192:224,1,128,8|0,0:0|0:0,0:0:0:0:
320,224,235907,1,0,0:0:0:0:
464,224,235993,2,0,L|320:224,1,128,8|0,0:1|0:0,0:0:0:0:
192,224,236250,1,0,0:0:0:0:
336,288,236336,5,8,0:0:0:0:
480,288,236507,1,0,0:0:0:0:
416,288,236592,1,0,0:0:0:0:
352,288,236678,1,8,0:1:0:0:
80,160,236850,2,0,L|256:160,1,128,2|8,0:0|0:0,0:0:0:0:
352,144,237193,2,0,L|336:64,1,64,0|2,0:0|0:0,0:0:0:0:
160,320,237364,6,0,L|176:176,1,128,0|2,0:0|0:0,0:0:0:0:
336,192,237621,1,0,0:0:0:0:
496,160,237707,2,0,B|432:160|432:160|496:160|496:160|432:160|432:160|496:160,1,256,10|8,0:0|0:1,0:0:0:0:
352,160,238221,1,4,0:3:0:0:
48,336,238393,6,0,L|32:192,1,128,10|0,0:0|0:0,0:0:0:0:
192,208,238650,1,0,0:0:0:0:
352,208,238736,2,0,L|368:64,1,128,8|0,0:1|0:0,0:0:0:0:
288,64,238993,1,0,0:0:0:0:
464,336,239078,2,0,L|480:192,1,128,8|0,0:0|0:0,0:0:0:0:
320,208,239335,1,0,0:0:0:0:
160,208,239421,2,0,L|144:64,1,128,8|0,0:1|0:0,0:0:0:0:
224,64,239678,1,0,0:0:0:0:
480,192,239764,6,0,L|304:192,1,128,10|0,0:0|0:0,0:0:0:0:
192,192,240021,1,0,0:0:0:0:
32,160,240107,2,0,L|208:160,1,128,8|0,0:1|0:0,0:0:0:0:
224,160,240364,1,0,0:0:0:0:
384,96,240450,2,0,B|320:96|320:96|320:160|320:160|400:160,1,192,8|0,0:0|0:0,0:0:0:0:
208,256,240793,6,0,P|128:192|224:96,1,256,8|10,0:1|0:0,0:0:0:0:
368,80,241307,1,0,0:0:0:0:
96,64,241478,1,8,0:1:0:0:
256,64,241650,1,0,0:0:0:0:
496,176,241821,6,0,L|352:176,1,128,8|0,0:0|0:0,0:0:0:0:
432,176,242078,1,0,0:0:0:0:
256,192,242164,1,8,0:1:0:0:
496,288,242336,1,2,0:0:0:0:
352,288,242507,6,0,L|336:144,1,128,8|0,0:0|0:0,0:0:0:0:
96,208,242850,2,0,L|112:64,1,128,8|0,0:1|0:0,0:0:0:0:
256,64,243193,2,0,L|112:64,1,128,2|8,0:0|0:3,0:0:0:0:
368,128,243536,2,0,L|464:128,3,64,8|0|4|0,0:1|0:0|0:3|0:0,0:0:0:0:
256,192,243878,6,0,L|112:192,1,128,4|0,0:0|0:0,0:0:0:0:
336,144,244136,2,0,L|496:144,1,128,2|0,0:0|0:0,0:0:0:0:
256,96,244393,2,0,L|336:96,1,64,2|0,0:0|0:0,0:0:0:0:
144,176,244564,2,0,L|0:176,2,128,8|0|8,0:0|0:0|0:1,0:0:0:0:
400,192,245078,1,2,0:0:0:0:
144,256,245250,6,0,L|288:256,1,128,8|0,0:0|0:0,0:0:0:0:
208,256,245507,1,0,0:0:0:0:
368,256,245593,2,0,L|512:256,1,128,8|0,0:1|0:0,0:0:0:0:
432,256,245850,1,0,0:0:0:0:
256,208,245936,2,0,L|112:208,1,128,2|0,0:0|0:0,0:0:0:0:
288,160,246278,2,0,L|304:32,1,128,0|2,0:0|0:0,0:0:0:0:
368,32,246536,1,0,0:0:0:0:
176,64,246621,6,0,L|32:64,1,128,8|0,0:0|0:0,0:0:0:0:
112,64,246878,1,0,0:0:0:0:
304,144,246964,1,8,0:1:0:0:
64,224,247136,2,0,L|208:224,1,128,0|10,0:0|0:0,0:0:0:0:
464,224,247478,2,0,L|320:224,1,128,0|8,0:0|0:1,0:0:0:0:
272,208,247736,2,0,L|336:208,1,64,0|2,0:0|0:0,0:0:0:0:
96,240,247993,6,0,L|80:96,1,128,8|0,0:0|0:0,0:0:0:0:
160,96,248250,1,2,0:0:0:0:
336,96,248336,2,0,L|256:96,1,64,0|0,0:0|0:0,0:0:0:0:
112,96,248507,2,0,L|192:96,1,64,2|0,0:0|0:0,0:0:0:0:
368,192,248678,6,0,B|304:192|304:192|432:192|432:192|352:192,1,256,8|8,0:0|0:1,0:0:0:0:
240,192,249193,1,4,0:3:0:0:
480,272,249364,6,0,L|336:272,1,128,10|0,0:0|0:0,0:0:0:0:
272,272,249621,1,0,0:0:0:0:
80,224,249707,2,0,L|224:224,1,128,8|0,0:1|0:0,0:0:0:0:
288,224,249964,1,0,0:0:0:0:
96,176,250050,6,0,L|80:32,1,128,8|8,0:0|0:3,0:0:0:0:
256,48,250307,1,0,0:0:0:0:
416,176,250393,2,0,L|432:32,1,128,8|4,0:1|0:3,0:0:0:0:
256,48,250650,1,0,0:0:0:0:
48,80,250736,6,0,L|192:80,1,128,10|0,0:0|0:0,0:0:0:0:
352,80,250993,1,0,0:0:0:0:
176,144,251078,2,0,L|320:144,1,128,8|0,0:1|0:0,0:0:0:0:
480,144,251335,1,0,0:0:0:0:
304,240,251421,2,0,L|176:240,1,128,8|8,0:0|0:3,0:0:0:0:
240,240,251678,1,0,0:0:0:0:
416,192,251764,2,0,L|320:192,3,64,8|0|4|0,0:1|0:0|0:3|0:0,0:0:0:0:
144,192,252107,6,0,L|16:192,1,128,2|0,0:0|0:0,0:0:0:0:
192,192,252364,1,0,0:0:0:0:
368,192,252450,2,0,L|496:192,1,128,8|0,0:1|0:0,0:0:0:0:
320,192,252707,1,0,0:0:0:0:
112,208,252793,6,0,L|96:112,1,64,0|0,0:0|0:0,0:0:0:0:
256,176,252964,2,0,L|240:80,1,64,8|0,0:3|0:0,0:0:0:0:
400,208,253136,2,0,L|384:112,1,64,4|0,0:3|0:0,0:0:0:0:
304,144,253307,2,0,L|288:48,1,64,4|0,0:3|0:0,0:0:0:0:
112,64,253478,6,0,L|256:64,1,128,4|0,0:0|0:0,0:0:0:0:
176,64,253736,1,0,0:0:0:0:
352,128,253821,2,0,L|432:128,1,64,8|8,0:3|0:0,0:0:0:0:
240,224,253993,2,4,L|336:224,1,64,4|4,0:3|0:3,0:3:0:0:
128,304,254164,6,2,L|64:304,1,64,0|0,0:0|0:0,0:0:0:0:
144,256,254336,2,2,L|160:176,1,64,0|0,0:0|0:0,0:0:0:0:
304,160,254507,2,2,L|320:80,1,64,0|0,0:0|0:0,0:0:0:0:
400,64,254678,2,2,L|336:64,1,64,2|2,0:0|0:0,0:0:0:0:
144,288,254850,6,0,L|128:208,1,64,4|0,0:0|0:0,0:0:0:0:
304,176,255021,2,0,L|320:96,1,64,0|2,0:0|0:1,0:0:0:0:
240,80,255193,2,0,L|304:80,1,64,0|0,0:0|0:0,0:0:0:0:
144,144,255364,2,0,L|64:144,1,64,2|0,0:0|0:0,0:0:0:0:
240,272,255536,5,8,0:0:0:0:
286,232,255621,1,2,0:0:0:0:
269,174,255707,1,0,0:0:0:0:
210,163,255793,1,8,0:0:0:0:
352,176,255878,1,2,0:0:0:0:
305,136,255963,1,0,0:0:0:0:
322,78,256049,1,8,0:0:0:0:
381,67,256135,1,8,0:0:0:0:
176,64,256221,6,0,L|160:144,1,64,0|0,0:0|0:0,0:0:0:0:
240,128,256393,2,0,L|256:208,1,64,0|2,0:0|0:1,0:0:0:0:
336,192,256564,2,0,L|352:272,1,64,0|0,0:0|0:0,0:0:0:0:
272,256,256736,2,0,L|256:336,1,64,8|0,0:0|0:0,0:0:0:0:
64,320,256907,5,8,0:0:0:0:
80,259,256992,1,2,0:0:0:0:
128,217,257078,1,0,0:0:0:0:
190,207,257164,1,8,0:0:0:0:
272,192,257250,1,2,0:0:0:0:
255,131,257335,1,0,0:0:0:0:
207,89,257421,1,0,0:0:0:0:
145,79,257507,1,0,0:0:0:0:
368,320,257593,5,8,0:0:0:0:
423,297,257678,1,0,0:0:0:0:
421,237,257764,1,0,0:0:0:0:
364,219,257850,1,2,0:1:0:0:
192,176,257936,1,0,0:0:0:0:
256,176,258021,1,0,0:0:0:0:
288,128,258107,1,8,0:0:0:0:
256,80,258193,1,0,0:0:0:0:
96,80,258279,6,0,L|176:80,1,64,8|2,0:0|0:0,0:0:0:0:
240,96,258450,2,0,L|160:96,1,64,0|8,0:0|0:0,0:0:0:0:
368,144,258621,2,0,L|432:144,1,64,2|0,0:0|0:0,0:0:0:0:
256,192,258793,5,0,0:0:0:0:
194,187,258878,1,2,0:1:0:0:
160,238,258964,1,8,0:0:0:0:
185,293,259050,1,2,0:0:0:0:
336,304,259136,2,0,L|368:304,2,32,2|0|2,0:0|0:0|0:0,0:0:0:0:
176,336,259307,2,0,L|256:336,1,64,8|0,0:0|0:0,0:0:0:0:
320,288,259479,1,2,0:1:0:0:
288,288,259521,1,0,0:0:0:0:
256,288,259564,1,0,0:0:0:0:
80,288,259650,6,0,L|96:224,1,64,8|0,0:0|0:0,0:0:0:0:
176,240,259821,2,0,L|192:176,1,64,2|0,0:1|0:0,0:0:0:0:
368,176,259993,2,0,L|352:112,1,64,8|0,0:0|0:0,0:0:0:0:
272,128,260164,2,0,L|256:64,1,64,2|0,0:1|0:0,0:0:0:0:
448,64,260336,6,0,L|384:64,1,64,8|0,0:0|0:0,0:0:0:0:
224,144,260507,2,0,L|224:208,1,64,0|2,0:0|0:1,0:0:0:0:
304,224,260679,2,0,L|304:288,1,64,0|0,0:0|0:0,0:0:0:0:
144,64,260850,2,0,L|80:64,1,64,8|0,0:0|0:0,0:0:0:0:
288,128,261021,6,0,L|352:128,1,64,8|2,0:0|0:0,0:0:0:0:
272,144,261193,2,0,L|256:240,1,64,0|8,0:0|0:0,0:0:0:0:
341,208,261364,2,0,L|325:288,1,64,2|0,0:0|0:0,0:0:0:0:
247,288,261536,2,0,L|167:288,1,64,8|8,0:0|0:0,0:0:0:0:
368,208,261707,6,0,L|352:144,1,64,8|0,0:0|0:0,0:0:0:0:
272,160,261878,2,0,L|256:96,1,64,0|2,0:0|0:1,0:0:0:0:
344,80,262050,2,0,L|408:80,1,64,0|0,0:0|0:0,0:0:0:0:
316,65,262221,2,0,L|252:65,1,64,8|0,0:0|0:0,0:0:0:0:
64,128,262393,5,8,0:0:0:0:
90,185,262478,1,2,0:0:0:0:
141,222,262564,1,0,0:0:0:0:
204,228,262650,1,8,0:0:0:0:
128,272,262736,2,0,L|64:272,3,64,2|0|8|8,0:0|0:0|0:0|0:0,0:0:0:0:
272,304,263079,6,0,L|336:304,1,64,0|0,0:0|0:0,0:0:0:0:
256,240,263250,2,0,L|192:240,1,64,0|2,0:0|0:1,0:0:0:0:
368,192,263421,2,0,L|464:192,3,64,0|0|8|0,0:0|0:0|0:0|0:0,0:0:0:0:
256,112,263764,5,8,0:0:0:0:
195,114,263849,1,2,0:0:0:0:
176,171,263935,1,0,0:0:0:0:
223,209,264021,1,8,0:0:0:0:
128,224,264107,1,2,0:0:0:0:
67,226,264192,1,2,0:0:0:0:
48,283,264278,1,8,0:0:0:0:
95,321,264364,1,8,0:0:0:0:
352,336,264450,6,0,L|352:272,1,64,8|0,0:0|0:0,0:1:0:0:
272,240,264621,1,2,0:1:0:0:
304,240,264663,1,0,0:0:0:0:
336,240,264706,1,0,0:0:0:0:
160,192,264793,2,0,L|160:128,1,64,8|0,0:0|0:0,0:0:0:0:
240,96,264964,1,2,0:1:0:0:
208,96,265006,1,0,0:0:0:0:
176,96,265049,1,0,0:0:0:0:
336,128,265136,6,8,L|400:128,1,64,8|0,0:0|0:0,0:0:0:0:
320,176,265307,1,2,0:1:0:0:
288,176,265349,1,0,0:0:0:0:
256,176,265392,1,0,0:1:0:0:
448,224,265479,2,0,L|464:160,1,64,8|0,0:0|0:0,0:0:0:0:
384,160,265650,2,0,L|368:96,1,64,2|0,0:1|0:0,0:0:0:0:
144,288,265821,6,0,L|144:224,1,64,8|0,0:0|0:0,0:0:0:0:
304,176,265993,2,0,L|304:112,1,64,0|2,0:0|0:1,0:0:0:0:
224,80,266164,2,0,L|304:80,1,64,0|0,0:0|0:0,0:0:0:0:
112,80,266336,2,0,L|32:80,1,64,8|0,0:0|0:0,0:0:0:0:
256,144,266507,6,0,L|272:240,1,64,8|2,0:0|0:0,0:0:0:0:
192,208,266679,2,0,L|176:304,1,64,0|8,0:0|0:0,0:0:0:0:
272,288,266850,1,2,0:0:0:0:
332,280,266935,1,0,0:0:0:0:
345,221,267021,1,8,0:0:0:0:
294,189,267107,1,8,0:0:0:0:
128,192,267193,6,0,L|192:192,1,64,8|0,0:0|0:0,0:0:0:0:
368,176,267365,2,0,L|304:176,1,64,0|2,0:0|0:1,0:0:0:0:
400,160,267536,2,0,L|400:80,1,64,0|0,0:0|0:0,0:0:0:0:
208,80,267708,2,0,L|208:0,1,64,8|0,0:0|0:0,0:0:0:0:
400,128,267879,6,0,L|416:224,1,64,8|2,0:0|0:0,0:0:0:0:
336,192,268051,2,0,L|320:288,1,64,0|8,0:0|0:0,0:0:0:0:
416,288,268221,2,0,L|336:288,3,64,2|0|0|0,0:0|0:0|0:0|0:0,0:0:0:0:
192,272,268564,6,0,L|192:208,1,64,8|0,0:0|0:0,0:0:0:0:
272,240,268736,2,0,L|272:176,1,64,0|2,0:0|0:1,0:0:0:0:
464,192,268907,2,0,L|464:128,1,64,0|0,0:0|0:0,0:0:0:0:
384,160,269079,2,0,L|384:96,1,64,8|0,0:0|0:0,0:0:0:0:
208,80,269250,2,0,L|272:80,1,64,8|2,0:0|0:0,0:0:0:0:
192,112,269421,2,0,L|128:112,1,64,0|8,0:0|0:0,0:0:0:0:
320,224,269593,1,2,0:0:0:0:
384,208,269678,1,2,0:0:0:0:
176,48,269764,6,0,L|176:112,1,64,8|8,0:0|0:0,0:0:0:0:
256,96,269936,2,0,L|256:160,1,64,8|2,0:0|0:0,0:0:0:0:
96,256,270107,1,2,0:0:0:0:
128,256,270149,1,0,0:0:0:0:
160,256,270192,1,2,0:0:0:0:
336,240,270278,2,0,L|336:160,1,64,8|0,0:0|0:0,0:0:0:0:
256,176,270450,1,0,0:0:0:0:
224,176,270492,1,0,0:0:0:0:
256,176,270535,1,0,0:0:0:0:
400,208,270621,5,0,0:0:0:0:
368,208,270663,1,0,0:0:0:0:
343,189,270706,1,0,0:0:0:0:
333,159,270749,1,0,0:0:0:0:
343,129,270792,1,0,0:0:0:0:
369,111,270835,1,0,0:0:0:0:
400,112,270878,1,0,0:0:0:0:
256,112,270964,6,0,L|224:112,6,32,0|0|0|0|0|0|0,0:0|0:0|0:0|0:0|0:0|0:0|0:0,0:0:0:0:
480,96,271307,6,0,L|336:96,1,128,8|0,0:0|0:0,0:0:0:0:
416,96,271564,1,0,0:0:0:0:
256,96,271650,2,0,L|112:96,1,128,8|0,0:0|0:0,0:0:0:0:
192,96,271907,1,0,0:0:0:0:
352,144,271993,2,0,L|208:144,1,128,8|0,0:0|0:0,0:0:0:0:
288,144,272250,1,0,0:0:0:0:
448,208,272336,2,0,L|304:208,1,128,8|0,0:0|0:0,0:0:0:0:
384,208,272593,1,0,0:0:0:0:
208,272,272678,6,0,L|192:208,1,64,8|0,0:0|0:0,0:0:0:0:
368,192,272850,2,0,L|352:128,1,64,8|0,0:0|0:0,0:0:0:0:
112,144,273021,2,0,L|128:64,1,64,8|0,0:0|0:0,0:0:0:0:
288,112,273193,2,0,L|304:32,1,64,8|0,0:0|0:0,0:0:0:0:
96,144,273364,2,0,L|112:64,1,64,8|0,0:0|0:0,0:0:0:0:
272,112,273536,2,0,L|288:32,1,64,8|0,0:0|0:0,0:0:0:0:
80,144,273707,2,0,L|96:64,1,64,8|0,0:0|0:0,0:0:0:0:
256,112,273879,2,0,L|272:32,1,64,8|0,0:0|0:0,0:0:0:0:
48,112,274050,6,8,L|112:112,3,64,8|8|8|8,0:0|0:0|0:0|0:0,0:0:0:0:
288,176,274393,2,8,L|224:176,3,64,8|8|8|8,0:0|0:0|0:0|0:0,0:0:0:0:
400,112,274736,2,8,L|464:112,3,64,8|8|8|8,0:0|0:0|0:0|0:0,0:0:0:0:
288,112,275079,2,8,L|208:112,1,64,8|8,0:0|0:0,0:0:0:0:
400,64,275250,2,8,L|480:64,1,64,8|8,0:0|0:0,0:0:0:0:
256,64,275421,5,6,0:3:0:0:
288,128,275507,1,0,0:0:0:0:
224,128,275593,1,0,0:0:0:0:
320,192,275678,1,0,0:0:0:0:
256,192,275764,2,0,L|256:384,1,192,0|0,0:0|0:0,0:0:0:0:
192,192,276107,2,0,L|192:384,1,192,0|0,0:0|0:0,0:0:0:0:
128,192,276450,2,0,P|64:256|128:288,1,192,0|0,0:0|0:0,0:0:0:0:
304,288,276793,5,4,0:0:0:0:
256,192,276964,12,0,283650,0:0:0:0:
