osu file format v14

[General]
AudioFilename: audio.mp3
AudioLeadIn: 0
PreviewTime: 209507
Countdown: 0
SampleSet: Soft
StackLeniency: 0.7
Mode: 2
LetterboxInBreaks: 0
EpilepsyWarning: 1
WidescreenStoryboard: 1

[Editor]
Bookmarks: 1136,24450,57364,68336,90278,112221,123193,167078,210964,232907,254850,276793
DistanceSpacing: 1.3
BeatDivisor: 4
GridSize: 32
TimelineZoom: 1.6

[Metadata]
Title:Hype feat. Such (lapix Remix)
TitleUnicode:Hype feat. Such (lapix Remix)
Artist:PSYQUI
ArtistUnicode:PSYQUI
Creator:Ascendance
Version:Jemzuu's Salad
Source:
Tags:c94 critical megarex mrx-027 dnb drum and bass electronic wub sanyi sanyi4life ajamez jemzuu mbomb -_magic_bomb_- zirox sorcerer tomthewizard ster chara osu_gangster -plus- bunnrei jbh jbhyperion alienflybot afb rocma _asriel no492_shaymin spectator spec -luminate lumi bennybananas benny- benita -tochi ft clsw minato_yukina daiz_ix
BeatmapID:2165122
BeatmapSetID:1009824

[Difficulty]
HPDrainRate:4
CircleSize:3
OverallDifficulty:7
ApproachRate:7
SliderMultiplier:1.45
SliderTickRate:1

[Events]
//Background and Video events
0,0,"hype.jpg",0,0
//Break Periods
2,24650,34521
2,112421,116464
2,150821,155207
//Storyboard Layer 0 (Background)
//Storyboard Layer 1 (Fail)
//Storyboard Layer 2 (Pass)
//Storyboard Layer 3 (Foreground)
//Storyboard Layer 4 (Overlay)
//Storyboard Sound Samples

[TimingPoints]
1136,342.857142857143,4,2,22,55,1,0
2507,-100,4,2,22,70,0,0
3536,-100,4,2,22,70,0,0
3878,-100,4,2,22,70,0,0
12107,-100,4,2,22,70,0,0
15536,-100,4,2,1,70,0,0
15621,-100,4,2,22,70,0,0
15878,-100,4,2,22,70,0,0
16221,-100,4,2,1,70,0,0
16907,-100,4,2,22,70,0,0
17250,-100,4,2,1,70,0,0
17421,-100,4,2,22,70,0,0
18278,-100,4,2,22,70,0,0
18450,-100,4,2,69,45,0,0
18620,-100,4,2,22,70,0,0
18621,-100,4,2,1,70,0,0
18964,-100,4,2,22,70,0,0
20336,-100,4,2,22,67,0,0
21707,-100,4,2,22,65,0,0
22393,-100,4,2,1,70,0,0
22563,-100,4,2,22,65,0,0
23078,-100,4,2,22,40,0,0
23421,-100,4,2,22,70,0,0
24450,-100,4,2,22,55,0,0
25136,-100,4,2,1,70,0,0
27193,-100,4,2,1,70,0,0
32164,-100,4,2,1,70,0,0
32336,-100,4,2,1,70,0,0
35421,-100,4,2,21,45,0,0
39536,-100,4,2,1,70,0,0
39706,-100,4,2,21,46,0,0
39878,-100,4,2,21,47,0,0
40221,-100,4,2,21,49,0,0
40564,-100,4,2,21,51,0,0
40907,-100,4,2,22,53,0,0
41249,-100,4,2,21,53,0,0
42278,-100,4,2,22,55,0,0
42620,-100,4,2,21,55,0,0
43650,-100,4,2,22,57,0,0
43821,-100,4,2,21,57,0,0
46307,-100,4,2,1,70,0,0
46393,-100,4,2,22,57,0,0
46735,-100,4,2,22,70,0,0
54621,-100,4,2,1,50,0,0
54963,-100,4,2,1,70,0,0
55307,-100,4,2,1,70,0,0
55993,-100,4,2,1,60,0,0
56163,-100,4,2,1,70,0,0
56678,-100,4,2,1,65,0,0
57021,-100,4,2,22,50,0,0
60107,-100,4,2,22,55,0,0
62850,-100,4,2,22,60,0,0
64907,-100,4,2,22,60,0,0
66964,-100,4,2,20,60,0,0
67993,-100,4,2,20,80,0,0
68336,-100,4,2,2,90,0,1
79221,-100,4,2,1,90,0,0
79307,-100,4,2,2,90,0,1
80250,-100,4,2,2,90,0,1
80507,-100,4,2,2,90,0,1
80764,-100,4,2,2,90,0,1
81364,-100,4,2,2,90,0,1
81621,-100,4,2,2,90,0,1
81878,-100,4,2,2,90,0,1
82993,-100,4,2,2,90,0,1
83250,-100,4,2,2,90,0,1
87878,-100,4,2,2,75,0,1
90193,-100,4,2,1,90,0,0
90278,-100,4,2,2,90,0,1
101250,-100,4,2,4,90,0,1
101592,-100,4,2,2,90,0,1
109478,-100,4,2,2,90,0,1
109821,-100,4,2,2,90,0,1
110850,-100,4,2,2,90,0,0
112221,-100,4,2,22,60,0,0
113250,-100,4,2,1,90,0,0
114107,-100,4,2,1,90,0,0
114964,-100,4,2,1,90,0,0
116336,-100,4,2,1,90,0,0
117364,-100,4,2,21,51,0,0
117707,-100,4,2,22,51,0,0
118393,-100,4,2,22,53,0,0
119764,-100,4,2,22,55,0,0
120450,-100,4,2,22,57,0,0
121993,-100,4,2,22,60,0,0
122678,-100,4,2,22,63,0,0
123193,-100,4,2,24,90,0,1
123536,-100,4,2,1,90,0,1
123706,-100,4,2,24,90,0,1
124564,-100,4,2,1,90,0,1
124735,-100,4,2,24,90,0,1
124907,-100,4,2,24,90,0,1
125936,-100,4,2,24,90,0,1
126278,-100,4,2,24,90,0,1
127307,-100,4,2,1,90,0,1
127478,-100,4,2,24,90,0,1
127993,-100,4,2,1,90,0,1
128163,-100,4,2,24,90,0,1
128336,-100,4,2,24,90,0,1
128678,-100,4,2,24,90,0,1
129107,-100,4,2,1,90,0,1
129278,-100,4,2,24,90,0,1
130050,-100,4,2,1,90,0,1
130220,-100,4,2,24,90,0,1
130393,-100,4,2,24,90,0,1
131421,-100,4,2,24,90,0,1
131764,-100,4,2,1,90,0,1
131936,-100,4,2,24,90,0,1
134078,-100,4,2,1,90,0,0
134164,-100,4,2,24,90,0,1
143764,-100,4,2,24,60,0,0
144106,-100,4,2,20,60,0,0
144449,-100,4,2,24,60,0,0
144793,-100,4,2,24,70,0,0
145136,-100,4,2,3,60,0,0
150621,-100,4,2,3,50,0,0
150964,-100,4,2,1,80,0,0
151650,-100,4,2,1,80,0,0
152336,-100,4,2,1,80,0,0
153364,-100,4,2,1,80,0,0
153707,-100,4,2,1,80,0,0
154393,-100,4,2,1,80,0,0
155078,-100,4,2,1,80,0,0
155421,-100,4,2,1,80,0,0
156107,-100,4,2,3,35,0,0
157478,-100,4,2,3,35,0,0
158850,-100,4,2,3,30,0,0
160221,-100,4,2,3,30,0,0
161593,-100,4,2,3,35,0,0
162964,-100,4,2,3,30,0,0
164336,-100,4,2,1,43,0,0
164678,-100,4,2,1,80,0,0
165021,-100,4,2,1,80,0,0
165878,-100,4,2,1,48,0,0
166049,-100,4,2,1,80,0,0
166736,-100,4,2,1,48,0,0
167078,-100,4,2,21,50,0,0
176678,-100,4,2,21,50,0,0
179421,-100,4,2,1,80,0,0
180449,-100,4,2,21,50,0,0
180793,-100,4,2,21,50,0,0
182164,-100,4,2,21,50,0,0
182506,-100,4,2,21,53,0,0
182507,-100,4,2,1,80,0,0
182849,-100,4,2,21,53,0,0
182850,-100,4,2,1,80,0,0
183192,-100,4,2,21,53,0,0
183193,-100,4,2,1,80,0,0
183536,-100,4,2,21,53,0,0
186278,-100,4,2,21,55,0,0
188336,-100,4,2,1,80,0,0
188678,-100,4,2,22,55,0,0
188936,-100,4,2,1,80,0,0
189021,-100,4,2,21,55,0,0
195064,-100,4,2,1,80,0,0
195193,-100,4,2,21,55,0,0
195793,-100,4,2,1,80,0,0
195878,-100,4,2,21,55,0,0
197164,-100,4,2,1,80,0,0
197250,-100,4,2,21,55,0,0
197936,-100,4,2,21,57,0,0
198278,-100,4,2,21,58,0,0
199264,-100,4,2,1,80,0,0
199307,-100,4,2,21,46,0,0
199993,-100,4,2,22,50,0,0
202736,-100,4,2,22,52,0,0
204107,-100,4,2,22,54,0,0
204793,-100,4,2,22,56,0,0
205478,-100,4,2,22,50,0,0
206164,-100,4,2,22,53,0,0
206850,-100,4,2,1,80,0,0
207021,-100,4,2,22,55,0,0
207536,-100,4,2,22,57,0,0
208221,-100,4,2,22,60,0,0
208907,-100,4,2,22,62,0,0
209593,-100,4,2,20,62,0,0
209935,-100,4,2,20,64,0,0
209936,-100,4,2,1,80,0,0
210278,-100,4,2,20,64,0,0
210621,-100,4,2,20,48,0,0
210964,-100,4,2,26,90,0,1
215764,-100,4,2,4,90,0,1
216450,-100,4,2,26,90,0,1
219193,-100,4,2,26,90,0,1
221250,-100,4,2,1,90,0,1
221593,-100,4,2,26,90,0,1
230164,-100,4,2,4,90,0,1
230506,-100,4,2,26,90,0,1
230507,-100,4,2,1,90,0,1
230678,-100,4,2,26,90,0,1
230850,-100,4,2,4,90,0,1
231192,-100,4,2,26,90,0,1
232821,-100,4,2,1,90,0,0
232907,-100,4,2,26,90,0,1
238393,-100,4,2,4,90,0,1
238735,-100,4,2,26,90,0,1
239764,-100,4,2,4,90,0,1
240106,-100,4,2,26,90,0,1
241135,-100,4,2,4,90,0,1
241478,-100,4,2,26,90,0,1
249364,-100,4,2,4,90,0,1
249706,-100,4,2,26,90,0,1
250736,-100,4,2,4,90,0,1
250820,-100,4,2,26,90,0,1
252107,-100,4,2,4,90,0,1
252192,-100,4,2,26,90,0,1
253478,-100,4,2,1,90,0,0
253650,-100,4,2,26,75,0,0
254850,-100,4,2,22,70,0,0
257935,-100,4,2,22,90,0,0
258107,-100,4,2,22,70,0,0
268906,-100,4,2,22,90,0,0
269078,-100,4,2,22,70,0,0
270450,-100,4,2,69,70,0,0
270621,-100,4,2,22,70,0,0
270964,-100,4,2,22,70,0,0
274050,-100,4,2,22,60,0,0
275507,-100,4,2,1,90,0,0
275764,-100,4,2,22,90,0,0
276793,-83.3333333333333,4,2,22,30,0,0
279536,-83.3333333333333,4,2,22,30,0,0
280907,-83.3333333333333,4,2,22,30,0,0
282278,-83.3333333333333,4,2,22,30,0,0
283650,-83.3333333333333,4,2,22,30,0,0

[Colours]
Combo1 : 231,210,173
Combo2 : 237,145,105
Combo3 : 248,179,63

[HitObjects]
446,333,1136,6,0,P|470:278|390:237,1,145,8|0,0:0|0:0,0:0:0:0:
338,234,1650,1,0,0:0:0:0:
172,181,1821,2,0,P|211:149|305:126,1,145,8|8,0:0|0:0,0:0:0:0:
337,104,2250,1,8,0:0:0:0:
300,88,2336,1,0,0:0:0:0:
133,69,2507,6,0,L|22:89,1,108.75,4|2,0:0|0:1,0:0:0:0:
164,204,3021,2,0,L|153:320,1,108.75,2|2,0:0|0:0,0:0:0:0:
23,326,3536,1,10,0:0:0:0:
189,328,3878,6,0,L|323:350,2,108.75,8|2|8,0:0|0:1|0:0,0:0:0:0:
308,249,4650,1,2,0:0:0:0:
434,240,4907,2,0,L|447:155,1,72.5,10|8,0:0|0:0,0:0:0:0:
361,117,5250,6,8,L|210:162,2,145,8|0|8,0:0|0:0|0:0,0:0:0:0:
205,55,6278,2,0,L|119:50,1,72.5,2|2,0:0|0:0,0:0:0:0:
297,273,6621,2,0,L|454:255,1,145,10|8,0:0|0:0,0:0:0:0:
268,364,7307,2,0,L|421:371,1,145,8|8,0:0|0:0,0:0:0:0:
120,333,7993,5,8,0:0:0:0:
44,294,8164,2,0,P|28:227|112:177,1,145,0|8,0:0|0:0,0:0:0:0:
198,146,8764,1,2,0:0:0:0:
77,80,9021,2,0,L|0:72,1,72.5,2|8,0:0|0:0,0:0:0:0:
82,116,9364,6,0,L|212:147,2,108.75,8|2|8,0:0|0:1|0:0,0:0:0:0:
197,240,10136,1,2,0:0:0:0:
322,315,10393,2,0,L|410:324,1,72.5,2|8,0:0|0:0,0:0:0:0:
216,367,10736,5,8,0:0:0:0:
142,315,10907,2,0,P|190:273|275:262,1,145,0|8,0:0|0:0,0:0:0:0:
409,227,11507,1,2,0:0:0:0:
289,156,11764,2,0,L|376:135,1,72.5,2|8,0:0|0:0,0:0:0:0:
454,131,12107,6,8,L|471:-12,1,145,0|8,0:0|0:2,0:0:0:0:
310,35,12793,1,8,0:2:0:0:
466,177,13136,2,0,L|477:226,2,36.25,8|0|4,0:2|0:2|0:3,0:2:0:0:
282,280,13478,6,0,L|205:286,1,72.5,8|0,0:0|0:0,0:0:0:0:
62,168,13993,2,0,L|185:154,2,108.75,8|2|2,0:0|0:0|0:0,0:0:0:0:
228,77,14850,2,0,L|110:70,1,108.75,8|2,0:0|0:1,0:0:0:0:
248,207,15364,2,0,L|384:189,2,108.75,8|2|2,0:0|0:0|0:0,0:0:0:0:
176,242,16050,1,8,0:0:0:0:
353,347,16221,6,0,P|419:328|474:241,1,145,4|0,0:0|0:0,0:0:0:0:
296,223,16907,2,0,P|240:215|176:149,1,145,8|2,0:0|0:0,0:0:0:0:
252,108,17421,1,8,0:0:0:0:
434,62,17593,2,0,L|460:230,1,145,2|8,0:1|0:0,0:0:0:0:
282,342,18278,2,0,L|438:364,1,145,8|8,0:0|0:0,0:0:0:0:
140,260,18964,6,0,L|310:239,3,145,8|8|8|8,0:0|0:0|0:0|0:0,0:0:0:0:
15,314,20336,2,0,L|34:156,1,145,8|8,0:0|0:0,0:0:0:0:
101,170,20849,1,8,0:0:0:0:
133,110,21021,5,8,0:0:0:0:
94,53,21192,1,8,0:0:0:0:
26,61,21363,1,8,0:0:0:0:
94,53,21536,1,8,0:0:0:0:
272,126,21707,6,0,L|395:140,2,108.75,8|8|8,0:0|0:0|0:0,0:0:0:0:
203,138,22392,1,8,0:0:0:0:
178,203,22563,1,8,0:0:0:0:
219,259,22735,1,10,0:0:0:0:
288,254,22906,1,10,0:0:0:0:
475,278,23078,5,6,0:3:0:0:
256,192,23421,12,4,24450,0:2:0:0:
79,281,35421,6,0,L|105:108,1,145,2|0,0:0|0:0,0:0:0:0:
254,82,36107,2,0,L|275:248,1,145,2|0,0:0|0:0,0:0:0:0:
353,245,36621,1,2,0:0:0:0:
434,263,36793,2,0,L|463:98,1,145,2|0,0:0|0:0,0:0:0:0:
304,101,37478,1,2,0:0:0:0:
466,36,37821,2,0,L|382:28,1,72.5,0|0,0:0|0:0,0:0:0:0:
314,48,38164,6,0,P|285:142|333:185,1,145,2|0,0:0|0:0,0:0:0:0:
388,195,38678,1,2,0:0:0:0:
225,261,39021,2,0,L|123:279,1,72.5,2|0,0:0|0:0,0:0:0:0:
74,320,39364,2,0,L|220:351,1,145,2|0,0:0|0:0,0:0:0:0:
292,344,39878,5,2,0:0:0:0:
147,297,40221,1,2,0:0:0:0:
293,238,40564,1,2,0:0:0:0:
457,234,40907,6,0,L|477:86,1,145,8|2,0:0|0:0,0:0:0:0:
327,40,41593,2,0,L|178:16,1,145,2|2,0:0|0:0,0:0:0:0:
17,208,42278,2,2,L|188:183,1,145,8|2,0:0|0:0,0:0:0:0:
323,213,42964,2,0,L|336:370,1,145,2|2,0:0|0:0,0:0:0:0:
165,369,43650,6,0,L|322:382,2,145,8|2|0,0:0|0:0|0:0,0:0:0:0:
96,356,44507,1,2,0:0:0:0:
63,294,44678,1,0,0:0:0:0:
92,230,44850,1,2,0:0:0:0:
244,168,45193,2,0,L|328:160,1,72.5,0|2,0:0|0:0,0:0:0:0:
138,72,45707,2,0,P|91:99|158:144,1,145,2|8,0:0|0:3,0:0:0:0:
440,175,46393,6,0,L|282:157,1,145,12|0,0:0|0:0,0:0:0:0:
452,177,47078,2,0,L|468:303,2,108.75,0|0|0,0:0|0:0|0:0,0:0:0:0:
375,149,47764,1,0,0:0:0:0:
207,72,48107,2,0,L|369:53,1,145,0|0,0:0|0:0,0:0:0:0:
246,25,48707,1,0,0:0:0:0:
128,33,48964,1,0,0:0:0:0:
54,60,49136,6,0,L|60:211,1,145,0|0,0:0|0:0,0:0:0:0:
216,223,49821,2,0,L|231:375,1,145,0|0,0:0|0:0,0:0:0:0:
155,371,50336,2,0,L|315:356,1,145,0|0,0:0|0:0,0:0:0:0:
374,333,50850,1,0,0:0:0:0:
214,253,51193,1,0,0:0:0:0:
369,224,51536,1,0,0:0:0:0:
202,137,51878,6,0,L|72:130,1,108.75,0|0,0:0|0:0,0:0:0:0:
198,94,52393,1,0,0:0:0:0:
275,93,52564,2,0,L|383:155,2,108.75,0|0|0,0:0|0:0|0:0,0:0:0:0:
192,101,53250,6,0,L|186:185,1,72.5,0|0,0:0|0:0,0:0:0:0:
264,224,53593,2,0,L|122:242,1,108.75,0|0,0:0|0:0,0:0:0:0:
35,307,54107,1,0,0:0:0:0:
150,347,54364,1,0,0:0:0:0:
399,364,54621,6,0,P|479:324|470:250,1,145,0|0,0:0|0:0,0:0:0:0:
326,254,55307,2,0,L|314:100,1,145,0|0,0:0|0:0,0:0:0:0:
395,82,55821,2,0,L|233:60,1,145,0|0,0:0|0:0,0:0:0:0:
166,56,56336,2,0,L|17:83,2,145,0|0|0,0:0|0:0|0:0,0:0:0:0:
478,355,57364,6,0,L|466:203,1,145,8|0,3:2|3:2,3:2:0:0:
298,221,58050,2,0,L|283:42,1,145,0|0,3:2|3:2,3:2:0:0:
110,260,58736,2,0,L|21:120,1,145,8|0,3:2|3:2,3:2:0:0:
194,135,59421,2,0,L|283:15,1,145,0|0,3:2|3:2,3:2:0:0:
447,60,60107,5,8,3:2:0:0:
333,134,60449,1,0,3:2:0:0:
366,265,60792,1,0,3:2:0:0:
501,276,61135,1,0,3:2:0:0:
423,326,61307,1,2,3:2:0:0:
341,330,61478,2,0,L|196:310,2,145,2|2|2,0:1|0:1|0:1,0:0:0:0:
488,351,62507,1,2,0:1:0:0:
195,371,62850,6,0,L|166:205,1,145,8|8,3:2|3:2,0:0:0:0:
21,183,63536,2,0,L|50:36,1,145,8|8,3:2|3:2,0:0:0:0:
208,30,64221,5,8,3:2:0:0:
276,44,64392,1,0,3:2:0:0:
306,108,64563,1,8,3:2:0:0:
274,170,64735,1,0,3:2:0:0:
205,183,64907,2,0,L|115:179,2,72.5,8|0|8,3:2|3:2|3:2,3:2:0:0:
484,211,65593,5,8,0:0:0:0:
415,225,65764,1,8,0:0:0:0:
388,290,65935,1,8,0:0:0:0:
425,349,66107,1,8,0:0:0:0:
495,352,66278,2,0,L|401:340,1,72.5,8|8,0:0|0:0,0:0:0:0:
336,271,66621,2,8,L|422:262,1,72.5,0|8,0:0|0:0,0:0:0:0:
320,177,66964,6,0,L|169:160,2,145,8|0|8,0:0|0:0|2:3,0:0:0:0:
61,260,67993,1,12,1:2:0:0:
344,348,68336,6,0,L|379:183,1,145,4|8,0:0|0:1,0:0:0:0:
292,178,68850,1,0,0:0:0:0:
208,135,69021,2,0,L|369:116,1,145,8|8,0:0|0:1,0:0:0:0:
268,84,69536,1,0,0:0:0:0:
185,89,69707,6,0,L|168:169,1,72.5,8|0,0:0|0:0,0:0:0:0:
254,187,70050,2,0,L|268:275,1,72.5,8|0,0:1|0:0,0:0:0:0:
188,287,70393,1,8,0:0:0:0:
30,344,70736,2,0,L|100:359,1,72.5,8|0,0:1|0:0,0:0:0:0:
281,345,71078,6,0,P|354:309|369:225,1,145,12|8,0:3|0:1,0:0:0:0:
288,222,71593,1,0,0:0:0:0:
372,196,71764,2,0,P|398:158|318:101,1,145,8|8,0:0|0:1,0:0:0:0:
262,89,72278,1,0,0:0:0:0:
436,39,72450,6,0,L|484:97,2,72.5,8|2|8,0:0|0:0|0:1,0:0:0:0:
263,160,73136,2,0,L|334:171,2,72.5,8|8|4,0:3|0:3|0:3,0:0:0:0:
185,169,73650,1,8,0:3:0:0:
362,328,73821,6,0,L|377:172,1,145,12|8,0:3|0:1,0:0:0:0:
298,169,74336,1,0,0:0:0:0:
215,166,74507,2,0,L|196:322,1,145,8|8,0:0|0:1,0:0:0:0:
272,329,75021,1,0,0:0:0:0:
190,346,75193,6,0,L|97:356,1,72.5,8|0,0:0|0:0,0:0:0:0:
200,302,75536,2,0,L|277:308,1,72.5,8|0,0:1|0:0,0:0:0:0:
189,258,75878,1,8,0:0:0:0:
345,177,76221,2,0,L|258:169,1,72.5,8|0,0:1|0:0,0:0:0:0:
97,156,76564,6,0,P|48:144|40:53,1,145,8|8,0:3|0:1,0:0:0:0:
108,40,77078,1,0,0:0:0:0:
33,64,77250,2,0,L|128:77,1,72.5,8|0,0:0|0:0,0:0:0:0:
189,95,77593,2,0,L|205:173,1,72.5,8|0,0:1|0:0,0:0:0:0:
26,209,77936,6,0,L|15:367,1,145,2|8,0:0|0:1,0:0:0:0:
193,358,78621,2,0,L|48:338,1,145,2|8,0:0|0:1,0:0:0:0:
349,258,79307,6,0,L|188:240,1,145,4|8,0:0|0:1,0:0:0:0:
281,213,79821,1,0,0:0:0:0:
456,226,79993,2,0,L|479:111,2,108.75,10|2|2,0:0|0:0|0:0,0:0:0:0:
330,243,80764,6,0,L|208:186,1,108.75,2|2,0:0|0:0,0:0:0:0:
310,315,81193,1,2,0:0:0:0:
225,329,81364,1,10,0:0:0:0:
106,288,81621,1,0,0:0:0:0:
229,237,81878,1,2,0:0:0:0:
52,198,82050,6,0,L|26:37,1,145,12|2,0:3|0:0,0:0:0:0:
105,20,82564,1,2,0:0:0:0:
188,18,82736,1,10,0:0:0:0:
66,77,82993,1,2,0:0:0:0:
192,121,83250,1,2,0:0:0:0:
368,219,83421,6,0,L|466:232,2,72.5,8|4|10,0:3|0:3|0:1,0:0:0:0:
209,231,84107,1,10,0:0:0:0:
166,284,84278,1,8,0:0:0:0:
201,343,84449,1,8,0:3:0:0:
269,331,84621,1,4,0:3:0:0:
454,324,84793,6,0,L|479:174,1,145,12|8,0:3|0:1,0:0:0:0:
362,114,85364,2,0,L|290:101,1,48.3333333333333,0|8,0:0|0:0,0:0:0:0:
207,42,85707,2,0,L|257:35,1,48.3333333333333,0|8,0:0|0:1,0:0:0:0:
366,213,86050,6,0,L|312:204,1,48.3333333333333,0|8,0:0|0:0,0:0:0:0:
212,184,86393,2,0,L|151:175,1,48.3333333333333,0|8,0:0|0:1,0:0:0:0:
54,216,86736,2,0,L|39:266,1,48.3333333333333,0|8,0:0|0:0,0:0:0:0:
150,318,87078,2,0,L|203:326,1,48.3333333333333,0|8,0:0|0:1,0:0:0:0:
443,260,87421,1,0,0:0:0:0:
390,244,87536,6,0,L|237:214,1,145,12|8,0:3|0:1,0:0:0:0:
322,193,88050,1,0,0:0:0:0:
400,180,88221,2,0,P|453:176|478:92,1,145,8|8,0:0|0:1,0:0:0:0:
403,75,88736,1,0,0:0:0:0:
217,49,88907,6,0,L|52:51,1,145,2|2,0:0|0:0,0:0:0:0:
250,168,89593,2,0,L|81:175,1,145,10|8,0:0|1:3,0:0:0:0:
422,318,90278,6,0,P|453:277|391:224,1,145,4|8,0:0|0:1,0:0:0:0:
315,219,90793,1,0,0:0:0:0:
144,159,90964,2,0,L|310:130,1,145,10|8,0:0|0:1,0:0:0:0:
361,97,91478,1,2,0:0:0:0:
340,11,91650,1,8,0:0:0:0:
45,189,91993,6,0,L|27:286,2,72.5,10|0|8,0:1|0:0|0:0,0:0:0:0:
216,142,92678,2,0,L|137:123,1,72.5,10|0,0:1|0:0,0:0:0:0:
64,126,93021,2,0,P|42:213|87:281,1,145,10|10,0:0|0:1,0:0:0:0:
226,281,93707,1,10,0:0:0:0:
61,358,94050,2,0,L|168:365,1,72.5,10|2,0:1|0:0,0:0:0:0:
310,349,94393,6,0,P|379:337|425:267,1,145,8|8,0:0|0:1,0:0:0:0:
348,231,94907,1,2,0:0:0:0:
274,215,95078,1,8,0:0:0:0:
427,166,95421,2,0,L|499:138,1,72.5,10|0,0:1|0:0,0:0:0:0:
314,86,95764,6,0,L|162:81,2,145,10|10|10,0:0|0:1|0:0,0:0:0:0:
463,124,96793,1,10,0:1:0:0:
177,188,97136,2,0,L|151:355,1,145,10|10,0:0|0:1,0:0:0:0:
234,351,97650,1,0,0:0:0:0:
315,339,97821,1,10,0:0:0:0:
40,285,98164,6,0,P|52:231|145:189,1,145,10|8,0:1|0:0,0:0:0:0:
271,155,98850,1,10,0:1:0:0:
94,84,99193,1,10,0:0:0:0:
375,53,99536,1,10,0:1:0:0:
449,88,99707,6,0,P|458:133|367:194,1,145,2|0,0:0|0:0,0:0:0:0:
316,209,100221,1,10,0:1:0:0:
156,274,100564,1,8,0:0:0:0:
326,326,100907,1,8,0:1:0:0:
29,160,101250,6,0,L|39:2,1,145,2|8,0:0|0:1,0:0:0:0:
116,166,101764,1,0,0:0:0:0:
37,273,101936,1,10,0:0:0:0:
194,315,102278,1,10,0:1:0:0:
270,356,102450,2,0,L|194:367,1,72.5,2|8,0:0|0:0,0:0:0:0:
474,361,102964,6,0,P|496:275|431:237,1,145,10|8,0:1|0:0,0:0:0:0:
310,203,103650,2,0,L|212:199,1,72.5,10|0,0:1|0:0,0:0:0:0:
316,156,103993,2,0,L|325:318,1,145,10|10,0:0|0:1,0:0:0:0:
240,306,104507,1,2,0:0:0:0:
415,351,104850,1,2,0:0:0:0:
123,293,105193,6,0,P|62:282|37:200,1,145,2|2,0:0|0:0,0:0:0:0:
104,163,105707,1,8,0:1:0:0:
185,151,105878,1,2,0:0:0:0:
17,78,106221,2,0,L|88:64,1,72.5,4|8,0:3|0:3,0:0:0:0:
364,277,106736,6,0,L|203:262,2,145,6|10|10,0:0|0:1|0:0,0:0:0:0:
495,148,107764,2,0,L|407:158,1,72.5,10|4,0:1|0:3,0:0:0:0:
249,203,108107,2,0,L|227:42,1,145,10|10,0:0|0:1,0:0:0:0:
45,243,108793,2,0,L|77:74,1,145,10|10,0:0|0:1,0:0:0:0:
385,57,109478,5,12,0:0:0:0:
243,55,109821,1,10,0:1:0:0:
413,166,110164,1,8,0:3:0:0:
460,215,110335,1,8,0:3:0:0:
435,279,110506,1,10,0:1:0:0:
367,282,110678,1,4,0:3:0:0:
180,358,110850,6,0,L|154:210,1,145,8|2,0:0|0:0,0:0:0:0:
328,175,111536,2,0,L|419:181,2,72.5,2|0|8,0:0|0:0|1:3,0:0:0:0:
25,115,112221,5,4,0:0:0:0:
480,337,117364,5,0,0:0:0:0:
333,329,117707,2,0,L|319:180,1,145,10|0,3:2|3:2,0:0:0:0:
160,182,118393,2,0,L|149:31,1,145,8|0,3:2|3:0,0:0:0:0:
325,62,119078,2,0,L|167:24,1,145,8|0,3:2|3:0,0:0:0:0:
18,235,119764,2,0,L|187:199,1,145,8|0,3:2|3:0,3:0:0:0:
336,337,120450,6,0,L|359:182,1,145,8|0,3:2|3:0,3:0:0:0:
195,171,121136,2,0,L|180:20,1,145,8|0,3:0|3:2,3:2:0:0:
328,40,121821,1,8,0:0:0:0:
247,67,121993,2,0,L|115:95,2,108.75,2|2|2,0:0|0:0|0:0,0:0:0:0:
330,68,122678,1,0,0:0:0:0:
415,91,122850,1,8,0:0:0:0:
111,310,123193,5,4,0:0:0:0:
34,285,123364,2,0,L|46:129,1,145,0|0,0:0|0:0,0:0:0:0:
189,30,124050,2,0,L|110:20,1,72.5,0|8,0:0|0:1,0:0:0:0:
284,151,124393,6,0,P|367:187|447:185,1,145
492,267,124907,2,0,L|419:293,1,72.5,8|8,0:1|0:0,0:0:0:0:
268,347,125421,2,0,L|367:362,1,72.5,0|8,0:0|0:1,0:0:0:0:
41,146,125936,6,0,L|192:113,1,145,8|8,0:3|0:1,0:0:0:0:
105,75,126450,1,8,0:0:0:0:
187,30,126621,2,0,L|347:16,1,145,2|8,0:3|0:1,0:0:0:0:
159,140,127136,6,0,P|139:181|216:241,1,145,0|0,0:0|0:0,0:0:0:0:
274,267,127650,1,8,0:1:0:0:
197,311,127821,2,0,L|109:320,2,72.5,0|2|0,0:0|0:0|0:0,0:0:0:0:
121,342,128336,1,8,0:1:0:0:
442,319,128678,6,0,L|432:164,1,145,8|8,0:3|0:1,0:0:0:0:
296,95,129278,2,0,L|431:80,1,108.75,0|0,0:0|0:0,0:0:0:0:
483,68,129707,1,8,0:1:0:0:
314,201,129878,6,0,L|163:190,1,145,8|0,0:0|0:0,0:0:0:0:
245,245,130393,1,8,0:1:0:0:
170,287,130564,1,8,0:0:0:0:
20,325,130907,2,0,L|107:338,1,72.5,0|8,0:0|0:1,0:0:0:0:
404,238,131421,6,0,L|243:211,1,145,8|8,0:3|0:1,0:0:0:0:
185,163,131936,1,8,0:0:0:0:
271,128,132107,2,0,L|432:115,1,145,2|8,0:3|0:1,0:0:0:0:
242,44,132621,2,8,L|150:38,2,72.5,0|8|0,0:0|0:3|0:0,0:0:0:0:
317,80,133136,5,8,0:1:0:0:
483,237,133478,2,0,L|383:247,2,72.5,8|8|8,0:0|0:3|0:1,0:0:0:0:
409,286,133993,1,4,0:3:0:0:
234,327,134164,5,12,0:3:0:0:
201,265,134335,1,0,0:0:0:0:
231,202,134506,1,8,0:1:0:0:
307,187,134678,2,0,L|147:162,1,145,0|8,0:0|0:0,0:0:0:0:
240,131,135193,1,8,0:1:0:0:
76,129,135364,6,0,P|48:190|78:277,1,145,0|8,0:0|0:0,0:0:0:0:
140,300,135878,2,0,L|221:300,1,72.5,8|0,0:1|0:0,0:0:0:0:
42,102,136393,2,0,L|137:87,1,72.5,8|8,0:0|0:1,0:0:0:0:
407,52,136907,5,8,0:3:0:0:
340,73,137078,1,8,0:0:0:0:
314,138,137249,1,8,0:1:0:0:
348,199,137421,1,8,0:0:0:0:
417,210,137593,2,0,L|503:224,2,72.5,2|2|8,0:3|0:0|0:1,0:0:0:0:
249,323,138107,6,0,L|401:352,1,145,2|8,0:0|0:0,0:0:0:0:
471,337,138621,1,8,0:1:0:0:
335,258,138878,2,0,L|416:175,1,108.75,2|8,0:0|0:0,0:0:0:0:
488,154,139307,1,8,0:1:0:0:
410,130,139478,1,0,0:0:0:0:
237,89,139650,6,0,L|89:64,1,145,8|8,0:3|0:1,0:0:0:0:
228,208,140250,2,0,L|101:214,1,108.75,0|0,0:0|0:0,0:0:0:0:
43,242,140678,1,8,0:1:0:0:
211,352,140850,6,0,L|228:206,1,145,8|0,0:0|0:0,0:0:0:0:
141,171,141364,1,8,0:1:0:0:
226,124,141536,1,8,0:0:0:0:
386,105,141878,1,0,0:0:0:0:
96,93,142221,1,0,0:0:0:0:
20,161,142393,6,0,P|27:214|121:254,1,145,8|8,0:3|0:1,0:0:0:0:
179,269,142907,1,8,0:0:0:0:
101,346,143078,2,0,L|257:359,1,145,2|8,0:3|0:1,0:0:0:0:
172,319,143593,1,8,0:0:0:0:
346,264,143764,6,0,L|496:199,2,145,2|2|2,3:2|3:0|3:2,3:2:0:0:
176,228,144793,1,8,0:1:0:0:
485,189,145136,1,4,3:2:0:0:
256,192,145478,12,8,150621,0:0:0:0:
77,320,156107,6,0,L|55:157,1,145,8|0,0:0|0:0,0:0:0:0:
194,169,156793,2,0,L|218:17,1,145,8|0,0:0|0:0,0:0:0:0:
370,59,157478,2,0,L|219:90,2,145,8|0|8,0:0|0:0|0:0,0:0:0:0:
499,167,158507,1,0,0:0:0:0:
348,273,158850,6,8,L|177:239,1,145,0|0,0:0|0:0,0:0:0:0:
54,169,159536,2,0,L|199:141,1,145,8|0,0:0|0:0,0:0:0:0:
39,26,160221,2,0,L|197:51,2,145,8|0|8,0:0|0:0|0:0,0:0:0:0:
186,164,161250,1,8,0:0:0:0:
347,218,161593,6,0,L|371:373,1,145,8|8,0:0|0:0,0:0:0:0:
209,332,162278,2,0,L|224:172,1,145,8|8,0:0|0:0,0:0:0:0:
376,180,162964,2,0,L|388:28,1,145,8|8,0:0|0:0,0:0:0:0:
239,28,163650,2,0,L|221:188,1,145,8|8,0:0|0:0,0:0:0:0:
65,180,164336,5,0,0:0:0:0:
188,235,164678,1,0,0:0:0:0:
175,370,165021,1,0,0:0:0:0:
42,400,165364,1,0,0:0:0:0:
197,319,165707,2,0,L|362:336,2,145,0|0|0,0:0|0:0|0:0,0:0:0:0:
26,287,166736,1,0,0:3:0:0:
308,350,167078,6,0,P|454:307|287:47,2,580,4|2|2,0:0|0:0|0:0,0:0:0:0:
23,100,171021,1,0,0:3:0:0:
101,84,171193,2,0,P|188:144|15:314,1,435,2|8,0:0|0:3,0:0:0:0:
161,349,172564,6,0,P|313:364|367:122,1,435,2|4,0:0|0:3,0:0:0:0:
303,104,173764,1,4,0:3:0:0:
223,91,173936,2,0,P|175:102|257:240,1,290,2|2,0:0|0:0,0:0:0:0:
392,279,174964,1,8,0:3:0:0:
232,348,175307,6,0,P|231:284|501:75,1,435,2|8,0:0|0:3,0:0:0:0:
343,44,176678,2,0,P|223:53|121:191,1,290,2|2,0:0|0:0,0:0:0:0:
361,264,177878,1,0,0:3:0:0:
279,284,178050,6,0,P|210:249|365:49,1,435,2|8,0:0|0:3,0:0:0:0:
275,31,179250,1,2,0:0:0:0:
197,44,179421,2,0,P|104:58|83:339,1,435,0|0,0:0|0:3,0:0:0:0:
254,322,180793,6,0,L|37:118,2,290,4|2|2,0:3|0:0|0:0,0:0:0:0:
391,345,182506,1,2,0:0:0:0:
450,218,182849,1,8,0:3:0:0:
383,96,183192,1,4,0:3:0:0:
244,78,183536,6,0,P|123:97|221:309,1,435,4|8,0:3|0:3,0:0:0:0:
371,300,184907,2,0,P|351:170|107:232,1,435,4|4,0:3|0:3,0:0:0:0:
420,351,186278,5,2,0:0:0:0:
256,192,186621,12,8,188678,0:3:0:0:
94,251,189021,6,0,L|128:76,1,145,4|2,0:0|0:0,0:0:0:0:
276,68,189707,2,0,L|403:55,2,108.75,2|2|0,0:0|0:0|0:0,0:0:0:0:
201,141,190393,2,0,L|302:152,1,72.5,2|0,0:0|0:0,0:0:0:0:
358,167,190736,2,0,L|382:324,1,145,2|2,0:0|0:0,0:0:0:0:
300,333,191250,1,2,0:3:0:0:
421,355,191507,1,2,0:3:0:0:
292,296,191764,6,0,L|129:278,1,145,2|0,0:0|0:0,0:0:0:0:
310,188,192450,2,0,P|328:138|268:67,1,145,2|2,0:0|0:3,0:0:0:0:
193,51,192964,2,0,L|352:35,1,145,2|2,0:0|0:0,0:0:0:0:
258,20,193478,1,2,0:0:0:0:
92,44,193821,1,2,0:0:0:0:
257,162,194164,2,0,L|337:173,1,72.5,2|2,0:0|0:3,0:0:0:0:
405,235,194507,6,0,L|283:252,2,108.75,2|2|2,0:3|0:3|0:3,0:0:0:0:
328,333,195193,2,0,L|205:322,2,108.75,2|2|0,0:0|0:3|0:0,0:0:0:0:
251,303,195878,2,0,L|155:290,1,72.5,2|2,0:0|0:3,0:0:0:0:
99,269,196221,6,0,P|43:255|39:162,1,145,0|2,0:0|0:0,0:0:0:0:
137,108,196821,1,2,0:3:0:0:
255,97,197078,1,2,0:3:0:0:
334,98,197250,6,0,L|365:260,1,145,2|0,0:0|0:0,0:0:0:0:
197,286,197936,2,2,P|273:329|332:313,1,145,2|2,0:0|0:0,0:0:0:0:
403,291,198450,1,2,0:3:0:0:
481,238,198621,2,0,L|330:210,1,145,0|0,0:0|0:0,0:0:0:0:
186,144,199307,1,2,0:3:0:0:
338,102,199650,1,2,0:0:0:0:
46,106,199993,6,8,L|23:248,2,108.75,8|2|2,3:2|3:1|3:1,3:1:0:0:
128,70,200678,2,0,L|259:47,2,108.75,2|2|2,3:2|3:2|3:2,3:1:0:0:
206,137,201364,2,0,L|286:148,1,72.5,8|2,3:2|3:1,0:0:0:0:
199,229,201707,1,2,3:1:0:0:
357,277,202050,6,0,L|476:263,2,108.75,2|2|2,3:2|3:2|3:2,0:0:0:0:
279,313,202736,2,0,L|365:326,1,72.5,8|2,3:2|3:1,3:1:0:0:
435,351,203078,2,0,P|464:299|405:243,1,145,2|2,3:1|3:2,3:1:0:0:
314,214,203678,1,2,3:2:0:0:
210,187,203936,1,2,3:1:0:0:
130,162,204107,6,0,L|13:120,1,108.75,8|2,3:2|3:2,3:1:0:0:
145,68,204621,1,2,3:2:0:0:
224,48,204793,2,0,L|374:28,1,145,2|2,3:1|3:1,3:1:0:0:
99,148,205478,5,8,3:2:0:0:
37,234,205736,1,0,3:2:0:0:
113,333,205993,1,0,3:2:0:0:
182,341,206164,1,8,3:2:0:0:
258,319,206336,1,0,3:3:0:0:
184,277,206507,6,0,L|65:258,1,108.75,8|0,3:2|3:2,3:2:0:0:
197,185,207021,1,0,3:2:0:0:
265,149,207193,1,8,3:2:0:0:
195,133,207364,1,0,3:2:0:0:
121,139,207536,6,0,P|112:100|157:40,1,108.75,8|0,3:2|3:2,3:2:0:0:
264,35,208050,2,0,L|351:37,1,72.5,2|8,3:1|3:2,3:2:0:0:
420,83,208393,2,0,L|288:109,1,108.75,2|8,3:1|3:2,3:2:0:0:
280,115,208735,1,8,3:2:0:0:
273,148,208821,1,8,3:2:0:0:
298,172,208907,5,0,0:0:0:0:
375,203,209078,1,0,0:0:0:0:
301,246,209250,1,8,0:0:0:0:
222,261,209421,1,8,0:0:0:0:
141,267,209593,6,2,L|306:289,2,145,0|0|8,0:0|0:2|0:3,0:0:0:0:
63,319,210450,1,8,0:3:0:0:
142,360,210621,1,12,0:0:0:0:
449,286,210964,5,14,0:0:0:0:
362,249,211136,2,0,L|348:186,1,36.25,0|2,0:0|0:2,0:0:0:0:
264,175,211393,2,0,L|256:136,1,36.25,0|2,0:0|0:0,0:0:0:0:
349,99,211650,2,0,L|467:114,2,108.75,8|2|2,0:0|0:0|0:0,0:0:0:0:
272,168,212336,2,0,L|355:186,1,72.5,8|0,0:0|0:1,0:0:0:0:
422,225,212678,1,8,0:1:0:0:
137,330,213021,6,0,L|23:308,2,108.75,10|2|2,0:0|0:0|0:0,0:0:0:0:
184,280,213707,1,8,0:0:0:0:
159,216,213878,1,0,0:0:0:0:
90,214,214050,1,8,0:1:0:0:
224,182,214307,6,0,L|237:144,1,36.25,0|8,0:0|0:0,0:0:0:0:
136,96,214650,1,0,0:0:0:0:
29,33,214907,1,2,0:0:0:0:
200,17,215078,6,0,L|318:40,1,108.75,8|0,0:0|0:0,0:0:0:0:
454,187,215593,1,2,0:0:0:0:
372,212,215764,2,2,P|402:263|495:278,1,145,10|2,0:2|0:0,0:0:0:0:
160,322,216450,5,14,0:0:0:0:
247,285,216622,2,0,L|261:222,1,36.25,0|2,0:0|0:0,0:0:0:0:
345,211,216879,2,0,L|353:172,1,36.25,0|2,0:0|0:0,0:0:0:0:
260,135,217136,2,0,L|142:150,2,108.75,8|2|2,0:0|0:0|0:0,0:0:0:0:
337,204,217822,2,0,L|254:222,1,72.5,8|0,0:0|0:0,0:0:0:0:
339,294,218164,1,8,0:1:0:0:
111,335,218421,6,0,L|60:327,1,36.25,0|2,0:0|0:0,0:0:0:0:
187,268,218764,1,2,0:0:0:0:
302,259,219021,1,2,0:0:0:0:
125,180,219193,6,0,P|65:168|41:87,1,145,12|8,0:3|0:1,0:3:0:0:
118,64,219707,1,8,0:3:0:0:
206,68,219878,2,0,P|228:111|153:179,1,145,8|8,0:0|0:1,0:0:0:0:
94,196,220393,1,4,0:3:0:0:
271,261,220564,6,8,L|416:296,2,145,8|8|8,0:0|0:1|0:3,0:0:0:0:
122,342,221593,2,4,L|220:360,1,72.5,8|8,0:1|0:3,0:3:0:0:
377,220,221936,5,10,0:0:0:0:
224,176,222278,1,2,0:0:0:0:
381,111,222621,2,2,L|494:129,2,108.75,2|2|2,0:0|0:0|0:0,0:0:0:0:
209,54,223307,6,0,L|131:47,2,72.5,8|0|8,0:0|0:0|0:1,0:0:0:0:
38,185,223993,2,0,L|160:199,2,108.75,10|2|2,0:0|0:0|0:0,0:0:0:0:
212,322,224678,6,0,L|290:315,2,72.5,8|0|8,0:0|0:0|0:1,0:0:0:0:
50,324,225364,1,8,0:0:0:0:
139,248,225621,1,2,0:0:0:0:
251,233,225878,1,2,0:0:0:0:
325,203,226050,6,0,L|193:169,1,108.75,8|2,0:0|0:0,0:0:0:0:
94,134,226564,1,2,0:0:0:0:
172,75,226736,2,0,L|18:43,1,145,2|8,0:0|0:1,0:0:0:0:
317,213,227421,6,0,L|441:228,2,108.75,10|2|2,0:0|0:0|0:0,0:0:0:0:
242,304,228107,2,0,L|328:326,1,72.5,8|2,0:0|0:0,0:0:0:0:
490,371,228450,2,0,L|502:245,1,108.75,8|2,0:1|0:0,0:0:0:0:
463,248,228793,5,8,0:0:0:0:
378,219,228964,2,0,L|321:209,1,36.25,2|0,0:0|0:0,0:0:0:0:
222,158,229307,1,0,0:0:0:0:
301,111,229478,2,0,L|457:95,1,145,10|2,0:0|0:0,0:0:0:0:
145,117,230164,6,0,L|173:264,1,145,10|8,0:2|0:1,0:0:0:0:
253,278,230678,1,8,0:0:0:0:
85,220,230850,2,0,L|110:368,1,145,10|8,0:0|0:1,0:0:0:0:
189,368,231364,1,8,0:0:0:0:
104,351,231536,5,12,0:0:0:0:
66,290,231707,1,0,0:0:0:0:
78,220,231878,1,0,0:0:0:0:
132,175,232050,1,0,0:0:0:0:
305,138,232221,2,2,L|234:125,1,72.5,0|0,0:0|0:0,0:0:0:0:
148,120,232564,2,0,L|130:48,1,72.5,12|8,0:1|0:0,0:0:0:0:
314,111,232907,5,12,0:0:0:0:
161,342,233250,2,0,L|141:244,1,72.5,8|0,0:1|0:0,0:0:0:0:
231,258,233593,2,0,P|292:250|322:152,1,145,8|8,0:0|0:1,0:0:0:0:
250,130,234107,1,2,0:0:0:0:
166,122,234278,5,8,0:0:0:0:
461,47,234621,2,0,P|496:120|451:170,1,145,8|10,0:1|0:0,0:0:0:0:
319,159,235307,2,0,L|228:153,1,72.5,0|2,0:0|0:0,0:0:0:0:
70,188,235650,6,0,L|99:347,1,145,8|8,0:0|0:1,0:0:0:0:
251,351,236336,1,8,0:0:0:0:
73,220,236678,1,8,0:1:0:0:
153,173,236850,6,0,L|304:152,1,145,2|0,0:0|0:0,0:0:0:0:
219,111,237364,1,0,0:0:0:0:
137,91,237536,2,0,P|81:98|44:180,1,145,2|8,0:0|0:3,0:0:0:0:
118,222,238050,1,8,0:1:0:0:
417,341,238393,6,0,L|243:320,2,145,10|8|8,0:0|0:1|0:0,0:0:0:0:
426,232,239421,2,0,L|333:224,1,72.5,8|0,0:1|0:0,0:0:0:0:
180,220,239764,2,0,P|181:160|267:102,1,145,10|8,0:0|0:1,0:0:0:0:
317,82,240278,2,0,L|397:73,1,72.5,0|8,0:0|0:0,0:0:0:0:
92,48,240793,6,0,L|246:76,2,145,8|10|8,0:1|0:0|0:1,0:0:0:0:
19,86,241650,1,0,0:0:0:0:
92,142,241821,1,8,0:0:0:0:
391,262,242164,1,8,0:1:0:0:
312,292,242336,6,0,L|155:309,1,145,2|0,0:0|0:0,0:0:0:0:
88,277,242850,1,8,0:1:0:0:
156,220,243021,1,0,0:0:0:0:
238,209,243193,1,2,0:0:0:0:
406,149,243536,2,0,L|330:135,1,72.5,8|4,0:1|0:3,0:0:0:0:
159,75,243878,6,0,L|36:73,2,108.75,4|2|2,0:0|0:0|0:0,0:0:0:0:
238,105,244564,2,0,P|259:161|191:218,1,145,8|8,0:0|0:1,0:0:0:0:
28,366,245078,2,0,L|31:219,1,145,2|0,0:0|0:0,0:0:0:0:
110,185,245593,1,8,0:1:0:0:
272,109,245936,2,0,L|118:89,1,145,2|0,0:0|0:0,0:0:0:0:
423,156,246621,6,0,L|499:168,2,72.5,8|0|8,0:0|0:0|0:1,0:0:0:0:
338,180,247136,2,0,L|330:336,1,145,0|0,0:0|0:0,0:0:0:0:
412,349,247650,1,8,0:1:0:0:
236,284,247821,6,0,L|63:249,1,145,2|0,0:0|0:0,0:0:0:0:
172,215,248336,1,0,0:0:0:0:
255,216,248507,2,0,L|425:189,1,145,2|4,0:0|0:3,0:0:0:0:
320,158,249021,1,8,0:1:0:0:
28,79,249364,6,0,L|194:48,2,145,10|8|8,0:0|0:1|0:0,0:0:0:0:
45,218,250393,2,0,L|148:227,1,72.5,8|4,0:1|0:3,0:0:0:0:
299,340,250736,2,0,L|315:181,1,145,10|8,0:0|0:1,0:0:0:0:
482,180,251421,2,0,L|451:19,1,145,8|8,0:0|0:1,0:0:0:0:
377,20,251936,1,4,0:3:0:0:
203,126,252107,6,0,L|358:142,1,145,2|8,0:0|0:1,0:0:0:0:
269,180,252621,1,0,0:0:0:0:
189,224,252793,2,0,L|282:237,2,72.5,0|8|4,0:0|0:3|0:3,0:0:0:0:
110,220,253307,1,4,0:3:0:0:
403,330,253650,5,0,0:0:0:0:
319,331,253821,2,0,L|163:338,1,145,8|0,0:3|0:0,0:0:0:0:
248,298,254336,1,0,0:0:0:0:
102,251,254507,2,2,L|15:235,1,72.5,0|2,0:0|0:0,0:0:0:0:
199,180,254850,6,0,L|322:164,1,108.75,4|2,0:0|0:1,0:0:0:0:
410,230,255364,1,2,0:0:0:0:
292,300,255621,1,2,0:0:0:0:
413,347,255878,1,2,0:0:0:0:
246,143,256221,6,0,L|123:127,1,108.75,0|2,0:0|0:1,0:0:0:0:
35,193,256735,1,8,0:0:0:0:
153,263,256992,1,2,0:0:0:0:
32,310,257249,1,2,0:0:0:0:
332,357,257593,6,0,L|317:182,1,145,8|0,0:0|0:0,0:0:0:0:
238,170,258107,1,8,0:0:0:0:
319,126,258278,1,8,0:0:0:0:
475,63,258621,2,0,L|390:44,1,72.5,2|0,0:0|0:0,0:0:0:0:
228,57,258964,6,0,L|82:88,2,145,8|8|8,0:0|0:0|0:0,0:0:0:0:
77,184,259993,1,8,0:0:0:0:
368,228,260336,5,8,0:0:0:0:
443,246,260507,2,0,P|483:275|431:338,1,145,0|8,0:0|0:0,0:0:0:0:
332,348,261107,1,2,0:0:0:0:
228,336,261364,1,2,0:0:0:0:
400,260,261707,6,0,L|290:231,1,108.75,8|2,0:0|0:1,0:0:0:0:
183,190,262221,1,8,0:0:0:0:
299,135,262478,1,2,0:0:0:0:
418,131,262736,1,2,0:0:0:0:
131,71,263078,5,0,0:0:0:0:
54,101,263250,2,0,L|33:252,1,145,0|8,0:0|0:0,0:0:0:0:
143,280,263850,1,2,0:0:0:0:
31,335,264107,1,2,0:0:0:0:
209,364,264450,6,0,L|286:357,1,72.5,8|2,0:0|0:1,0:1:0:0:
430,289,264964,1,2,0:1:0:0:
275,250,265307,1,2,0:1:0:0:
449,191,265650,1,2,0:1:0:0:
273,148,265821,5,8,0:0:0:0:
195,128,265993,2,0,P|185:83|256:31,1,145,0|8,0:0|0:0,0:0:0:0:
365,58,266593,1,2,0:0:0:0:
256,131,266850,1,2,0:0:0:0:
92,175,267193,6,0,L|70:307,1,108.75,8|2,0:0|0:1,0:0:0:0:
178,331,267707,1,8,0:0:0:0:
288,344,267964,1,2,0:0:0:0:
165,365,268221,1,2,0:0:0:0:
462,351,268564,6,0,L|482:205,1,145,8|0,0:0|0:0,0:0:0:0:
404,186,269078,1,8,0:0:0:0:
319,216,269250,2,0,L|303:60,1,145,8|2,0:0|0:0,0:0:0:0:
382,49,269764,1,8,0:0:0:0:
205,58,269936,6,0,L|45:37,2,145,8|8|0,0:0|0:0|0:0,0:0:0:0:
367,73,270964,1,0,0:0:0:0:
75,139,271307,5,8,0:0:0:0:
195,201,271649,1,8,0:0:0:0:
172,334,271992,1,8,0:0:0:0:
38,353,272335,1,8,0:0:0:0:
195,318,272678,5,8,0:0:0:0:
127,298,272849,1,8,0:0:0:0:
101,233,273020,1,8,0:0:0:0:
136,172,273192,1,8,0:0:0:0:
206,162,273364,2,0,L|294:169,1,72.5,8|8,0:0|0:0,0:0:0:0:
198,108,273707,2,0,L|287:113,1,72.5,8|8,0:0|0:0,0:0:0:0:
441,75,274050,6,8,L|483:68,2,36.25,8|8|8,0:0|0:0|0:0,0:0:0:0:
365,119,274393,2,8,L|366:179,2,36.25,8|8|8,0:0|0:0|0:0,0:0:0:0:
283,114,274736,2,8,L|232:107,2,36.25,8|8|8,0:0|0:0|0:0,0:0:0:0:
370,216,275078,2,8,L|379:259,2,36.25,8|8|8,0:0|0:0|0:0,0:0:0:0:
191,283,275421,5,6,0:3:0:0:
50,329,275764,1,0,0:0:0:0:
192,367,276107,1,0,0:0:0:0:
348,367,276450,1,0,0:0:0:0:
28,267,276793,5,0,0:0:0:0:
256,192,277136,12,0,283650,0:0:0:0:
