osu file format v14

[General]
AudioFilename: audio.mp3
AudioLeadIn: 0
PreviewTime: 209507
Countdown: 0
SampleSet: Soft
StackLeniency: 0.7
Mode: 2
LetterboxInBreaks: 0
EpilepsyWarning: 1
WidescreenStoryboard: 1

[Editor]
Bookmarks: 1136,24450,46393,68336,90278,112221,123193,145136,167078,189021,210964,232907,254850,276793
DistanceSpacing: 1
BeatDivisor: 8
GridSize: 4
TimelineZoom: 1

[Metadata]
Title:Hype feat. Such (lapix Remix)
TitleUnicode:Hype feat. Such (lapix Remix)
Artist:PSYQUI
ArtistUnicode:PSYQUI
Creator:Ascendance
Version:Hyperion's Rain
Source:
Tags:c94 critical megarex mrx-027 dnb drum and bass electronic wub sanyi sanyi4life ajamez jemzuu mbomb -_magic_bomb_- zirox sorcerer tomthewizard ster chara osu_gangster -plus- bunnrei jbh jbhyperion alienflybot afb rocma _asriel no492_shaymin spectator spec -luminate lumi bennybananas benny- benita -tochi ft clsw minato_yukina daiz_ix
BeatmapID:2156938
BeatmapSetID:1009824

[Difficulty]
HPDrainRate:6
CircleSize:5
OverallDifficulty:9.2
ApproachRate:9.2
SliderMultiplier:1.8
SliderTickRate:2

[Events]
//Background and Video events
0,0,"hype.jpg",0,0
//Break Periods
2,46593,53250
2,189221,195878
//Storyboard Layer 0 (Background)
//Storyboard Layer 1 (Fail)
//Storyboard Layer 2 (Pass)
//Storyboard Layer 3 (Foreground)
//Storyboard Layer 4 (Overlay)
//Storyboard Sound Samples

[TimingPoints]
1136,342.857142857143,4,2,22,55,1,0
1136,-55.5555555555556,4,2,22,55,0,0
1478,-100,4,2,22,55,0,0
2507,-75.187969924812,4,2,22,70,0,0
2764,-100,4,2,22,70,0,0
3878,-75.187969924812,4,2,22,70,0,0
4135,-100,4,2,22,70,0,0
7650,-55.5555555555556,4,2,22,70,0,0
7821,-100,4,2,22,70,0,0
13478,-75.187969924812,4,2,22,70,0,0
13735,-100,4,2,22,70,0,0
16221,-100,4,2,1,70,0,0
16392,-100,4,2,22,70,0,0
16393,-100,4,2,22,70,0,0
18107,-100,4,2,22,45,0,0
18193,-100,4,2,22,70,0,0
18278,-71.4285714285714,4,2,22,70,0,0
18449,-71.4285714285714,4,2,22,45,0,0
18450,-71.4285714285714,4,2,69,45,0,0
18621,-55.5555555555556,4,2,22,70,0,0
18792,-55.5555555555556,4,2,22,45,0,0
18793,-100,4,2,69,45,0,0
18964,-100,4,2,22,70,0,0
20336,-100,4,2,22,67,0,0
21707,-100,4,2,22,65,0,0
23078,-100,4,2,22,40,0,0
23250,-100,4,2,22,25,0,0
24450,-100,4,2,22,55,0,0
25136,-100,4,2,22,65,0,0
25821,-100,4,2,1,65,0,0
27021,-100,4,2,1,14,0,0
27193,-100,4,2,1,65,0,0
32164,-100,4,2,1,14,0,0
32336,-100,4,2,1,65,0,0
35421,-100,4,2,21,45,0,0
39536,-100,4,2,21,46,0,0
39878,-100,4,2,21,47,0,0
40221,-100,4,2,21,49,0,0
40564,-100,4,2,21,51,0,0
40907,-100,4,2,22,53,0,0
41078,-100,4,2,21,53,0,0
42278,-100,4,2,22,55,0,0
42450,-100,4,2,21,55,0,0
43650,-100,4,2,22,57,0,0
43821,-100,4,2,21,57,0,0
46307,-100,4,2,21,15,0,0
46393,-100,4,2,22,57,0,0
54621,-100,4,2,1,50,0,0
55307,-100,4,2,1,55,0,0
55993,-100,4,2,1,60,0,0
56678,-100,4,2,1,65,0,0
57021,-100,4,2,22,50,0,0
60107,-100,4,2,22,55,0,0
62850,-100,4,2,22,60,0,0
66964,-100,4,2,20,60,0,0
67993,-66.6666666666667,4,2,20,80,0,0
68336,-66.6666666666667,4,2,2,90,0,1
68507,-100,4,2,2,90,0,1
79221,-100,4,2,2,90,0,0
79307,-75.187969924812,4,2,2,90,0,1
79478,-100,4,2,2,90,0,1
84107,-66.6666666666667,4,2,2,90,0,1
84278,-100,4,2,2,90,0,1
84793,-75.187969924812,4,2,2,90,0,1
84964,-100,4,2,2,90,0,1
85164,-100,4,2,2,50,0,1
85250,-100,4,2,2,90,0,1
85278,-100,4,2,2,50,0,1
85364,-100,4,2,2,90,0,1
85392,-100,4,2,2,50,0,1
85478,-100,4,2,2,90,0,1
85506,-100,4,2,2,50,0,1
85593,-100,4,2,2,90,0,1
85621,-100,4,2,2,50,0,1
85707,-100,4,2,2,90,0,1
85735,-100,4,2,2,50,0,1
85821,-100,4,2,2,90,0,1
85849,-100,4,2,2,50,0,1
85935,-100,4,2,2,90,0,1
85936,-100,4,2,2,90,0,1
85964,-100,4,2,2,50,0,1
86049,-100,4,2,2,90,0,1
86050,-100,4,2,2,90,0,1
86078,-100,4,2,2,50,0,1
86164,-75.187969924812,4,2,2,90,0,1
86192,-75.187969924812,4,2,2,50,0,1
86278,-75.187969924812,4,2,2,90,0,1
86306,-75.187969924812,4,2,2,50,0,1
86392,-75.187969924812,4,2,2,90,0,1
86393,-75.187969924812,4,2,2,90,0,1
86421,-75.187969924812,4,2,2,50,0,1
86507,-100,4,2,2,90,0,1
86535,-100,4,2,2,50,0,1
86621,-100,4,2,2,90,0,1
86649,-100,4,2,2,50,0,1
86736,-100,4,2,2,90,0,1
86764,-100,4,2,2,50,0,1
86850,-100,4,2,2,90,0,1
86878,-100,4,2,2,50,0,1
86964,-100,4,2,2,90,0,1
86992,-100,4,2,2,50,0,1
87078,-100,4,2,2,90,0,1
87106,-100,4,2,2,50,0,1
87193,-100,4,2,2,90,0,1
87221,-100,4,2,2,50,0,1
87307,-100,4,2,2,90,0,1
87335,-100,4,2,2,50,0,1
87421,-100,4,2,2,90,0,1
87449,-100,4,2,2,50,0,1
87536,-100,4,2,2,90,0,1
87878,-100,4,2,2,75,0,1
90193,-100,4,2,2,90,0,0
90278,-66.6666666666667,4,2,2,90,0,1
90450,-100,4,2,2,90,0,1
101250,-66.6666666666667,4,2,4,90,0,1
101421,-100,4,2,2,90,0,1
106736,-80,4,2,2,90,0,1
106907,-100,4,2,2,90,0,1
110850,-100,4,2,2,90,0,0
112221,-100,4,2,22,60,0,0
112392,-100,4,2,21,60,0,0
112393,-100,4,2,21,60,0,0
113249,-100,4,2,21,58,0,0
113250,-100,4,2,21,58,0,0
114107,-100,4,2,21,55,0,0
114964,-100,4,2,21,53,0,0
116336,-100,4,2,21,51,0,0
117707,-100,4,2,22,51,0,0
118393,-100,4,2,22,53,0,0
119764,-100,4,2,22,55,0,0
120450,-100,4,2,22,57,0,0
121993,-100,4,2,22,60,0,0
122678,-100,4,2,22,63,0,0
123193,-100,4,2,24,90,0,1
131421,-80,4,2,24,90,0,1
131593,-100,4,2,24,90,0,1
134078,-100,4,2,24,90,0,0
134164,-100,4,2,24,90,0,1
143764,-100,4,2,24,60,0,0
144107,-100,4,2,20,60,0,0
144450,-100,4,2,24,60,0,0
144793,-100,4,2,24,70,0,0
145136,-100,4,2,3,60,0,0
150621,-100,4,2,3,50,0,0
153364,-100,4,2,3,45,0,0
154393,-100,4,2,3,40,0,0
155078,-100,4,2,3,35,0,0
158850,-100,4,2,3,30,0,0
161593,-100,4,2,3,35,0,0
162964,-100,4,2,3,30,0,0
164336,-100,4,2,1,43,0,0
165021,-100,4,2,1,45,0,0
165878,-100,4,2,1,48,0,0
166393,-75.187969924812,4,2,1,48,0,0
167078,-100,4,2,21,50,0,0
182507,-100,4,2,21,53,0,0
186278,-100,4,2,21,55,0,0
187650,-100,4,2,22,55,0,0
188936,-100,4,2,21,10,0,0
189021,-100,4,2,21,55,0,0
195064,-100,4,2,21,20,0,0
195193,-100,4,2,21,55,0,0
195793,-100,4,2,21,15,0,0
195878,-100,4,2,21,55,0,0
197164,-100,4,2,21,20,0,0
197250,-100,4,2,21,55,0,0
197936,-100,4,2,21,57,0,0
198278,-100,4,2,21,58,0,0
199264,-100,4,2,21,46,0,0
199993,-100,4,2,22,50,0,0
202736,-100,4,2,22,52,0,0
204107,-100,4,2,22,54,0,0
204793,-100,4,2,22,56,0,0
205478,-100,4,2,22,50,0,0
206164,-100,4,2,22,53,0,0
206850,-100,4,2,22,55,0,0
207536,-66.6666666666667,4,2,22,57,0,0
207707,-100,4,2,22,57,0,0
208221,-100,4,2,22,60,0,0
208907,-100,4,2,22,62,0,0
209593,-100,4,2,20,62,0,0
209936,-100,4,2,20,64,0,0
210621,-100,4,2,20,48,0,0
210964,-66.6666666666667,4,2,26,90,0,1
211136,-100,4,2,26,90,0,1
212678,-66.6666666666667,4,2,26,90,0,1
212850,-100,4,2,26,90,0,1
215764,-100,4,2,4,90,0,1
216107,-75.187969924812,4,2,4,90,0,1
216279,-100,4,2,4,90,0,1
216450,-100,4,2,26,90,0,1
227078,-75.187969924812,4,2,26,90,0,1
227250,-100,4,2,26,90,0,1
227421,-66.6666666666667,4,2,26,90,0,1
227593,-100,4,2,26,90,0,1
230164,-100,4,2,4,90,0,1
230507,-100,4,2,26,90,0,1
230850,-100,4,2,4,90,0,1
230936,-100,4,2,26,90,0,1
232821,-100,4,2,26,90,0,0
232907,-75.187969924812,4,2,26,90,0,1
233078,-100,4,2,26,90,0,1
238393,-100,4,2,4,90,0,1
238478,-100,4,2,26,90,0,1
239764,-100,4,2,4,90,0,1
239849,-100,4,2,26,90,0,1
241136,-100,4,2,4,90,0,1
241221,-100,4,2,26,90,0,1
249364,-100,4,2,4,90,0,1
249449,-100,4,2,26,90,0,1
250735,-100,4,2,4,90,0,1
250820,-100,4,2,26,90,0,1
252107,-100,4,2,4,90,0,1
252192,-100,4,2,26,90,0,1
253478,-100,4,2,26,90,0,0
253564,-100,4,2,26,75,0,0
254850,-75.187969924812,4,2,22,70,0,0
255107,-100,4,2,22,70,0,0
259650,-75.187969924812,4,2,22,70,0,0
259993,-100,4,2,22,70,0,0
270450,-100,4,2,69,70,0,0
270536,-100,4,2,22,70,0,0
270621,-80,4,2,22,70,0,0
270793,-80,4,2,69,70,0,0
270878,-80,4,2,22,70,0,0
270964,-66.6666666666667,4,2,22,70,0,0
271136,-100,4,2,69,70,0,0
271221,-100,4,2,22,70,0,0
274050,-100,4,2,22,60,0,0
275506,-100,4,2,22,35,0,0
275507,-100,4,2,22,35,0,0
276793,-83.3333333333333,4,2,22,30,0,0
279536,-83.3333333333333,4,2,22,25,0,0
280907,-83.3333333333333,4,2,22,20,0,0
282278,-83.3333333333333,4,2,22,15,0,0
283650,-83.3333333333333,4,2,22,10,0,0

[Colours]
Combo1 : 231,210,173
Combo2 : 237,145,105
Combo3 : 248,179,63

[HitObjects]
376,200,1136,6,0,L|212:200,1,161.999995056153,8|2,0:0|0:1,0:0:0:0:
392,200,1478,2,8,L|396:256,1,45,0|0,0:0|0:0,0:0:0:0:
320,244,1650,2,8,L|316:304,1,45,0|0,0:0|0:0,0:0:0:0:
416,244,1821,1,8,0:0:0:0:
465,273,1907,1,2,0:0:0:0:
465,330,1993,1,2,0:0:0:0:
415,360,2078,1,2,0:0:0:0:
316,360,2164,2,0,L|272:360,3,45,8|8|0|0,0:0|0:0|0:0|0:0,0:0:0:0:
124,360,2507,6,0,P|72:296|128:236,1,179.549992602768,4|2,0:0|0:1,0:0:0:0:
228,236,2850,2,0,L|312:200,1,90,0|2,0:0|0:0,0:0:0:0:
128,156,3193,1,0,0:0:0:0:
76,156,3278,2,0,L|72:104,1,45,2|0,0:0|0:0,0:0:0:0:
244,104,3536,2,0,L|336:104,1,90,10|8,0:0|0:0,0:0:0:0:
380,104,3793,1,8,0:0:0:0:
232,36,3878,6,0,P|144:48|124:132,1,179.549992602768,8|2,0:0|0:1,0:0:0:0:
224,104,4221,1,0,0:0:0:0:
173,116,4307,1,0,0:0:0:0:
122,125,4393,1,8,0:0:0:0:
284,192,4564,2,0,L|344:192,2,45,8|2|0,0:0|0:0|0:0,0:0:0:0:
132,192,4907,1,10,0:0:0:0:
240,192,5078,2,0,L|244:244,1,45,8|8,0:0|0:0,0:0:0:0:
84,192,5250,6,8,L|80:296,1,90,8|0,0:0|0:0,0:0:0:0:
164,284,5507,1,2,0:1:0:0:
248,284,5593,2,0,L|156:284,1,90,0|8,0:0|0:0,0:0:0:0:
328,372,5936,2,0,L|424:372,1,90,8|0,0:0|0:0,0:0:0:0:
356,372,6193,1,8,0:0:0:0:
200,376,6278,2,0,L|196:286,1,90,2|2,0:0|0:0,0:0:0:0:
260,284,6536,1,2,0:0:0:0:
416,284,6621,6,0,B|416:240|416:240|368:240,1,90,10|2,0:0|0:1,0:0:0:0:
308,240,6878,1,0,0:0:0:0:
460,240,6964,2,8,L|364:240,1,90,8|2,0:0|0:1,0:0:0:0:
208,240,7307,2,0,L|204:136,1,90,8|2,0:0|0:1,0:0:0:0:
376,240,7650,2,0,L|212:240,1,161.999995056153,8|12,0:0|0:3,0:0:0:0:
440,240,7993,6,0,L|444:148,1,90,8|0,0:0|0:0,0:0:0:0:
288,148,8250,1,2,0:1:0:0:
243,148,8336,1,0,0:0:0:0:
216,148,8421,1,0,0:0:0:0:
243,148,8507,1,8,0:0:0:0:
288,148,8593,1,0,0:0:0:0:
184,148,8678,2,0,L|180:104,1,45,8|2,0:0|0:0,0:0:0:0:
280,32,8936,1,8,0:0:0:0:
380,32,9021,2,0,L|384:132,1,90,2|8,0:0|0:0,0:0:0:0:
329,148,9278,1,0,0:0:0:0:
176,148,9364,6,0,L|128:148,1,45,8|0,0:0|0:0,0:0:0:0:
288,148,9621,2,0,L|292:200,1,45,2|0,0:1|0:0,0:0:0:0:
192,196,9878,1,8,0:0:0:0:
352,192,10050,1,8,0:0:0:0:
397,227,10136,1,2,0:0:0:0:
397,285,10221,1,0,0:0:0:0:
351,320,10307,1,8,0:0:0:0:
248,320,10393,2,0,L|356:320,1,90,2|8,0:0|0:0,0:0:0:0:
392,320,10650,1,8,0:0:0:0:
236,320,10736,6,8,L|144:320,1,90,8|0,0:0|0:0,0:0:0:0:
304,240,10993,1,2,0:1:0:0:
368,240,11078,2,0,L|372:148,1,90,0|8,0:0|0:0,0:0:0:0:
260,148,11421,2,0,L|252:88,1,45,8|2,0:0|0:0,0:0:0:0:
332,104,11593,2,0,L|324:48,1,45,0|8,0:0|0:0,0:0:0:0:
224,60,11764,2,0,L|128:60,1,90,2|8,0:0|0:0,0:0:0:0:
136,124,12021,1,8,0:0:0:0:
292,148,12107,6,8,L|392:148,1,90,0|2,0:0|0:1,0:0:0:0:
220,220,12450,2,0,L|264:220,1,45,8|0,0:2|0:2,0:2:0:0:
216,220,12621,2,0,L|264:220,1,45,2|0,0:2|0:2,0:2:0:0:
364,220,12793,1,8,0:2:0:0:
412,251,12878,1,0,0:2:0:0:
412,308,12964,1,2,0:2:0:0:
364,344,13050,1,0,0:2:0:0:
260,344,13136,2,0,L|256:288,1,45,8|0,0:2|0:2,0:2:0:0:
360,264,13307,2,0,L|364:220,1,45,4|0,0:3|0:0,0:0:0:0:
208,220,13478,6,0,P|168:184|204:140,1,119.699995068512,8|0,0:0|0:0,0:0:0:0:
288,140,13736,1,2,0:1:0:0:
372,140,13821,2,0,L|376:48,1,90,0|8,0:0|0:0,0:0:0:0:
204,48,14164,2,0,L|160:48,1,45,8|2,0:0|0:0,0:0:0:0:
212,48,14336,2,0,L|216:100,1,45,0|8,0:0|0:0,0:0:0:0:
104,88,14507,2,0,L|100:192,1,90,2|8,0:0|0:0,0:0:0:0:
164,176,14764,1,8,0:0:0:0:
320,180,14850,6,0,L|324:228,1,45,8|0,0:0|0:0,0:0:0:0:
164,248,15107,1,2,0:1:0:0:
215,260,15193,1,0,0:0:0:0:
266,269,15278,1,0,0:0:0:0:
215,260,15364,1,8,0:0:0:0:
376,268,15536,2,0,L|436:268,2,45,8|2|0,0:0|0:0|0:0,0:0:0:0:
320,268,15793,1,8,0:0:0:0:
220,260,15878,1,2,0:0:0:0:
320,192,16050,2,0,L|276:192,1,45,8|8,0:0|0:0,0:0:0:0:
116,192,16221,6,0,L|112:88,1,90,4|0,0:0|0:0,0:0:0:0:
192,100,16478,1,2,0:1:0:0:
272,100,16564,2,0,L|180:100,1,90,0|8,0:0|0:0,0:0:0:0:
344,12,16907,2,0,L|440:12,1,90,8|0,0:0|0:0,0:0:0:0:
372,12,17164,1,8,0:0:0:0:
212,12,17250,2,2,L|116:12,1,90,2|8,0:0|0:0,0:0:0:0:
184,12,17507,1,8,0:0:0:0:
340,104,17593,6,0,B|340:148|340:148|292:148,1,90,2|2,0:1|0:0,0:0:0:0:
232,148,17850,1,2,0:0:0:0:
390,148,17936,2,0,L|294:148,1,90,8|0,0:0|0:0,0:0:0:0:
452,216,18278,2,0,L|324:216,1,125.999996154785,8|0,0:0|0:0,0:0:0:0:
488,216,18621,2,0,L|313:216,1,161.999995056153,8|0,0:0|0:0,0:0:0:0:
100,216,18964,6,0,L|96:312,1,90,8|0,0:0|0:0,0:0:0:0:
256,216,19307,2,8,L|260:120,1,90,8|0,0:0|0:0,0:0:0:0:
92,215,19650,2,0,L|158:286,1,90,8|0,0:0|0:0,0:0:0:0:
312,192,19993,2,0,L|247:121,1,90,8|0,0:0|0:0,0:0:0:0:
188,128,20250,1,0,0:0:0:0:
344,128,20336,6,0,L|348:160,1,22.5,8|0,0:0|0:0,0:0:0:0:
252,196,20507,2,0,L|248:228,1,22.5,8|0,0:0|0:0,0:0:0:0:
152,264,20678,2,0,L|156:296,1,22.5,8|0,0:0|0:0,0:0:0:0:
60,332,20850,2,0,L|56:364,1,22.5,8|0,0:0|0:0,0:0:0:0:
248,356,21021,6,0,L|252:324,1,22.5,8|0,0:0|0:0,0:0:0:0:
147,286,21193,2,0,L|143:254,1,22.5,8|0,0:0|0:0,0:0:0:0:
268,336,21364,2,0,L|272:304,1,22.5,8|0,0:0|0:0,0:0:0:0:
128,264,21536,2,0,L|124:232,1,22.5,8|0,0:0|0:0,0:0:0:0:
316,236,21707,6,0,L|368:236,1,45,8|8,0:0|0:0,0:0:0:0:
360,168,21878,2,0,L|308:168,1,45,8|8,0:0|0:0,0:0:0:0:
164,168,22050,1,8,0:0:0:0:
144,116,22136,1,8,0:0:0:0:
160,60,22221,1,8,0:0:0:0:
205,25,22307,1,8,0:0:0:0:
262,25,22393,1,8,0:0:0:0:
308,58,22478,1,8,0:0:0:0:
325,113,22564,1,8,0:0:0:0:
305,166,22650,1,8,0:0:0:0:
152,168,22736,2,8,L|100:168,1,45,10|10,0:0|0:0,0:0:0:0:
260,166,22907,2,8,L|304:166,1,45,10|10,0:0|0:0,0:0:0:0:
124,168,23078,5,6,0:3:0:0:
256,192,23250,12,0,24278,0:0:0:0:
256,192,24450,5,4,0:2:0:0:
84,192,25136,2,0,L|76:12,1,180,0|0,0:0|0:0,0:0:0:0:
184,12,25650,1,0,0:0:0:0:
340,12,25821,6,0,L|344:104,1,90,2|0,0:0|0:0,0:0:0:0:
252,100,26164,2,0,P|196:160|252:220,1,180,0|0,0:0|0:0,0:0:0:0:
116,104,26850,1,0,0:0:0:0:
404,100,27193,6,0,L|412:280,1,180,2|0,0:0|0:0,0:0:0:0:
232,188,27878,2,0,L|387:278,1,180,0|0,0:0|0:0,0:0:0:0:
224,280,28393,6,0,P|100:180|220:80,1,360,2|0,0:0|0:0,0:0:0:0:
312,168,29250,2,0,L|316:76,1,90,0|0,0:0|0:0,0:0:0:0:
164,80,29593,2,0,L|168:172,1,90,0|0,0:0|0:0,0:0:0:0:
332,168,29936,6,0,L|336:352,1,180,2|0,0:0|0:0,0:0:0:0:
156,348,30621,2,0,L|336:348,1,180,0|0,0:0|0:0,0:0:0:0:
40,348,31307,6,0,P|64:272|148:224,1,180,2|0,0:0|0:0,0:0:0:0:
236,228,31821,1,0,0:0:0:0:
72,224,31993,2,0,L|68:128,1,90,0|0,0:0|0:0,0:0:0:0:
224,136,32336,2,0,L|320:136,1,90,2|0,0:0|0:0,0:0:0:0:
152,136,32678,5,2,0:0:0:0:
87,106,32850,1,0,0:0:0:0:
85,35,33021,1,0,0:0:0:0:
148,3,33193,1,0,0:0:0:0:
256,4,33364,2,0,L|344:40,2,90,0|0|0,0:0|0:0|0:0,0:0:0:0:
92,4,33878,5,2,0:0:0:0:
184,4,34050,1,0,0:0:0:0:
272,4,34221,1,0,0:0:0:0:
164,4,34393,2,0,L|160:96,1,90,0|0,0:0|0:0,0:0:0:0:
324,96,34736,2,0,L|416:96,1,90,2|0,0:0|0:0,0:0:0:0:
308,96,35078,2,0,L|304:196,1,90,0|0,0:0|0:0,0:0:0:0:
392,192,35336,1,0,0:0:0:0:
480,192,35421,6,0,L|484:292,1,90,2|0,0:0|0:0,0:0:0:0:
376,284,35764,2,0,L|380:376,1,90,0|0,0:0|0:0,0:0:0:0:
212,372,36107,2,0,L|216:280,1,90,2|0,0:0|0:0,0:0:0:0:
324,284,36450,1,0,0:0:0:0:
172,284,36621,1,2,0:0:0:0:
20,284,36793,6,0,L|16:176,1,90,2|0,0:0|0:0,0:0:0:0:
124,192,37136,2,0,L|128:100,1,90,0|0,0:0|0:0,0:0:0:0:
236,104,37478,2,0,L|232:4,1,90,2|0,0:0|0:0,0:0:0:0:
340,12,37821,2,0,L|336:104,1,90,0|0,0:0|0:0,0:0:0:0:
172,104,38164,6,0,L|92:150,1,90,2|0,0:0|0:0,0:0:0:0:
192,148,38507,1,0,0:0:0:0:
292,148,38678,2,0,L|296:248,1,90,2|0,0:0|0:0,0:0:0:0:
140,236,39021,2,0,L|240:236,1,90,2|0,0:0|0:0,0:0:0:0:
392,236,39364,6,0,P|452:288|392:348,1,180,2|0,0:0|0:0,0:0:0:0:
296,348,39878,2,0,L|288:256,1,90,2|0,0:0|0:0,0:0:0:0:
388,260,40221,2,0,L|311:195,1,90,2|0,0:0|0:0,0:0:0:0:
428,140,40564,2,0,L|336:140,1,90,2|0,0:0|0:0,0:0:0:0:
176,140,40907,6,0,P|96:108|64:24,1,180,8|2,0:0|0:0,0:0:0:0:
164,24,41421,1,0,0:0:0:0:
324,24,41593,2,0,L|332:120,1,90,2|0,0:0|0:0,0:0:0:0:
224,112,41936,2,0,L|220:212,1,90,2|0,0:0|0:0,0:0:0:0:
60,200,42278,6,2,L|220:288,1,180,8|2,0:0|0:0,0:0:0:0:
316,288,42793,1,0,0:0:0:0:
208,288,42964,2,0,L|216:196,1,90,2|0,0:0|0:0,0:0:0:0:
316,192,43307,2,0,L|308:100,1,90,2|0,0:0|0:0,0:0:0:0:
128,104,43650,6,0,P|80:176|136:236,1,180,8|2,0:0|0:0,0:0:0:0:
232,236,44164,1,0,0:0:0:0:
388,236,44336,2,0,L|464:288,2,90,0|2|0,0:0|0:0|0:0,0:0:0:0:
288,236,44850,6,0,L|464:192,1,180,2|0,0:0|0:0,0:0:0:0:
300,192,45364,2,0,L|296:88,1,90,2|0,0:0|0:0,0:0:0:0:
464,100,45707,2,0,P|520:144|464:216,1,180,2|8,0:0|0:3,0:0:0:0:
368,216,46221,1,0,0:0:0:0:
140,216,46393,5,12,0:0:0:0:
256,192,54621,12,0,57021,0:0:0:0:
188,192,57364,6,0,L|192:100,1,90,8|0,3:2|3:2,3:2:0:0:
292,192,57707,2,0,L|296:100,1,90,0|0,3:2|3:2,3:2:0:0:
388,192,58050,2,0,L|392:100,1,90,0|0,3:2|3:2,3:2:0:0:
492,192,58393,2,0,L|496:100,1,90,0|0,3:2|3:2,3:2:0:0:
332,104,58736,6,0,L|428:104,1,90,8|0,3:2|3:2,3:2:0:0:
316,192,59078,2,0,L|412:192,1,90,0|0,3:2|3:2,3:2:0:0:
296,280,59421,2,0,L|392:280,1,90,0|0,3:2|3:2,3:2:0:0:
280,368,59764,2,0,L|376:368,1,90,0|0,3:2|3:2,3:2:0:0:
204,368,60107,6,0,L|200:264,1,90,8|0,3:2|3:2,3:2:0:0:
308,280,60450,2,0,L|304:176,1,90,0|0,3:2|3:2,3:2:0:0:
200,278,60793,2,0,L|196:174,1,90,0|0,3:2|3:2,3:2:0:0:
304,190,61136,2,0,L|300:86,1,90,0|2,3:2|3:2,0:0:0:0:
236,100,61393,1,2,3:2:0:0:
384,100,61478,6,0,L|476:100,1,90,2|0,0:1|0:0,0:0:0:0:
320,100,61821,2,0,L|234:143,1,90,2|0,0:1|0:0,0:0:0:0:
384,100,62164,2,0,L|440:177,1,90,2|0,0:1|0:0,0:0:0:0:
300,172,62507,2,0,L|284:266,1,90,2|2,0:1|0:0,0:1:0:0:
56,260,62850,5,8,3:2:0:0:
67,203,62936,1,0,3:2:0:0:
102,158,63021,1,0,3:2:0:0:
154,133,63107,1,0,3:2:0:0:
211,133,63193,1,8,3:2:0:0:
262,158,63278,1,0,3:2:0:0:
297,204,63364,1,0,3:2:0:0:
309,260,63450,1,0,3:2:0:0:
212,260,63536,1,8,3:2:0:0:
164,224,63621,1,0,3:2:0:0:
164,164,63707,1,0,3:2:0:0:
212,133,63793,1,0,3:2:0:0:
308,132,63878,2,0,L|312:80,1,45,8|0,3:2|3:2,3:2:0:0:
240,88,64050,2,0,L|236:36,1,45,0|0,3:2|3:2,3:2:0:0:
388,44,64221,5,8,3:2:0:0:
449,80,64307,1,0,3:2:0:0:
451,152,64393,1,0,3:2:0:0:
391,191,64478,1,0,3:2:0:0:
300,192,64564,2,0,L|296:248,1,45,8|0,3:2|3:2,3:2:0:0:
387,147,64736,2,0,L|391:191,1,45,0|0,3:2|3:2,3:2:0:0:
240,192,64907,2,0,L|196:192,3,45,8|0|0|0,3:2|3:2|3:2|3:2,3:2:0:0:
100,192,65250,2,0,L|56:192,3,45,8|0|0|0,3:2|3:2|3:2|3:2,3:2:0:0:
204,128,65593,5,8,0:0:0:0:
251,160,65678,1,8,0:0:0:0:
254,218,65764,1,8,0:0:0:0:
209,254,65850,1,8,0:0:0:0:
60,256,65936,1,8,0:0:0:0:
118,242,66021,1,8,0:0:0:0:
177,229,66107,1,8,0:0:0:0:
235,216,66193,1,8,0:0:0:0:
384,216,66278,2,0,L|428:216,3,45,8|8|8|8,0:0|0:0|0:0|0:0,0:0:0:0:
280,260,66621,2,8,L|275:207,1,45,0|0,0:0|0:0,0:0:0:0:
425,260,66793,2,8,L|429:216,1,45,8|0,0:0|0:0,0:0:0:0:
328,220,66964,5,8,0:0:0:0:
324,160,67050,1,2,0:0:0:0:
320,100,67136,1,2,0:0:0:0:
316,40,67221,1,2,0:0:0:0:
416,40,67307,2,0,L|368:40,1,45,0|0,0:0|0:0,0:0:0:0:
372,100,67478,2,0,L|416:100,1,45,0|0,0:0|0:0,0:0:0:0:
316,40,67650,1,8,2:3:0:0:
260,40,67736,1,8,2:3:0:0:
228,84,67821,1,8,2:3:0:0:
228,140,67907,1,8,2:3:0:0:
384,140,67993,2,0,P|452:208|392:272,1,202.500007724762,12|0,1:2|0:0,0:0:0:0:
236,272,68336,6,0,L|88:272,1,135.000005149842,4|0,0:0|0:0,0:0:0:0:
328,271,68678,2,0,L|380:271,2,45,8|0|0,0:1|0:0|0:0,0:0:0:0:
164,271,69021,1,8,0:0:0:0:
108,271,69107,1,0,0:0:0:0:
108,215,69193,1,0,0:0:0:0:
164,215,69278,1,0,0:0:0:0:
264,215,69364,1,8,0:1:0:0:
312,215,69450,1,0,0:0:0:0:
360,215,69536,1,0,0:0:0:0:
192,135,69707,6,0,L|188:79,2,45,8|0|0,0:0|0:0|0:0,0:0:0:0:
248,135,69964,1,0,0:0:0:0:
404,215,70050,2,0,L|408:159,2,45,8|0|0,0:1|0:0|0:0,0:0:0:0:
348,215,70307,1,0,0:0:0:0:
188,215,70393,1,8,0:0:0:0:
132,215,70478,1,0,0:0:0:0:
132,271,70564,1,0,0:0:0:0:
188,271,70650,1,0,0:0:0:0:
288,271,70736,2,0,L|228:271,3,45,8|0|0|0,0:1|0:0|0:0|0:0,0:0:0:0:
396,271,71078,6,0,L|492:271,1,90,12|0,0:3|0:0,0:0:0:0:
316,271,71421,1,8,0:1:0:0:
312,223,71507,1,0,0:0:0:0:
308,175,71593,1,0,0:0:0:0:
480,175,71764,1,8,0:0:0:0:
424,175,71850,1,0,0:0:0:0:
424,119,71936,1,0,0:0:0:0:
480,119,72021,1,0,0:0:0:0:
380,119,72107,1,8,0:1:0:0:
332,119,72193,1,0,0:0:0:0:
284,119,72278,1,0,0:0:0:0:
332,119,72364,1,0,0:0:0:0:
176,119,72450,6,0,L|176:71,1,45,8|0,0:0|0:0,0:0:0:0:
236,119,72621,2,0,L|236:71,1,45,2|0,0:0|0:0,0:0:0:0:
140,119,72793,2,0,L|140:167,1,45,8|0,0:1|0:0,0:0:0:0:
196,191,72964,2,0,L|248:191,1,45,0|0,0:0|0:0,0:0:0:0:
90,191,73136,2,0,L|186:191,1,90,8|8,0:3|0:3,0:0:0:0:
340,191,73478,1,4,0:3:0:0:
260,191,73564,1,0,0:0:0:0:
180,191,73650,1,8,0:3:0:0:
412,192,73821,6,0,L|504:192,1,90,12|0,0:3|0:0,0:0:0:0:
336,192,74164,1,8,0:1:0:0:
336,136,74250,1,0,0:0:0:0:
372,96,74336,1,0,0:0:0:0:
424,96,74421,1,0,0:0:0:0:
320,96,74507,2,0,L|272:96,2,45,8|0|0,0:0|0:0|0:0,0:0:0:0:
156,196,74850,1,8,0:1:0:0:
100,196,74936,1,0,0:0:0:0:
100,140,75021,1,0,0:0:0:0:
156,140,75107,1,0,0:0:0:0:
256,140,75193,6,0,L|300:140,3,45,8|0|0|0,0:0|0:0|0:0|0:0,0:0:0:0:
144,72,75536,2,0,L|140:28,1,45,8|0,0:1|0:0,0:0:0:0:
204,28,75707,2,0,L|252:28,1,45,0|0,0:0|0:0,0:0:0:0:
406,96,75878,2,0,L|410:140,1,45,8|0,0:0|0:0,0:0:0:0:
346,140,76050,2,0,L|298:140,1,45,0|0,0:0|0:0,0:0:0:0:
140,140,76221,2,0,L|136:192,1,45,8|0,0:1|0:0,0:0:0:0:
240,184,76393,2,0,L|244:236,1,45,0|0,0:0|0:0,0:0:0:0:
80,232,76564,6,0,L|76:336,1,90,8|0,0:3|0:0,0:0:0:0:
248,324,76907,1,8,0:1:0:0:
192,324,76993,1,0,0:0:0:0:
140,324,77078,1,0,0:0:0:0:
312,324,77250,1,8,0:0:0:0:
368,324,77336,1,0,0:0:0:0:
368,268,77421,1,0,0:0:0:0:
312,268,77507,1,0,0:0:0:0:
212,192,77593,1,8,0:1:0:0:
266,192,77678,1,0,0:0:0:0:
320,192,77764,1,0,0:0:0:0:
374,192,77850,1,0,0:0:0:0:
212,192,77936,6,0,L|120:192,1,90,2|0,0:0|0:0,0:0:0:0:
68,192,78193,1,0,0:0:0:0:
220,192,78278,2,0,L|312:192,1,90,8|8,0:1|0:3,0:0:0:0:
75,193,78621,2,0,L|71:101,1,90,2|0,0:0|0:0,0:0:0:0:
127,101,78878,1,0,0:0:0:0:
276,100,78964,2,0,L|368:100,1,90,8|0,0:1|0:0,0:0:0:0:
96,104,79307,6,0,B|40:106|40:106|104:106,1,119.699995068512,4|0,0:0|0:0,0:0:0:0:
269,105,79650,2,0,L|273:161,1,45,8|0,0:1|0:0,0:0:0:0:
209,149,79821,2,0,L|205:193,1,45,0|0,0:0|0:0,0:0:0:0:
357,193,79993,2,0,L|405:193,2,45,10|0|0,0:0|0:0|0:0,0:0:0:0:
209,269,80250,2,0,L|157:269,2,45,2|0|0,0:0|0:0|0:0,0:0:0:0:
357,269,80507,2,0,L|361:321,1,45,2|0,0:0|0:0,0:0:0:0:
209,269,80678,5,8,0:0:0:0:
153,269,80764,1,2,0:0:0:0:
153,213,80850,1,0,0:0:0:0:
209,213,80936,1,0,0:0:0:0:
361,193,81021,1,2,0:0:0:0:
209,213,81193,1,2,0:0:0:0:
436,192,81364,2,0,L|440:100,1,90,10|0,0:0|0:0,0:0:0:0:
360,100,81621,1,0,0:0:0:0:
280,100,81707,2,0,L|220:100,1,45,2|0,0:0|0:0,0:0:0:0:
304,36,81878,2,0,L|256:36,1,45,2|2,0:0|0:0,0:0:0:0:
108,36,82050,6,0,L|16:36,1,90,12|0,0:3|0:0,0:0:0:0:
252,100,82393,2,0,L|256:156,1,45,2|0,0:0|0:0,0:0:0:0:
168,148,82564,2,0,L|164:196,1,45,2|0,0:0|0:0,0:0:0:0:
316,196,82736,2,0,L|412:196,1,90,10|0,0:0|0:0,0:0:0:0:
256,264,82993,2,0,L|204:264,2,45,2|0|2,0:0|0:0|0:0,0:0:0:0:
404,264,83250,2,0,L|352:264,1,45,2|0,0:0|0:0,0:0:0:0:
211,264,83421,6,0,L|211:316,1,45,8|0,0:3|0:0,0:0:0:0:
279,352,83593,2,0,L|279:308,1,45,4|0,0:3|0:0,0:0:0:0:
188,352,83764,2,0,L|188:304,1,45,10|0,0:1|0:0,0:0:0:0:
256,309,83936,2,0,L|256:265,1,45,4|0,0:3|0:0,0:0:0:0:
104,284,84107,2,0,P|60:244|100:192,1,135.000005149842,10|8,0:0|0:0,0:0:0:0:
328,192,84450,1,8,0:3:0:0:
372,192,84536,1,0,0:0:0:0:
416,192,84621,1,4,0:3:0:0:
168,192,84793,6,0,L|48:192,1,119.699995068512,12|0,0:3|0:0,0:0:0:0:
288,96,85136,2,0,L|352:96,2,60,8|0|0,0:1|0:0|0:0,0:0:0:0:
156,96,85478,1,8,0:0:0:0:
228,96,85593,1,0,0:0:0:0:
300,96,85707,1,0,0:0:0:0:
136,96,85821,2,0,L|76:96,2,60,8|0|0,0:1|0:0|0:0,0:0:0:0:
260,28,86164,6,0,L|180:28,2,79.7999967123414,8|0|0,0:0|0:0|0:0,0:0:0:0:
428,28,86507,1,8,0:1:0:0:
350,28,86621,1,0,0:0:0:0:
272,28,86736,1,0,0:0:0:0:
156,96,86850,1,8,0:0:0:0:
240,96,86964,1,0,0:0:0:0:
324,96,87078,1,0,0:0:0:0:
156,96,87193,2,0,L|112:96,1,45,8|0,0:1|0:0,0:0:0:0:
164,164,87364,2,0,L|212:164,1,45,0|0,0:0|0:0,0:0:0:0:
56,164,87536,6,0,L|52:256,1,90,12|0,0:3|0:0,0:0:0:0:
116,256,87793,1,0,0:0:0:0:
272,256,87878,2,0,L|320:256,1,45,8|0,0:1|0:0,0:0:0:0:
317,256,88050,2,0,L|269:256,1,45,0|0,0:0|0:0,0:0:0:0:
116,256,88221,1,8,0:0:0:0:
172,256,88307,1,0,0:0:0:0:
228,256,88393,1,0,0:0:0:0:
284,256,88478,1,0,0:0:0:0:
116,256,88564,2,0,L|112:208,1,45,8|0,0:1|0:0,0:0:0:0:
180,192,88736,2,0,L|184:144,1,45,0|0,0:0|0:0,0:0:0:0:
32,152,88907,6,0,L|28:48,1,90,2|0,0:0|0:0,0:0:0:0:
195,57,89250,2,0,L|191:149,1,90,2|0,0:0|0:0,0:0:0:0:
128,148,89507,1,0,0:0:0:0:
191,146,89593,2,0,L|284:147,1,90,10|0,0:0|0:0,0:0:0:0:
172,232,89936,2,0,L|72:232,1,90,8|0,1:3|0:0,0:0:0:0:
136,232,90193,1,0,0:0:0:0:
304,232,90278,6,0,L|440:232,1,135.000005149842,4|0,0:0|0:0,0:0:0:0:
268,164,90621,2,0,L|256:116,3,45,8|0|0|0,0:1|0:0|0:0|0:0,0:0:0:0:
420,120,90964,2,0,L|424:16,1,90,10|0,0:0|0:0,0:0:0:0:
344,28,91221,1,0,0:0:0:0:
264,28,91307,2,0,L|356:28,1,90,8|2,0:1|0:0,0:0:0:0:
184,28,91650,6,0,L|92:28,1,90,8|0,0:0|0:0,0:0:0:0:
348,104,91993,2,0,L|400:104,2,45,10|0|0,0:1|0:0|0:0,0:0:0:0:
292,104,92250,1,0,0:0:0:0:
136,104,92336,2,0,L|132:216,1,90,8|0,0:0|0:0,0:0:0:0:
304,192,92678,2,0,L|308:248,1,45,10|0,0:1|0:0,0:0:0:0:
232,236,92850,2,0,L|228:296,1,45,0|0,0:0|0:0,0:0:0:0:
80,280,93021,6,0,L|76:376,1,90,10|0,0:0|0:0,0:0:0:0:
244,372,93364,2,0,L|288:372,1,45,10|0,0:1|0:0,0:0:0:0:
235,281,93536,2,0,L|190:281,1,45,0|0,0:0|0:0,0:0:0:0:
40,280,93707,2,0,L|44:188,1,90,10|0,0:0|0:0,0:0:0:0:
208,188,94050,2,0,L|260:188,1,45,10|0,0:1|0:0,0:0:0:0:
192,188,94221,2,0,L|188:136,1,45,2|0,0:0|0:0,0:0:0:0:
332,112,94393,6,0,L|424:112,1,90,8|0,0:0|0:0,0:0:0:0:
252,40,94736,2,0,L|300:40,1,45,8|0,0:1|0:0,0:0:0:0:
352,40,94907,2,0,L|296:40,1,45,2|0,0:0|0:0,0:0:0:0:
208,40,95078,1,8,0:0:0:0:
152,40,95164,1,0,0:0:0:0:
152,96,95250,1,0,0:0:0:0:
208,96,95336,1,0,0:0:0:0:
352,96,95421,2,0,L|448:96,1,90,10|0,0:1|0:0,0:0:0:0:
496,96,95678,1,0,0:0:0:0:
348,168,95764,6,0,L|248:168,1,90,10|0,0:0|0:0,0:0:0:0:
420,168,96107,2,0,L|424:220,2,45,10|0|0,0:1|0:0|0:0,0:0:0:0:
192,240,96450,2,0,L|284:240,1,90,10|0,0:0|0:0,0:0:0:0:
112,240,96793,1,10,0:1:0:0:
108,292,96878,1,0,0:0:0:0:
104,344,96964,1,0,0:0:0:0:
336,344,97136,6,0,L|432:344,1,90,10|0,0:0|0:0,0:0:0:0:
172,344,97478,2,0,L|168:296,1,45,10|0,0:1|0:0,0:0:0:0:
236,300,97650,2,0,L|240:248,1,45,0|0,0:0|0:0,0:0:0:0:
84,224,97821,1,10,0:0:0:0:
28,224,97907,1,0,0:0:0:0:
28,168,97993,1,0,0:0:0:0:
84,168,98078,1,0,0:0:0:0:
232,168,98164,2,0,L|276:168,1,45,10|0,0:1|0:0,0:0:0:0:
176,168,98336,2,0,L|172:112,1,45,0|0,0:0|0:0,0:0:0:0:
324,88,98507,6,0,L|416:88,1,90,8|0,0:0|0:0,0:0:0:0:
172,123,98850,2,0,L|168:27,1,90,10|0,0:1|0:0,0:0:0:0:
224,31,99107,1,0,0:0:0:0:
60,35,99193,1,10,0:0:0:0:
60,87,99278,1,0,0:0:0:0:
96,127,99364,1,0,0:0:0:0:
152,127,99450,1,0,0:0:0:0:
248,127,99536,2,0,L|296:127,1,45,10|0,0:1|0:0,0:0:0:0:
140,191,99707,2,0,L|136:239,1,45,2|0,0:0|0:0,0:0:0:0:
284,236,99878,6,0,L|384:236,1,90,8|0,0:0|0:0,0:0:0:0:
136,235,100221,2,0,L|232:235,1,90,10|0,0:1|0:0,0:0:0:0:
460,304,100564,2,0,L|364:304,1,90,8|8,0:0|0:0,0:0:0:0:
131,324,100907,2,0,L|135:235,1,90,8|8,0:1|0:3,0:0:0:0:
404,236,101250,6,0,L|269:236,1,135,2|0,0:0|0:0,0:0:0:0:
448,236,101593,2,0,L|456:188,3,45,8|0|0|0,0:1|0:0|0:0|0:0,0:0:0:0:
304,160,101936,2,0,L|208:160,1,90,10|0,0:0|0:0,0:0:0:0:
376,160,102278,1,10,0:1:0:0:
208,160,102450,1,2,0:0:0:0:
464,160,102621,6,0,L|468:64,1,90,8|0,0:0|0:0,0:0:0:0:
408,68,102878,1,0,0:0:0:0:
260,68,102964,2,0,L|212:68,1,45,10|0,0:1|0:0,0:0:0:0:
312,68,103136,2,0,L|316:8,1,45,0|0,0:0|0:0,0:0:0:0:
168,24,103307,1,8,0:0:0:0:
112,24,103393,1,0,0:0:0:0:
112,80,103478,1,0,0:0:0:0:
168,80,103564,1,0,0:0:0:0:
20,80,103650,2,0,L|8:136,3,45,10|0|0|0,0:1|0:0|0:0|0:0,0:0:0:0:
164,156,103993,6,0,L|256:156,1,90,10|0,0:0|0:0,0:0:0:0:
92,156,104336,2,0,L|88:200,1,45,10|0,0:1|0:0,0:0:0:0:
236,232,104507,2,0,L|304:232,1,45,2|0,0:0|0:0,0:0:0:0:
228,232,104678,2,0,L|176:232,1,45,8|0,0:0|0:0,0:0:0:0:
332,232,104850,1,2,0:0:0:0:
192,312,105021,1,8,0:1:0:0:
248,312,105107,1,0,0:0:0:0:
304,312,105193,1,2,0:0:0:0:
68,312,105364,6,0,L|64:256,1,45,8|0,0:0|0:0,0:0:0:0:
124,236,105536,2,0,L|168:236,1,45,2|0,0:0|0:0,0:0:0:0:
316,236,105707,1,8,0:1:0:0:
319,191,105793,1,0,0:0:0:0:
322,146,105878,1,2,0:0:0:0:
92,144,106050,1,8,0:0:0:0:
140,144,106136,1,0,0:0:0:0:
188,144,106221,1,4,0:3:0:0:
360,144,106393,2,0,L|364:96,1,45,8|0,0:3|0:0,0:0:0:0:
272,80,106564,2,0,L|224:80,1,45,4|0,0:3|0:0,0:0:0:0:
388,80,106736,6,0,L|500:80,1,112.5,6|0,0:0|0:0,0:0:0:0:
332,16,107078,2,0,L|428:16,1,90,10|0,0:1|0:3,0:0:0:0:
368,16,107336,1,0,0:0:0:0:
220,16,107421,2,0,L|128:16,1,90,10|0,0:0|0:3,0:0:0:0:
372,80,107764,2,0,L|308:80,1,45,10|0,0:1|0:0,0:0:0:0:
264,80,107936,2,0,L|212:80,1,45,4|0,0:3|0:0,0:0:0:0:
372,80,108107,6,0,L|468:80,1,90,10|0,0:0|0:0,0:0:0:0:
408,80,108364,1,0,0:0:0:0:
260,148,108450,2,0,L|256:192,1,45,10|0,0:1|0:0,0:0:0:0:
328,192,108621,2,0,L|332:248,1,45,0|0,0:3|0:0,0:0:0:0:
180,236,108793,1,10,0:0:0:0:
116,236,108878,1,0,0:0:0:0:
116,172,108964,1,8,0:3:0:0:
180,172,109050,1,0,0:0:0:0:
328,192,109136,2,0,L|268:192,1,45,10|0,0:1|0:0,0:0:0:0:
224,236,109307,2,0,L|276:236,1,45,4|0,0:3|0:0,0:0:0:0:
416,236,109478,6,0,L|508:236,1,90,12|0,0:0|0:0,0:0:0:0:
268,328,109821,2,0,L|220:328,3,45,10|0|0|0,0:1|0:0|0:0|0:0,0:0:0:0:
316,328,110164,2,0,L|320:272,1,45,8|0,0:3|0:0,0:0:0:0:
248,260,110336,2,0,L|280:228,1,45,8|0,0:3|0:0,0:0:0:0:
372,228,110507,1,10,0:1:0:0:
428,228,110593,1,0,0:0:0:0:
428,176,110678,1,4,0:3:0:0:
372,176,110764,1,0,0:0:0:0:
272,164,110850,6,0,L|224:164,1,45,8|0,0:0|0:0,0:0:0:0:
292,96,111021,2,0,L|340:96,1,45,0|0,0:0|0:0,0:0:0:0:
188,96,111193,1,2,0:0:0:0:
136,96,111278,1,0,0:0:0:0:
136,40,111364,1,0,0:0:0:0:
188,40,111450,1,0,0:0:0:0:
284,40,111536,2,0,L|328:40,1,45,2|0,0:0|0:0,0:0:0:0:
255,96,111707,2,0,L|208:96,1,45,0|0,0:0|0:0,0:0:0:0:
356,96,111878,2,0,L|360:188,1,90,8|0,1:3|0:0,0:0:0:0:
88,184,112221,6,0,L|84:280,1,90,4|0,0:0|0:0,0:0:0:0:
196,356,112564,2,2,L|200:256,1,90,0|0,0:0|0:0,0:0:0:0:
368,268,112907,2,0,L|272:268,2,90,2|0|0,0:0|0:0|0:0,0:0:0:0:
260,268,113421,1,0,0:0:0:0:
424,268,113593,6,0,L|428:176,1,90,2|0,0:0|0:0,0:0:0:0:
320,180,113936,2,0,L|312:88,1,90,0|0,0:0|0:0,0:0:0:0:
144,268,114278,2,0,L|76:205,1,90,2|0,0:0|0:0,0:0:0:0:
243,148,114621,2,0,L|313:88,1,90,0|0,0:0|0:0,0:0:0:0:
76,92,114964,5,2,0:0:0:0:
76,200,115136,1,0,0:0:0:0:
148,280,115307,1,0,0:0:0:0:
256,280,115478,1,0,0:0:0:0:
420,280,115650,2,0,L|324:280,1,90,2|0,0:0|0:0,0:0:0:0:
496,192,115993,2,0,L|400:192,1,90,2|0,0:0|0:0,0:0:0:0:
240,192,116336,6,2,L|236:80,1,90,2|0,0:0|0:0,0:0:0:0:
344,100,116678,2,0,L|348:8,1,90,0|0,0:0|0:0,0:0:0:0:
184,8,117021,2,0,L|180:100,1,90,2|0,0:0|0:0,0:0:0:0:
288,100,117364,2,0,L|384:100,1,90,0|0,0:0|0:0,0:0:0:0:
144,100,117707,6,0,L|140:196,1,90,10|0,3:2|3:0,0:0:0:0:
200,192,117964,1,0,3:0:0:0:
300,192,118050,2,0,L|348:192,3,45,0|0|0|0,3:2|3:0|3:0|3:0,3:0:0:0:
248,192,118393,2,0,L|216:223,3,45,8|0|0|0,3:2|3:0|3:0|3:0,0:0:0:0:
284,256,118736,2,0,L|292:300,3,45,0|0|0|0,3:0|3:0|3:0|3:0,0:0:0:0:
148,300,119078,5,8,3:2:0:0:
108,256,119164,1,0,3:0:0:0:
108,196,119250,1,0,3:0:0:0:
148,156,119336,1,0,3:0:0:0:
244,156,119421,1,0,3:0:0:0:
300,136,119507,1,0,3:0:0:0:
324,84,119593,1,0,3:0:0:0:
308,28,119678,1,0,3:0:0:0:
160,32,119764,1,8,3:2:0:0:
144,88,119850,1,0,3:0:0:0:
168,140,119936,1,0,3:0:0:0:
224,160,120021,1,0,3:0:0:0:
320,160,120107,2,0,L|324:212,1,45,0|0,3:0|3:0,3:0:0:0:
260,224,120278,2,0,L|196:224,1,45,0|0,3:0|3:0,3:0:0:0:
368,208,120450,5,8,3:2:0:0:
424,208,120536,1,0,3:0:0:0:
460,248,120621,1,0,3:0:0:0:
464,304,120707,1,0,3:0:0:0:
364,304,120793,1,0,3:0:0:0:
320,304,120878,1,0,3:0:0:0:
292,268,120964,1,0,3:0:0:0:
288,224,121050,1,0,3:0:0:0:
384,140,121136,2,0,L|388:92,1,45,8|0,3:0|3:2,3:2:0:0:
324,68,121307,2,0,L|280:68,1,45,0|0,3:2|3:2,3:2:0:0:
180,140,121478,2,0,L|224:140,1,45,0|0,3:2|3:2,3:2:0:0:
288,140,121650,2,0,L|292:92,1,45,0|0,3:2|3:2,3:2:0:0:
192,68,121821,6,0,L|148:68,1,45,8|0,0:0|0:0,0:0:0:0:
296,140,121993,2,0,L|304:188,2,45,2|0|0,0:0|0:0|0:0,0:0:0:0:
200,192,122250,2,0,L|208:240,2,45,2|0|0,0:0|0:0|0:0,0:0:0:0:
104,192,122507,1,2,0:0:0:0:
104,252,122593,1,0,0:0:0:0:
148,292,122678,1,0,0:0:0:0:
208,296,122764,1,2,0:0:0:0:
352,296,122850,1,8,0:0:0:0:
244,296,123021,2,0,L|188:296,1,45,8|8,0:0|0:0,0:0:0:0:
372,296,123193,6,0,L|480:296,1,90,4|0,0:0|0:0,0:0:0:0:
292,192,123536,2,0,L|240:192,2,45,8|0|0,0:1|0:0|0:0,0:0:0:0:
448,192,123793,2,0,P|488:144|448:92,1,135,0|0,0:0|0:0,0:0:0:0:
280,92,124221,2,0,L|184:92,1,90,8|0,0:1|0:0,0:0:0:0:
290,92,124478,6,0,P|326:128|290:192,1,135,0|0,0:0|0:0,0:0:0:0:
118,192,124907,1,8,0:1:0:0:
114,240,124993,1,0,0:0:0:0:
110,288,125078,1,8,0:0:0:0:
218,288,125250,2,0,L|264:288,2,45,2|0|0,0:0|0:0|0:0,0:0:0:0:
46,288,125593,2,8,L|90:288,1,45,8|0,0:1|0:0,0:1:0:0:
134,352,125764,2,0,L|82:352,1,45,0|0,0:0|0:0,0:0:0:0:
240,352,125936,6,0,L|344:352,1,90,8|0,0:3|0:0,0:0:0:0:
164,272,126278,2,0,L|160:228,1,45,8|0,0:1|0:0,0:0:0:0:
224,192,126450,2,0,L|228:144,1,45,8|0,0:0|0:0,0:0:0:0:
78,148,126621,2,0,L|170:148,1,90,2|2,0:3|0:0,0:0:0:0:
222,148,126878,1,0,0:0:0:0:
382,148,126964,1,8,0:1:0:0:
282,148,127136,1,0,0:0:0:0:
190,148,127221,6,0,P|146:104|190:60,1,135,0|0,0:0|0:0,0:0:0:0:
358,60,127650,2,0,L|362:152,1,90,8|0,0:1|0:0,0:0:0:0:
306,164,127907,1,0,0:0:0:0:
206,164,127993,1,2,0:0:0:0:
158,164,128078,1,0,0:0:0:0:
110,164,128164,1,0,0:0:0:0:
158,164,128250,1,0,0:0:0:0:
256,164,128336,1,8,0:1:0:0:
176,236,128507,2,8,L|124:236,1,45,8|0,0:0|0:0,0:0:0:0:
280,236,128678,6,0,L|372:236,1,90,8|0,0:3|0:0,0:0:0:0:
200,312,129021,1,8,0:1:0:0:
248,312,129107,1,0,0:0:0:0:
296,312,129193,1,0,0:0:0:0:
444,312,129278,2,0,P|430:261|358:236,1,135,0|0,0:0|0:0,0:0:0:0:
300,236,129621,1,0,0:0:0:0:
400,236,129707,2,0,L|408:192,2,45,8|0|8,0:1|0:0|0:0,0:0:0:0:
292,236,130050,6,0,L|188:236,1,90,4|0,0:3|0:0,0:0:0:0:
32,236,130393,1,8,0:1:0:0:
80,212,130478,1,0,0:0:0:0:
80,212,130564,1,8,0:0:0:0:
32,236,130650,1,0,0:0:0:0:
124,212,130736,2,0,L|172:212,2,45,2|0|0,0:0|0:0|0:0,0:0:0:0:
352,212,131078,2,0,L|353:168,1,45,8|0,0:1|0:0,0:0:0:0:
292,128,131250,2,0,L|244:128,1,45,0|0,0:0|0:0,0:0:0:0:
92,44,131421,6,0,P|64:92|92:136,1,112.5,8|0,0:3|0:0,0:0:0:0:
256,192,131764,2,0,L|260:240,1,45,8|0,0:1|0:0,0:0:0:0:
168,240,131936,2,8,L|224:240,1,45,8|0,0:0|0:0,0:0:0:0:
368,240,132107,2,0,L|464:240,1,90,2|2,0:3|0:0,0:0:0:0:
381,240,132364,1,0,0:0:0:0:
304,240,132450,1,8,0:1:0:0:
396,312,132621,2,8,L|348:312,1,45,0|0,0:0|0:0,0:0:0:0:
204,312,132793,6,0,L|112:312,1,90,8|0,0:3|0:0,0:0:0:0:
284,312,133136,2,0,L|288:220,1,90,8|0,0:1|0:0,0:0:0:0:
224,220,133393,1,0,0:0:0:0:
160,220,133478,2,0,L|68:192,1,90,8|8,0:0|0:3,0:0:0:0:
244,220,133821,1,8,0:1:0:0:
136,220,133993,2,0,L|132:172,1,45,4|0,0:3|0:0,0:0:0:0:
276,152,134164,6,0,L|368:152,1,90,12|0,0:3|0:0,0:0:0:0:
200,64,134507,1,8,0:1:0:0:
144,64,134593,1,0,0:0:0:0:
200,64,134678,1,0,0:0:0:0:
348,64,134764,2,0,L|212:64,1,135,2|8,0:0|0:0,0:0:0:0:
376,64,135193,1,8,0:1:0:0:
276,64,135364,2,0,L|232:64,1,45,0|0,0:0|0:0,0:0:0:0:
128,64,135536,6,0,L|124:164,1,90,4|8,0:3|0:0,0:0:0:0:
288,192,135878,2,0,L|332:192,2,45,8|0|0,0:1|0:0|0:0,0:0:0:0:
232,192,136136,1,2,0:0:0:0:
176,192,136221,2,0,L|228:192,3,45,0|0|8|0,0:0|0:0|0:0|0:0,0:0:0:0:
116,192,136564,2,0,L|112:248,1,45,8|0,0:1|0:0,0:0:0:0:
216,256,136736,2,0,L|220:304,1,45,0|0,0:0|0:0,0:0:0:0:
60,300,136907,6,0,L|56:208,1,90,8|8,0:3|0:0,0:0:0:0:
232,256,137250,1,8,0:1:0:0:
280,232,137336,1,0,0:0:0:0:
280,180,137421,1,8,0:0:0:0:
232,152,137507,1,0,0:0:0:0:
68,152,137593,2,0,L|160:152,1,90,2|2,0:3|0:0,0:0:0:0:
332,76,137936,2,0,L|276:76,1,45,8|0,0:1|0:0,0:0:0:0:
232,76,138107,1,2,0:0:0:0:
332,76,138193,6,0,P|376:92|416:168,1,135,0|8,0:0|0:0,0:0:0:0:
244,168,138621,2,0,L|156:192,1,90,8|0,0:1|0:0,0:0:0:0:
212,192,138878,1,2,0:0:0:0:
308,192,138964,2,0,L|356:192,1,45,0|0,0:0|0:0,0:0:0:0:
396,260,139136,2,0,L|344:260,1,45,8|0,0:0|0:0,0:0:0:0:
252,260,139307,1,8,0:1:0:0:
340,260,139478,2,0,L|388:260,1,45,0|0,0:0|0:0,0:0:0:0:
236,260,139650,6,0,L|140:260,1,90,8|0,0:3|0:0,0:0:0:0:
316,192,139993,2,0,L|360:192,1,45,8|0,0:1|0:0,0:0:0:0:
361,192,140164,1,8,0:0:0:0:
196,192,140250,2,0,P|152:152|196:108,1,135,0|0,0:0|0:0,0:0:0:0:
364,108,140678,2,0,L|272:108,1,90,8|8,0:1|0:0,0:0:0:0:
220,108,140936,1,0,0:0:0:0:
284,108,141021,6,0,L|284:200,1,90,4|0,0:3|0:0,0:0:0:0:
112,200,141364,1,8,0:1:0:0:
58,217,141450,1,0,0:0:0:0:
55,274,141536,1,8,0:0:0:0:
106,297,141621,1,0,0:0:0:0:
170,297,141707,2,0,L|120:296,2,45,2|0|0,0:0|0:0|0:0,0:0:0:0:
340,296,142050,2,0,L|344:240,1,45,8|0,0:1|0:0,0:0:0:0:
252,252,142221,2,0,L|300:252,1,45,0|0,0:0|0:0,0:0:0:0:
444,252,142393,6,0,L|344:252,1,90,8|0,0:3|0:0,0:0:0:0:
184,252,142736,1,8,0:1:0:0:
236,252,142821,1,0,0:0:0:0:
236,196,142907,1,8,0:0:0:0:
184,196,142993,1,0,0:0:0:0:
328,196,143078,2,0,L|420:196,1,90,2|2,0:3|0:0,0:0:0:0:
340,196,143336,1,0,0:0:0:0:
264,196,143421,1,8,0:1:0:0:
372,196,143593,2,0,L|376:148,1,45,8|0,0:0|0:0,0:0:0:0:
228,196,143764,6,0,L|128:196,1,90,2|0,3:2|3:2,3:2:0:0:
312,196,144107,1,2,3:0:0:0:
338,153,144193,1,0,3:2:0:0:
331,103,144278,1,0,3:2:0:0:
294,69,144364,1,0,3:2:0:0:
243,67,144450,1,2,3:2:0:0:
203,97,144536,1,0,3:2:0:0:
192,146,144621,1,0,3:2:0:0:
215,191,144707,1,0,3:2:0:0:
364,192,144793,2,0,L|268:192,1,90,8|0,0:1|3:2,3:2:0:0:
44,192,145136,5,4,3:2:0:0:
180,192,145478,1,8,0:0:0:0:
180,248,145564,1,0,0:0:0:0:
144,288,145650,1,0,0:0:0:0:
88,288,145736,1,0,0:0:0:0:
40,288,145821,1,8,0:0:0:0:
220,288,146164,1,8,0:0:0:0:
172,260,146250,1,0,0:0:0:0:
160,208,146336,1,0,0:0:0:0:
172,156,146421,1,0,0:0:0:0:
220,132,146507,5,8,0:0:0:0:
420,132,146850,1,8,0:0:0:0:
372,132,146936,1,0,0:0:0:0:
324,132,147021,1,0,0:0:0:0:
276,132,147107,1,0,0:0:0:0:
228,132,147193,1,8,0:0:0:0:
408,132,147536,1,8,0:0:0:0:
300,132,147707,1,0,0:0:0:0:
472,132,147878,6,0,L|476:40,1,90,8|0,0:0|0:0,0:0:0:0:
304,40,148221,1,8,0:0:0:0:
261,46,148307,1,0,0:0:0:0:
240,84,148393,1,0,0:0:0:0:
257,124,148478,1,0,0:0:0:0:
300,132,148564,2,0,L|392:132,1,90,8|0,0:0|0:0,0:0:0:0:
280,192,148907,2,0,L|272:236,3,45,8|0|0|0,0:0|0:0|0:0|0:0,0:0:0:0:
328,236,149250,6,0,L|420:236,1,90,8|0,0:0|0:0,0:0:0:0:
248,236,149593,1,8,0:0:0:0:
206,251,149678,1,0,0:0:0:0:
172,280,149764,1,0,0:0:0:0:
152,320,149850,1,0,0:0:0:0:
148,365,149936,1,8,0:0:0:0:
344,364,150278,1,8,0:0:0:0:
36,364,150621,6,0,L|32:272,1,90,8|0,0:0|0:0,0:0:0:0:
204,276,150964,1,8,0:0:0:0:
195,232,151050,1,0,0:0:0:0:
171,194,151136,1,0,0:0:0:0:
134,169,151221,1,0,0:0:0:0:
90,160,151307,1,8,0:0:0:0:
272,160,151650,1,8,0:0:0:0:
221,138,151736,1,0,0:0:0:0:
199,87,151821,1,0,0:0:0:0:
218,36,151907,1,0,0:0:0:0:
268,12,151993,6,0,L|364:12,1,90,8|0,0:0|0:0,0:0:0:0:
248,12,152336,2,0,L|200:12,1,45,8|0,0:0|0:0,0:0:0:0:
148,12,152507,2,0,L|100:12,1,45,0|0,0:0|0:0,0:0:0:0:
48,12,152678,1,8,0:0:0:0:
212,96,153021,2,0,L|112:96,1,90,8|0,0:0|0:0,0:0:0:0:
392,96,153364,6,0,L|396:208,1,90,8|0,0:0|0:0,0:0:0:0:
224,184,153707,1,8,0:0:0:0:
189,211,153793,1,0,0:0:0:0:
175,253,153878,1,0,0:0:0:0:
189,296,153964,1,0,0:0:0:0:
223,323,154050,1,8,0:0:0:0:
332,324,154221,1,0,0:0:0:0:
160,324,154393,2,0,L|112:324,1,45,8|0,0:0|0:0,0:0:0:0:
168,256,154564,2,0,L|227:256,1,45,0|0,0:0|0:0,0:0:0:0:
156,192,154736,6,0,L|64:192,1,90,8|0,0:0|0:0,0:0:0:0:
236,192,155078,1,8,0:0:0:0:
284,164,155164,1,0,0:0:0:0:
284,108,155250,1,0,0:0:0:0:
240,76,155336,1,0,0:0:0:0:
60,76,155764,2,0,L|156:76,1,90,8|0,0:0|0:0,0:0:0:0:
324,76,156107,6,0,L|416:76,1,90,8|0,0:0|0:0,0:0:0:0:
244,76,156450,1,0,0:0:0:0:
246,120,156536,1,0,0:0:0:0:
267,159,156621,1,0,0:0:0:0:
304,185,156707,1,0,0:0:0:0:
348,191,156793,1,8,0:0:0:0:
168,192,157136,2,0,L|120:192,1,45,0|0,0:0|0:0,0:0:0:0:
76,256,157307,2,0,L|124:256,1,45,2|0,0:3|0:0,0:0:0:0:
176,256,157478,6,0,P|216:235|176:128,1,180,8|0,0:0|0:0,0:0:0:0:
92,128,157993,1,0,0:0:0:0:
200,128,158164,2,0,L|204:36,1,90,8|0,0:0|0:0,0:0:0:0:
312,36,158507,2,0,L|320:136,1,90,0|2,0:0|0:3,0:0:0:0:
148,128,158850,6,8,L|144:228,1,90,0|0,0:0|0:0,0:0:0:0:
252,220,159193,1,0,0:0:0:0:
300,244,159278,1,0,0:0:0:0:
316,296,159364,1,0,0:0:0:0:
300,348,159450,1,0,0:0:0:0:
252,372,159536,1,8,0:0:0:0:
72,372,159878,1,0,0:0:0:0:
120,372,159964,1,0,0:0:0:0:
168,372,160050,1,2,0:3:0:0:
216,372,160136,1,0,0:0:0:0:
264,372,160221,6,0,L|84:372,1,180,8|0,0:0|0:0,0:0:0:0:
268,264,160907,2,0,L|360:264,1,90,8|0,0:0|0:0,0:0:0:0:
248,192,161250,2,0,L|340:192,1,90,8|2,0:0|0:0,0:0:0:0:
168,192,161593,6,0,L|68:192,1,90,8|0,0:0|0:0,0:0:0:0:
120,179,161850,1,0,0:0:0:0:
152,148,161936,1,8,0:0:0:0:
163,105,162021,1,0,0:0:0:0:
153,61,162107,1,0,0:0:0:0:
122,29,162193,1,0,0:0:0:0:
80,16,162278,2,0,L|172:16,1,90,8|0,0:0|0:0,0:0:0:0:
340,16,162621,2,0,L|392:16,1,45,8|0,0:0|0:0,0:0:0:0:
384,80,162793,2,0,L|336:80,1,45,2|0,0:0|0:0,0:0:0:0:
284,80,162964,6,0,L|280:192,1,90,8|0,0:0|0:0,0:0:0:0:
392,192,163307,2,0,L|396:248,1,45,8|0,0:0|0:0,0:0:0:0:
316,276,163478,2,0,L|320:332,1,45,0|0,0:0|0:0,0:0:0:0:
240,360,163650,2,0,L|148:360,1,90,8|0,0:0|0:0,0:0:0:0:
256,276,163993,2,0,L|164:276,1,90,8|2,0:0|0:0,0:0:0:0:
428,276,164336,6,0,L|432:180,1,90,0|0,0:0|0:0,0:0:0:0:
260,184,164678,1,0,0:0:0:0:
212,160,164764,1,0,0:0:0:0:
200,108,164850,1,0,0:0:0:0:
212,56,164936,1,0,0:0:0:0:
260,32,165021,2,0,L|352:32,1,90,0|0,0:0|0:0,0:0:0:0:
180,32,165364,2,0,L|176:80,1,45,0|0,0:0|0:0,0:0:0:0:
248,96,165536,2,0,L|252:140,1,45,0|0,0:0|0:0,0:0:0:0:
144,140,165707,6,0,L|52:140,1,90,0|0,0:0|0:0,0:0:0:0:
216,216,166050,2,0,L|124:216,1,90,0|0,0:0|0:0,0:0:0:0:
296,216,166393,2,0,L|416:216,1,119.699995068512,0|0,0:0|0:0,0:0:0:0:
236,312,166736,2,0,L|116:312,1,119.699995068512,0|0,0:3|0:0,0:0:0:0:
352,312,167078,6,0,P|440:228|352:144,1,270,4|2,0:0|0:0,0:0:0:0:
184,144,167764,2,0,L|180:52,1,90,0|0,0:0|0:0,0:0:0:0:
288,52,168107,2,0,L|292:152,1,90,8|0,0:3|0:0,0:0:0:0:
64,140,168450,6,0,P|64:200|212:324,1,270,2|0,0:0|0:0,0:0:0:0:
40,324,169136,2,0,L|32:232,1,90,2|0,0:0|0:0,0:0:0:0:
140,192,169478,2,4,L|232:192,1,90,8|4,0:3|0:3,0:3:0:0:
468,192,169821,6,0,P|460:128|368:72,1,180,2|0,0:0|0:0,0:0:0:0:
268,72,170336,1,0,0:0:0:0:
100,72,170507,2,0,L|4:72,2,90,2|0|4,0:0|0:0|0:3,0:0:0:0:
260,72,171021,1,0,0:3:0:0:
24,72,171193,6,0,P|32:136|124:192,1,180,2|0,0:0|0:0,0:0:0:0:
232,192,171707,1,2,0:0:0:0:
404,192,171878,2,0,L|304:192,1,90,2|0,0:0|0:0,0:0:0:0:
216,272,172221,2,0,L|312:272,1,90,8|0,0:3|0:3,0:0:0:0:
72,272,172564,6,0,P|24:168|140:112,1,270,2|0,0:0|0:0,0:0:0:0:
312,112,173250,2,0,L|316:16,1,90,2|0,0:0|0:0,0:0:0:0:
208,24,173593,1,4,0:3:0:0:
376,24,173764,1,4,0:3:0:0:
148,24,173936,6,0,P|168:112|316:200,1,270,2|0,0:0|0:0,0:0:0:0:
488,200,174621,2,0,L|380:200,1,90,2|0,0:0|0:0,0:0:0:0:
308,200,174964,1,8,0:3:0:0:
416,200,175136,1,4,0:3:0:0:
184,200,175307,6,0,B|96:200|96:200|96:292,1,180,2|0,0:0|0:0,0:0:0:0:
204,292,175821,1,0,0:0:0:0:
376,288,175993,2,0,L|380:192,1,90,2|0,0:0|0:0,0:0:0:0:
264,192,176336,2,0,L|268:96,1,90,8|0,0:3|0:0,0:0:0:0:
496,100,176678,6,0,L|308:100,1,180,2|2,0:0|0:0,0:0:0:0:
208,100,177193,1,0,0:3:0:0:
388,100,177364,2,0,P|424:180|392:264,1,180,2|4,0:0|0:3,0:0:0:0:
284,264,177878,1,0,0:3:0:0:
40,264,178050,6,0,L|36:160,1,90,2|0,0:0|0:0,0:0:0:0:
200,352,178393,2,0,L|204:248,1,90,2|0,0:0|0:0,0:0:0:0:
368,192,178736,2,0,L|364:88,1,90,2|0,0:0|0:0,0:0:0:0:
184,100,179078,2,0,L|280:100,1,90,8|2,0:3|0:0,0:0:0:0:
448,100,179421,6,0,L|452:304,1,180,0|0,0:0|0:0,0:0:0:0:
360,280,179936,1,2,0:0:0:0:
268,280,180107,2,0,L|264:188,1,90,0|8,0:0|0:3,0:0:0:0:
160,188,180450,2,0,L|252:188,1,90,0|4,0:3|0:3,0:0:0:0:
444,192,180793,6,0,B|444:100|444:100|356:100,1,180,4|2,0:3|0:0,0:0:0:0:
40,188,181478,2,0,B|40:96|40:96|128:96,1,180,2|8,0:0|0:3,0:0:0:0:
444,96,182164,6,2,L|448:192,1,90,2|0,0:0|0:0,0:0:0:0:
276,192,182507,2,0,L|180:192,1,90,2|0,0:0|0:0,0:0:0:0:
360,192,182850,2,0,P|420:140|360:88,1,180,8|4,0:3|0:3,0:0:0:0:
260,88,183364,1,0,0:0:0:0:
32,88,183536,6,0,P|4:160|32:256,1,180,4|0,0:3|0:0,0:0:0:0:
356,256,184221,2,0,L|172:256,1,180,2|8,0:0|0:3,0:0:0:0:
348,256,184736,2,0,L|352:148,1,90,0|4,0:0|0:3,0:0:0:0:
124,168,185078,6,0,P|72:228|124:300,1,180,2|0,0:0|0:0,0:0:0:0:
296,300,185593,2,0,L|388:300,1,90,2|0,0:0|0:0,0:0:0:0:
288,220,185936,2,0,L|192:220,1,90,4|0,0:3|0:0,0:0:0:0:
428,220,186278,5,2,0:0:0:0:
500,220,186450,1,0,0:0:0:0:
500,148,186621,1,0,0:0:0:0:
428,148,186793,1,0,0:0:0:0:
320,148,186964,1,2,0:0:0:0:
228,148,187136,1,0,0:0:0:0:
228,60,187307,1,0,0:0:0:0:
320,60,187478,1,0,0:0:0:0:
144,60,187650,6,0,L|112:91,3,45,0|0|0|0,3:2|3:2|3:2|3:2,0:0:0:0:
212,100,187993,2,0,L|180:131,3,45,0|0|0|0,3:2|3:2|3:2|3:2,0:0:0:0:
280,144,188336,2,0,L|248:175,3,45,0|0|0|0,3:2|3:2|3:2|3:2,0:0:0:0:
104,192,188678,2,0,L|100:304,1,90,8|0,0:3|0:0,0:0:0:0:
348,284,189021,5,4,0:0:0:0:
256,192,197250,12,2,199650,0:0:0:0:
252,192,199993,6,8,L|248:88,1,90,8|2,3:2|3:1,3:1:0:0:
136,144,200336,1,0,0:0:0:0:
134,99,200421,1,2,3:1:0:0:
132,54,200507,1,2,3:1:0:0:
240,52,200678,2,0,L|144:52,1,90,2|0,3:2|3:1,3:1:0:0:
96,52,200936,2,0,L|188:52,1,90,2|0,3:2|3:1,0:0:0:0:
240,52,201193,1,2,3:2:0:0:
72,52,201364,5,8,3:2:0:0:
70,96,201450,1,0,3:1:0:0:
68,141,201536,1,2,3:1:0:0:
176,144,201707,2,0,L|272:144,1,90,2|0,3:1|3:1,3:1:0:0:
320,144,201964,1,0,3:1:0:0:
266,144,202050,2,0,L|368:144,1,90,2|2,3:2|3:1,0:0:0:0:
410,144,202307,2,0,L|320:144,1,90,2|2,3:2|3:1,0:0:0:0:
266,144,202564,1,2,3:2:0:0:
96,216,202736,5,8,3:2:0:0:
140,216,202821,1,0,3:1:0:0:
184,216,202907,1,2,3:1:0:0:
292,216,203078,2,0,L|196:216,1,90,2|0,3:1|3:1,3:1:0:0:
148,216,203336,1,0,3:1:0:0:
202,216,203421,2,0,L|336:192,2,135,2|2|2,3:2|3:2|3:1,3:1:0:0:
372,192,204107,6,0,L|464:208,1,90,8|0,3:2|3:1,3:1:0:0:
504,216,204364,1,2,3:2:0:0:
332,216,204536,1,2,3:1:0:0:
288,244,204621,1,2,3:2:0:0:
288,300,204707,1,0,3:2:0:0:
336,328,204793,2,0,L|428:328,1,90,2|0,3:1|3:1,3:1:0:0:
372,328,205050,1,0,3:1:0:0:
316,328,205136,2,0,L|224:328,1,90,2|0,3:1|3:1,3:1:0:0:
460,328,205478,5,8,3:2:0:0:
463,268,205564,1,0,3:2:0:0:
433,217,205650,1,0,3:2:0:0:
380,192,205736,1,0,3:2:0:0:
320,192,205821,1,8,3:2:0:0:
266,166,205907,1,0,3:2:0:0:
236,115,205993,1,0,3:2:0:0:
240,56,206078,1,0,3:2:0:0:
336,56,206164,2,0,L|384:56,1,45,8|0,3:2|3:2,3:2:0:0:
328,120,206336,2,0,L|376:120,1,45,0|0,3:3|3:2,3:2:0:0:
472,120,206507,2,0,L|376:120,1,90,8|2,3:2|3:1,3:2:0:0:
328,120,206764,1,0,3:2:0:0:
180,120,206850,6,0,L|176:168,1,45,8|0,3:2|3:2,3:2:0:0:
240,192,207021,2,0,L|244:240,1,45,0|0,3:2|3:2,3:2:0:0:
144,236,207193,2,0,L|185:260,1,45,8|0,3:2|3:2,0:0:0:0:
244,237,207364,2,0,L|202:261,1,45,0|0,3:2|3:2,0:0:0:0:
56,260,207536,2,0,P|20:312|56:364,1,135.000005149842,8|0,3:2|3:2,3:2:0:0:
120,364,207793,1,0,3:2:0:0:
264,364,207878,2,0,L|316:364,1,45,8|0,3:2|3:2,3:2:0:0:
244,300,208050,2,0,L|200:300,1,45,2|0,3:1|3:2,3:2:0:0:
344,300,208221,6,0,L|348:248,1,45,8|0,3:2|3:2,3:2:0:0:
200,228,208393,1,2,3:1:0:0:
152,192,208478,1,0,0:0:0:0:
200,156,208564,1,8,3:2:0:0:
352,156,208650,2,8,L|408:156,2,45,8|8|8,3:2|3:2|3:2,3:2:0:0:
200,156,208907,2,8,L|152:156,1,45,0|0,0:0|0:0,0:0:0:0:
104,124,209078,2,8,L|148:124,1,45,0|0,0:0|0:0,0:0:0:0:
253,80,209250,2,0,L|205:80,1,45,8|8,0:0|0:0,0:0:0:0:
149,124,209421,2,0,L|196:124,1,45,8|8,0:0|0:0,0:0:0:0:
344,124,209593,6,2,L|388:124,3,45,0|0|0|0,0:0|0:0|0:0|0:0,0:0:0:0:
292,192,209936,2,0,L|288:244,1,45,0|0,0:2|0:2,0:2:0:0:
352,236,210107,2,0,L|356:284,1,45,0|0,0:2|0:2,0:2:0:0:
256,236,210278,1,8,0:3:0:0:
207,266,210364,1,8,0:3:0:0:
207,324,210450,1,8,0:3:0:0:
255,355,210536,1,8,0:3:0:0:
400,356,210621,2,0,L|492:356,1,90,12|0,0:0|0:0,0:0:0:0:
208,356,210964,6,0,P|166:309|208:267,1,135.000005149842,14|0,0:0|0:0,0:0:0:0:
268,268,211221,1,2,0:2:0:0:
120,268,211307,2,0,L|68:268,2,45,0|0|2,0:0|0:0|0:0,0:0:0:0:
348,268,211650,2,0,L|440:268,1,90,8|0,0:0|0:0,0:0:0:0:
336,192,211907,2,0,L|240:192,1,90,2|0,0:0|0:0,0:0:0:0:
348,192,212164,2,0,L|352:148,1,45,2|0,0:0|0:0,0:0:0:0:
200,148,212336,6,0,L|108:148,1,90,8|0,0:0|0:1,0:0:0:0:
360,148,212678,2,0,P|404:108|360:64,1,135.000005149842,8|0,0:1|0:0,0:0:0:0:
300,64,212936,1,0,0:0:0:0:
156,64,213021,2,0,L|252:64,1,90,10|0,0:0|0:0,0:0:0:0:
300,64,213278,1,2,0:0:0:0:
200,64,213364,2,0,L|196:8,2,45,0|0|2,0:0|0:0|0:0,0:0:0:0:
432,64,213707,5,8,0:0:0:0:
488,64,213793,1,0,0:0:0:0:
488,120,213878,1,0,0:0:0:0:
260,120,214050,2,0,L|152:120,1,90,8|0,0:1|0:0,0:0:0:0:
224,120,214307,1,0,0:0:0:0:
372,192,214393,2,8,L|276:192,1,90,8|2,0:0|0:0,0:0:0:0:
180,192,214650,2,0,L|284:192,1,90,0|0,0:0|0:0,0:0:0:0:
416,192,214907,2,0,L|476:192,1,45,2|0,0:0|0:0,0:0:0:0:
312,256,215078,6,0,L|212:256,1,90,8|2,0:0|0:0,0:0:0:0:
384,260,215421,1,8,0:1:0:0:
384,316,215507,1,0,0:0:0:0:
344,356,215593,1,2,0:0:0:0:
292,356,215678,1,0,0:0:0:0:
132,356,215764,2,2,L|40:356,1,90,10|0,0:2|0:0,0:0:0:0:
120,356,216021,1,0,0:0:0:0:
200,356,216107,2,0,L|80:356,1,119.699995068512,2|0,0:0|0:0,0:0:0:0:
316,260,216450,6,0,L|408:260,1,90,14|0,0:0|0:0,0:0:0:0:
352,260,216707,1,2,0:0:0:0:
208,260,216793,2,0,L|112:260,1,90,0|2,0:0|0:0,0:0:0:0:
352,192,217136,2,0,L|256:192,1,90,8|0,0:0|0:0,0:0:0:0:
160,192,217393,2,0,L|256:192,1,90,2|0,0:0|0:0,0:0:0:0:
148,192,217650,2,0,L|144:136,1,45,2|0,0:0|0:0,0:0:0:0:
296,124,217821,6,0,L|392:124,1,90,8|0,0:0|0:0,0:0:0:0:
156,48,218164,2,0,L|56:48,1,90,8|0,0:1|0:0,0:0:0:0:
120,48,218421,1,0,0:0:0:0:
268,48,218507,2,0,L|172:48,1,90,2|0,0:0|0:0,0:0:0:0:
124,48,218764,1,2,0:0:0:0:
223,48,218850,2,0,L|268:48,2,45,0|0|2,0:0|0:0|0:0,0:0:0:0:
168,48,219107,1,0,0:0:0:0:
24,48,219193,6,0,L|20:144,1,90,12|0,0:3|0:3,0:3:0:0:
100,140,219450,1,0,0:0:0:0:
180,140,219536,2,0,L|184:236,1,90,8|8,0:1|0:3,0:0:0:0:
120,232,219793,1,0,0:0:0:0:
268,232,219878,2,0,L|364:232,1,90,8|2,0:0|0:3,0:0:0:0:
278,232,220136,1,0,0:0:0:0:
200,304,220221,2,8,L|104:304,1,90,8|4,0:1|0:3,0:3:0:0:
172,304,220478,1,0,0:0:0:0:
24,304,220564,6,8,L|32:212,1,90,8|4,0:0|0:3,0:0:0:0:
96,216,220821,1,0,0:0:0:0:
248,192,220907,2,8,L|344:192,1,90,8|8,0:1|0:0,0:1:0:0:
259,192,221164,1,8,0:0:0:0:
180,192,221250,1,8,0:3:0:0:
128,164,221336,1,0,0:0:0:0:
128,104,221421,1,4,0:3:0:0:
180,76,221507,1,4,0:3:0:0:
276,76,221593,2,4,L|228:76,1,45,8|4,0:1|0:3,0:3:0:0:
128,104,221764,2,8,L|176:104,1,45,8|12,0:3|0:3,0:3:0:0:
324,76,221936,6,0,L|424:76,1,90,10|0,0:0|0:0,0:0:0:0:
356,76,222193,1,0,0:0:0:0:
208,12,222278,2,0,L|116:12,1,90,2|0,0:0|0:0,0:0:0:0:
352,164,222621,2,2,L|260:164,1,90,2|0,0:0|0:0,0:0:0:0:
164,232,222878,1,2,0:0:0:0:
209,232,222964,1,0,0:0:0:0:
254,232,223050,1,0,0:0:0:0:
352,164,223136,2,0,L|300:164,1,45,2|0,0:0|0:0,0:0:0:0:
160,164,223307,6,0,L|112:164,1,45,8|0,0:0|0:0,0:0:0:0:
116,232,223478,2,0,L|168:232,1,45,0|0,0:0|0:0,0:0:0:0:
312,232,223650,2,0,L|404:232,1,90,8|0,0:1|0:0,0:0:0:0:
172,232,223993,2,0,L|82:232,1,90,10|0,0:0|0:0,0:0:0:0:
180,300,224250,1,2,0:0:0:0:
225,300,224336,1,0,0:0:0:0:
270,300,224421,1,0,0:0:0:0:
124,300,224507,2,0,L|120:248,1,45,2|0,0:0|0:0,0:0:0:0:
268,232,224678,5,8,0:0:0:0:
328,232,224764,1,0,0:0:0:0:
328,292,224850,1,0,0:0:0:0:
100,364,225021,2,0,L|196:364,1,90,8|0,0:1|0:0,0:0:0:0:
248,364,225278,1,0,0:0:0:0:
152,364,225364,2,0,L|148:260,1,90,8|0,0:0|0:0,0:0:0:0:
228,272,225621,1,2,0:0:0:0:
308,272,225707,2,0,L|312:216,1,45,8|0,0:1|0:0,0:0:0:0:
152,192,225878,2,0,L|104:192,1,45,2|0,0:0|0:0,0:0:0:0:
256,152,226050,6,0,L|352:152,1,90,8|0,0:0|0:0,0:0:0:0:
294,142,226307,1,2,0:0:0:0:
260,101,226393,1,8,0:1:0:0:
261,48,226478,1,0,0:0:0:0:
295,8,226564,1,2,0:0:0:0:
347,0,226650,1,0,0:0:0:0:
496,0,226736,1,2,0:0:0:0:
496,56,226821,1,0,0:0:0:0:
456,100,226907,1,0,0:0:0:0:
396,100,226993,1,0,0:0:0:0:
256,100,227078,2,0,L|128:100,1,119.699995068512,8|0,0:1|0:0,0:0:0:0:
196,100,227336,1,0,0:0:0:0:
332,192,227421,6,0,P|372:240|332:292,1,135.000005149842,10|0,0:0|0:0,0:0:0:0:
280,292,227678,1,2,0:0:0:0:
132,292,227764,2,0,L|184:292,1,45,0|0,0:0|0:0,0:0:0:0:
120,356,227936,2,0,L|172:356,1,45,2|0,0:0|0:0,0:0:0:0:
264,356,228107,2,0,L|312:356,2,45,8|0|2,0:0|0:0|0:0,0:0:0:0:
33,292,228450,2,0,L|133:292,1,90,8|0,0:1|0:0,0:0:0:0:
177,292,228707,1,2,0:0:0:0:
328,292,228793,6,0,L|376:292,3,45,8|0|2|0,0:0|0:0|0:0|0:0,0:0:0:0:
276,220,229136,2,0,L|228:220,3,45,8|0|0|0,0:1|0:0|0:0|0:0,0:0:0:0:
376,220,229478,2,0,L|468:220,1,90,10|0,0:0|0:0,0:0:0:0:
412,220,229736,1,0,0:0:0:0:
264,156,229821,2,0,L|216:156,1,45,2|0,0:0|0:0,0:0:0:0:
164,156,229993,2,0,L|216:156,1,45,0|0,0:0|0:0,0:0:0:0:
364,156,230164,6,0,L|268:156,1,90,10|0,0:2|0:0,0:0:0:0:
104,156,230507,1,8,0:1:0:0:
48,156,230593,1,0,0:0:0:0:
48,100,230678,1,8,0:0:0:0:
104,100,230764,1,0,0:0:0:0:
260,72,230850,2,0,L|356:72,1,90,10|0,0:0|0:0,0:0:0:0:
296,72,231107,1,0,0:0:0:0:
196,72,231193,1,8,0:1:0:0:
196,136,231278,1,0,0:0:0:0:
236,184,231364,1,8,0:0:0:0:
300,192,231450,1,0,0:0:0:0:
448,192,231536,5,12,0:0:0:0:
489,232,231621,1,0,0:0:0:0:
490,291,231707,1,0,0:0:0:0:
448,331,231793,1,0,0:0:0:0:
344,332,231878,1,0,0:0:0:0:
344,268,231964,1,0,0:0:0:0:
384,216,232050,1,0,0:0:0:0:
448,216,232136,1,0,0:0:0:0:
300,216,232221,1,0,0:0:0:0:
236,216,232307,1,0,0:0:0:0:
236,152,232393,1,0,0:0:0:0:
300,152,232478,1,0,0:0:0:0:
444,152,232564,1,12,0:1:0:0:
444,96,232650,1,0,0:0:0:0:
408,56,232736,1,8,0:0:0:0:
356,56,232821,1,0,0:0:0:0:
180,56,232907,6,0,L|56:56,1,119.699995068512,12|0,0:0|0:0,0:0:0:0:
108,56,233164,1,0,0:0:0:0:
256,56,233250,1,8,0:1:0:0:
320,56,233336,1,0,0:0:0:0:
320,120,233421,1,0,0:0:0:0:
256,120,233507,1,0,0:0:0:0:
100,120,233593,2,0,L|8:120,1,90,8|0,0:0|0:0,0:0:0:0:
88,120,233850,1,0,0:0:0:0:
168,120,233936,1,8,0:1:0:0:
100,120,234021,1,0,0:0:0:0:
32,120,234107,1,2,0:0:0:0:
88,120,234193,1,0,0:0:0:0:
240,120,234278,6,0,L|336:120,1,90,8|0,0:0|0:0,0:0:0:0:
160,192,234621,2,0,L|264:192,1,90,8|0,0:1|0:0,0:0:0:0:
420,192,234964,1,10,0:0:0:0:
374,192,235050,1,0,0:0:0:0:
328,192,235136,1,0,0:0:0:0:
160,192,235307,2,0,L|208:192,1,45,0|0,0:0|0:0,0:0:0:0:
264,256,235478,2,0,L|204:256,1,45,2|0,0:0|0:0,0:0:0:0:
64,256,235650,6,0,L|20:256,1,45,8|0,0:0|0:0,0:0:0:0:
20,192,235821,2,0,L|64:192,1,45,0|0,0:0|0:0,0:0:0:0:
160,192,235993,2,0,L|252:192,1,90,8|0,0:1|0:0,0:0:0:0:
84,104,236336,2,0,L|40:104,3,45,8|0|0|0,0:0|0:0|0:0|0:0,0:0:0:0:
140,104,236678,2,0,L|184:104,1,45,8|0,0:1|0:0,0:0:0:0:
128,36,236850,2,0,L|84:36,1,45,2|0,0:0|0:0,0:0:0:0:
232,36,237021,6,0,L|324:36,1,90,8|0,0:0|0:0,0:0:0:0:
268,36,237278,1,2,0:0:0:0:
360,104,237364,1,0,0:0:0:0:
316,104,237450,1,0,0:0:0:0:
272,104,237536,1,2,0:0:0:0:
228,104,237621,1,0,0:0:0:0:
320,192,237707,2,0,L|364:192,2,45,10|0|8,0:0|0:0|0:3,0:0:0:0:
94,192,238050,2,0,L|190:192,1,90,8|4,0:1|0:3,0:0:0:0:
410,192,238393,6,0,L|302:192,1,90,10|0,0:0|0:0,0:0:0:0:
245,192,238650,1,0,0:0:0:0:
170,192,238736,2,0,L|166:296,1,90,8|0,0:1|0:0,0:0:0:0:
396,284,239078,2,0,L|304:284,1,90,8|0,0:0|0:0,0:0:0:0:
256,284,239336,1,0,0:0:0:0:
356,284,239421,1,8,0:1:0:0:
404,284,239507,1,0,0:0:0:0:
404,336,239593,1,0,0:0:0:0:
356,336,239678,1,0,0:0:0:0:
208,336,239764,6,0,L|100:336,1,90,10|0,0:0|0:0,0:0:0:0:
195,336,240021,1,0,0:0:0:0:
272,336,240107,1,8,0:1:0:0:
328,336,240193,1,0,0:0:0:0:
364,296,240278,1,0,0:0:0:0:
364,240,240364,1,0,0:0:0:0:
260,240,240450,2,0,L|356:240,1,90,8|0,0:0|0:0,0:0:0:0:
124,240,240793,2,0,L|76:240,1,45,8|0,0:1|0:0,0:0:0:0:
140,172,240964,2,0,L|188:172,1,45,8|0,0:3|0:0,0:0:0:0:
340,172,241136,6,0,L|432:172,1,90,10|0,0:0|0:0,0:0:0:0:
260,172,241478,1,8,0:1:0:0:
260,116,241564,1,0,0:0:0:0:
296,76,241650,1,0,0:0:0:0:
352,76,241736,1,0,0:0:0:0:
448,76,241821,2,0,L|492:76,1,45,8|0,0:0|0:0,0:0:0:0:
436,16,241993,2,0,L|480:16,1,45,0|0,0:0|0:0,0:0:0:0:
384,16,242164,2,0,L|332:16,1,45,8|0,0:1|0:0,0:0:0:0:
440,16,242336,2,0,L|452:76,1,45,2|0,0:0|0:0,0:0:0:0:
300,60,242507,6,0,L|208:60,1,90,8|0,0:0|0:0,0:0:0:0:
368,148,242850,1,8,0:1:0:0:
316,148,242936,1,0,0:0:0:0:
268,148,243021,1,0,0:0:0:0:
216,148,243107,1,0,0:0:0:0:
116,148,243193,1,2,0:0:0:0:
168,148,243278,1,0,0:0:0:0:
204,188,243364,1,8,0:3:0:0:
204,244,243450,1,0,0:0:0:0:
104,340,243536,1,8,0:1:0:0:
104,284,243621,1,0,0:0:0:0:
140,244,243707,1,4,0:3:0:0:
192,244,243793,1,0,0:0:0:0:
344,244,243878,6,0,L|444:244,1,90,4|0,0:0|0:0,0:0:0:0:
350,244,244136,1,2,0:0:0:0:
268,244,244221,2,0,L|220:244,2,45,0|0|2,0:0|0:0|0:0,0:0:0:0:
40,244,244564,2,0,L|36:152,1,90,8|0,0:0|0:0,0:0:0:0:
200,152,244907,1,8,0:1:0:0:
245,152,244993,1,0,0:0:0:0:
290,152,245078,1,2,0:0:0:0:
245,152,245164,1,0,0:0:0:0:
144,152,245250,6,0,L|140:52,1,90,8|0,0:0|0:0,0:0:0:0:
368,60,245593,2,0,L|460:60,1,90,8|0,0:1|0:0,0:0:0:0:
396,60,245850,1,0,0:0:0:0:
458,60,245936,1,2,0:0:0:0:
296,144,246107,2,0,L|344:144,1,45,0|2,0:0|0:0,0:0:0:0:
396,144,246278,2,0,L|444:144,2,45,0|0|2,0:0|0:0|0:0,0:0:0:0:
168,144,246621,6,0,L|124:144,2,45,8|0|0,0:0|0:0|0:0,0:0:0:0:
328,144,246964,1,8,0:1:0:0:
100,144,247136,2,0,L|96:248,1,90,0|10,0:0|0:0,0:0:0:0:
324,232,247478,1,0,0:0:0:0:
168,232,247650,2,0,L|216:232,1,45,8|0,0:1|0:0,0:0:0:0:
368,232,247821,6,0,L|460:232,1,90,2|8,0:0|0:0,0:0:0:0:
288,232,248164,1,0,0:0:0:0:
286,187,248250,1,2,0:0:0:0:
284,142,248336,1,0,0:0:0:0:
116,140,248507,2,0,L|164:140,1,45,2|0,0:0|0:0,0:0:0:0:
316,140,248678,2,0,L|408:140,1,90,8|4,0:0|0:3,0:0:0:0:
352,140,248936,1,0,0:0:0:0:
256,64,249021,2,0,L|212:64,1,45,8|0,0:1|0:0,0:0:0:0:
300,64,249193,2,0,L|356:64,1,45,4|0,0:3|0:0,0:0:0:0:
196,64,249364,6,0,L|104:64,1,90,10|0,0:0|0:0,0:0:0:0:
160,64,249621,1,0,0:0:0:0:
307,140,249707,2,0,L|363:140,1,45,8|0,0:1|0:0,0:0:0:0:
252,140,249878,2,0,L|248:192,1,45,0|0,0:0|0:0,0:0:0:0:
400,192,250050,2,0,L|304:192,1,90,8|8,0:0|0:3,0:0:0:0:
264,192,250307,1,0,0:0:0:0:
412,192,250393,2,0,L|416:248,1,45,8|0,0:1|0:0,0:0:0:0:
356,280,250564,2,0,L|312:280,1,45,4|0,0:3|0:0,0:0:0:0:
160,280,250736,6,0,L|64:280,1,90,10|0,0:0|0:0,0:0:0:0:
232,280,251078,2,0,L|284:280,1,45,8|0,0:1|0:0,0:0:0:0:
180,280,251250,2,0,L|176:328,1,45,0|0,0:0|0:0,0:0:0:0:
276,280,251421,2,0,L|280:232,1,45,8|0,0:0|0:0,0:0:0:0:
132,192,251593,2,0,L|84:192,1,45,8|0,0:3|0:0,0:0:0:0:
232,148,251764,2,0,L|284:148,1,45,8|0,0:1|0:0,0:0:0:0:
212,84,251936,2,0,L|256:84,1,45,4|0,0:3|0:0,0:0:0:0:
404,84,252107,6,0,L|496:84,1,90,2|0,0:0|0:0,0:0:0:0:
257,84,252450,1,8,0:1:0:0:
201,84,252536,1,0,0:0:0:0:
201,28,252621,1,0,0:0:0:0:
257,28,252707,1,0,0:0:0:0:
352,28,252793,1,0,0:0:0:0:
352,88,252878,1,0,0:0:0:0:
316,132,252964,1,8,0:3:0:0:
256,132,253050,1,0,0:0:0:0:
352,132,253136,2,0,L|396:132,1,45,4|0,0:3|0:0,0:0:0:0:
452,192,253307,2,0,L|400:192,1,45,4|0,0:3|0:0,0:0:0:0:
260,192,253478,6,0,L|256:284,1,90,4|0,0:0|0:0,0:0:0:0:
484,280,253821,2,0,L|440:280,3,45,8|8|4|4,0:3|0:0|0:3|0:3,0:0:0:0:
292,280,254164,1,0,0:0:0:0:
292,220,254250,1,0,0:0:0:0:
328,176,254336,1,0,0:0:0:0:
384,176,254421,1,0,0:0:0:0:
236,176,254507,2,2,L|192:176,1,45,0|0,0:0|0:0,0:0:0:0:
192,116,254678,2,2,L|236:116,1,45,2|2,0:0|0:0,0:0:0:0:
380,48,254850,6,0,P|432:112|376:172,1,179.549992602768,4|2,0:0|0:1,0:0:0:0:
276,173,255193,2,0,L|232:173,1,45,0|0,0:0|0:0,0:0:0:0:
384,173,255364,2,0,L|476:173,1,90,2|8,0:0|0:0,0:0:0:0:
474,173,255621,1,2,0:0:0:0:
420,241,255707,2,0,L|372:241,1,45,0|8,0:0|0:0,0:0:0:0:
276,241,255878,2,0,L|368:241,1,90,2|8,0:0|0:0,0:0:0:0:
312,241,256136,1,8,0:0:0:0:
164,241,256221,6,0,B|96:240|96:240|72:176,1,135,0|2,0:0|0:1,0:0:0:0:
168,118,256564,2,0,L|216:118,1,45,0|0,0:0|0:0,0:0:0:0:
56,117,256736,2,0,L|52:169,1,45,8|0,0:0|0:0,0:0:0:0:
108,192,256907,1,8,0:0:0:0:
156,192,256993,1,2,0:0:0:0:
204,192,257078,1,0,0:0:0:0:
36,192,257250,1,2,0:0:0:0:
124,268,257421,2,0,L|168:268,1,45,0|0,0:0|0:0,0:0:0:0:
324,268,257593,6,0,L|420:268,1,90,8|0,0:0|0:0,0:0:0:0:
332,268,257850,1,2,0:1:0:0:
250,268,257936,2,0,L|246:176,1,90,0|8,0:0|0:0,0:0:0:0:
476,180,258278,2,0,L|380:180,1,90,8|0,0:0|0:0,0:0:0:0:
336,180,258536,1,8,0:0:0:0:
192,88,258621,2,0,L|100:88,1,90,2|0,0:0|0:0,0:0:0:0:
156,88,258878,1,2,0:1:0:0:
312,88,258964,6,0,L|316:140,1,45,8|2,0:0|0:0,0:0:0:0:
248,132,259136,2,0,L|244:180,1,45,2|2,0:0|0:0,0:0:0:0:
400,180,259307,2,0,L|496:180,1,90,8|2,0:0|0:1,0:0:0:0:
344,180,259650,2,0,L|464:180,1,119.699995068512,8|2,0:0|0:1,0:0:0:0:
300,180,259993,1,8,0:0:0:0:
463,180,260164,1,2,0:1:0:0:
236,180,260336,6,0,L|144:180,1,90,8|0,0:0|0:0,0:0:0:0:
296,252,260593,2,0,L|344:252,2,45,2|0|0,0:1|0:0|0:0,0:0:0:0:
240,252,260850,1,8,0:0:0:0:
72,252,261021,2,0,L|68:304,1,45,8|2,0:0|0:0,0:0:0:0:
176,328,261278,1,8,0:0:0:0:
276,328,261364,2,0,L|372:328,1,90,2|8,0:0|0:0,0:0:0:0:
312,328,261621,1,8,0:0:0:0:
164,192,261707,6,0,L|72:192,1,90,8|0,0:0|0:0,0:0:0:0:
220,120,261964,2,0,L|268:120,2,45,2|0|0,0:1|0:0|0:0,0:0:0:0:
164,120,262221,1,8,0:0:0:0:
332,120,262393,1,8,0:0:0:0:
384,120,262478,1,2,0:0:0:0:
384,64,262564,1,0,0:0:0:0:
332,64,262650,1,8,0:0:0:0:
232,64,262736,2,0,L|136:64,1,90,2|8,0:0|0:0,0:0:0:0:
196,64,262993,1,8,0:0:0:0:
344,192,263078,6,0,L|440:192,1,90,0|0,0:0|0:0,0:0:0:0:
280,192,263336,1,2,0:1:0:0:
228,192,263421,1,0,0:0:0:0:
172,192,263507,1,0,0:0:0:0:
228,192,263593,1,8,0:0:0:0:
392,260,263764,2,0,L|344:260,1,45,8|2,0:0|0:0,0:0:0:0:
247,260,264021,1,8,0:0:0:0:
347,260,264107,2,0,L|255:260,1,90,2|8,0:0|0:0,0:0:0:0:
204,260,264364,1,8,0:0:0:0:
56,260,264450,6,0,L|48:364,1,90,8|2,0:0|0:1,0:1:0:0:
216,260,264793,2,0,L|145:319,1,90,8|2,0:0|0:1,0:0:0:0:
228,316,265050,1,0,0:0:0:0:
308,316,265136,1,8,0:0:0:0:
200,316,265307,1,2,0:1:0:0:
368,232,265478,2,0,L|276:232,1,90,8|2,0:0|0:1,0:0:0:0:
48,232,265821,6,0,L|44:188,1,45,8|0,0:0|0:0,0:0:0:0:
192,164,265993,2,0,L|292:164,1,90,0|0,0:0|0:0,0:0:0:0:
116,164,266336,1,8,0:0:0:0:
348,164,266507,2,0,L|352:120,2,45,8|2|0,0:0|0:0|0:0,0:0:0:0:
288,164,266764,1,8,0:0:0:0:
192,164,266850,2,8,L|92:164,1,90,2|8,0:0|0:0,0:0:0:0:
156,164,267107,1,8,0:0:0:0:
304,288,267193,6,0,B|396:288,1,90,8|0,0:0|0:0,0:0:0:0:
248,288,267450,2,0,L|200:288,2,45,2|0|0,0:1|0:0|0:0,0:0:0:0:
300,288,267707,1,8,0:0:0:0:
136,192,267878,1,8,0:0:0:0:
184,192,267964,1,2,0:0:0:0:
232,192,268050,1,0,0:0:0:0:
396,192,268221,1,2,0:0:0:0:
304,192,268393,2,0,L|260:192,1,45,0|0,0:0|0:0,0:0:0:0:
104,192,268564,6,0,L|100:88,1,90,8|0,0:0|0:0,0:0:0:0:
164,100,268821,1,2,0:1:0:0:
308,100,268907,2,0,L|404:100,1,90,0|8,0:0|0:0,0:0:0:0:
164,56,269250,2,0,L|68:56,1,90,8|0,0:0|0:0,0:0:0:0:
136,56,269507,1,8,0:0:0:0:
284,56,269593,2,0,L|380:56,1,90,2|8,0:0|0:0,0:0:0:0:
316,56,269850,1,8,0:0:0:0:
460,56,269936,6,0,B|504:56,1,45,8|2,0:0|0:0,0:0:0:0:
452,120,270107,2,0,B|408:120,1,45,2|2,0:0|0:0,0:0:0:0:
260,120,270278,2,0,L|168:120,1,90,8|0,0:0|0:0,0:0:0:0:
392,192,270621,2,0,L|504:192,1,112.5,0|0,0:0|0:0,0:0:0:0:
276,192,270964,2,0,L|140:192,1,135.000005149842,0|0,0:0|0:0,0:0:0:0:
444,192,271307,6,0,L|448:288,1,90,8|0,0:0|0:0,0:0:0:0:
280,192,271650,2,0,L|276:96,1,90,8|0,0:0|0:0,0:0:0:0:
444,192,271993,2,0,L|378:263,1,90,8|0,0:0|0:0,0:0:0:0:
215,168,272336,2,0,L|280:97,1,90,8|0,0:0|0:0,0:0:0:0:
356,104,272593,1,0,0:0:0:0:
212,104,272678,6,0,L|208:136,1,22.5,8|0,0:0|0:0,0:0:0:0:
304,172,272850,2,0,L|308:204,1,22.5,8|0,0:0|0:0,0:0:0:0:
198,224,273021,2,0,L|194:256,1,22.5,8|0,0:0|0:0,0:0:0:0:
318,272,273193,2,0,L|322:304,1,22.5,8|0,0:0|0:0,0:0:0:0:
124,328,273364,6,0,L|120:296,1,22.5,8|0,0:0|0:0,0:0:0:0:
216,328,273536,2,0,L|220:296,1,22.5,8|0,0:0|0:0,0:0:0:0:
110,328,273707,2,0,L|106:296,1,22.5,8|0,0:0|0:0,0:0:0:0:
230,328,273878,2,0,L|234:296,1,22.5,8|0,0:0|0:0,0:0:0:0:
34,236,274050,6,8,L|86:236,1,45,8|8,0:0|0:0,0:0:0:0:
134,236,274221,2,8,L|186:236,1,45,8|8,0:0|0:0,0:0:0:0:
324,236,274393,2,8,L|276:236,1,45,8|8,0:0|0:0,0:0:0:0:
224,236,274564,2,8,L|172:236,1,45,8|8,0:0|0:0,0:0:0:0:
324,108,274736,2,8,L|368:108,1,45,8|8,0:0|0:0,0:0:0:0:
308,108,274907,2,8,L|264:108,1,45,8|8,0:0|0:0,0:0:0:0:
408,168,275078,2,8,L|363:168,1,45,8|8,0:0|0:0,0:0:0:0:
216,168,275250,2,8,L|172:168,1,45,8|8,0:0|0:0,0:0:0:0:
320,108,275421,6,0,L|328:64,3,45,6|0|0|0,0:3|0:0|0:0|0:0,0:0:0:0:
180,64,275764,2,0,L|80:64,1,90,0|0,0:0|0:0,0:0:0:0:
316,192,276107,2,0,L|412:192,2,90,0|0|0,0:0|0:0|0:0,0:0:0:0:
144,192,276621,1,0,0:0:0:0:
388,192,276793,5,4,0:0:0:0:
256,192,276964,12,0,283650,0:0:0:0:
