osu file format v14

[General]
AudioFilename: audio.mp3
AudioLeadIn: 0
PreviewTime: 209507
Countdown: 0
SampleSet: Soft
StackLeniency: 0.7
Mode: 2
LetterboxInBreaks: 0
EpilepsyWarning: 1
WidescreenStoryboard: 1

[Editor]
Bookmarks: 145136
DistanceSpacing: 1.4
BeatDivisor: 4
GridSize: 32
TimelineZoom: 2.599999

[Metadata]
Title:Hype feat. Such (lapix Remix)
TitleUnicode:Hype feat. Such (lapix Remix)
Artist:PSYQUI
ArtistUnicode:PSYQUI
Creator:Ascendance
Version:Ascenbot's Overdose
Source:
Tags:c94 critical megarex mrx-027 dnb drum and bass electronic wub sanyi sanyi4life ajamez jemzuu mbomb -_magic_bomb_- zirox sorcerer tomthewizard ster chara osu_gangster -plus- bunnrei jbh jbhyperion alienflybot afb rocma _asriel no492_shaymin spectator spec -luminate lumi bennybananas benny- benita -tochi ft clsw minato_yukina daiz_ix
BeatmapID:2156941
BeatmapSetID:1009824

[Difficulty]
HPDrainRate:6
CircleSize:4.3
OverallDifficulty:9.5
ApproachRate:9.5
SliderMultiplier:2.15
SliderTickRate:2

[Events]
//Background and Video events
0,0,"hype.jpg",0,0
//Break Periods
2,46593,54067
//Storyboard Layer 0 (Background)
//Storyboard Layer 1 (Fail)
//Storyboard Layer 2 (Pass)
//Storyboard Layer 3 (Foreground)
//Storyboard Layer 4 (Overlay)
//Storyboard Sound Samples

[TimingPoints]
1136,342.857142857143,4,2,22,55,1,0
2507,-100,4,2,22,70,0,0
3536,-100,4,2,22,70,0,0
3878,-100,4,2,22,70,0,0
12107,-100,4,2,22,70,0,0
15536,-100,4,2,22,70,0,0
15878,-100,4,2,22,70,0,0
16221,-100,4,2,1,70,0,0
16393,-100,4,2,22,70,0,0
17250,-100,4,2,22,70,0,0
18107,-100,4,2,69,45,0,0
18193,-100,4,2,22,70,0,0
18278,-100,4,2,22,70,0,0
18450,-100,4,2,69,45,0,0
18621,-100,4,2,22,70,0,0
18793,-100,4,2,69,45,0,0
18964,-100,4,2,22,70,0,0
20336,-100,4,2,22,67,0,0
21707,-100,4,2,22,65,0,0
22393,-100,4,2,22,65,0,0
23078,-100,4,2,22,40,0,0
23250,-100,4,2,22,25,0,0
24450,-100,4,2,22,55,0,0
25136,-100,4,2,1,65,0,0
27021,-100,4,2,1,14,0,0
27193,-100,4,2,1,65,0,0
32164,-100,4,2,22,14,0,0
32336,-100,4,2,1,65,0,0
35421,-100,4,2,21,45,0,0
39536,-100,4,2,21,46,0,0
39878,-100,4,2,21,47,0,0
40221,-100,4,2,21,49,0,0
40564,-100,4,2,21,51,0,0
40907,-100,4,2,22,53,0,0
41078,-100,4,2,21,53,0,0
42278,-100,4,2,22,55,0,0
42450,-100,4,2,21,55,0,0
43650,-100,4,2,22,57,0,0
43821,-100,4,2,21,57,0,0
46307,-100,4,2,21,15,0,0
46393,-100,4,2,22,57,0,0
54621,-100,4,2,1,50,0,0
55307,-100,4,2,1,55,0,0
55993,-100,4,2,1,60,0,0
56678,-100,4,2,1,65,0,0
57021,-100,4,2,22,50,0,0
60107,-100,4,2,22,55,0,0
62850,-100,4,2,22,60,0,0
64907,-100,4,2,22,60,0,0
66964,-100,4,2,20,60,0,0
67993,-66.6666666666667,4,2,20,80,0,0
68336,-37.037037037037,4,2,2,90,0,1
68678,-100,4,2,2,90,0,1
73821,-37.037037037037,4,2,2,90,0,1
74164,-100,4,2,2,90,0,1
78964,-66.6666666666667,4,2,2,90,0,1
79221,-66.6666666666667,4,2,2,90,0,0
79307,-37.037037037037,4,2,2,90,0,1
79650,-100,4,2,2,90,0,1
80250,-100,4,2,2,90,0,1
80507,-100,4,2,2,90,0,1
80764,-100,4,2,2,90,0,1
81364,-100,4,2,2,90,0,1
81621,-100,4,2,2,90,0,1
81878,-100,4,2,2,90,0,1
82993,-100,4,2,2,90,0,1
83250,-100,4,2,2,90,0,1
84793,-37.037037037037,4,2,2,90,0,1
85136,-100,4,2,2,90,0,1
85164,-100,4,2,2,50,0,1
85250,-100,4,2,2,90,0,1
85278,-100,4,2,2,50,0,1
85364,-100,4,2,2,90,0,1
85392,-100,4,2,2,50,0,1
85478,-100,4,2,2,90,0,1
85506,-100,4,2,2,50,0,1
85593,-100,4,2,2,90,0,1
85621,-100,4,2,2,50,0,1
85707,-100,4,2,2,90,0,1
85735,-100,4,2,2,50,0,1
85821,-100,4,2,2,90,0,1
85849,-100,4,2,2,50,0,1
85936,-100,4,2,2,90,0,1
85964,-100,4,2,2,50,0,1
86050,-100,4,2,2,90,0,1
86078,-100,4,2,2,50,0,1
86164,-100,4,2,2,90,0,1
86192,-100,4,2,2,50,0,1
86278,-100,4,2,2,90,0,1
86306,-100,4,2,2,50,0,1
86393,-100,4,2,2,90,0,1
86421,-100,4,2,2,50,0,1
86507,-100,4,2,2,90,0,1
86535,-100,4,2,2,50,0,1
86621,-100,4,2,2,90,0,1
86649,-100,4,2,2,50,0,1
86736,-100,4,2,2,90,0,1
86764,-100,4,2,2,50,0,1
86850,-100,4,2,2,90,0,1
86878,-100,4,2,2,50,0,1
86964,-100,4,2,2,90,0,1
86992,-100,4,2,2,50,0,1
87078,-100,4,2,2,90,0,1
87106,-100,4,2,2,50,0,1
87193,-100,4,2,2,90,0,1
87221,-100,4,2,2,50,0,1
87307,-100,4,2,2,90,0,1
87335,-100,4,2,2,50,0,1
87421,-100,4,2,2,90,0,1
87449,-100,4,2,2,50,0,1
87536,-100,4,2,2,90,0,1
87878,-100,4,2,2,75,0,1
89936,-66.6666666666667,4,2,2,75,0,1
90193,-66.6666666666667,4,2,2,90,0,0
90278,-37.037037037037,4,2,2,90,0,1
90621,-100,4,2,2,90,0,1
101250,-37.037037037037,4,2,4,90,0,1
101421,-37.037037037037,4,2,2,90,0,1
101593,-100,4,2,2,90,0,1
109478,-100,4,2,2,90,0,1
109821,-100,4,2,2,90,0,1
110850,-100,4,2,2,90,0,0
111878,-66.6666666666667,4,2,2,90,0,0
112221,-100,4,2,22,60,0,0
112393,-100,4,2,21,60,0,0
113250,-100,4,2,21,58,0,0
114107,-100,4,2,21,55,0,0
114964,-100,4,2,21,53,0,0
116336,-100,4,2,21,51,0,0
117707,-100,4,2,22,51,0,0
118393,-100,4,2,22,53,0,0
119764,-100,4,2,22,55,0,0
120450,-100,4,2,22,57,0,0
121993,-100,4,2,22,60,0,0
122678,-100,4,2,22,63,0,0
123193,-45.4545454545455,4,2,24,90,0,1
123536,-100,4,2,24,90,0,1
124564,-100,4,2,24,90,0,1
124907,-100,4,2,24,90,0,1
125936,-45.4545454545455,4,2,24,90,0,1
126278,-100,4,2,24,90,0,1
127478,-100,4,2,24,90,0,1
127993,-100,4,2,24,90,0,1
128336,-100,4,2,24,90,0,1
128678,-45.4545454545455,4,2,24,90,0,1
129021,-100,4,2,24,90,0,1
130050,-100,4,2,24,90,0,1
130393,-100,4,2,24,90,0,1
131421,-45.4545454545455,4,2,24,90,0,1
131764,-100,4,2,24,90,0,1
134078,-100,4,2,24,90,0,0
134164,-45.4545454545455,4,2,24,90,0,1
134507,-100,4,2,24,90,0,1
139650,-45.4545454545455,4,2,24,90,0,1
139993,-100,4,2,24,90,0,1
143764,-100,4,2,24,60,0,0
144107,-100,4,2,20,60,0,0
144450,-100,4,2,24,60,0,0
144793,-66.6666666666667,4,2,24,70,0,0
145136,-100,4,2,3,60,0,0
150621,-100,4,2,3,50,0,0
150964,-100,4,2,3,50,0,0
151650,-100,4,2,3,50,0,0
152336,-100,4,2,3,50,0,0
153364,-100,4,2,3,45,0,0
153707,-100,4,2,3,45,0,0
154393,-100,4,2,3,40,0,0
155078,-100,4,2,3,35,0,0
155421,-100,4,2,3,35,0,0
157478,-100,4,2,3,35,0,0
158850,-100,4,2,3,30,0,0
160221,-100,4,2,3,30,0,0
161593,-100,4,2,3,35,0,0
162964,-100,4,2,3,30,0,0
164336,-100,4,2,1,43,0,0
165021,-100,4,2,1,45,0,0
165878,-100,4,2,1,48,0,0
167078,-100,4,2,21,50,0,0
176678,-100,4,2,21,50,0,0
180793,-100,4,2,21,50,0,0
182164,-100,4,2,21,50,0,0
182507,-100,4,2,21,53,0,0
182850,-100,4,2,21,53,0,0
183193,-100,4,2,21,53,0,0
183536,-100,4,2,21,53,0,0
186278,-100,4,2,21,55,0,0
187650,-100,4,2,22,55,0,0
188336,-100,4,2,22,55,0,0
188936,-100,4,2,21,10,0,0
189021,-100,4,2,21,55,0,0
195064,-100,4,2,21,20,0,0
195193,-100,4,2,21,55,0,0
195793,-100,4,2,21,15,0,0
195878,-100,4,2,21,55,0,0
197164,-100,4,2,21,20,0,0
197250,-100,4,2,21,55,0,0
197936,-100,4,2,21,57,0,0
198278,-100,4,2,21,58,0,0
199264,-100,4,2,21,46,0,0
199993,-100,4,2,22,50,0,0
202736,-100,4,2,22,52,0,0
204107,-100,4,2,22,54,0,0
204793,-100,4,2,22,56,0,0
205478,-100,4,2,22,50,0,0
206164,-100,4,2,22,53,0,0
206850,-100,4,2,22,55,0,0
207536,-100,4,2,22,57,0,0
208221,-100,4,2,22,60,0,0
208907,-100,4,2,22,62,0,0
209593,-100,4,2,20,62,0,0
209936,-100,4,2,20,64,0,0
210621,-100,4,2,20,48,0,0
210964,-100,4,2,26,90,0,1
215764,-100,4,2,4,90,0,1
216450,-100,4,2,26,90,0,1
219193,-100,4,2,26,90,0,1
221250,-100,4,2,26,90,0,1
230164,-100,4,2,4,90,0,1
230507,-100,4,2,26,90,0,1
230850,-100,4,2,4,90,0,1
230936,-100,4,2,26,90,0,1
232821,-100,4,2,26,90,0,0
232907,-100,4,2,26,90,0,1
238393,-100,4,2,4,90,0,1
238478,-100,4,2,26,90,0,1
239764,-100,4,2,4,90,0,1
239849,-100,4,2,26,90,0,1
241136,-100,4,2,4,90,0,1
241221,-100,4,2,26,90,0,1
249364,-100,4,2,4,90,0,1
249449,-100,4,2,26,90,0,1
250735,-100,4,2,4,90,0,1
250820,-100,4,2,26,90,0,1
252107,-100,4,2,4,90,0,1
252192,-100,4,2,26,90,0,1
253478,-100,4,2,26,90,0,0
253564,-100,4,2,26,75,0,0
254850,-100,4,2,22,70,0,0
270450,-100,4,2,69,70,0,0
270536,-100,4,2,22,70,0,0
270621,-100,4,2,22,70,0,0
270793,-100,4,2,69,70,0,0
270878,-100,4,2,22,70,0,0
270964,-100,4,2,22,70,0,0
271136,-100,4,2,69,70,0,0
271221,-100,4,2,22,70,0,0
274050,-100,4,2,22,60,0,0
275507,-100,4,2,22,35,0,0
276793,-83.3333333333333,4,2,22,30,0,0
279536,-83.3333333333333,4,2,22,25,0,0
280907,-83.3333333333333,4,2,22,20,0,0
282278,-83.3333333333333,4,2,22,15,0,0
283650,-83.3333333333333,4,2,22,10,0,0

[Colours]
Combo1 : 231,210,173
Combo2 : 237,145,105
Combo3 : 248,179,63

[HitObjects]
40,340,1136,5,8,0:0:0:0:
272,276,1307,1,2,0:1:0:0:
120,212,1478,1,8,0:0:0:0:
76,176,1564,1,8,0:0:0:0:
60,120,1650,1,8,0:0:0:0:
76,64,1736,1,8,0:0:0:0:
240,96,1821,6,0,L|272:52,3,53.75,8|2|2|2,0:0|0:0|0:0|0:0,0:0:0:0:
436,20,2164,1,8,0:0:0:0:
452,76,2250,1,8,0:0:0:0:
436,132,2336,1,8,0:0:0:0:
392,168,2422,1,8,0:0:0:0:
192,200,2507,6,0,L|180:306,1,107.5,4|0,0:0|0:0,0:0:0:0:
256,324,2764,1,2,0:1:0:0:
332,340,2850,1,0,0:0:0:0:
148,368,3021,6,0,L|41:356,1,107.5,2|0,0:0|0:0,0:0:0:0:
192,288,3278,2,0,L|298:276,1,107.5,2|0,0:0|0:0,0:0:0:0:
84,208,3536,1,10,0:0:0:0:
236,140,3707,1,8,0:0:0:0:
160,108,3793,1,8,0:0:0:0:
352,40,3878,6,0,L|458:51,1,107.5,8|0,0:0|0:0,0:0:0:0:
384,68,4136,1,2,0:1:0:0:
308,84,4221,1,0,0:0:0:0:
492,112,4393,6,0,L|503:218,1,107.5,8|8,0:0|0:0,0:0:0:0:
352,188,4650,2,0,L|352:296,1,107.5,2|8,0:0|0:0,0:0:0:0:
200,328,4907,1,10,0:0:0:0:
352,368,5078,2,0,L|405:364,1,53.75,8|8,0:0|0:0,0:0:0:0:
200,328,5250,6,0,L|93:316,1,107.5,8|0,0:0|0:0,0:0:0:0:
168,284,5507,1,2,0:1:0:0:
312,252,5593,2,0,L|418:240,1,107.5,0|8,0:0|0:0,0:0:0:0:
344,208,5850,1,0,0:0:0:0:
184,176,5936,6,0,L|191:122,1,53.75,8|2,0:0|0:0,0:0:0:0:
272,92,6107,2,0,L|279:38,1,53.75,0|8,0:0|0:0,0:0:0:0:
100,8,6278,1,2,0:0:0:0:
332,64,6450,1,2,0:0:0:0:
180,92,6621,5,10,0:0:0:0:
412,148,6793,1,2,0:1:0:0:
416,200,6878,1,0,0:0:0:0:
420,252,6964,1,8,0:0:0:0:
268,280,7136,1,2,0:1:0:0:
496,340,7307,6,0,L|389:351,1,107.5,8|2,0:0|0:1,0:0:0:0:
140,340,7650,2,0,L|34:351,1,107.5,8|12,0:0|0:3,0:0:0:0:
320,316,7993,6,0,L|332:210,1,107.5,8|0,0:0|0:0,0:0:0:0:
256,192,8250,1,2,0:1:0:0:
180,176,8336,1,0,0:0:0:0:
364,148,8507,6,0,L|471:136,1,107.5,8|8,0:0|0:0,0:0:0:0:
320,68,8764,2,0,L|214:56,1,107.5,2|8,0:0|0:0,0:0:0:0:
428,208,9021,1,2,0:0:0:0:
305,279,9192,1,8,0:0:0:0:
381,311,9278,1,0,0:0:0:0:
160,376,9364,6,0,L|54:365,1,107.5,8|0,0:0|0:0,0:0:0:0:
128,348,9621,1,2,0:1:0:0:
52,332,9706,1,0,0:0:0:0:
236,304,9878,6,0,L|255:198,1,107.5,8|8,0:0|0:0,0:0:0:0:
100,164,10136,2,0,L|80:58,1,107.5,2|8,0:0|0:0,0:0:0:0:
292,28,10393,1,2,0:0:0:0:
444,56,10564,2,0,L|497:63,1,53.75,8|8,0:0|0:0,0:0:0:0:
320,116,10736,6,0,L|309:222,1,107.5,8|0,0:0|0:0,0:0:0:0:
384,240,10992,1,2,0:1:0:0:
460,256,11078,1,0,0:0:0:0:
276,288,11250,6,0,L|169:299,1,107.5,8|8,0:0|0:0,0:0:0:0:
16,332,11507,2,0,L|122:343,1,107.5,2|8,0:0|0:0,0:0:0:0:
316,376,11764,1,2,0:0:0:0:
164,376,11936,2,0,L|108:368,1,53.75,8|8,0:0|0:0,0:0:0:0:
276,288,12107,5,0,0:0:0:0:
48,200,12278,2,0,L|55:146,1,53.75,2|0,0:1|0:0,0:0:0:0:
140,176,12450,2,0,L|147:122,1,53.75,8|0,0:2|0:2,0:0:0:0:
232,152,12621,2,0,L|239:98,1,53.75,2|0,0:2|0:2,0:0:0:0:
84,200,12793,5,8,0:2:0:0:
52,256,12879,1,0,0:2:0:0:
68,320,12965,1,2,0:2:0:0:
124,352,13051,1,0,0:2:0:0:
384,324,13136,2,0,L|330:320,1,53.75,8|0,0:2|0:2,0:0:0:0:
184,288,13307,2,0,L|130:284,1,53.75,4|0,0:3|0:0,0:0:0:0:
388,256,13478,6,0,L|494:244,1,107.5,8|0,0:0|0:0,0:0:0:0:
416,228,13736,1,2,0:1:0:0:
340,212,13821,1,0,0:0:0:0:
156,244,13993,6,0,L|137:138,1,107.5,8|8,0:0|0:0,0:0:0:0:
288,164,14250,2,0,L|307:58,1,107.5,2|8,0:0|0:0,0:0:0:0:
96,28,14507,1,2,0:0:0:0:
248,60,14678,1,8,0:0:0:0:
324,28,14764,1,8,0:0:0:0:
96,28,14850,6,0,L|77:134,1,107.5,8|0,0:0|0:0,0:0:0:0:
152,152,15107,1,2,0:1:0:0:
228,168,15193,1,0,0:0:0:0:
44,200,15364,6,0,L|150:212,1,107.5,8|8,0:0|0:0,0:0:0:0:
304,244,15621,2,0,L|410:256,1,107.5,2|8,0:0|0:0,0:0:0:0:
200,288,15878,1,2,0:0:0:0:
48,320,16050,2,0,L|41:266,1,53.75,8|8,0:0|0:0,0:0:0:0:
312,232,16221,6,0,L|418:220,1,107.5,4|0,0:0|0:0,0:0:0:0:
344,204,16478,1,2,0:1:0:0:
200,176,16564,2,0,L|94:164,1,107.5,0|8,0:0|0:0,0:0:0:0:
168,148,16821,1,0,0:0:0:0:
328,116,16907,5,8,0:0:0:0:
304,56,16993,1,2,0:0:0:0:
256,16,17078,1,0,0:0:0:0:
192,8,17164,1,8,0:0:0:0:
372,40,17250,1,2,0:0:0:0:
132,40,17421,1,8,0:0:0:0:
256,68,17593,5,2,0:1:0:0:
24,100,17764,1,2,0:0:0:0:
80,104,17850,1,2,0:0:0:0:
136,108,17936,1,8,0:0:0:0:
288,140,18107,1,0,0:0:0:0:
56,172,18278,6,0,L|37:278,1,107.5,8|0,0:0|0:0,0:0:0:0:
332,308,18621,1,8,0:0:0:0:
180,340,18793,1,0,0:0:0:0:
476,368,18964,6,0,L|495:262,1,107.5,8|0,0:0|0:0,0:0:0:0:
344,292,19307,2,0,L|352:184,1,107.5,8|0,0:0|0:0,0:0:0:0:
200,216,19650,2,0,L|192:108,1,107.5,8|0,0:0|0:0,0:0:0:0:
40,136,19993,2,0,L|21:30,1,107.5,8|0,0:0|0:0,0:0:0:0:
332,368,20336,5,8,0:0:0:0:
180,304,20507,1,8,0:0:0:0:
332,240,20678,1,8,0:0:0:0:
180,176,20850,1,8,0:0:0:0:
484,304,21021,1,8,0:0:0:0:
332,240,21193,1,8,0:0:0:0:
180,176,21364,1,8,0:0:0:0:
28,112,21536,1,8,0:0:0:0:
352,368,21707,6,0,L|355:314,1,53.75,8|8,0:0|0:0,0:0:0:0:
436,284,21878,2,0,L|439:230,1,53.75,8|8,0:0|0:0,0:0:0:0:
160,200,22050,2,0,L|156:146,1,53.75,8|8,0:0|0:0,0:0:0:0:
76,116,22221,2,0,L|72:62,1,53.75,8|8,0:0|0:0,0:0:0:0:
220,340,22393,5,8,0:0:0:0:
292,336,22478,1,8,0:0:0:0:
220,340,22564,1,8,0:0:0:0:
292,336,22650,1,8,0:0:0:0:
112,240,22736,1,10,0:0:0:0:
40,236,22821,1,10,0:0:0:0:
400,140,22907,1,10,0:0:0:0:
472,136,22992,1,0,0:0:0:0:
256,40,23078,5,6,0:3:0:0:
256,192,23250,12,4,24450,0:2:0:0:
76,336,25821,5,2,0:0:0:0:
340,336,26850,2,0,P|347:257|296:198,1,161.25,0|0,0:0|0:0,0:0:0:0:
216,200,27193,1,2,0:0:0:0:
436,336,28393,1,2,0:0:0:0:
76,336,29593,1,0,0:0:0:0:
340,336,29936,6,0,L|355:121,1,215,2|0,0:0|0:0,0:0:0:0:
172,336,30621,2,0,L|156:121,1,215,0|0,0:0|0:0,0:0:0:0:
424,336,31307,2,0,L|244:220,1,215,2|0,0:0|0:0,0:0:0:0:
508,156,31993,1,0,0:0:0:0:
244,92,32336,1,2,0:0:0:0:
340,28,32678,6,0,L|356:243,1,215,2|0,0:0|0:0,0:0:0:0:
172,28,33364,2,0,L|156:243,1,215,0|0,0:0|0:0,0:0:0:0:
332,272,33878,1,2,0:0:0:0:
44,336,34393,1,0,0:0:0:0:
348,248,34736,2,0,L|164:136,1,215,2|0,0:0|0:0,0:0:0:0:
468,48,35421,5,2,0:0:0:0:
472,80,35593,1,0,0:0:0:0:
476,112,35764,1,0,0:0:0:0:
480,144,35936,1,0,0:0:0:0:
304,176,36107,1,2,0:0:0:0:
300,208,36278,1,0,0:0:0:0:
476,240,36450,1,0,0:0:0:0:
480,272,36621,1,2,0:0:0:0:
208,240,36793,5,2,0:0:0:0:
204,272,36964,1,0,0:0:0:0:
304,240,37136,1,0,0:0:0:0:
308,272,37307,1,0,0:0:0:0:
312,304,37478,1,2,0:0:0:0:
316,336,37650,1,0,0:0:0:0:
416,336,37821,1,0,0:0:0:0:
420,368,37993,1,0,0:0:0:0:
172,336,38164,5,2,0:0:0:0:
168,304,38336,1,0,0:0:0:0:
268,272,38507,1,0,0:0:0:0:
88,272,38678,1,2,0:0:0:0:
84,240,38850,1,0,0:0:0:0:
260,208,39021,1,2,0:0:0:0:
264,180,39193,1,0,0:0:0:0:
36,180,39364,1,2,0:0:0:0:
256,348,39878,5,2,0:0:0:0:
320,308,40050,1,0,0:0:0:0:
352,240,40221,1,2,0:0:0:0:
340,164,40393,1,0,0:0:0:0:
292,108,40564,1,2,0:0:0:0:
220,88,40736,1,0,0:0:0:0:
460,56,40907,5,8,0:0:0:0:
464,88,41078,1,0,0:0:0:0:
364,120,41250,1,2,0:0:0:0:
464,152,41421,1,0,0:0:0:0:
288,152,41593,1,2,0:0:0:0:
284,184,41764,1,0,0:0:0:0:
384,184,41936,1,2,0:0:0:0:
388,216,42107,1,0,0:0:0:0:
124,216,42278,5,8,0:0:0:0:
120,248,42450,1,0,0:0:0:0:
220,248,42621,1,2,0:0:0:0:
224,280,42793,1,0,0:0:0:0:
48,280,42964,1,2,0:0:0:0:
44,312,43136,1,0,0:0:0:0:
144,344,43307,1,2,0:0:0:0:
44,376,43478,1,0,0:0:0:0:
356,376,43650,5,8,0:0:0:0:
360,344,43821,1,0,0:0:0:0:
184,344,43993,1,2,0:0:0:0:
180,312,44164,1,0,0:0:0:0:
356,312,44336,1,0,0:0:0:0:
256,284,44507,1,2,0:0:0:0:
156,256,44678,1,0,0:0:0:0:
456,284,44850,6,0,L|463:69,1,215,2|0,0:0|0:0,0:0:0:0:
364,100,45364,1,2,0:0:0:0:
360,132,45536,1,0,0:0:0:0:
100,164,45707,1,2,0:0:0:0:
276,196,45878,1,0,0:0:0:0:
100,228,46050,1,8,0:3:0:0:
276,260,46221,1,0,0:0:0:0:
16,292,46393,1,12,0:0:0:0:
256,192,54621,12,0,57021,0:0:0:0:
464,344,57364,5,8,3:2:0:0:
504,268,57536,1,0,3:2:0:0:
464,192,57707,1,0,3:2:0:0:
380,192,57878,1,0,3:2:0:0:
204,224,58050,2,0,L|196:116,1,107.5,0|0,3:2|3:2,0:0:0:0:
308,148,58393,2,0,L|316:40,1,107.5,0|0,3:2|3:2,0:0:0:0:
48,8,58736,5,8,3:2:0:0:
8,84,58908,1,0,3:2:0:0:
48,160,59079,1,0,3:2:0:0:
132,160,59250,1,0,3:2:0:0:
312,192,59421,1,0,3:2:0:0:
200,224,59593,1,0,3:2:0:0:
312,256,59764,1,0,3:2:0:0:
200,288,59936,1,0,3:2:0:0:
480,320,60107,6,0,L|472:212,1,107.5,8|0,3:2|3:2,0:0:0:0:
372,244,60450,2,0,L|364:136,1,107.5,0|0,3:2|3:2,0:0:0:0:
180,108,60793,2,0,L|72:100,1,107.5,0|0,3:2|3:2,0:0:0:0:
256,72,61136,2,0,L|364:64,1,107.5,0|2,3:2|3:2,0:0:0:0:
288,48,61393,1,2,3:2:0:0:
36,16,61478,6,0,L|17:122,1,107.5,2|0,0:1|0:0,0:0:0:0:
168,92,61821,2,0,L|160:200,1,107.5,2|0,0:1|0:0,0:0:0:0:
312,168,62164,2,0,L|320:276,1,107.5,2|0,0:1|0:0,0:0:0:0:
472,248,62507,2,0,L|491:354,1,107.5,2|2,0:1|0:0,0:0:0:0:
212,356,62850,5,8,3:2:0:0:
196,300,62936,1,0,3:2:0:0:
212,244,63022,1,0,3:2:0:0:
256,208,63107,1,0,3:2:0:0:
152,244,63193,1,8,3:2:0:0:
108,208,63278,1,0,3:2:0:0:
92,152,63364,1,0,3:2:0:0:
108,96,63450,1,0,3:2:0:0:
212,244,63536,5,8,3:2:0:0:
256,208,63621,1,0,3:2:0:0:
272,152,63707,1,0,3:2:0:0:
256,96,63793,1,0,3:2:0:0:
152,60,63878,2,0,L|98:56,1,53.75,8|0,3:2|3:2,0:0:0:0:
360,28,64050,2,0,L|413:24,1,53.75,0|0,3:2|3:2,0:0:0:0:
212,28,64221,5,8,3:2:0:0:
196,84,64307,1,0,3:2:0:0:
212,140,64393,1,0,3:2:0:0:
256,176,64478,1,0,3:2:0:0:
360,208,64564,2,0,L|392:252,3,53.75,8|0|0|0,3:2|3:2|3:2|3:2,0:0:0:0:
496,216,64907,5,8,3:2:0:0:
512,272,64993,1,0,3:2:0:0:
496,328,65079,1,0,3:2:0:0:
452,364,65164,1,0,3:2:0:0:
372,360,65250,1,8,3:2:0:0:
452,364,65336,1,0,3:2:0:0:
296,304,65421,1,0,3:2:0:0:
216,300,65507,1,0,3:2:0:0:
56,240,65593,6,0,L|63:186,1,53.75,8|8,0:0|0:0,0:0:0:0:
156,216,65765,2,0,L|163:162,1,53.75,8|8,0:0|0:0,0:0:0:0:
256,192,65936,2,0,L|263:138,1,53.75,8|8,0:0|0:0,0:0:0:0:
64,108,66107,2,0,L|57:54,1,53.75,8|8,0:0|0:0,0:0:0:0:
256,192,66278,6,0,L|249:138,1,53.75,8|8,0:0|0:0,0:0:0:0:
156,168,66450,2,0,L|149:114,1,53.75,8|8,0:0|0:0,0:0:0:0:
336,108,66621,1,8,0:0:0:0:
256,76,66707,1,8,0:0:0:0:
336,44,66793,1,8,0:0:0:0:
256,12,66879,1,0,0:0:0:0:
444,4,66964,5,8,0:0:0:0:
460,60,67050,1,2,0:0:0:0:
444,116,67136,1,2,0:0:0:0:
400,152,67221,1,2,0:0:0:0:
312,184,67307,2,0,P|305:263|356:322,1,161.25,0|0,0:0|0:0,0:0:0:0:
444,356,67650,6,0,L|282:356,1,161.25,8|8,2:3|2:3,0:0:0:0:
368,292,67993,2,0,L|126:292,1,241.875009226799,12|0,1:2|0:0,0:0:0:0:
48,228,68336,6,0,L|483:228,1,435.375001660824,4|0,0:0|0:0,0:0:0:0:
340,196,68678,1,8,0:1:0:0:
296,160,68764,1,0,0:0:0:0:
280,104,68850,1,0,0:0:0:0:
296,48,68936,1,0,0:0:0:0:
452,20,69020,5,8,0:0:0:0:
496,56,69106,1,0,0:0:0:0:
512,112,69192,1,0,0:0:0:0:
496,168,69278,1,0,0:0:0:0:
340,196,69364,2,0,L|308:240,3,53.75,8|0|0|0,0:1|0:0|0:0|0:0,0:0:0:0:
152,268,69707,6,0,L|208:276,1,53.75,8|0,0:0|0:0,0:0:0:0:
360,308,69878,2,0,L|413:315,1,53.75,0|0,0:0|0:0,0:0:0:0:
256,344,70050,2,0,L|224:300,3,53.75,8|0|0|0,0:1|0:0|0:0|0:0,0:0:0:0:
68,272,70393,5,8,0:0:0:0:
52,216,70479,1,0,0:0:0:0:
68,160,70565,1,0,0:0:0:0:
112,124,70651,1,0,0:0:0:0:
268,156,70736,1,8,0:1:0:0:
188,124,70821,1,0,0:0:0:0:
268,92,70907,1,0,0:0:0:0:
188,60,70993,1,0,0:0:0:0:
340,92,71078,6,0,L|347:38,1,53.75,12|0,0:3|0:0,0:0:0:0:
108,364,71250,2,0,L|101:310,1,53.75,0|0,0:0|0:0,0:0:0:0:
272,344,71421,1,8,0:1:0:0:
288,288,71507,1,0,0:0:0:0:
272,232,71593,1,0,0:0:0:0:
228,196,71679,1,0,0:0:0:0:
396,228,71764,5,8,0:0:0:0:
412,172,71850,1,0,0:0:0:0:
396,116,71936,1,0,0:0:0:0:
352,80,72022,1,0,0:0:0:0:
160,80,72107,1,8,0:1:0:0:
224,80,72193,1,0,0:0:0:0:
288,80,72278,1,0,0:0:0:0:
352,80,72364,1,0,0:0:0:0:
160,80,72450,6,0,L|152:133,1,53.75,8|0,0:0|0:0,0:0:0:0:
232,164,72621,2,0,L|239:217,1,53.75,2|0,0:0|0:0,0:0:0:0:
72,188,72793,2,0,L|64:241,1,53.75,8|0,0:1|0:0,0:0:0:0:
144,272,72964,2,0,L|151:325,1,53.75,0|0,0:0|0:0,0:0:0:0:
312,356,73136,6,0,L|418:344,1,107.5,8|8,0:3|0:3,0:0:0:0:
340,340,73393,1,0,0:0:0:0:
172,308,73478,1,4,0:3:0:0:
92,304,73564,1,0,0:0:0:0:
312,272,73650,1,8,0:3:0:0:
484,184,73821,6,0,L|49:184,1,435.375001660824,12|0,0:3|0:0,0:0:0:0:
196,216,74164,1,8,0:1:0:0:
240,180,74250,1,0,0:0:0:0:
256,124,74336,1,0,0:0:0:0:
240,68,74422,1,0,0:0:0:0:
88,40,74507,5,8,0:0:0:0:
44,76,74593,1,0,0:0:0:0:
28,132,74679,1,0,0:0:0:0:
44,188,74765,1,0,0:0:0:0:
196,216,74850,1,8,0:1:0:0:
240,180,74936,1,0,0:0:0:0:
256,124,75022,1,0,0:0:0:0:
240,68,75108,1,0,0:0:0:0:
88,40,75193,6,0,L|80:93,1,53.75,8|0,0:0|0:0,0:0:0:0:
324,124,75364,2,0,L|331:177,1,53.75,0|0,0:0|0:0,0:0:0:0:
176,208,75536,1,8,0:1:0:0:
160,264,75621,1,0,0:0:0:0:
176,320,75707,1,0,0:0:0:0:
220,356,75793,1,0,0:0:0:0:
376,356,75878,5,8,0:0:0:0:
392,300,75963,1,0,0:0:0:0:
376,244,76049,1,0,0:0:0:0:
332,208,76135,1,0,0:0:0:0:
176,176,76221,1,8,0:1:0:0:
256,144,76307,1,0,0:0:0:0:
176,112,76393,1,0,0:0:0:0:
256,80,76478,1,0,0:0:0:0:
100,112,76564,6,0,L|92:58,1,53.75,8|0,0:3|0:0,0:0:0:0:
340,28,76736,2,0,L|347:81,1,53.75,0|0,0:0|0:0,0:0:0:0:
176,112,76907,1,8,0:1:0:0:
160,168,76992,1,0,0:0:0:0:
176,224,77078,1,0,0:0:0:0:
220,260,77164,1,0,0:0:0:0:
392,288,77250,6,0,L|384:341,1,53.75,8|0,0:0|0:0,0:0:0:0:
304,312,77421,2,0,L|296:365,1,53.75,0|0,0:0|0:0,0:0:0:0:
480,256,77593,2,0,L|472:202,1,53.75,8|0,0:1|0:0,0:0:0:0:
392,232,77764,2,0,L|384:178,1,53.75,0|0,0:0|0:0,0:0:0:0:
152,140,77936,6,0,P|144:61|196:2,1,161.25,2|0,0:0|0:0,0:0:0:0:
284,32,78278,2,0,L|122:32,1,161.25,8|0,0:1|0:0,0:0:0:0:
212,4,78621,6,0,P|263:63|256:141,1,161.25,2|0,0:0|0:0,0:0:0:0:
152,168,78964,2,0,L|393:168,1,241.875009226799,8|0,0:1|0:0,0:0:0:0:
472,200,79307,6,0,L|37:200,1,435.375001660824,4|0,0:0|0:0,0:0:0:0:
184,168,79650,1,8,0:1:0:0:
228,204,79736,1,0,0:0:0:0:
244,260,79822,1,0,0:0:0:0:
228,316,79908,1,0,0:0:0:0:
72,344,79993,6,0,L|18:340,2,53.75,10|0|0,0:0|0:0|0:0,0:0:0:0:
228,284,80250,2,0,L|281:280,2,53.75,2|0|0,0:0|0:0|0:0,0:0:0:0:
72,224,80507,1,2,0:0:0:0:
92,168,80593,1,0,0:0:0:0:
148,132,80679,1,8,0:0:0:0:
320,164,80764,6,0,L|373:160,2,53.75,2|0|0,0:0|0:0|0:0,0:0:0:0:
164,100,81021,2,0,L|110:96,2,53.75,2|0|2,0:0|0:0|0:0,0:0:0:0:
320,72,81278,1,0,0:0:0:0:
476,40,81364,5,10,0:0:0:0:
484,92,81450,1,0,0:0:0:0:
492,144,81536,1,0,0:0:0:0:
308,176,81621,1,0,0:0:0:0:
300,228,81707,1,2,0:0:0:0:
292,280,81793,1,0,0:0:0:0:
444,312,81878,2,0,L|390:315,1,53.75,2|2,0:0|0:0,0:0:0:0:
232,348,82050,5,12,0:3:0:0:
72,380,82136,1,0,0:0:0:0:
64,328,82221,1,0,0:0:0:0:
56,276,82307,1,0,0:0:0:0:
212,244,82393,2,0,L|204:190,1,53.75,2|0,0:0|0:0,0:0:0:0:
124,160,82564,2,0,L|116:106,1,53.75,2|0,0:0|0:0,0:0:0:0:
360,44,82736,6,0,L|413:40,2,53.75,10|0|0,0:0|0:0|0:0,0:0:0:0:
204,108,82993,1,2,0:0:0:0:
256,108,83078,1,0,0:0:0:0:
308,108,83164,1,2,0:0:0:0:
152,44,83250,2,0,L|98:40,1,53.75,2|0,0:0|0:0,0:0:0:0:
256,44,83421,6,0,L|263:97,1,53.75,8|0,0:3|0:0,0:0:0:0:
184,128,83593,2,0,L|176:181,1,53.75,4|0,0:3|0:0,0:0:0:0:
344,152,83764,2,0,L|351:205,1,53.75,10|0,0:1|0:0,0:0:0:0:
272,236,83936,2,0,L|264:289,1,53.75,4|0,0:3|0:0,0:0:0:0:
420,364,84107,6,0,P|432:312|411:263,1,107.5,10|8,0:0|0:0,0:0:0:0:
332,260,84364,1,0,0:0:0:0:
488,228,84450,1,8,0:3:0:0:
412,224,84536,1,0,0:0:0:0:
200,188,84621,1,4,0:3:0:0:
40,156,84793,6,0,L|475:156,1,435.375001660824,12|0,0:3|0:0,0:0:0:0:
332,124,85136,1,8,0:1:0:0:
260,92,85250,1,0,0:0:0:0:
256,60,85364,1,0,0:0:0:0:
440,96,85478,1,8,0:0:0:0:
368,60,85593,1,0,0:0:0:0:
364,28,85707,1,0,0:0:0:0:
184,60,85821,1,8,0:1:0:0:
256,60,85936,1,0,0:0:0:0:
328,60,86050,1,0,0:0:0:0:
156,32,86164,5,8,0:0:0:0:
228,60,86278,1,0,0:0:0:0:
44,92,86393,1,0,0:0:0:0:
228,120,86507,1,8,0:1:0:0:
300,152,86621,1,0,0:0:0:0:
304,184,86736,1,0,0:0:0:0:
120,216,86850,1,8,0:0:0:0:
48,248,86964,1,0,0:0:0:0:
120,280,87078,1,0,0:0:0:0:
328,308,87193,1,8,0:1:0:0:
256,308,87307,1,0,0:0:0:0:
184,308,87421,1,0,0:0:0:0:
392,340,87536,6,0,L|399:286,1,53.75,12|0,0:3|0:0,0:0:0:0:
244,256,87707,2,0,L|236:202,1,53.75,0|0,0:0|0:0,0:0:0:0:
392,172,87878,1,8,0:1:0:0:
464,140,87964,1,0,0:0:0:0:
392,108,88050,1,0,0:0:0:0:
464,76,88136,1,0,0:0:0:0:
256,300,88221,5,8,0:0:0:0:
184,268,88307,1,0,0:0:0:0:
256,236,88393,1,0,0:0:0:0:
328,204,88478,1,0,0:0:0:0:
120,172,88564,1,8,0:1:0:0:
48,140,88650,1,0,0:0:0:0:
120,108,88736,1,0,0:0:0:0:
48,76,88821,1,0,0:0:0:0:
256,28,88907,6,0,L|418:28,1,161.25,2|0,0:0|0:0,0:0:0:0:
504,60,89250,2,0,P|512:138|461:197,1,161.25,2|0,0:0|0:0,0:0:0:0:
376,228,89593,2,0,L|215:228,1,161.25,10|0,0:0|0:0,0:0:0:0:
132,260,89936,2,0,L|374:260,1,241.875009226799,8|0,1:3|0:0,0:0:0:0:
452,292,90278,6,0,L|16:292,1,435.375001660824,4|0,0:0|0:0,0:0:0:0:
164,324,90621,1,8,0:1:0:0:
208,288,90707,1,0,0:0:0:0:
224,232,90793,1,0,0:0:0:0:
208,176,90879,1,0,0:0:0:0:
60,204,90964,5,10,0:0:0:0:
16,168,91050,1,0,0:0:0:0:
0,112,91136,1,0,0:0:0:0:
16,56,91222,1,0,0:0:0:0:
180,84,91307,2,0,L|172:30,1,53.75,8|0,0:1|0:0,0:0:0:0:
92,64,91478,2,0,L|84:10,1,53.75,2|0,0:0|0:0,0:0:0:0:
256,32,91650,5,8,0:0:0:0:
300,68,91735,1,0,0:0:0:0:
316,124,91821,1,0,0:0:0:0:
300,180,91907,1,0,0:0:0:0:
148,208,91993,1,10,0:1:0:0:
132,264,92079,1,0,0:0:0:0:
148,320,92165,1,0,0:0:0:0:
192,356,92250,1,0,0:0:0:0:
344,328,92336,6,0,L|351:274,1,53.75,8|0,0:0|0:0,0:0:0:0:
272,244,92507,2,0,L|264:190,1,53.75,0|0,0:0|0:0,0:0:0:0:
416,160,92678,1,10,0:1:0:0:
496,128,92764,1,0,0:0:0:0:
416,96,92850,1,0,0:0:0:0:
496,64,92936,1,0,0:0:0:0:
328,96,93021,5,10,0:0:0:0:
256,64,93107,1,0,0:0:0:0:
328,32,93193,1,0,0:0:0:0:
400,64,93278,1,0,0:0:0:0:
176,64,93364,1,10,0:1:0:0:
132,100,93449,1,0,0:0:0:0:
116,156,93535,1,0,0:0:0:0:
132,212,93621,1,0,0:0:0:0:
288,176,93707,5,10,0:0:0:0:
304,232,93793,1,0,0:0:0:0:
288,288,93879,1,0,0:0:0:0:
244,324,93964,1,0,0:0:0:0:
404,356,94050,2,0,L|411:302,1,53.75,10|0,0:1|0:0,0:0:0:0:
332,272,94221,2,0,L|324:218,1,53.75,2|0,0:0|0:0,0:0:0:0:
484,188,94393,5,8,0:0:0:0:
500,132,94479,1,0,0:0:0:0:
484,76,94565,1,0,0:0:0:0:
440,40,94650,1,0,0:0:0:0:
248,40,94736,1,8,0:1:0:0:
312,40,94821,1,0,0:0:0:0:
376,40,94907,1,2,0:0:0:0:
440,40,94993,1,0,0:0:0:0:
248,40,95078,5,8,0:0:0:0:
204,76,95163,1,0,0:0:0:0:
188,132,95249,1,0,0:0:0:0:
204,188,95335,1,0,0:0:0:0:
372,220,95421,1,10,0:1:0:0:
300,252,95507,1,0,0:0:0:0:
124,288,95593,1,0,0:0:0:0:
52,320,95678,1,0,0:0:0:0:
204,352,95764,6,0,L|212:244,1,107.5,10|0,0:0|0:0,0:0:0:0:
132,216,96021,1,0,0:0:0:0:
304,184,96107,2,0,L|296:130,1,53.75,10|0,0:1|0:0,0:0:0:0:
216,160,96278,2,0,L|208:106,1,53.75,0|0,0:0|0:0,0:0:0:0:
404,76,96450,6,0,L|296:68,1,107.5,10|0,0:0|0:0,0:0:0:0:
216,60,96707,1,0,0:0:0:0:
404,244,96793,1,10,0:1:0:0:
484,212,96878,1,0,0:0:0:0:
404,184,96964,1,0,0:0:0:0:
484,152,97050,1,0,0:0:0:0:
308,352,97136,6,0,L|300:244,1,107.5,10|0,0:0|0:0,0:0:0:0:
380,216,97393,1,0,0:0:0:0:
208,184,97478,2,0,L|216:130,1,53.75,10|0,0:1|0:0,0:0:0:0:
296,160,97650,2,0,L|304:106,1,53.75,0|0,0:0|0:0,0:0:0:0:
108,76,97821,6,0,L|216:68,1,107.5,10|0,0:0|0:0,0:0:0:0:
296,60,98078,1,0,0:0:0:0:
108,244,98164,1,10,0:1:0:0:
28,212,98249,1,0,0:0:0:0:
108,184,98335,1,0,0:0:0:0:
28,152,98421,1,0,0:0:0:0:
204,352,98507,6,0,L|312:344,1,107.5,8|0,0:0|0:0,0:0:0:0:
232,312,98764,1,0,0:0:0:0:
424,372,98850,1,10,0:1:0:0:
468,336,98935,1,0,0:0:0:0:
484,280,99021,1,0,0:0:0:0:
468,224,99107,1,0,0:0:0:0:
308,192,99193,6,0,L|200:184,1,107.5,10|0,0:0|0:0,0:0:0:0:
280,152,99450,1,0,0:0:0:0:
88,212,99536,2,0,L|81:158,1,53.75,10|0,0:1|0:0,0:0:0:0:
160,128,99707,2,0,L|167:74,1,53.75,2|0,0:0|0:0,0:0:0:0:
392,44,99878,5,8,0:0:0:0:
408,100,99965,1,0,0:0:0:0:
392,156,100051,1,0,0:0:0:0:
348,192,100136,1,0,0:0:0:0:
164,220,100221,1,10,0:1:0:0:
120,256,100306,1,0,0:0:0:0:
104,312,100392,1,0,0:0:0:0:
120,368,100478,1,0,0:0:0:0:
360,336,100564,6,0,L|307:328,1,53.75,8|0,0:0|0:0,0:0:0:0:
152,300,100736,2,0,L|206:292,1,53.75,8|0,0:0|0:0,0:0:0:0:
360,264,100907,2,0,L|368:156,1,107.5,8|8,0:1|0:3,0:0:0:0:
496,124,101250,6,0,L|60:124,1,435.375001660824,2|0,0:0|0:0,0:0:0:0:
208,92,101593,1,8,0:1:0:0:
252,128,101679,1,0,0:0:0:0:
268,184,101765,1,0,0:0:0:0:
252,240,101851,1,0,0:0:0:0:
88,208,101936,5,10,0:0:0:0:
72,264,102022,1,0,0:0:0:0:
88,320,102108,1,0,0:0:0:0:
132,356,102194,1,0,0:0:0:0:
288,328,102278,2,0,L|295:274,1,53.75,10|0,0:1|0:0,0:0:0:0:
216,244,102450,2,0,L|208:190,1,53.75,2|0,0:0|0:0,0:0:0:0:
380,220,102621,5,8,0:0:0:0:
424,184,102707,1,0,0:0:0:0:
440,128,102793,1,0,0:0:0:0:
424,72,102879,1,0,0:0:0:0:
256,40,102964,1,10,0:1:0:0:
184,72,103050,1,0,0:0:0:0:
256,104,103136,1,0,0:0:0:0:
328,72,103221,1,0,0:0:0:0:
160,40,103307,5,8,0:0:0:0:
144,96,103392,1,0,0:0:0:0:
160,152,103478,1,0,0:0:0:0:
204,188,103564,1,0,0:0:0:0:
364,220,103650,1,10,0:1:0:0:
292,220,103736,1,0,0:0:0:0:
220,220,103821,1,0,0:0:0:0:
148,220,103907,1,0,0:0:0:0:
308,252,103993,5,10,0:0:0:0:
380,280,104078,1,0,0:0:0:0:
308,312,104164,1,0,0:0:0:0:
236,280,104250,1,0,0:0:0:0:
448,344,104336,1,10,0:1:0:0:
492,308,104421,1,0,0:0:0:0:
508,252,104507,1,2,0:0:0:0:
492,196,104593,1,0,0:0:0:0:
336,232,104679,5,8,0:0:0:0:
320,176,104765,1,0,0:0:0:0:
336,120,104851,1,2,0:0:0:0:
380,84,104936,1,0,0:0:0:0:
208,112,105021,2,0,L|215:58,1,53.75,8|0,0:1|0:0,0:0:0:0:
296,88,105193,2,0,L|303:34,1,53.75,2|0,0:0|0:0,0:0:0:0:
132,84,105364,5,8,0:0:0:0:
88,120,105449,1,0,0:0:0:0:
72,176,105535,1,2,0:0:0:0:
88,232,105621,1,0,0:0:0:0:
244,200,105707,2,0,L|255:252,3,53.75,8|0|2|0,0:1|0:0|0:0|0:0,0:0:0:0:
412,220,106050,5,8,0:0:0:0:
428,276,106136,1,0,0:0:0:0:
412,332,106222,1,4,0:3:0:0:
368,368,106307,1,0,0:0:0:0:
204,336,106393,1,8,0:3:0:0:
132,304,106478,1,0,0:0:0:0:
308,336,106564,1,4,0:3:0:0:
384,304,106650,1,0,0:0:0:0:
144,368,106736,6,0,L|136:260,1,107.5,6|0,0:0|0:0,0:0:0:0:
216,232,106993,1,0,0:0:0:0:
44,264,107078,2,0,L|51:210,1,53.75,10|0,0:1|0:0,0:0:0:0:
132,180,107250,2,0,L|139:126,1,53.75,0|0,0:3|0:0,0:0:0:0:
296,272,107421,6,0,L|404:264,1,107.5,10|0,0:0|0:3,0:0:0:0:
324,232,107678,1,0,0:0:0:0:
468,264,107764,2,0,L|460:210,1,53.75,10|0,0:1|0:0,0:0:0:0:
380,180,107936,2,0,L|372:126,1,53.75,4|0,0:3|0:0,0:0:0:0:
148,96,108107,6,0,L|40:88,1,107.5,10|0,0:0|0:0,0:0:0:0:
120,56,108364,1,0,0:0:0:0:
288,24,108450,2,0,L|295:77,1,53.75,10|0,0:1|0:0,0:0:0:0:
216,108,108621,2,0,L|208:161,1,53.75,0|0,0:3|0:0,0:0:0:0:
380,192,108793,6,0,L|395:298,1,107.5,10|8,0:0|0:3,0:0:0:0:
316,332,109050,1,0,0:0:0:0:
160,360,109136,1,10,0:1:0:0:
224,360,109221,1,0,0:0:0:0:
288,360,109307,1,4,0:3:0:0:
352,360,109393,1,0,0:0:0:0:
196,332,109478,5,12,0:0:0:0:
152,296,109563,1,0,0:0:0:0:
136,240,109649,1,0,0:0:0:0:
152,184,109736,1,0,0:0:0:0:
316,212,109822,1,10,0:1:0:0:
360,176,109907,1,0,0:0:0:0:
376,120,109993,1,0,0:0:0:0:
360,64,110078,1,0,0:0:0:0:
160,32,110164,6,0,L|213:39,1,53.75,8|0,0:3|0:0,0:0:0:0:
316,68,110336,2,0,L|262:75,1,53.75,8|0,0:3|0:0,0:0:0:0:
108,108,110507,2,0,L|115:161,1,53.75,10|0,0:1|0:0,0:0:0:0:
196,192,110678,2,0,L|203:245,1,53.75,4|0,0:3|0:0,0:0:0:0:
424,324,110850,5,8,0:0:0:0:
440,268,110937,1,0,0:0:0:0:
424,212,111021,1,0,0:0:0:0:
380,176,111108,1,0,0:0:0:0:
152,144,111193,2,0,L|205:136,1,53.75,2|0,0:0|0:0,0:0:0:0:
360,108,111364,2,0,L|306:100,1,53.75,0|0,0:0|0:0,0:0:0:0:
96,68,111536,5,2,0:0:0:0:
24,60,111621,1,0,0:0:0:0:
96,68,111707,1,0,0:0:0:0:
24,60,111793,1,0,0:0:0:0:
256,36,111878,2,0,L|417:28,1,161.2500061512,8|0,1:3|0:0,0:0:0:0:
100,60,112221,5,4,0:0:0:0:
96,88,112393,1,0,0:0:0:0:
92,116,112564,1,0,0:0:0:0:
88,144,112736,1,0,0:0:0:0:
264,176,112907,1,2,0:0:0:0:
268,204,113078,1,0,0:0:0:0:
272,236,113250,1,0,0:0:0:0:
276,268,113421,1,0,0:0:0:0:
428,296,113593,5,2,0:0:0:0:
432,268,113764,1,0,0:0:0:0:
436,236,113936,1,0,0:0:0:0:
440,204,114107,1,0,0:0:0:0:
264,172,114278,1,2,0:0:0:0:
260,140,114450,1,0,0:0:0:0:
436,112,114621,1,0,0:0:0:0:
440,80,114793,1,0,0:0:0:0:
208,48,114964,5,2,0:0:0:0:
204,80,115136,1,0,0:0:0:0:
304,108,115307,1,0,0:0:0:0:
308,140,115478,1,0,0:0:0:0:
132,172,115650,1,2,0:0:0:0:
232,172,115821,1,0,0:0:0:0:
52,200,115993,1,2,0:0:0:0:
48,228,116164,1,0,0:0:0:0:
304,228,116336,5,2,0:0:0:0:
308,256,116507,1,0,0:0:0:0:
208,288,116678,1,0,0:0:0:0:
204,316,116850,1,0,0:0:0:0:
380,344,117021,1,2,0:0:0:0:
280,344,117193,1,0,0:0:0:0:
456,372,117364,1,0,0:0:0:0:
356,372,117536,1,0,0:0:0:0:
56,372,117707,5,10,3:2:0:0:
40,316,117793,1,0,3:0:0:0:
56,260,117879,1,0,3:0:0:0:
100,224,117964,1,0,3:0:0:0:
204,252,118050,2,0,L|236:208,3,53.75,0|0|0|0,3:2|3:0|3:0|3:0,0:0:0:0:
388,236,118393,5,8,3:2:0:0:
432,200,118478,1,0,3:0:0:0:
448,144,118564,1,0,3:0:0:0:
432,88,118650,1,0,3:0:0:0:
328,56,118736,1,0,3:0:0:0:
284,92,118821,1,0,3:0:0:0:
268,148,118907,1,0,3:0:0:0:
284,204,118993,1,0,3:0:0:0:
452,176,119078,5,8,3:2:0:0:
468,232,119164,1,0,3:0:0:0:
452,288,119250,1,0,3:0:0:0:
408,324,119335,1,0,3:0:0:0:
252,356,119421,1,0,3:0:0:0:
200,356,119507,1,0,3:0:0:0:
252,356,119593,1,0,3:0:0:0:
304,356,119678,1,0,3:0:0:0:
104,324,119764,5,8,3:2:0:0:
60,288,119849,1,0,3:0:0:0:
44,232,119935,1,0,3:0:0:0:
60,176,120021,1,0,3:0:0:0:
216,144,120107,1,0,3:0:0:0:
268,144,120193,1,0,3:0:0:0:
216,144,120278,1,0,3:0:0:0:
164,144,120364,1,0,3:0:0:0:
364,112,120450,5,8,3:2:0:0:
408,148,120535,1,0,3:0:0:0:
424,204,120621,1,0,3:0:0:0:
408,260,120707,1,0,3:0:0:0:
256,232,120793,1,0,3:0:0:0:
212,268,120878,1,0,3:0:0:0:
196,324,120964,1,0,3:0:0:0:
212,380,121050,1,0,3:0:0:0:
412,352,121136,6,0,L|419:298,1,53.75,8|0,3:0|3:2,0:0:0:0:
500,272,121307,2,0,L|507:218,1,53.75,0|0,3:2|3:2,0:0:0:0:
352,188,121478,2,0,L|359:134,1,53.75,0|0,3:2|3:2,0:0:0:0:
440,108,121650,2,0,L|447:54,1,53.75,0|0,3:2|3:2,0:0:0:0:
288,24,121821,6,0,L|234:16,1,53.75,8|0,0:0|0:0,0:0:0:0:
400,56,121993,2,0,L|453:48,2,53.75,2|0|0,0:0|0:0|0:0,0:0:0:0:
204,92,122250,1,2,0:0:0:0:
256,92,122336,1,0,0:0:0:0:
308,92,122421,1,0,0:0:0:0:
112,128,122507,6,0,L|80:84,2,53.75,2|0|0,0:0|0:0|0:0,0:0:0:0:
216,156,122764,1,2,0:0:0:0:
20,188,122850,1,8,0:0:0:0:
172,256,123021,1,8,0:0:0:0:
96,288,123107,1,8,0:0:0:0:
172,320,123193,6,0,L|408:320,1,236.500007217407,4|0,0:0|0:0,0:0:0:0:
256,288,123536,2,0,L|248:234,1,53.75,8|0,0:1|0:0,0:0:0:0:
400,204,123707,2,0,L|407:150,1,53.75,0|0,0:0|0:0,0:0:0:0:
328,120,123878,5,0,0:0:0:0:
480,120,124050,2,0,L|487:66,1,53.75,0|0,0:0|0:0,0:0:0:0:
328,36,124221,1,8,0:1:0:0:
248,36,124307,1,0,0:0:0:0:
328,36,124393,1,0,0:0:0:0:
408,36,124478,1,0,0:0:0:0:
168,64,124564,6,0,L|161:118,1,53.75,4|0,0:3|0:0,0:0:0:0:
352,148,124736,2,0,L|359:202,1,53.75,0|0,0:0|0:0,0:0:0:0:
204,232,124907,1,8,0:1:0:0:
188,288,124993,1,0,0:0:0:0:
204,344,125079,1,8,0:0:0:0:
248,380,125164,1,0,0:0:0:0:
52,348,125250,6,0,L|44:294,1,53.75,2|0,0:0|0:0,0:0:0:0:
124,264,125421,2,0,L|131:210,1,53.75,0|0,0:0|0:0,0:0:0:0:
296,180,125593,1,8,0:1:0:0:
216,148,125678,1,0,0:0:0:0:
296,116,125764,1,0,0:0:0:0:
216,84,125850,1,0,0:0:0:0:
136,52,125936,6,0,L|372:52,1,236.500007217407,8|0,0:3|0:0,0:0:0:0:
216,84,126278,2,0,L|269:87,1,53.75,8|0,0:1|0:0,0:0:0:0:
424,116,126450,2,0,L|477:119,1,53.75,8|0,0:0|0:0,0:0:0:0:
324,152,126621,6,0,L|313:176,4,26.875,2|0|0|0|2,0:3|0:0|0:0|0:0|0:0,0:0:0:0:
376,152,126878,1,0,0:0:0:0:
224,208,126964,1,8,0:1:0:0:
144,240,127050,1,0,0:0:0:0:
224,272,127136,1,0,0:0:0:0:
72,304,127221,2,0,L|61:328,4,26.875,0|0|8|0|0,0:0|0:0|0:3|0:0|0:0,0:0:0:0:
280,360,127478,5,0,0:0:0:0:
360,328,127564,1,0,0:0:0:0:
176,296,127650,2,0,L|168:242,1,53.75,8|0,0:1|0:0,0:0:0:0:
248,216,127821,2,0,L|240:162,1,53.75,0|0,0:0|0:0,0:0:0:0:
396,132,127993,5,2,0:0:0:0:
476,104,128078,1,0,0:0:0:0:
396,72,128164,1,0,0:0:0:0:
192,40,128250,1,0,0:0:0:0:
112,72,128336,1,8,0:1:0:0:
192,104,128421,1,0,0:3:0:0:
396,132,128507,1,8,0:0:0:0:
316,164,128593,1,0,0:0:0:0:
236,196,128678,6,0,L|472:196,1,236.500007217407,8|0,0:3|0:0,0:0:0:0:
316,228,129021,2,0,L|308:281,1,53.75,8|0,0:1|0:0,0:0:0:0:
148,312,129193,2,0,L|140:365,1,53.75,0|0,0:0|0:0,0:0:0:0:
220,336,129364,5,10,0:0:0:0:
68,336,129536,2,0,L|75:282,1,53.75,0|0,0:0|0:0,0:0:0:0:
236,252,129707,1,8,0:1:0:0:
316,252,129793,1,0,0:0:0:0:
236,252,129878,1,8,0:0:0:0:
156,252,129964,1,0,0:0:0:0:
396,220,130050,6,0,L|403:166,1,53.75,4|0,0:3|0:0,0:0:0:0:
216,136,130221,2,0,L|208:82,1,53.75,0|0,0:0|0:0,0:0:0:0:
364,52,130393,1,8,0:1:0:0:
380,108,130479,1,0,0:0:0:0:
364,164,130565,1,8,0:0:0:0:
320,200,130650,1,0,0:0:0:0:
164,232,130736,6,0,L|171:285,1,53.75,2|0,0:0|0:0,0:0:0:0:
252,312,130907,2,0,L|259:365,1,53.75,0|0,0:0|0:0,0:0:0:0:
20,336,131078,1,8,0:1:0:0:
88,336,131164,1,0,0:0:0:0:
156,336,131250,1,0,0:0:0:0:
224,336,131336,1,0,0:0:0:0:
292,304,131421,6,0,L|56:304,1,236.500007217407,8|0,0:3|0:0,0:0:0:0:
216,272,131764,2,0,L|269:264,1,53.75,8|0,0:1|0:0,0:0:0:0:
112,232,131936,2,0,L|165:224,1,53.75,8|0,0:0|0:0,0:0:0:0:
348,192,132107,6,0,L|359:168,4,26.875,2|0|0|0|2,0:3|0:0|0:0|0:0|0:0,0:0:0:0:
296,184,132364,1,0,0:0:0:0:
452,136,132450,1,8,0:1:0:0:
372,124,132536,1,0,0:0:0:0:
292,116,132621,1,0,0:0:0:0:
448,84,132707,6,0,L|459:60,4,26.875,0|0|8|0|0,0:0|0:0|0:3|0:0|0:0,0:0:0:0:
220,52,132964,1,0,0:0:0:0:
140,84,133050,1,0,0:0:0:0:
292,116,133136,2,0,L|299:169,1,53.75,8|0,0:1|0:0,0:0:0:0:
220,200,133307,2,0,L|227:253,1,53.75,0|0,0:0|0:0,0:0:0:0:
72,288,133478,6,0,L|64:341,1,53.75,8|0,0:0|0:0,0:0:0:0:
144,372,133650,1,8,0:3:0:0:
304,340,133736,1,0,0:0:0:0:
384,308,133821,1,8,0:1:0:0:
304,276,133907,1,0,0:0:0:0:
464,244,133993,2,0,L|471:190,1,53.75,4|0,0:3|0:0,0:0:0:0:
392,160,134164,6,0,L|155:160,1,236.500007217407,12|0,0:3|0:0,0:0:0:0:
316,128,134507,2,0,L|323:74,1,53.75,8|0,0:1|0:0,0:0:0:0:
176,44,134678,1,0,0:0:0:0:
28,72,134764,1,2,0:0:0:0:
24,104,134850,5,0,0:0:0:0:
20,136,134936,1,0,0:0:0:0:
168,168,135021,1,8,0:0:0:0:
88,200,135107,1,0,0:0:0:0:
256,232,135193,2,0,L|263:285,1,53.75,8|0,0:1|0:0,0:0:0:0:
184,316,135364,2,0,L|176:369,1,53.75,0|0,0:0|0:0,0:0:0:0:
332,340,135536,6,0,L|385:332,1,53.75,4|0,0:3|0:0,0:0:0:0:
232,300,135707,2,0,L|178:292,1,53.75,8|0,0:0|0:0,0:0:0:0:
388,264,135878,2,0,L|441:256,2,53.75,8|0|0,0:1|0:0|0:0,0:0:0:0:
236,232,136136,1,2,0:0:0:0:
388,200,136221,5,0,0:0:0:0:
432,164,136306,1,0,0:0:0:0:
448,108,136392,1,8,0:0:0:0:
432,52,136478,1,0,0:0:0:0:
272,20,136564,1,8,0:1:0:0:
352,52,136650,1,0,0:0:0:0:
272,84,136736,1,0,0:0:0:0:
352,116,136821,1,0,0:0:0:0:
192,148,136907,6,0,L|184:201,1,53.75,8|0,0:3|0:0,0:0:0:0:
372,232,137078,2,0,L|379:285,1,53.75,8|0,0:0|0:0,0:0:0:0:
224,316,137250,1,8,0:1:0:0:
144,316,137336,1,0,0:0:0:0:
224,316,137421,1,8,0:0:0:0:
304,316,137507,1,0,0:0:0:0:
64,348,137593,6,0,L|53:324,4,26.875,2|0|0|0|2,0:3|0:0|0:0|0:0|0:0,0:0:0:0:
144,348,137850,1,0,0:0:0:0:
304,284,137936,1,8,0:1:0:0:
228,284,138021,1,0,0:0:0:0:
152,284,138107,1,2,0:0:0:0:
392,348,138193,6,0,L|403:324,4,26.875,0|0|0|0|0,0:0|0:0|0:0|0:0|0:0,0:0:0:0:
312,348,138450,1,8,0:0:0:0:
392,348,138536,1,0,0:0:0:0:
228,284,138621,2,0,L|235:230,1,53.75,8|0,0:1|0:0,0:0:0:0:
316,200,138793,2,0,L|323:146,1,53.75,0|2,0:0|0:0,0:0:0:0:
172,116,138964,5,0,0:0:0:0:
92,108,139050,1,0,0:0:0:0:
252,76,139136,1,8,0:0:0:0:
172,68,139221,1,0,0:0:0:0:
24,40,139307,1,8,0:1:0:0:
100,32,139393,1,0,0:0:0:0:
336,0,139478,1,0,0:0:0:0:
176,32,139650,6,0,L|412:32,1,236.500007217407,8|0,0:3|0:0,0:0:0:0:
256,64,139993,2,0,L|202:71,1,53.75,8|0,0:1|0:0,0:0:0:0:
356,104,140164,1,8,0:0:0:0:
204,136,140250,6,0,L|150:143,2,53.75,0|2|0,0:0|0:0|0:0,0:0:0:0:
52,168,140507,2,0,L|44:221,1,53.75,0|0,0:0|0:0,0:0:0:0:
256,248,140678,2,0,L|263:301,1,53.75,8|0,0:1|0:0,0:0:0:0:
184,332,140850,1,8,0:0:0:0:
264,364,140936,1,0,0:0:0:0:
416,332,141021,6,0,L|423:278,1,53.75,4|0,0:3|0:0,0:0:0:0:
256,248,141193,2,0,L|248:194,1,53.75,0|0,0:0|0:0,0:0:0:0:
400,164,141364,1,8,0:1:0:0:
416,108,141450,1,0,0:0:0:0:
400,52,141536,1,8,0:0:0:0:
356,16,141621,1,0,0:0:0:0:
204,44,141707,5,2,0:0:0:0:
124,44,141793,1,0,0:0:0:0:
204,44,141878,1,0,0:0:0:0:
284,44,141964,1,0,0:0:0:0:
124,76,142050,1,8,0:1:0:0:
204,108,142136,1,0,0:0:0:0:
124,136,142221,1,0,0:0:0:0:
204,168,142307,1,0,0:0:0:0:
44,200,142393,6,0,L|33:224,4,26.875,8|0|0|0|0,0:3|0:0|0:0|0:0|0:0,0:0:0:0:
124,208,142650,1,0,0:0:0:0:
284,240,142736,2,0,L|291:293,1,53.75,8|0,0:1|0:0,0:0:0:0:
212,324,142907,2,0,L|204:377,1,53.75,8|0,0:0|0:0,0:0:0:0:
404,352,143078,6,0,L|415:328,4,26.875,2|0|0|0|2,0:3|0:0|0:0|0:0|0:0,0:0:0:0:
324,344,143336,1,0,0:0:0:0:
492,280,143421,1,8,0:1:0:0:
412,248,143507,1,0,0:0:0:0:
492,216,143593,1,8,0:0:0:0:
412,184,143678,1,0,0:0:0:0:
256,216,143764,6,0,L|94:216,1,161.25,2|0,3:2|3:2,0:0:0:0:
8,184,144107,2,0,P|0:106|51:47,1,161.25,2|0,3:0|3:2,0:0:0:0:
140,16,144450,2,0,L|301:16,1,161.25,2|0,3:2|3:2,0:0:0:0:
212,48,144793,2,0,L|453:48,1,241.875009226799,8|0,0:1|3:2,0:0:0:0:
212,80,145136,6,0,L|89:80,1,107.5,4|0,3:2|0:0,0:0:0:0:
260,80,145478,1,8,0:0:0:0:
311,89,145563,1,0,0:0:0:0:
347,129,145649,1,0,0:0:0:0:
350,181,145735,1,0,0:0:0:0:
322,226,145820,1,8,0:0:0:0:
191,230,145993,1,0,0:0:0:0:
20,332,146164,5,8,0:0:0:0:
8,280,146249,1,0,0:0:0:0:
23,229,146335,1,0,0:0:0:0:
61,192,146421,1,0,0:0:0:0:
112,178,146506,1,8,0:0:0:0:
250,225,146678,1,0,0:0:0:0:
112,178,146850,1,8,0:0:0:0:
64,156,146935,1,0,0:0:0:0:
39,110,147021,1,0,0:0:0:0:
49,58,147107,1,0,0:0:0:0:
88,23,147192,1,8,0:0:0:0:
206,12,147364,2,0,L|329:23,2,107.5,0|8|0,0:0|0:0|0:0,0:0:0:0:
445,74,147878,6,0,L|464:192,1,107.5,8|0,0:0|0:0,0:0:0:0:
312,153,148221,1,8,0:0:0:0:
261,168,148306,1,0,0:0:0:0:
228,209,148392,1,0,0:0:0:0:
225,262,148478,1,0,0:0:0:0:
252,307,148563,1,8,0:0:0:0:
390,324,148736,1,0,0:0:0:0:
252,307,148907,5,8,0:0:0:0:
199,306,148992,1,0,0:0:0:0:
145,306,149078,1,0,0:0:0:0:
91,306,149164,1,0,0:0:0:0:
37,306,149249,1,8,0:0:0:0:
163,283,149421,1,0,0:0:0:0:
301,285,149593,1,8,0:0:0:0:
328,239,149678,1,0,0:0:0:0:
323,186,149764,1,0,0:0:0:0:
288,147,149850,1,0,0:0:0:0:
237,135,149935,1,8,0:0:0:0:
101,196,150107,2,0,L|100:68,1,107.5,0|8,0:0|0:0,0:0:0:0:
237,135,150450,1,0,0:0:0:0:
480,224,150621,6,0,L|476:98,1,107.5,8|0,0:0|0:0,0:0:0:0:
308,61,150964,1,8,0:0:0:0:
261,85,151049,1,0,0:0:0:0:
242,134,151135,1,0,0:0:0:0:
261,183,151221,1,0,0:0:0:0:
307,208,151306,1,8,0:0:0:0:
448,217,151478,1,0,0:0:0:0:
307,208,151650,5,8,0:0:0:0:
253,208,151735,1,0,0:0:0:0:
200,208,151821,1,0,0:0:0:0:
146,208,151907,1,0,0:0:0:0:
92,208,151992,1,8,0:0:0:0:
218,294,152164,1,0,0:0:0:0:
56,368,152336,1,8,0:0:0:0:
16,332,152421,1,0,0:0:0:0:
6,280,152507,1,0,0:0:0:0:
29,233,152593,1,0,0:0:0:0:
76,209,152678,1,8,0:0:0:0:
215,214,152850,2,0,L|341:239,2,107.5,0|8|0,0:0|0:0|0:0,0:0:0:0:
498,162,153364,6,0,L|387:138,1,107.5,8|0,0:0|0:0,0:0:0:0:
230,204,153707,2,0,L|213:131,1,53.75,8|0,0:0|0:0,0:0:0:0:
300,288,153878,2,0,L|316:224,2,53.75,0|0|8,0:0|0:0|0:0,0:0:0:0:
159,329,154221,1,0,0:0:0:0:
319,356,154393,5,8,0:0:0:0:
328,303,154478,1,0,0:0:0:0:
310,254,154564,1,0,0:0:0:0:
268,221,154650,1,0,0:0:0:0:
216,214,154735,1,8,0:0:0:0:
74,239,154907,1,0,0:0:0:0:
237,219,155078,2,0,L|254:151,1,53.75,8|0,0:0|0:0,0:0:0:0:
163,144,155250,2,0,L|148:73,2,53.75,0|0|8,0:0|0:0|0:0,0:0:0:0:
290,86,155593,2,0,L|407:73,2,107.5,0|8|0,0:0|0:0|0:0,0:0:0:0:
42,29,156107,6,0,P|10:112|111:195,1,215,8|0,0:0|0:0,0:0:0:0:
242,175,156621,1,0,0:0:0:0:
99,198,156793,2,0,L|78:311,1,107.5,8|0,0:0|0:0,0:0:0:0:
240,87,157136,2,0,L|259:202,1,107.5,0|2,0:0|0:3,0:0:0:0:
65,42,157478,6,0,B|126:76|126:76|309:31,1,215,8|0,0:0|0:0,0:0:0:0:
372,15,157993,1,0,0:0:0:0:
234,63,158164,2,0,L|228:181,1,107.5,8|0,0:0|0:0,0:0:0:0:
375,147,158507,2,0,L|371:271,1,107.5,0|2,0:0|0:3,0:0:0:0:
198,358,158850,6,0,P|133:309|204:206,1,215,0|0,0:0|0:0,0:0:0:0:
328,130,159364,2,0,L|341:253,1,107.5,0|8,0:0|0:0,0:0:0:0:
191,114,159707,1,0,0:0:0:0:
346,127,159878,2,0,L|359:250,1,107.5,0|2,0:0|0:3,0:0:0:0:
76,59,160221,6,0,B|136:17|136:17|315:50,3,215,8|0|8|8,0:0|0:0|0:0|0:0,0:0:0:0:
436,85,161593,6,0,L|441:202,1,107.5,8|0,0:0|0:0,0:0:0:0:
301,151,161936,2,0,L|306:268,1,107.5,8|0,0:0|0:0,0:0:0:0:
166,85,162278,2,0,L|161:202,1,107.5,8|0,0:0|0:0,0:0:0:0:
301,151,162621,2,0,L|296:268,1,107.5,8|2,0:0|0:0,0:0:0:0:
125,345,162964,5,8,0:0:0:0:
26,279,163135,1,0,0:0:0:0:
31,176,163306,1,8,0:0:0:0:
134,128,163478,1,0,0:0:0:0:
265,132,163650,2,0,L|283:257,1,107.5,8|0,0:0|0:0,0:0:0:0:
134,128,163993,2,0,L|111:13,1,107.5,8|2,0:0|0:0,0:0:0:0:
274,42,164336,5,0,0:0:0:0:
378,57,164507,1,0,0:0:0:0:
445,138,164678,1,0,0:0:0:0:
443,243,164850,1,0,0:0:0:0:
337,300,165021,2,0,L|225:323,1,107.5,0|0,0:0|0:0,0:0:0:0:
88,191,165364,2,0,L|202:212,1,107.5,0|0,0:0|0:0,0:0:0:0:
338,115,165707,6,0,L|351:229,1,107.5,0|0,0:0|0:0,0:0:0:0:
196,153,166050,2,0,L|184:46,1,107.5,0|0,0:0|0:0,0:0:0:0:
419,175,166393,2,0,L|433:290,1,107.5,0|0,0:0|0:0,0:0:0:0:
141,110,166736,2,0,L|128:2,1,107.5,0|0,0:3|0:0,0:0:0:0:
479,349,167078,6,0,L|251:328,1,215,4|0,0:0|0:0,0:0:0:0:
130,321,167593,1,2,0:0:0:0:
267,176,167764,2,0,L|285:293,1,107.5,0|0,0:0|0:0,0:0:0:0:
121,206,168107,2,0,L|100:88,1,107.5,8|0,0:3|0:0,0:0:0:0:
347,317,168450,6,0,P|440:279|431:152,1,215,2|0,0:0|0:0,0:0:0:0:
307,135,168964,2,0,L|196:126,2,107.5,0|2|0,0:0|0:0|0:0,0:0:0:0:
456,51,169478,2,0,L|473:166,1,107.5,8|4,0:3|0:3,0:0:0:0:
186,341,169821,6,0,P|89:304|106:167,1,215,2|0,0:0|0:0,0:0:0:0:
210,169,170336,1,0,0:0:0:0:
58,94,170507,2,0,L|170:69,1,107.5,2|0,0:0|0:0,0:0:0:0:
299,136,170850,2,0,L|426:162,1,107.5,4|0,0:3|0:3,0:0:0:0:
106,306,171193,6,0,L|332:273,1,215,2|0,0:0|0:0,0:0:0:0:
149,185,171707,1,2,0:0:0:0:
286,86,171878,2,0,L|300:193,1,107.5,2|0,0:0|0:0,0:0:0:0:
135,163,172221,2,0,L|116:33,1,107.5,8|0,0:3|0:3,0:0:0:0:
370,333,172564,6,0,L|138:315,1,215,2|0,0:0|0:0,0:0:0:0:
310,241,173078,1,0,0:0:0:0:
165,130,173250,2,0,L|159:245,1,107.5,2|0,0:0|0:0,0:0:0:0:
304,31,173593,2,0,L|310:146,1,107.5,4|4,0:3|0:3,0:0:0:0:
49,343,173936,6,0,P|48:265|203:212,1,215,2|0,0:0|0:0,0:0:0:0:
299,273,174450,2,0,L|303:161,1,107.5,0|2,0:0|0:0,0:0:0:0:
167,303,174793,1,0,0:0:0:0:
334,235,174964,2,0,L|328:350,1,107.5,8|4,0:3|0:3,0:0:0:0:
70,129,175307,6,0,L|310:94,1,215,2|0,0:0|0:0,0:0:0:0:
456,220,175821,2,0,L|337:202,2,107.5,0|2|0,0:0|0:0|0:0,0:0:0:0:
296,303,176336,2,0,L|180:314,1,107.5,8|0,0:3|0:0,0:0:0:0:
431,368,176678,5,2,0:0:0:0:
477,343,176763,1,2,0:0:0:0:
491,293,176849,1,2,0:0:0:0:
463,249,176935,1,2,0:0:0:0:
287,212,177021,2,0,L|274:159,1,53.75,2|0,0:0|0:0,0:0:0:0:
356,298,177193,2,0,L|372:243,1,53.75,0|0,0:3|0:0,0:0:0:0:
191,356,177364,1,2,0:0:0:0:
139,341,177449,1,0,0:0:0:0:
98,307,177535,1,0,0:0:0:0:
76,258,177621,1,0,0:0:0:0:
76,205,177706,1,4,0:3:0:0:
98,157,177792,1,0,0:0:0:0:
139,122,177878,1,0,0:3:0:0:
190,107,177964,1,0,0:0:0:0:
434,88,178050,6,0,L|309:67,1,107.5,2|0,0:0|0:0,0:0:0:0:
215,215,178393,2,0,L|325:199,1,107.5,2|0,0:0|0:0,0:0:0:0:
87,86,178736,2,0,L|71:331,1,215,2|8,0:0|0:3,0:0:0:0:
367,81,179250,6,0,B|309:112|309:112|159:71,2,215,2|2|2,0:0|0:0|0:0,0:0:0:0:
186,217,180278,2,0,L|304:196,1,107.5,8|0,0:3|0:3,0:0:0:0:
427,179,180621,1,4,0:3:0:0:
166,340,180793,6,0,L|158:224,1,107.5,4|0,0:3|0:0,0:0:0:0:
301,132,181136,2,0,L|312:262,1,107.5,2|0,0:0|0:0,0:0:0:0:
140,347,181478,2,0,L|132:231,1,107.5,2|0,0:0|0:0,0:0:0:0:
275,139,181821,2,0,L|286:269,1,107.5,8|0,0:3|0:0,0:0:0:0:
108,333,182164,6,0,L|99:209,1,107.5,2|0,0:0|0:0,0:0:0:0:
455,343,182507,2,0,L|237:315,2,215,2|8|4,0:0|0:3|0:3,0:0:0:0:
126,359,183536,5,4,0:3:0:0:
409,348,184221,2,0,P|415:249|318:191,1,215,2|8,0:0|0:3,0:0:0:0:
201,219,184736,1,0,0:0:0:0:
324,259,184907,5,4,0:3:0:0:
56,122,185078,2,0,L|278:83,1,215,2|0,0:0|0:0,0:0:0:0:
418,164,185593,2,0,L|434:45,1,107.5,2|0,0:0|0:0,0:0:0:0:
284,304,185936,2,0,L|268:185,1,107.5,4|0,0:3|0:0,0:0:0:0:
256,192,186278,12,8,188678,0:3:0:0:
175,343,189021,6,0,P|108:265|189:189,1,215,4|2,0:0|0:0,0:0:0:0:
317,184,189536,2,0,L|318:254,1,53.75,2|2,0:3|0:3,0:0:0:0:
174,160,189707,1,2,0:0:0:0:
319,154,189878,2,0,L|380:153,1,53.75,2|2,0:0|0:0,0:0:0:0:
178,68,190136,2,0,L|116:68,1,53.75,0|0,0:0|0:0,0:0:0:0:
411,35,190393,6,0,L|427:157,1,107.5,2|0,0:0|0:0,0:0:0:0:
266,305,190736,2,0,P|200:233|286:147,1,215,2|2,0:0|0:0,0:0:0:0:
431,141,191250,2,0,L|360:127,1,53.75,2|2,0:3|0:3,0:0:0:0:
241,290,191507,2,0,L|307:278,1,53.75,2|2,0:3|0:3,0:0:0:0:
55,137,191764,6,0,L|293:166,2,215,2|0|2,0:0|0:0|0:0,0:0:0:0:
209,66,192621,2,0,L|317:49,1,107.5,0|2,0:0|0:3,0:0:0:0:
51,213,192964,6,0,L|268:188,1,215,2|2,0:0|0:0,0:0:0:0:
324,177,193393,1,2,0:0:0:0:
264,188,193478,2,0,L|51:213,1,215,2|2,0:0|0:0,0:0:0:0:
241,79,194164,2,0,L|375:88,1,107.5,2|2,0:0|0:3,0:0:0:0:
407,89,194421,1,2,0:3:0:0:
465,96,194507,5,2,0:3:0:0:
317,168,194678,2,0,L|258:161,1,53.75,0|2,0:0|0:3,0:0:0:0:
405,289,194936,2,0,L|467:278,1,53.75,0|2,0:0|0:3,0:0:0:0:
207,344,195193,5,2,0:0:0:0:
331,272,195364,2,0,L|275:261,1,53.75,0|2,0:0|0:3,0:0:0:0:
106,193,195621,2,0,L|173:183,1,53.75,0|0,0:0|0:0,0:0:0:0:
400,278,195878,5,2,0:0:0:0:
446,253,195963,1,0,0:0:0:0:
467,205,196049,1,2,0:3:0:0:
453,154,196135,1,0,0:0:0:0:
411,123,196221,2,0,L|258:127,1,107.5
141,131,196564,1,2,0:0:0:0:
293,101,196736,2,0,L|351:99,1,53.75,0|2,0:0|0:3,0:0:0:0:
182,50,196993,2,0,L|111:54,1,53.75,2|2,0:3|0:3,0:0:0:0:
404,43,197250,6,0,L|408:154,1,107.5,2|0,0:0|0:0,0:0:0:0:
263,137,197593,2,0,L|265:256,1,107.5,0|0,0:0|0:0,0:0:0:0:
115,155,197936,2,0,L|116:28,1,107.5,2|0,0:0|0:0,0:0:0:0:
263,137,198278,2,0,L|265:256,1,107.5,2|2,0:0|0:3,0:0:0:0:
122,332,198621,5,0,0:0:0:0:
73,309,198706,1,0,0:0:0:0:
43,266,198792,1,2,0:3:0:0:
38,213,198878,1,0,0:0:0:0:
62,165,198963,1,0,0:0:0:0:
106,135,199049,1,0,0:0:0:0:
258,124,199136,2,0,L|187:125,1,53.75,0|0,0:0|0:0,0:0:0:0:
375,273,199307,5,2,0:3:0:0:
426,262,199392,1,0,0:0:0:0:
465,225,199478,1,0,0:0:0:0:
480,174,199564,1,0,0:0:0:0:
467,123,199649,1,2,0:0:0:0:
429,86,199735,1,2,0:0:0:0:
272,38,199821,2,0,L|202:42,1,53.75,2|2,0:0|0:0,0:0:0:0:
60,26,199993,5,8,3:2:0:0:
206,105,200164,2,0,L|264:99,1,53.75,2|2,3:1|3:1,0:0:0:0:
112,214,200421,2,0,L|53:221,1,53.75,2|2,3:1|3:1,0:0:0:0:
340,337,200678,5,2,3:2:0:0:
194,271,200850,2,0,L|249:261,1,53.75,0|2,3:1|3:2,0:0:0:0:
391,283,201107,2,0,L|446:276,1,53.75,0|2,3:1|3:2,0:0:0:0:
209,175,201364,6,0,L|142:166,2,53.75,8|0|2,3:2|3:1|3:1,0:0:0:0:
390,209,201707,2,0,L|394:85,1,107.5,2|0,3:1|3:1,0:0:0:0:
325,86,201964,1,0,3:1:0:0:
134,73,202050,1,2,3:2:0:0:
256,24,202221,2,0,L|314:27,1,53.75,2|2,3:1|3:2,0:0:0:0:
144,108,202478,2,0,L|71:103,1,53.75,2|2,3:1|3:2,0:0:0:0:
332,233,202736,6,0,L|348:157,2,53.75,8|0|2,3:2|3:1|3:1,0:0:0:0:
144,255,203078,1,2,3:1:0:0:
280,245,203250,2,0,L|343:253,1,53.75,0|0,3:1|3:1,0:0:0:0:
146,121,203421,1,2,3:2:0:0:
305,60,203593,2,0,L|253:47,1,53.75,0|2,3:2|3:2,0:0:0:0:
105,213,203850,2,0,L|167:207,1,53.75,0|2,3:1|3:1,0:0:0:0:
404,343,204107,6,0,L|247:330,1,107.5,8|0,3:2|3:1,0:0:0:0:
232,324,204364,1,2,3:2:0:0:
391,243,204536,2,0,L|454:232,2,53.75,2|2|0,3:1|3:2|3:2,0:0:0:0:
185,127,204793,2,0,L|323:143,1,107.5,2|0,3:1|3:1,0:0:0:0:
350,149,205050,1,0,3:1:0:0:
190,18,205136,2,0,L|52:34,1,107.5,2|0,3:1|3:1,0:0:0:0:
25,40,205393,1,0,3:1:0:0:
250,261,205478,6,0,L|262:184,2,53.75,8|0|0,3:2|3:2|3:2,0:0:0:0:
169,261,205736,2,0,L|157:184,2,53.75,0|8|0,3:2|3:2|3:2,0:0:0:0:
250,261,205993,2,0,L|262:184,1,53.75,0|0,3:2|3:2,0:0:0:0:
427,242,206164,5,8,3:2:0:0:
468,211,206249,1,0,3:2:0:0:
470,159,206335,1,0,3:3:0:0:
429,127,206421,1,0,3:2:0:0:
256,164,206507,2,0,L|256:52,1,107.5,8|2,3:2|3:1,0:0:0:0:
315,52,206764,1,0,3:2:0:0:
157,142,206850,6,0,L|79:142,1,53.75,8|0,3:2|3:2,0:0:0:0:
157,142,207021,2,0,L|216:142,1,53.75,0|0,3:2|3:2,0:0:0:0:
41,65,207193,2,0,L|121:63,1,53.75,8|0,3:2|3:2,0:0:0:0:
237,45,207364,2,0,L|311:44,1,53.75,0|0,3:2|3:2,0:0:0:0:
125,224,207536,2,0,L|125:102,1,107.5,8|0,3:2|3:2,0:0:0:0:
311,220,207793,2,0,L|311:347,1,107.5,0|0,3:2|3:2,0:0:0:0:
111,336,208050,2,0,L|185:336,1,53.75,2|0,3:1|3:2,0:0:0:0:
317,317,208221,6,0,L|403:319,1,53.75,8|0,3:2|3:2,0:0:0:0:
199,255,208393,2,0,L|199:98,1,107.5,2|8,3:1|3:2,0:0:0:0:
257,138,208650,1,8,3:2:0:0:
405,137,208736,2,0,L|333:136,1,53.75,8|8,3:2|3:2,0:0:0:0:
170,184,208907,6,0,L|171:112,1,53.75,8|8,0:0|0:0,0:0:0:0:
251,123,209078,2,0,L|253:59,1,53.75,8|8,0:0|0:0,0:0:0:0:
62,233,209250,2,0,L|63:161,1,53.75,8|8,0:0|0:0,0:0:0:0:
143,172,209421,2,0,L|145:108,1,53.75,8|8,0:0|0:0,0:0:0:0:
328,121,209593,6,0,L|340:28,3,53.75,2|2|0|0,0:0|0:0|0:0|0:0,0:0:0:0:
212,229,209936,2,0,L|200:136,3,53.75,0|0|0|0,0:2|0:2|0:2|0:2,0:0:0:0:
356,258,210278,2,0,L|421:258,1,53.75,8|8,0:3|0:3,0:0:0:0:
220,334,210450,2,0,L|157:333,1,53.75,8|8,0:3|0:3,0:0:0:0:
392,360,210621,2,0,P|441:318|369:255,1,161.25,12|0,0:0|0:0,0:0:0:0:
213,241,210964,6,0,L|68:243,1,107.5,14|0,0:0|0:0,0:0:0:0:
295,190,211221,2,0,P|292:132|216:117,1,107.5,2|0,0:2|0:0,0:0:0:0:
84,79,211478,2,0,L|143:79,1,53.75,2|0,0:0|0:0,0:0:0:0:
330,48,211650,6,0,L|470:48,1,107.5,8|0,0:0|0:0,0:0:0:0:
267,149,211907,2,0,L|151:148,1,107.5,2|0,0:0|0:0,0:0:0:0:
371,251,212164,2,0,L|287:251,1,53.75,2|0,0:0|0:0,0:0:0:0:
122,313,212336,6,0,L|121:244,1,53.75,8|0,0:0|0:0,0:0:0:0:
206,253,212507,2,0,L|206:189,1,53.75,0|0,0:1|0:0,0:0:0:0:
33,127,212678,2,0,L|186:127,1,107.5,8|0,0:1|0:0,0:0:0:0:
77,102,212936,1,0,0:0:0:0:
261,167,213021,6,0,L|390:167,1,107.5,10|0,0:0|0:0,0:0:0:0:
172,64,213278,2,0,L|316:63,1,107.5,2|0,0:0|0:0,0:0:0:0:
96,197,213536,2,0,L|96:132,1,53.75,2|0,0:0|0:0,0:0:0:0:
306,276,213707,6,0,L|243:260,1,53.75,8|0,0:0|0:0,0:0:0:0:
163,305,213878,1,0,0:0:0:0:
457,354,214050,2,0,L|454:217,1,107.5,8|0,0:1|0:0,0:0:0:0:
380,232,214307,1,0,0:0:0:0:
206,244,214393,2,0,L|207:133,1,107.5,8|2,0:0|0:0,0:0:0:0:
368,172,214650,2,0,L|491:172,1,107.5,0|0,0:0|0:0,0:0:0:0:
262,323,214907,2,0,L|159:323,1,53.75,2|0,0:0|0:0,0:0:0:0:
409,234,215078,6,0,L|283:235,1,107.5,8|2,0:0|0:0,0:0:0:0:
107,260,215336,2,0,L|107:149,1,107.5,0|0,0:0|0:0,0:0:0:0:
300,145,215593,2,0,L|364:145,1,53.75,2|0,0:0|0:0,0:0:0:0:
159,135,215764,5,10,0:2:0:0:
109,120,215849,1,0,0:0:0:0:
90,72,215935,1,0,0:0:0:0:
119,29,216021,1,0,0:0:0:0:
331,14,216107,2,0,L|247:4,1,53.75,2|0,0:0|0:0,0:0:0:0:
98,57,216278,2,0,L|42:54,1,53.75,0|0,0:0|0:0,0:0:0:0:
253,135,216450,6,0,L|392:146,1,107.5,14|0,0:0|0:0,0:0:0:0:
164,239,216707,2,0,L|45:228,1,107.5,2|0,0:0|0:0,0:0:0:0:
297,272,216964,2,0,L|303:349,1,53.75,2|0,0:0|0:0,0:0:0:0:
96,235,217136,6,0,L|216:215,1,107.5,8|0,0:0|0:0,0:0:0:0:
414,260,217393,2,0,L|412:133,1,107.5,2|0,0:0|0:0,0:0:0:0:
210,122,217650,2,0,L|156:125,1,53.75,2|0,0:0|0:0,0:0:0:0:
341,94,217821,6,0,L|341:26,1,53.75,8|0,0:0|0:0,0:0:0:0:
252,95,217993,2,0,L|251:29,1,53.75,0|0,0:0|0:0,0:0:0:0:
464,248,218164,2,0,L|465:122,1,107.5,8|0,0:1|0:0,0:0:0:0:
390,128,218421,1,0,0:0:0:0:
199,132,218507,2,0,L|40:132,1,107.5,2|0,0:0|0:0,0:0:0:0:
302,253,218764,2,0,L|440:255,1,107.5,2|0,0:0|0:0,0:0:0:0:
190,321,219021,2,0,L|189:233,1,53.75,2|0,0:0|0:0,0:0:0:0:
390,353,219193,5,12,0:3:0:0:
436,329,219278,1,0,0:0:0:0:
446,278,219364,1,0,0:3:0:0:
412,239,219450,1,0,0:0:0:0:
240,228,219536,2,0,L|233:166,1,53.75,8|0,0:1|0:0,0:0:0:0:
312,297,219707,2,0,L|325:243,1,53.75,8|0,0:3|0:0,0:0:0:0:
111,348,219878,5,8,0:0:0:0:
65,322,219963,1,0,0:0:0:0:
52,271,220049,1,2,0:3:0:0:
81,228,220135,1,0,0:0:0:0:
287,192,220221,2,0,L|222:187,1,53.75,8|0,0:1|0:0,0:0:0:0:
79,166,220393,2,0,L|22:161,1,53.75,4|0,0:3|0:0,0:0:0:0:
292,181,220564,5,8,0:0:0:0:
334,151,220649,1,0,0:0:0:0:
336,99,220735,1,4,0:3:0:0:
296,66,220821,1,0,0:0:0:0:
68,25,220907,2,0,L|126:21,1,53.75,8|0,0:1|0:0,0:0:0:0:
294,28,221078,2,0,L|374:24,1,53.75,8|8,0:0|0:0,0:0:0:0:
182,182,221250,6,0,L|106:182,3,53.75,8|0|4|4,0:3|0:0|0:3|0:3,0:0:0:0:
364,205,221593,2,0,L|419:204,1,53.75,8|4,0:1|0:3,0:0:0:0:
186,277,221764,2,0,L|119:276,1,53.75,8|12,0:3|0:3,0:0:0:0:
386,363,221936,6,0,L|386:238,1,107.5,10|0,0:0|0:0,0:0:0:0:
310,247,222193,1,0,0:0:0:0:
88,258,222278,2,0,L|201:258,1,107.5,2|0,0:0|0:0,0:0:0:0:
271,258,222536,1,0,0:0:0:0:
61,184,222621,6,0,L|57:63,1,107.5,2|0,0:0|0:0,0:0:0:0:
218,281,222878,2,0,L|213:157,1,107.5,2|0,0:0|0:0,0:0:0:0:
378,174,223136,2,0,L|378:110,1,53.75,2|0,0:0|0:0,0:0:0:0:
196,75,223307,6,0,L|264:75,1,53.75,8|0,0:0|0:0,0:0:0:0:
443,49,223478,2,0,L|380:50,1,53.75,0|0,0:0|0:0,0:0:0:0:
194,44,223650,2,0,L|74:44,1,107.5,8|0,0:1|0:0,0:0:0:0:
159,63,223907,1,0,0:0:0:0:
395,178,223993,6,0,L|399:57,1,107.5,10|0,0:0|0:0,0:0:0:0:
238,275,224250,2,0,L|243:151,1,107.5,2|0,0:0|0:0,0:0:0:0:
78,168,224508,2,0,L|78:104,1,53.75,2|0,0:0|0:0,0:0:0:0:
256,98,224678,6,0,L|331:97,1,53.75,8|0,0:0|0:0,0:0:0:0:
397,52,224850,1,0,0:0:0:0:
148,194,225021,2,0,L|293:194,1,107.5,8|0,0:1|0:0,0:0:0:0:
330,192,225278,1,0,0:0:0:0:
136,329,225364,1,8,0:0:0:0:
79,307,225449,1,0,0:0:0:0:
65,256,225535,1,0,0:0:0:0:
230,202,225621,2,0,L|243:138,1,53.75,2|8,0:0|0:1,0:0:0:0:
178,105,225793,1,0,0:0:0:0:
360,137,225878,2,0,L|374:78,1,53.75,2|0,0:0|0:0,0:0:0:0:
211,313,226050,6,0,L|200:252,1,53.75,8|0,0:0|0:0,0:0:0:0:
265,220,226221,1,0,0:0:0:0:
96,177,226307,2,0,L|23:198,2,53.75,2|8|0,0:0|0:1|0:0,0:0:0:0:
284,212,226564,2,0,L|369:195,1,53.75,2|0,0:0|0:0,0:0:0:0:
137,29,226736,5,2,0:0:0:0:
88,49,226821,1,0,0:0:0:0:
68,97,226907,1,0,0:0:0:0:
87,146,226993,1,0,0:0:0:0:
302,199,227078,2,0,L|235:193,1,53.75,8|0,0:1|0:0,0:0:0:0:
94,305,227250,2,0,L|163:298,1,53.75,0|0,0:0|0:0,0:0:0:0:
341,318,227421,6,0,L|487:308,1,107.5,10|0,0:0|0:0,0:0:0:0:
224,246,227678,2,0,L|108:253,1,107.5,2|0,0:0|0:0,0:0:0:0:
298,187,227936,2,0,L|367:182,1,53.75,2|0,0:0|0:0,0:0:0:0:
164,141,228107,6,0,L|161:79,1,53.75,8|0,0:0|0:0,0:0:0:0:
355,197,228278,2,0,L|356:268,1,53.75,2|0,0:0|0:0,0:0:0:0:
123,347,228450,2,0,L|278:347,1,107.5,8|0,0:1|0:0,0:0:0:0:
306,347,228707,1,2,0:0:0:0:
148,256,228793,6,0,L|67:257,1,53.75,8|0,0:0|0:0,0:0:0:0:
302,208,228964,2,0,L|372:207,1,53.75,2|0,0:0|0:0,0:0:0:0:
140,147,229136,2,0,L|138:75,1,53.75,8|0,0:1|0:0,0:0:0:0:
402,209,229307,2,0,L|345:207,1,53.75,2|2,0:0|0:0,0:0:0:0:
93,309,229478,5,10,0:0:0:0:
168,309,229564,1,0,0:0:0:0:
243,309,229650,1,0,0:0:0:0:
318,308,229736,1,0,0:0:0:0:
64,223,229821,1,2,0:0:0:0:
139,223,229907,1,0,0:0:0:0:
214,223,229993,1,0,0:0:0:0:
289,222,230079,1,0,0:0:0:0:
46,187,230164,6,0,L|43:46,1,107.5,10|0,0:2|0:0,0:0:0:0:
117,61,230421,1,0,0:0:0:0:
310,110,230507,2,0,L|311:186,1,53.75,8|0,0:1|0:0,0:0:0:0:
216,156,230678,2,0,L|216:215,1,53.75,8|0,0:0|0:0,0:0:0:0:
466,187,230850,6,0,L|469:46,1,107.5,10|0,0:0|0:0,0:0:0:0:
395,61,231107,1,0,0:0:0:0:
202,110,231193,2,0,L|201:186,1,53.75,8|0,0:1|0:0,0:0:0:0:
296,156,231364,2,0,L|296:215,1,53.75,8|0,0:0|0:0,0:0:0:0:
103,350,231536,5,12,0:0:0:0:
55,328,231621,1,0,0:0:0:0:
39,278,231707,1,0,0:0:0:0:
64,233,231793,1,0,0:0:0:0:
311,188,231878,2,0,L|243:183,1,53.75,2|2,0:0|0:0,0:0:0:0:
177,149,232050,2,0,L|106:144,1,53.75,2|2,0:0|0:0,0:0:0:0:
340,104,232221,6,0,L|398:106,1,53.75,2|2,0:0|0:0,0:0:0:0:
125,107,232393,2,0,L|57:106,1,53.75,2|2,0:0|0:0,0:0:0:0:
327,169,232564,2,0,L|330:97,1,53.75,12|0,0:1|0:0,0:0:0:0:
141,115,232736,2,0,L|229:113,1,53.75,8|0,0:0|0:0,0:0:0:0:
456,179,232907,6,0,L|456:60,1,107.5,12|0,0:0|0:0,0:0:0:0:
381,57,233164,1,0,0:0:0:0:
192,136,233250,2,0,L|193:67,1,53.75,8|0,0:1|0:0,0:0:0:0:
267,89,233421,2,0,L|186:90,1,53.75,0|0,0:0|0:0,0:0:0:0:
9,45,233593,2,0,L|158:44,1,107.5,8|0,0:0|0:0,0:0:0:0:
191,44,233850,1,0,0:0:0:0:
364,45,233936,2,0,L|433:43,1,53.75,8|0,0:1|0:0,0:0:0:0:
222,162,234107,2,0,L|221:92,1,53.75,2|0,0:0|0:0,0:0:0:0:
444,224,234278,6,0,L|376:223,1,53.75,8|0,0:0|0:0,0:0:0:0:
221,197,234450,2,0,L|151:195,1,53.75,0|0,0:0|0:0,0:0:0:0:
461,224,234621,2,0,L|463:113,1,107.5,8|0,0:1|0:0,0:0:0:0:
390,96,234878,1,0,0:0:0:0:
179,224,234964,2,0,L|336:223,1,107.5,10|0,0:0|0:0,0:0:0:0:
81,120,235221,2,0,L|211:121,1,107.5,2|0,0:0|0:0,0:0:0:0:
352,105,235478,2,0,L|431:105,1,53.75,2|0,0:0|0:0,0:0:0:0:
195,159,235650,6,0,L|196:93,1,53.75,8|0,0:0|0:0,0:0:0:0:
286,109,235821,2,0,L|286:30,1,53.75,0|0,0:0|0:0,0:0:0:0:
36,39,235993,2,0,L|182:39,1,107.5,8|0,0:1|0:0,0:0:0:0:
219,39,236250,1,0,0:0:0:0:
418,47,236336,2,0,L|418:167,1,107.5,8|0,0:0|0:0,0:0:0:0:
342,161,236593,1,0,0:0:0:0:
141,177,236678,2,0,L|221:175,1,53.75,8|0,0:1|0:0,0:0:0:0:
381,182,236850,2,0,L|467:182,1,53.75,2|0,0:0|0:0,0:0:0:0:
166,163,237021,6,0,L|36:162,1,107.5,8|0,0:0|0:0,0:0:0:0:
267,261,237278,2,0,L|381:261,1,107.5,2|0,0:0|0:0,0:0:0:0:
141,345,237536,2,0,L|141:268,1,53.75,2|0,0:0|0:0,0:0:0:0:
343,233,237707,6,0,L|214:232,1,107.5,10|8,0:0|0:3,0:0:0:0:
160,232,237964,1,0,0:0:0:0:
377,233,238050,1,8,0:1:0:0:
418,202,238135,1,0,0:0:0:0:
420,150,238221,1,4,0:3:0:0:
380,117,238307,1,0,0:0:0:0:
198,106,238393,6,0,L|51:106,1,107.5,10|0,0:0|0:0,0:0:0:0:
161,80,238650,1,0,0:0:0:0:
372,37,238736,2,0,L|372:148,1,107.5,8|0,0:1|0:0,0:0:0:0:
296,149,238993,1,0,0:0:0:0:
50,150,239078,2,0,L|181:150,1,107.5,8|0,0:0|0:0,0:0:0:0:
233,148,239336,1,0,0:0:0:0:
462,150,239421,2,0,L|331:150,1,107.5,8|0,0:1|0:0,0:0:0:0:
279,148,239679,1,0,0:0:0:0:
60,206,239764,5,10,0:0:0:0:
16,177,239849,1,0,0:0:0:0:
13,125,239935,1,0,0:0:0:0:
52,91,240021,1,0,0:0:0:0:
233,102,240107,2,0,L|239:26,1,53.75,8|0,0:1|0:0,0:0:0:0:
146,146,240278,2,0,L|150:80,1,53.75,0|0,0:0|0:0,0:0:0:0:
331,246,240450,5,8,0:0:0:0:
373,216,240535,1,0,0:0:0:0:
375,164,240621,1,0,0:0:0:0:
335,131,240707,1,0,0:0:0:0:
148,118,240793,2,0,L|219:114,1,53.75,8|0,0:1|0:0,0:0:0:0:
367,105,240964,2,0,L|434:99,1,53.75,8|0,0:3|0:0,0:0:0:0:
153,98,241136,6,0,L|21:90,1,107.5,10|0,0:0|0:0,0:0:0:0:
118,69,241393,1,0,0:0:0:0:
309,84,241478,2,0,L|316:4,1,53.75,8|0,0:1|0:0,0:0:0:0:
132,125,241650,2,0,L|124:189,1,53.75,0|0,0:0|0:0,0:0:0:0:
330,99,241821,2,0,L|477:100,1,107.5,8|0,0:0|0:0,0:0:0:0:
366,73,242078,1,0,0:0:0:0:
165,51,242164,2,0,L|240:51,1,53.75,8|0,0:1|0:0,0:0:0:0:
411,47,242336,2,0,L|471:48,1,53.75,2|0,0:0|0:0,0:0:0:0:
246,198,242507,6,0,L|244:82,1,107.5,8|0,0:0|0:0,0:0:0:0:
317,74,242764,1,0,0:0:0:0:
107,253,242850,1,8,0:1:0:0:
66,221,242935,1,0,0:0:0:0:
67,169,243021,1,0,0:0:0:0:
110,140,243107,1,0,0:0:0:0:
333,128,243193,2,0,L|273:123,1,53.75,2|0,0:0|0:0,0:0:0:0:
207,83,243364,2,0,L|122:78,1,53.75,8|0,0:3|0:0,0:0:0:0:
320,142,243536,2,0,L|385:148,1,53.75,8|0,0:1|0:0,0:0:0:0:
149,62,243707,2,0,L|75:57,1,53.75,4|0,0:3|0:0,0:0:0:0:
335,118,243878,6,0,L|467:109,1,107.5,4|0,0:0|0:0,0:0:0:0:
367,92,244136,1,2,0:0:0:0:
170,272,244221,2,0,L|177:204,1,53.75,0|0,0:0|0:0,0:0:0:0:
263,225,244393,2,0,L|272:156,1,53.75,2|0,0:0|0:0,0:0:0:0:
81,154,244564,2,0,L|76:42,1,107.5,8|0,0:0|0:0,0:0:0:0:
150,35,244821,1,0,0:0:0:0:
374,44,244907,2,0,L|284:44,1,53.75,8|0,0:1|0:0,0:0:0:0:
122,48,245078,2,0,L|49:49,1,53.75,2|0,0:0|0:0,0:0:0:0:
301,208,245250,6,0,L|300:117,1,53.75,8|0,0:0|0:0,0:0:0:0:
90,283,245421,2,0,L|175:282,1,53.75,0|0,0:0|0:0,0:0:0:0:
346,295,245593,2,0,L|486:295,1,107.5,8|0,0:1|0:0,0:0:0:0:
381,271,245850,1,0,0:0:0:0:
176,190,245936,2,0,L|326:189,1,107.5,2|0,0:0|0:0,0:0:0:0:
491,134,246193,2,0,L|337:133,1,107.5,2|0,0:0|0:0,0:0:0:0:
209,92,246450,2,0,L|133:91,1,53.75,2|0,0:0|0:0,0:0:0:0:
366,41,246621,5,8,0:0:0:0:
402,77,246706,1,0,0:0:0:0:
393,128,246792,1,0,0:0:0:0:
347,151,246878,1,0,0:0:0:0:
155,288,246964,2,0,L|156:164,1,107.5,8|0,0:1|0:0,0:0:0:0:
231,175,247221,1,0,0:0:0:0:
446,181,247307,2,0,L|317:180,1,107.5,10|0,0:0|0:0,0:0:0:0:
144,88,247564,2,0,L|260:87,1,107.5,0|0,0:0|0:0,0:0:0:0:
419,36,247821,2,0,L|421:100,1,53.75,2|0,0:0|0:0,0:0:0:0:
200,48,247993,6,0,L|69:47,1,107.5,8|0,0:0|0:0,0:0:0:0:
269,167,248250,2,0,L|388:167,1,107.5,2|0,0:0|0:0,0:0:0:0:
135,256,248507,2,0,L|136:165,1,53.75,2|0,0:0|0:0,0:0:0:0:
333,289,248678,2,0,L|452:289,1,107.5,8|4,0:0|0:3,0:0:0:0:
368,264,248936,1,0,0:0:0:0:
179,289,249021,2,0,L|60:289,1,107.5,8|4,0:1|0:3,0:0:0:0:
144,264,249279,1,0,0:0:0:0:
301,240,249364,6,0,L|299:168,1,53.75,10|0,0:0|0:0,0:0:0:0:
214,183,249536,2,0,L|211:117,1,53.75,0|0,0:0|0:0,0:0:0:0:
408,173,249707,1,8,0:1:0:0:
449,142,249792,1,0,0:0:0:0:
450,90,249878,1,0,0:0:0:0:
408,60,249964,1,0,0:0:0:0:
152,36,250050,1,8,0:0:0:0:
227,32,250136,1,0,0:0:0:0:
301,29,250221,1,8,0:3:0:0:
376,25,250307,1,0,0:0:0:0:
146,60,250393,2,0,L|56:66,1,53.75,8|0,0:1|0:0,0:0:0:0:
373,56,250564,2,0,L|446:49,1,53.75,4|0,0:3|0:0,0:0:0:0:
151,285,250736,5,10,0:0:0:0:
106,258,250821,1,0,0:0:0:0:
98,207,250907,1,0,0:0:0:0:
133,169,250993,1,0,0:0:0:0:
352,151,251078,2,0,L|281:145,1,53.75,8|0,0:1|0:0,0:0:0:0:
124,142,251250,2,0,L|55:136,1,53.75,0|0,0:0|0:0,0:0:0:0:
291,139,251421,5,8,0:0:0:0:
335,112,251506,1,0,0:0:0:0:
342,60,251592,1,8,0:3:0:0:
305,23,251678,1,0,0:0:0:0:
101,24,251764,2,0,L|163:19,1,53.75,8|0,0:1|0:0,0:0:0:0:
336,25,251936,2,0,L|424:18,1,53.75,4|0,0:3|0:0,0:0:0:0:
166,120,252107,6,0,L|17:113,1,107.5,2|0,0:0|0:0,0:0:0:0:
130,90,252364,1,0,0:0:0:0:
397,239,252450,2,0,L|407:112,1,107.5,8|0,0:1|0:0,0:0:0:0:
333,109,252707,1,0,0:0:0:0:
126,98,252793,2,0,L|227:89,1,53.75,0|0,0:0|0:0,0:0:0:0:
360,96,252964,2,0,L|421:86,1,53.75,8|0,0:3|0:0,0:0:0:0:
210,57,253136,2,0,L|126:68,1,53.75,4|0,0:3|0:0,0:0:0:0:
386,84,253307,2,0,L|448:73,1,53.75,4|0,0:3|0:0,0:0:0:0:
193,324,253478,5,4,0:0:0:0:
143,309,253563,1,0,0:0:0:0:
126,260,253649,1,0,0:0:0:0:
157,219,253735,1,0,0:0:0:0:
311,223,253821,2,0,L|317:161,1,53.75,8|8,0:3|0:0,0:0:0:0:
141,230,253993,2,0,L|138:288,1,53.75,4|4,0:3|0:3,0:0:0:0:
329,221,254164,6,0,L|414:217,1,53.75,2|2,0:0|0:0,0:0:0:0:
141,214,254336,2,0,L|64:218,1,53.75,2|2,0:0|0:0,0:0:0:0:
336,140,254507,2,0,L|346:205,1,53.75,2|2,0:0|0:0,0:0:0:0:
133,123,254678,2,0,L|191:115,1,53.75,2|2,0:0|0:0,0:0:0:0:
408,172,254850,6,0,L|418:42,1,107.5,4|0,0:0|0:0,0:0:0:0:
226,171,255107,2,0,L|215:285,1,107.5,2|0,0:1|0:0,0:0:0:0:
409,172,255364,1,2,0:0:0:0:
300,101,255536,2,0,L|376:94,1,53.75,8|2,0:0|0:0,0:0:0:0:
488,206,255793,2,0,L|431:195,1,53.75,8|2,0:0|0:0,0:0:0:0:
266,241,256050,2,0,L|204:234,1,53.75,8|8,0:0|0:0,0:0:0:0:
50,184,256221,6,0,L|40:54,1,107.5,0|0,0:0|0:0,0:0:0:0:
232,183,256478,2,0,L|243:297,1,107.5,2|0,0:1|0:0,0:0:0:0:
50,184,256735,1,8,0:0:0:0:
186,104,256907,2,0,L|110:97,1,53.75,8|2,0:0|0:0,0:0:0:0:
0,216,257164,2,0,L|57:205,1,53.75,8|2,0:0|0:0,0:0:0:0:
222,251,257421,2,0,L|284:244,1,53.75,0|0,0:0|0:0,0:0:0:0:
465,288,257593,6,0,L|469:175,1,107.5,8|0,0:0|0:0,0:0:0:0:
394,167,257850,1,2,0:1:0:0:
214,187,257936,2,0,L|210:74,1,107.5,0|8,0:0|0:0,0:0:0:0:
285,66,258193,1,0,0:0:0:0:
493,78,258278,2,0,L|373:66,1,107.5,8|0,0:0|0:0,0:0:0:0:
309,62,258536,1,8,0:0:0:0:
138,49,258621,1,2,0:0:0:0:
307,37,258793,2,0,L|314:98,1,53.75,0|2,0:0|0:1,0:0:0:0:
111,150,258964,6,0,L|96:260,1,107.5,8|2,0:0|0:0,0:0:0:0:
170,272,259221,1,2,0:0:0:0:
356,312,259307,1,8,0:0:0:0:
217,263,259478,2,0,L|291:249,1,53.75,2|0,0:1|0:0,0:0:0:0:
451,239,259650,2,0,L|457:128,1,107.5,8|2,0:0|0:1,0:0:0:0:
326,325,259993,2,0,L|444:315,1,107.5,8|2,0:0|0:1,0:0:0:0:
156,229,260336,6,0,L|152:89,1,107.5,8|0,0:0|0:0,0:0:0:0:
343,230,260593,2,0,L|342:338,1,107.5,2|0,0:1|0:0,0:0:0:0:
156,228,260850,1,8,0:0:0:0:
290,157,261021,2,0,L|238:143,1,53.75,8|2,0:0|0:0,0:0:0:0:
105,249,261278,2,0,L|184:235,1,53.75,8|2,0:0|0:0,0:0:0:0:
318,273,261536,2,0,L|377:263,1,53.75,8|8,0:0|0:0,0:0:0:0:
150,353,261707,6,0,L|145:236,1,107.5,8|0,0:0|0:0,0:0:0:0:
347,126,261964,2,0,L|349:252,1,107.5,2|0,0:1|0:0,0:0:0:0:
143,245,262221,1,8,0:0:0:0:
303,247,262393,2,0,L|358:247,1,53.75,8|2,0:0|0:0,0:0:0:0:
217,166,262650,2,0,L|158:167,1,53.75,8|2,0:0|0:0,0:0:0:0:
325,121,262907,2,0,L|384:119,1,53.75,8|8,0:0|0:0,0:0:0:0:
157,143,263078,6,0,L|153:19,1,107.5,0|0,0:0|0:0,0:0:0:0:
339,153,263336,2,0,L|343:263,1,107.5,2|0,0:1|0:0,0:0:0:0:
158,143,263593,1,8,0:0:0:0:
289,115,263764,2,0,L|358:115,1,53.75,8|2,0:0|0:0,0:0:0:0:
204,54,264021,2,0,L|137:53,1,53.75,8|2,0:0|0:0,0:0:0:0:
291,113,264278,2,0,L|375:111,1,53.75,8|8,0:0|0:0,0:0:0:0:
175,248,264450,6,0,L|176:157,1,53.75,8|0,0:0|0:0,0:0:0:0:
263,211,264621,2,0,L|264:140,1,53.75,2|0,0:1|0:0,0:0:0:0:
85,203,264793,1,8,0:0:0:0:
42,173,264878,1,0,0:0:0:0:
42,121,264964,1,2,0:1:0:0:
84,91,265050,1,0,0:0:0:0:
317,55,265136,1,8,0:0:0:0:
263,50,265221,1,0,0:0:0:0:
209,45,265307,1,2,0:1:0:0:
156,41,265393,1,0,0:1:0:0:
296,138,265478,2,0,L|352:145,1,53.75,8|0,0:0|0:0,0:0:0:0:
166,197,265650,2,0,L|108:192,1,53.75,2|0,0:1|0:0,0:0:0:0:
324,252,265821,6,0,L|325:180,1,53.75,8|0,0:0|0:0,0:0:0:0:
125,332,265993,2,0,L|251:332,1,107.5,0|0,0:0|0:0,0:0:0:0:
308,332,266250,1,0,0:0:0:0:
480,337,266336,1,8,0:0:0:0:
329,333,266507,2,0,L|330:268,1,53.75,8|2,0:0|0:0,0:0:0:0:
480,289,266764,2,0,L|481:231,1,53.75,8|2,0:0|0:0,0:0:0:0:
331,213,267021,2,0,L|246:212,1,53.75,8|8,0:0|0:0,0:0:0:0:
47,207,267193,6,0,L|48:79,1,107.5,8|0,0:0|0:0,0:0:0:0:
254,15,267450,2,0,L|253:123,1,107.5,2|0,0:1|0:0,0:0:0:0:
48,100,267707,1,8,0:0:0:0:
194,85,267878,2,0,L|257:85,1,53.75,8|2,0:0|0:0,0:0:0:0:
96,29,268136,2,0,L|39:29,1,53.75,8|0,0:0|0:0,0:0:0:0:
217,104,268393,2,0,L|272:104,1,53.75,0|0,0:0|0:0,0:0:0:0:
474,101,268564,6,0,L|475:224,1,107.5,8|0,0:0|0:0,0:0:0:0:
400,219,268821,1,2,0:1:0:0:
178,248,268907,2,0,L|306:248,1,107.5,0|8,0:0|0:0,0:0:0:0:
360,248,269164,1,0,0:0:0:0:
130,78,269250,6,0,L|129:201,1,107.5,8|0,0:0|0:0,0:0:0:0:
204,196,269507,1,8,0:0:0:0:
426,225,269593,2,0,L|298:225,1,107.5,2|8,0:0|0:0,0:0:0:0:
244,225,269850,1,8,0:0:0:0:
38,223,269936,5,8,0:0:0:0:
166,263,270107,2,0,L|227:252,1,53.75,2|2,0:0|0:0,0:0:0:0:
411,315,270278,1,8,0:0:0:0:
264,355,270450,2,0,L|264:295,1,53.75,0|0,0:0|0:0,0:0:0:0:
458,272,270621,2,0,L|458:157,1,107.5,0|0,0:0|0:0,0:0:0:0:
327,318,270964,2,0,L|446:318,1,107.5,0|0,0:0|0:0,0:0:0:0:
112,358,271307,6,0,L|112:247,1,107.5,8|0,0:0|0:0,0:0:0:0:
247,250,271650,2,0,L|246:126,1,107.5,8|0,0:0|0:0,0:0:0:0:
395,351,271993,2,0,L|395:240,1,107.5,8|0,0:0|0:0,0:0:0:0:
260,243,272336,2,0,L|261:119,1,107.5,8|0,0:0|0:0,0:0:0:0:
36,101,272678,5,8,0:0:0:0:
171,89,272850,1,8,0:0:0:0:
36,101,273021,2,0,L|31:214,1,107.5,8|8,0:0|0:0,0:0:0:0:
171,89,273364,1,8,0:0:0:0:
306,77,273536,1,8,0:0:0:0:
171,89,273707,2,0,L|166:202,1,107.5,8|8,0:0|0:0,0:0:0:0:
394,333,274050,5,8,0:0:0:0:
444,315,274135,1,8,0:0:0:0:
483,278,274221,1,8,0:0:0:0:
503,229,274307,1,8,0:0:0:0:
500,176,274392,1,8,0:0:0:0:
476,128,274478,1,8,0:0:0:0:
434,95,274564,1,8,0:0:0:0:
383,82,274649,1,8,0:0:0:0:
171,249,274736,5,8,0:0:0:0:
129,218,274821,1,8,0:0:0:0:
125,166,274907,1,8,0:0:0:0:
163,130,274993,1,8,0:0:0:0:
253,252,275078,1,8,0:0:0:0:
294,221,275163,1,8,0:0:0:0:
298,169,275249,1,8,0:0:0:0:
260,133,275335,1,8,0:0:0:0:
68,137,275421,6,0,L|63:68,3,53.75,6|0|0|0,0:3|0:0|0:0|0:0,0:0:0:0:
68,137,275764,2,0,L|183:124,1,107.5,0|0,0:0|0:0,0:0:0:0:
317,267,276107,2,0,L|209:252,1,107.5,0|0,0:0|0:0,0:0:0:0:
75,361,276450,2,0,L|194:347,1,107.5,0|0,0:0|0:0,0:0:0:0:
458,318,276793,5,4,0:0:0:0:
256,192,276878,12,0,283650,0:0:0:0:
