osu file format v14

[General]
AudioFilename: audio.mp3
AudioLeadIn: 0
PreviewTime: -1
Countdown: 1
SampleSet: None
StackLeniency: 0.4
Mode: 0
LetterboxInBreaks: 0
WidescreenStoryboard: 0

[Editor]
DistanceSpacing: 1
BeatDivisor: 8
GridSize: 8
TimelineZoom: 2.35

[Metadata]
Title:Hype feat. Such
TitleUnicode:Hype feat. Such
Artist:PSYQUI
ArtistUnicode:PSYQUI
Creator:big brain
Version:wtf big birain
Source:
Tags:
BeatmapID:1915078
BeatmapSetID:916980

[Difficulty]
HPDrainRate:4
CircleSize:5
OverallDifficulty:8
ApproachRate:9.5
SliderMultiplier:2.4
SliderTickRate:1

[Events]
//Background and Video events
//Break Periods
//Storyboard Layer 0 (Background)
//Storyboard Layer 1 (Fail)
//Storyboard Layer 2 (Pass)
//Storyboard Layer 3 (Foreground)
//Storyboard Sound Samples

[TimingPoints]
810,348.837209302326,4,2,0,40,1,0
3600,-200,4,2,0,40,0,0
20344,-142.857142857143,4,2,0,40,0,0
26623,-111.111111111111,4,3,0,60,0,0
27670,-333.333333333334,4,3,0,60,0,0
28019,-111.111111111111,4,3,0,60,0,0
28716,-142.857142857143,4,3,0,60,0,0
29414,-111.111111111111,4,3,0,60,0,0
34472,-249.999999999999,4,3,0,60,0,0
34996,-142.857142857143,4,3,0,60,0,0
38484,-166.666666666666,4,3,0,60,0,0
38833,-200,4,3,0,60,0,0
39182,-249.999999999999,4,3,0,60,0,0
39530,-333.333333333332,4,3,0,60,0,0
39879,-499.999999999997,4,3,0,60,0,0
42670,-333.333333333332,4,3,0,60,0,0
42844,-249.999999999999,4,3,0,60,0,0
43019,-200,4,3,0,60,0,0
43193,-166.666666666666,4,3,0,60,0,0
43368,-142.857142857143,4,3,0,60,0,0
43542,-125,4,3,0,60,0,0
43716,-111.111111111111,4,3,0,60,0,0
43891,-100,4,3,0,60,0,0
44065,-90.9090909090909,4,3,0,60,0,0
44240,-83.3333333333333,4,3,0,60,0,0
44414,-76.9230769230769,4,3,0,60,0,0
45461,-142.857142857143,4,3,0,60,0,0

[HitObjects]
116,119,3600,6,0,B|133:83|158:66|158:66|180:127|155:184,1,180
142,248,4298,2,0,P|141:283|150:315,3,60
204,355,4996,2,0,P|257:353|288:363,3,60
330,382,5693,2,0,P|359:385|389:382,3,60
453,303,6391,6,0,B|475:294|475:294|408:267|408:267|431:226|431:226|425:175,1,180
363,125,7089,2,0,L|357:197,3,60
282,87,7786,2,0,L|276:14,3,60
212,144,8484,6,0,L|209:217,1,60
163,281,8833,2,0,B|167:313|167:313|154:360,1,60
36,239,9182,6,0,P|83:228|113:243,1,60
159,339,9530,2,0,P|112:350|82:335,1,60
160,169,9879,2,0,P|209:167|237:188,1,60
319,356,10228,2,0,P|273:366|244:352,1,60
411,280,10577,6,0,B|461:284|461:284|446:260,1,60
344,218,10926,2,0,B|308:269|308:269,1,60
425,183,11275,2,0,B|397:125,1,60
206,75,11623,6,0,P|264:83|312:61,1,90
318,47,11972,2,0,P|294:88|291:123,1,60
287,186,12321,2,0,P|294:232|313:262,1,60
350,318,12670,6,0,P|327:276|298:256,1,60
245,221,13019,2,0,P|201:204|166:207,1,60
99,210,13368,6,0,P|146:211|178:196,1,60
235,168,13716,2,0,P|272:138|287:106,1,60
316,49,14065,5,0,0:0:0:0:
99,210,14240,1,0,0:0:0:0:
355,323,14414,1,0,0:0:0:0:
355,324,14763,6,0,B|386:305|397:273|386:221|347:197|292:211|274:249|278:282|278:282|310:273|336:217|340:167|334:123|324:89|306:65|279:43,2,480
120,323,17903,1,0,0:0:0:0:
120,323,18251,6,0,B|147:253|140:192|115:252|106:162|129:100|129:100|136:127,2,240
223,121,19996,1,0,0:0:0:0:
223,121,20344,6,0,L|312:106,1,83.9999974365235
366,151,20693,2,0,L|276:138,1,83.9999974365235
215,176,21042,2,0,L|304:161,1,83.9999974365235
358,206,21391,2,0,L|268:193,1,83.9999974365235
109,251,21740,6,0,B|108:184|108:184|97:226,1,83.9999974365235
164,310,22089,2,0,B|165:377|165:377|169:360,1,83.9999974365235
215,233,22437,6,0,B|214:166|214:166|203:208,1,83.9999974365235
260,305,22786,2,0,B|261:372|261:372|265:355,1,83.9999974365235
460,190,23135,5,0,0:0:0:0:
437,303,23310,1,0,0:0:0:0:
366,93,23484,5,0,0:0:0:0:
397,236,23658,1,0,0:0:0:0:
450,32,23833,5,0,0:0:0:0:
411,134,24007,1,0,0:0:0:0:
311,93,24182,1,0,0:0:0:0:
328,248,24356,1,0,0:0:0:0:
215,162,24530,5,0,0:0:0:0:
184,134,24618,1,0,0:0:0:0:
143,137,24705,1,0,0:0:0:0:
117,169,24792,1,0,0:0:0:0:
121,209,24879,1,0,0:0:0:0:
154,234,24966,1,0,0:0:0:0:
194,228,25054,6,0,P|181:225|159:224,1,20.9999993591309
143,219,25141,2,0,P|131:219|111:234,1,20.9999993591309
101,233,25228,2,0,P|93:238|82:254,1,20.9999993591309
75,276,25315,6,0,P|77:298|85:319,1,41.9999987182618
167,363,25490,6,0,P|181:365|196:363,1,20.9999993591309
188,363,25577,6,0,P|220:358|236:363,1,41.9999987182618
306,289,25751,5,0,0:0:0:0:
306,289,25839,1,0,0:0:0:0:
377,353,25926,5,0,0:0:0:0:
471,243,26275,6,0,L|473:177,1,41.9999987182618
424,92,26449,6,0,L|421:130,2,27.9999991455078
352,186,26623,6,0,P|297:187|266:178,1,53.9999983520508
227,148,26798,5,0,0:0:0:0:
200,118,26885,1,0,0:0:0:0:
184,132,26972,1,0,0:0:0:0:
176,134,27060,2,0,L|176:163,1,26.9999991760254
80,177,27147,6,0,P|88:128|78:2,1,161.999995056153
105,34,27496,2,0,P|116:72|131:105,1,53.9999983520508
163,284,27670,6,0,B|168:256|168:256|186:223,1,53.9999983520508
219,190,28019,6,0,B|224:218|224:218|242:251,1,53.9999983520508
288,308,28193,1,0,0:0:0:0:
288,308,28280,2,0,B|310:325|310:325|345:337,1,53.9999983520508
422,329,28455,6,0,B|408:319|385:320,1,26.9999991760254
422,329,28542,6,0,P|450:319|472:289,1,53.9999983520508
442,175,28891,6,0,P|436:197|441:233,2,41.9999987182618
466,97,29240,1,0,0:0:0:0:
381,110,29414,6,0,P|359:118|323:117,1,41.9999987182618
236,84,29589,1,0,0:0:0:0:
233,103,29676,1,0,0:0:0:0:
174,146,29763,1,0,0:0:0:0:
176,151,29850,1,0,0:0:0:0:
237,249,29937,6,0,B|232:297|232:297|227:284,1,53.9999983520508
300,333,30112,1,0,0:0:0:0:
284,338,30199,1,0,0:0:0:0:
320,319,30286,2,0,L|318:292,1,26.9999991760254
337,329,30373,2,0,L|339:359,1,26.9999991760254
367,316,30461,6,0,L|427:309,1,53.9999983520508
480,217,30635,6,0,L|301:199,1,161.999995056153
234,192,30984,2,0,L|168:184,1,53.9999983520508
36,126,31158,1,0,0:0:0:0:
36,126,31246,1,0,0:0:0:0:
36,126,31333,6,0,L|78:122,1,26.9999991760254
113,80,31420,2,0,L|145:82,1,26.9999991760254
204,125,31507,5,0,0:0:0:0:
281,79,31682,1,0,0:0:0:0:
281,79,31769,2,0,B|307:70|307:70|346:83,1,53.9999983520508
435,121,31943,1,0,0:0:0:0:
437,147,32030,2,0,L|407:150,1,26.9999991760254
442,180,32118,2,0,L|412:183,1,26.9999991760254
446,206,32205,6,0,L|375:213,1,53.9999983520508
304,280,32379,1,0,0:0:0:0:
304,280,32466,2,0,L|239:278,1,53.9999983520508
125,232,32641,1,0,0:0:0:0:
125,232,32728,2,0,P|118:275|123:300,3,53.9999983520508
181,172,33077,6,0,B|189:146|189:146|175:103,1,53.9999983520508
76,69,33251,1,0,0:0:0:0:
36,172,33426,1,0,0:0:0:0:
181,118,33600,2,0,P|222:115|245:124,1,53.9999983520508
385,152,33775,5,0,0:0:0:0:
376,168,33862,1,0,0:0:0:0:
396,200,33949,1,0,0:0:0:0:
400,217,34036,1,0,0:0:0:0:
382,250,34123,2,0,L|372:308,1,53.9999983520508
386,106,34298,5,0,0:0:0:0:
484,61,34472,2,0,L|467:185,1,120
451,257,34996,1,0,0:0:0:0:
411,241,35083,2,0,P|391:236|374:235,1,20.9999993591309
347,232,35170,1,0,0:0:0:0:
305,233,35257,1,0,0:0:0:0:
278,243,35344,1,0,0:0:0:0:
249,245,35432,1,0,0:0:0:0:
234,243,35519,6,0,B|210:266|197:306|227:293|222:331|200:360|200:360|198:333|189:314,1,167.999994873047
142,180,36042,2,0,P|138:214|152:275,1,83.9999974365235
191,85,36391,2,0,B|217:116|217:116|234:155,1,83.9999974365235
38,76,36740,2,0,P|72:100|114:108,1,83.9999974365235
252,37,37089,6,0,P|304:37|345:53,1,83.9999974365235
489,112,37437,2,0,P|437:112|396:96,1,83.9999974365235
248,133,37786,2,0,P|300:133|341:149,1,83.9999974365235
485,208,38135,2,0,P|433:208|392:192,1,83.9999974365235
463,315,38484,6,0,B|428:306|428:306|384:323,1,71.9999978027344
334,355,38833,2,0,B|306:362|306:362|271:348,1,60
233,321,39182,2,0,B|209:315|209:315|187:323,1,48
161,337,39530,2,0,B|143:341|143:341|126:334,1,35.9999989013672
46,305,39879,6,0,B|52:291|52:291|46:282,1,24
37,266,40228,2,0,B|31:252|31:252|37:243,1,24
47,229,40577,2,0,B|53:215|53:215|47:206,1,24
37,187,40926,1,0,0:0:0:0:
76,89,41100,5,0,0:0:0:0:
76,89,41187,1,0,0:0:0:0:
76,89,41275,2,0,P|89:83|101:86,1,24
146,137,41623,2,0,P|159:143|171:140,1,24
207,63,41972,2,0,P|220:57|232:60,1,24
277,111,42320,2,0,P|290:117|302:114,1,24
364,51,42670,6,0,P|374:49|387:50,1,17.9999994506836
400,64,42844,2,0,P|408:69|416:80,1,24
434,105,43019,2,0,P|437:119|437:137,1,30
435,170,43193,2,0,P|427:185|412:202,1,35.9999989013672
386,230,43368,2,0,P|362:240|329:245,1,41.9999987182618
300,232,43542,2,0,P|275:225|246:207,1,48
202,204,43716,2,0,P|176:209|147:225,1,53.9999983520508,0|0,2:0|2:0,2:0:0:0:
106,263,43891,2,0,P|90:283|78:314,1,60,0|0,2:0|2:0,2:0:0:0:
30,124,44065,6,0,P|55:118|84:103,1,60,0|0,2:0|2:0,2:0:0:0:
140,45,44240,2,0,P|187:42|232:58,1,71.9999978027344
279,85,44414,2,0,P|318:115|335:146,1,77.9999964294435
366,210,44589,2,0,P|363:259|348:290,1,77.9999964294435
197,297,44763,5,0,0:0:0:0:
170,118,44937,1,0,0:0:0:0:
190,297,45112,1,0,0:0:0:0:
176,117,45286,1,0,0:0:0:0:
353,286,45461,5,0,0:0:0:0:
394,283,45548,1,0,0:0:0:0:
428,259,45635,1,0,0:0:0:0:
444,221,45722,1,0,0:0:0:0:
439,180,45809,1,0,0:0:0:0:
412,148,45897,1,0,0:0:0:0:
373,134,45984,1,0,0:0:0:0:
333,143,46071,1,0,0:0:0:0:
375,210,46158,5,0,0:0:0:0:
384,191,46245,1,0,0:0:0:0:
388,170,46332,1,0,0:0:0:0:
387,149,46419,1,0,0:0:0:0:
379,127,46507,1,0,0:0:0:0:
377,116,46594,1,0,0:0:0:0:
378,106,46681,1,0,0:0:0:0:
380,95,46768,1,0,0:0:0:0:
383,85,46855,1,0,0:0:0:0:
