osu file format v14

[General]
AudioFilename: audio.mp3
AudioLeadIn: 0
PreviewTime: 46773
Countdown: 0
SampleSet: Soft
StackLeniency: 0.3
Mode: 0
LetterboxInBreaks: 0
WidescreenStoryboard: 1

[Editor]
DistanceSpacing: 1
BeatDivisor: 8
GridSize: 4
TimelineZoom: 1.1

[Metadata]
Title:Hype feat. Such
TitleUnicode:Hype feat. Such
Artist:PSYQUI
ArtistUnicode:PSYQUI
Creator:NyarkoO
Version:Dreamer
Source:
Tags:M3-41 Japanese Future Bass Complextro Hardcore Future Core Dubstep Drumstep Vocal lapix FUGENE 2 fügene MEGAREX MRX-016
BeatmapID:1633532
BeatmapSetID:777596

[Difficulty]
HPDrainRate:5.6
CircleSize:3.8
OverallDifficulty:8.5
ApproachRate:9.6
SliderMultiplier:2.15
SliderTickRate:1

[Events]
//Background and Video events
0,0,"BG.jpg",0,0
//Break Periods
//Storyboard Layer 0 (Background)
//Storyboard Layer 1 (Fail)
//Storyboard Layer 2 (Pass)
//Storyboard Layer 3 (Foreground)
//Storyboard Sound Samples

[TimingPoints]
854,348.837209302326,4,2,1,40,1,0
2423,-100,4,2,1,80,0,0
3470,-100,4,2,3,40,0,0
3645,-133.333333333333,4,2,1,40,0,0
14807,-100,4,2,1,50,0,0
20389,-100,4,2,1,55,0,0
21086,-100,4,2,1,58,0,0
21784,-100,4,2,1,60,0,0
22482,-100,4,2,1,63,0,0
23179,-100,4,2,1,65,0,0
23877,-100,4,2,1,68,0,0
24575,-100,4,2,1,70,0,0
25272,-100,4,2,1,73,0,0
25970,-66.6666666666667,4,2,1,75,0,1
26144,-133.333333333333,4,2,1,55,0,0
26319,-100,4,2,1,70,0,0
26493,-80,4,2,1,40,0,0
26668,-133.333333333333,4,2,1,55,0,0
27191,-100,4,2,1,60,0,0
27714,-200,4,2,1,40,0,0
28063,-100,4,2,1,55,0,0
28586,-80,4,2,1,70,0,0
28761,-133.333333333333,4,2,1,40,0,0
29458,-100,4,2,1,60,0,0
29982,-80,4,2,1,70,0,0
30156,-133.333333333333,4,2,1,55,0,0
30679,-80,4,2,1,70,0,0
31028,-66.6666666666667,4,2,1,75,0,0
31203,-133.333333333333,4,2,1,40,0,0
31290,-80,4,2,1,70,0,0
31377,-80,4,2,2,70,0,0
31464,-80,4,2,1,70,0,0
31551,-80,4,2,1,70,0,0
31726,-133.333333333333,4,2,2,50,0,0
31813,-133.333333333333,4,2,1,50,0,0
32075,-133.333333333333,4,2,2,50,0,0
32162,-133.333333333333,4,2,1,50,0,0
32249,-66.6666666666667,4,2,1,40,0,0
32511,-100,4,2,1,35,0,0
32772,-66.6666666666667,4,2,1,75,0,0
33121,-80,4,2,1,45,0,0
33296,-100,4,2,1,55,0,0
33645,-100,4,2,1,65,0,0
33819,-100,4,2,1,40,0,0
34168,-66.6666666666667,4,2,1,75,0,0
34342,-100,4,2,1,40,0,0
34691,-200,4,2,1,30,0,0
35040,-100,4,2,1,70,0,0
35389,-133.333333333333,4,2,1,55,0,0
35563,-66.6666666666667,4,2,1,75,0,0
36086,-71.4285714285714,4,2,1,72,0,0
36435,-76.9230769230769,4,2,1,70,0,0
36784,-83.3333333333333,4,2,1,67,0,0
37133,-100,4,2,1,60,0,0
37482,-105.263157894737,4,2,1,58,0,0
37831,-111.111111111111,4,2,1,56,0,0
38179,-117.647058823529,4,2,1,54,0,0
38528,-125,4,2,1,52,0,0
38877,-133.333333333333,4,2,1,50,0,0
39924,-133.333333333333,4,2,1,48,0,0
40272,-133.333333333333,4,2,1,46,0,0
40621,-133.333333333333,4,2,1,44,0,0
40970,-133.333333333333,4,2,1,42,0,0
41319,-133.333333333333,4,2,1,40,0,0
42714,-125,4,2,1,42,0,0
43063,-117.647058823529,4,2,1,50,0,0
43412,-111.111111111111,4,2,1,56,0,0
43761,-105.263157894737,4,2,1,60,0,0
44110,-100,4,2,1,66,0,0
44458,-95.2380952380952,4,2,1,70,0,0
44807,-90.9090909090909,4,2,1,72,0,0
45156,-86.9565217391304,4,2,1,74,0,0
45505,-83.3333333333333,4,2,1,76,0,0
45854,-80,4,2,1,78,0,0
46203,-76.9230769230769,4,2,1,80,0,0
46551,-74.0740740740741,4,2,1,82,0,0
46900,-86.9565217391304,4,2,1,55,0,0
47249,-80,4,2,1,60,0,0
47598,-133.333333333333,4,2,1,45,0,0
48296,-200,4,2,2,30,0,0
48645,-133.333333333333,4,2,1,50,0,0
48993,-66.6666666666667,4,2,1,100,0,1
49081,-66.6666666666667,4,2,1,85,0,1
59284,-66.6666666666667,4,2,1,75,0,0
59458,-66.6666666666667,4,2,1,100,0,1
59546,-66.6666666666667,4,2,1,85,0,1
62598,-55.5555555555556,4,2,1,85,0,1
62947,-66.6666666666667,4,2,1,85,0,1
64952,-66.6666666666667,4,2,1,85,0,0
65040,-66.6666666666667,4,2,1,70,0,1
65737,-66.6666666666667,4,2,1,50,0,0
66086,-66.6666666666667,4,2,1,70,0,1
66784,-133.333333333333,4,2,1,90,0,0
66828,-133.333333333333,4,2,1,50,0,0
67133,-66.6666666666667,4,2,1,70,0,1
67394,-66.6666666666667,4,2,1,85,0,0
67481,-66.6666666666667,4,2,1,70,0,1
67743,-66.6666666666667,4,2,1,85,0,0
67830,-57.1428571428571,4,2,1,75,0,1
68179,-133.333333333333,4,2,1,40,0,0
68528,-66.6666666666667,4,2,1,75,0,1
68877,-133.333333333333,4,2,1,40,0,0
69226,-100,4,2,1,75,0,1
69923,-142.857142857143,4,2,1,55,0,0
70272,-166.666666666667,4,2,1,45,0,0
70621,-200,4,2,1,40,0,0
72365,-166.666666666667,4,2,1,50,0,0
72714,-133.333333333333,4,2,1,60,0,0
73063,-200,4,2,2,55,0,0
73412,-100,4,2,1,75,0,0
73499,-100,4,2,1,50,0,0
81784,-100,4,2,1,75,0,0
81871,-100,4,2,1,50,0,0
83179,-100,4,2,1,52,0,0
84575,-100,4,2,1,54,0,0
85970,-100,4,2,1,56,0,0
86668,-100,4,2,1,58,0,0
87365,-100,4,2,1,60,0,0
88063,-100,4,2,1,64,0,0
88761,-100,4,2,1,68,0,0
89458,-100,4,2,1,72,0,0
90156,-100,4,2,1,50,0,0
90505,-100,4,2,1,54,0,0
90854,-100,4,2,1,58,0,0
91203,-100,4,2,1,62,0,0
91551,-100,4,2,1,64,0,0
91900,-100,4,2,1,66,0,0
92249,-100,4,2,1,68,0,0
92598,-100,4,2,1,70,0,0
92947,-100,4,2,1,100,0,0
93296,-200,4,2,1,20,0,0
95040,-200,4,2,1,17,0,0
95389,-200,4,2,1,12,0,0
95738,-200,4,2,1,10,0,0
96086,-200,4,2,1,15,0,0
97743,-200,4,2,3,15,0,0
97831,-200,4,2,1,15,0,0
98441,-200,4,2,3,15,0,0
98529,-200,4,2,1,15,0,0
99836,-200,4,2,3,15,0,0
99924,-200,4,2,1,15,0,0
100534,-200,4,2,3,15,0,0
100622,-200,4,2,1,15,0,0
101232,-200,4,2,3,15,0,0
101320,-200,4,2,1,15,0,0
102627,-200,4,2,3,15,0,0
102714,-200,4,2,1,15,0,0
104110,-100,4,2,1,50,0,0
109691,-100,4,2,1,80,0,0
109778,-100,4,2,1,60,0,0
112482,-133.333333333333,4,2,1,35,0,0
112656,-117.647058823529,4,2,1,40,0,0
112831,-105.263157894737,4,2,1,45,0,0
113005,-95.2380952380952,4,2,1,50,0,0
113179,-86.9565217391306,4,2,1,55,0,0
113354,-80,4,2,1,60,0,0
113528,-74.0740740740741,4,2,1,65,0,0
113703,-68.9655172413793,4,2,1,70,0,0
113877,-200,4,2,1,40,0,0
114924,-66.6666666666667,4,2,1,75,0,0
115272,-66.6666666666667,4,2,1,80,0,1
115621,-100,4,3,2,50,0,0
115796,-100,4,3,2,50,0,0
120505,-80,4,2,2,75,0,1
120854,-100,4,3,2,50,0,0
125738,-80,4,3,2,65,0,0
126086,-57.1428571428571,4,3,2,65,0,0
126784,-66.6666666666667,4,2,1,100,0,1
126871,-66.6666666666667,4,2,1,80,0,1
127831,-100,4,2,1,80,0,1
128005,-66.6666666666667,4,2,1,80,0,1
130621,-100,4,2,1,80,0,1
130795,-66.6666666666667,4,2,1,80,0,1
132801,-80,4,2,1,80,0,1
133063,-66.6666666666667,4,2,1,80,0,1
136900,-57.1428571428571,4,2,1,80,0,1
137075,-66.6666666666667,4,2,1,80,0,1
137249,-80,4,2,1,80,0,0
137598,-66.6666666666667,4,2,1,100,0,1
137685,-66.6666666666667,4,2,1,80,0,1
141174,-80,4,2,1,80,0,1
141436,-66.6666666666667,4,2,1,80,0,1
142482,-57.1428571428571,4,2,1,80,0,1
142831,-50,4,2,1,80,0,1
143179,-66.6666666666667,4,2,1,80,0,1
145970,-100,4,2,1,70,0,1
146319,-133.333333333333,4,2,1,55,0,1
148063,-200,4,2,1,35,0,0
148761,-80,4,2,1,60,0,0
149110,-100,4,2,1,65,0,0
149633,-98.0392156862745,4,2,1,62,0,0
150156,-94.3396226415094,4,2,1,60,0,0
150679,-89.2857142857143,4,2,1,57,0,0
151203,-200,4,2,1,55,0,0
151551,-66.6666666666667,4,2,1,100,0,1
151639,-66.6666666666667,4,2,1,60,0,1
151900,-100,4,2,1,60,0,0
152598,-80,4,2,1,60,0,0
152772,-86.9565217391304,4,2,1,60,0,0
152947,-66.6666666666667,4,2,1,70,0,0
153296,-100,4,2,1,60,0,0
153993,-57.1428571428571,4,2,1,75,0,0
154342,-100,4,2,1,60,0,0
155563,-86.9565217391304,4,2,1,60,0,0
155738,-100,4,2,1,60,0,0
155912,-50,4,2,1,80,0,0
156086,-66.6666666666667,4,2,1,75,0,0
156261,-80,4,2,1,60,0,0
156435,-100,4,2,1,60,0,0
156784,-57.1428571428571,4,2,1,80,0,0
157133,-80,4,2,1,40,0,0
157482,-66.6666666666667,4,2,1,60,0,0
157743,-100,4,2,1,60,0,0
158354,-100,4,2,1,60,0,0
158528,-100,4,2,1,60,0,0
158703,-57.1428571428571,4,2,1,60,0,0
158877,-100,4,2,1,60,0,0
159051,-50,4,2,1,60,0,0
159226,-100,4,2,1,60,0,0
159575,-66.6666666666667,4,2,1,70,0,0
159749,-74.0740740740741,4,2,1,60,0,0
159924,-80,4,2,1,60,0,0
160272,-100,4,2,1,60,0,0
161145,-80,4,2,1,60,0,0
161319,-100,4,2,1,60,0,0
161493,-80,4,2,1,60,0,0
161668,-74.0740740740741,4,2,1,60,0,0
161929,-100,4,2,1,75,0,0
162104,-100,4,2,3,75,0,0
162191,-100,4,2,1,75,0,0
162278,-111.111111111111,4,2,3,75,0,0
162365,-66.6666666666667,4,2,1,75,0,0
162714,-66.2251655629139,4,2,1,60,0,1
163063,-100,4,2,1,60,0,0
163761,-66.6666666666667,4,2,1,60,0,0
163935,-57.1428571428571,4,2,1,60,0,0
164110,-66.6666666666667,4,2,1,60,0,0
164458,-100,4,2,1,60,0,0
164982,-50,4,2,1,75,0,0
165156,-100,4,2,1,65,0,0
165331,-100,4,2,1,60,0,0
165505,-100,4,2,1,50,0,0
165854,-80,4,2,1,65,0,0
166203,-100,4,2,1,60,0,0
166726,-66.6666666666667,4,2,1,60,0,0
166900,-100,4,2,1,60,0,0
167075,-80,4,2,1,60,0,0
167249,-66.6666666666667,4,2,1,60,0,0
167598,-100,4,2,1,60,0,0
167947,-37.037037037037,4,2,1,80,0,0
167990,-37.037037037037,4,2,1,100,0,0
168296,-66.6666666666667,4,2,1,60,0,0
168645,-100,4,2,1,60,0,0
169342,-80,4,2,1,60,0,0
169517,-86.9565217391304,4,2,1,60,0,0
169691,-100,4,2,1,60,0,0
169865,-66.6666666666667,4,2,1,60,0,0
170040,-80,4,2,1,60,0,0
170389,-100,4,2,1,60,0,0
170563,-57.1428571428571,4,2,1,60,0,0
170738,-66.6666666666667,4,2,1,75,0,0
170912,-80,4,2,1,60,0,0
171086,-66.6666666666667,4,2,1,75,0,0
171435,-100,4,2,1,45,0,0
171522,-80,4,2,1,50,0,0
171784,-100,4,2,1,60,0,0
172133,-80,4,2,1,75,0,0
172482,-133.333333333333,4,2,1,40,0,0
172831,-125,4,2,1,50,0,0
173179,-117.647058823529,4,2,1,60,0,0
173528,-105.263157894737,4,2,1,70,0,0
173877,-66.6666666666667,4,2,1,80,0,1
174226,-100,4,2,1,60,0,0
174575,-66.6666666666667,4,2,1,80,0,0
174924,-80,4,2,1,60,0,0
175272,-66.6666666666667,4,2,1,80,0,1
175621,-100,4,2,1,60,0,0
175970,-66.6666666666667,4,2,1,80,0,0
176319,-86.9565217391304,4,2,1,60,0,0
176667,-66.6666666666667,4,2,1,80,0,1
177016,-100,4,2,1,60,0,0
177365,-66.6666666666667,4,2,1,80,0,0
177714,-80,4,2,1,60,0,0
178063,-80,4,2,1,80,0,1
178412,-133.333333333333,4,2,1,60,0,0
178761,-54.054054054054,4,2,1,80,0,0
179110,-57.1428571428571,4,2,1,60,0,0
179458,-100,4,2,1,70,0,1
179807,-95.2380952380952,4,2,1,50,0,0
180156,-90.9090909090909,4,2,1,72,0,1
180505,-86.9565217391304,4,2,1,52,0,0
180854,-83.3333333333333,4,2,1,74,0,1
181202,-80,4,2,1,54,0,0
181551,-76.9230769230769,4,2,1,76,0,1
181900,-74.0740740740741,4,2,1,56,0,0
182249,-100,4,2,1,78,0,1
182510,-100,4,2,1,58,0,0
182598,-80,4,2,1,80,0,1
182859,-80,4,2,1,60,0,0
182947,-66.6666666666667,4,2,1,82,0,1
183208,-66.6666666666667,4,2,1,62,0,0
183295,-57.1428571428571,4,2,1,84,0,1
183557,-57.1428571428571,4,2,1,64,0,0
183644,-80,4,2,1,90,0,0
183993,-100,4,2,1,70,0,0
184168,-66.6666666666667,4,2,1,60,0,0
184342,-57.1428571428571,4,2,1,55,0,0
184691,-50,4,2,1,65,0,0
185040,-200,4,2,1,80,0,0
185127,-200,4,2,2,5,0,0
187831,-232.558139534884,4,2,1,5,0,0
189226,-200,4,2,1,5,0,0
190621,-256.410256410256,4,2,1,5,0,0
192017,-200,4,2,1,5,0,0
193412,-175.438596491228,4,2,1,5,0,0
198993,-188.679245283019,4,2,1,8,0,0
201784,-204.081632653061,4,2,1,11,0,0
204575,-188.679245283019,4,2,1,15,0,0
207365,-200,4,2,1,35,0,0
218528,-200,4,2,1,40,0,0
229517,-200,4,2,3,50,0,0
229691,-133.333333333333,4,2,1,80,0,0
229778,-133.333333333333,4,2,1,60,0,0
240854,-100,4,3,2,70,0,0
252017,-200,4,2,1,10,0,0
252365,-181.818181818182,4,2,1,15,0,0
252714,-166.666666666667,4,2,1,20,0,0
253063,-153.846153846154,4,2,1,25,0,0
253412,-142.857142857143,4,2,1,30,0,0
253761,-133.333333333333,4,2,1,35,0,0
254110,-125,4,2,1,40,0,0
254458,-117.647058823529,4,2,1,45,0,0
254807,-111.111111111111,4,2,1,50,0,0
255156,-105.263157894737,4,2,1,55,0,0
255505,-100,4,2,1,60,0,0
255854,-95.2380952380952,4,2,1,65,0,0
256203,-86.9565217391304,4,2,1,55,0,0
256551,-80,4,2,1,60,0,0
256900,-133.333333333333,4,2,1,35,0,0
257598,-200,4,2,2,80,0,0
257947,-100,4,2,1,30,0,0
258295,-80,4,2,1,100,0,1
258383,-80,4,2,1,70,0,0
266842,-78.7401574803149,4,2,1,70,0,0
267365,-76.3358778625954,4,2,1,70,0,0
267889,-72.992700729927,4,2,1,70,0,0
268412,-57.1428571428571,4,2,1,90,0,1
268673,-57.1428571428571,4,2,1,90,0,0
268760,-66.6666666666667,4,2,1,100,0,1
268848,-66.6666666666667,4,2,1,85,0,1
273470,-83.3333333333333,4,2,1,85,0,1
273644,-66.6666666666667,4,2,1,85,0,1
274255,-66.6666666666667,4,2,1,85,0,0
274342,-66.6666666666667,4,2,1,70,0,1
275040,-66.6666666666667,4,2,1,50,0,0
275388,-66.6666666666667,4,2,1,70,0,1
276086,-133.333333333333,4,2,1,90,0,0
276130,-200,4,2,1,50,0,0
276435,-66.6666666666667,4,2,1,70,0,1
276697,-66.6666666666667,4,2,1,85,0,0
276784,-66.6666666666667,4,2,1,70,0,1
277045,-66.6666666666667,4,2,1,85,0,0
277133,-66.6666666666667,4,2,1,75,0,1
277481,-133.333333333333,4,2,1,40,0,0
277830,-66.6666666666667,4,2,1,75,0,1
278179,-133.333333333333,4,2,1,40,0,0
278528,-100,4,2,1,75,0,1
279226,-142.857142857143,4,2,1,55,0,0
279574,-166.666666666667,4,2,1,45,0,0
279924,-200,4,2,1,40,0,0
285505,-200,4,2,1,30,0,0
288296,-200,4,2,1,25,0,0
291086,-200,4,2,1,20,0,0
293877,-200,4,2,1,15,0,0
300854,-400,4,2,1,15,0,0
301203,-400,4,2,3,5,0,0

[Colours]
Combo1 : 255,66,160
Combo2 : 60,255,211
Combo3 : 40,202,255
Combo4 : 108,123,255
Combo5 : 175,43,255
Combo6 : 230,51,255

[HitObjects]
256,192,1202,12,0,3470,0:0:0:0:
208,204,3645,6,0,B|204:160|236:116|292:108|336:128|352:152|324:232|252:196,1,241.875009226799,14|0,3:0|0:0,0:0:0:0:
140,248,4342,2,0,P|132:196|152:124,1,120.9375046134,2|0,0:0|0:0,0:0:0:0:
164,108,4691,1,2,0:0:0:0:
256,202,4865,1,2,0:0:0:0:
256,202,5040,6,0,L|335:191,1,80.6250030755998,2|0,0:0|0:0,0:0:0:0:
448,232,5389,2,0,P|448:272|463:311,1,80.6250030755998,2|0,0:0|0:0,0:0:0:0:
512,372,5738,2,0,P|464:348|404:372,1,120.9375046134,2|0,0:0|0:0,0:0:0:0:
328,364,6086,2,0,B|240:360|240:360|272:344,1,120.9375046134,2|0,0:0|0:0,0:0:0:0:
285,342,6435,6,0,L|305:343,4,20.1562507688999,2|2|2|2|2,0:0|0:0|0:0|0:0|0:0,0:0:0:0:
401,291,6784,2,0,L|405:371,1,80.6250030755998,2|0,0:0|0:0,0:0:0:0:
194,320,7133,2,0,B|273:317|273:317|306:344,1,120.9375046134,2|0,0:0|0:0,0:0:0:0:
328,364,7482,1,2,0:0:0:0:
129,367,7656,2,0,P|117:343|122:284,1,80.6250030755998,2|2,0:0|0:0,0:0:0:0:
200,208,8005,5,0,0:0:0:0:
196,108,8179,1,0,0:0:0:0:
108,160,8354,1,0,0:0:0:0:
216,220,8528,1,0,0:0:0:0:
92,148,8703,1,0,0:0:0:0:
48,236,8877,2,0,L|40:356,1,120.9375046134,2|0,0:0|0:0,0:0:0:0:
56,357,9226,6,0,P|80:345|132:345,1,80.6250030755998,2|0,0:0|0:0,0:0:0:0:
224,312,9575,2,0,P|263:315|300:300,1,80.6250030755998,2|0,0:0|0:0,0:0:0:0:
404,292,9924,2,0,L|408:372,2,80.6250030755998,2|0|2,0:0|0:0|0:0,0:0:0:0:
396,188,10447,1,0,0:0:0:0:
404,292,10621,6,0,P|440:284|480:252,1,80.6250030755998,2|0,0:0|0:0,0:0:0:0:
312,140,10970,2,0,P|300:170|304:220,1,80.6250030755998,2|0,0:0|0:0,0:0:0:0:
484,156,11319,2,0,P|464:124|425:100,1,80.6250030755998,2|0,0:0|0:0,0:0:0:0:
220,76,11668,2,0,B|248:84|276:72|276:72|307:56|337:67,1,120.9375046134,2|0,0:0|0:0,0:0:0:0:
356,74,12017,5,2,0:0:0:0:
242,3,12191,1,0,0:0:0:0:
320,156,12365,2,0,L|316:236,1,80.6250030755998,2|0,0:0|0:0,0:0:0:0:
312,344,12714,2,0,P|280:356|232:356,2,80.6250030755998,2|0|2,0:0|0:0|0:0,0:0:0:0:
400,284,13238,1,2,0:0:0:0:
317,220,13412,6,0,L|315:240,4,20.1562507688999,2|2|2|2|2,0:0|0:0|0:0|0:0|0:0,0:0:0:0:
400,284,13761,2,0,B|492:280|492:280|468:296,1,120.9375046134,2|0,0:0|0:0,0:0:0:0:
440,308,14110,1,2,0:0:0:0:
432,196,14284,1,2,0:0:0:0:
440,324,14458,2,0,B|399:325|399:325|362:346|362:346|322:347,1,120.9375046134,2|0,0:0|0:0,0:0:0:0:
300,348,14807,5,14,0:0:0:0:
300,348,14982,1,2,0:0:0:0:
180,276,15156,2,0,L|72:280,1,107.5,10|0,0:0|0:0,0:0:0:0:
16,360,15505,2,0,P|40:292|8:212,1,161.25,10|0,0:0|0:0,0:0:0:0:
8,184,15854,2,0,L|12:76,1,107.5,10|2,0:0|0:0,0:0:0:0:
148,64,16203,6,0,P|184:44|296:76,1,161.25,10|0,0:0|0:0,0:0:0:0:
308,96,16551,2,0,L|416:92,1,107.5,10|0,0:0|0:0,0:0:0:0:
488,152,16900,1,10,0:0:0:0:
464,252,17075,1,0,0:0:0:0:
490,143,17249,1,10,0:0:0:0:
490,143,17598,6,0,P|504:76|452:8,1,107.5,10|0,0:0|0:0,0:0:0:0:
415,92,17947,1,10,0:0:0:0:
308,96,18121,2,0,B|280:101|253:82|253:82|230:68|202:70,1,107.5,2|10,0:0|0:0,0:0:0:0:
104,72,18470,2,0,L|100:184,2,107.5,2|8|2,0:0|0:0|0:0,0:0:0:0:
206,69,18993,5,10,0:0:0:0:
206,69,19168,1,0,0:0:0:0:
308,96,19342,1,10,0:0:0:0:
396,32,19517,1,0,0:0:0:0:
292,104,19691,1,10,0:0:0:0:
452,124,19865,1,0,0:0:0:0:
280,116,20040,2,0,P|276:168|332:260,1,161.25,10|0,0:0|0:0,0:0:0:0:
344,258,20389,6,0,P|376:214|376:158,1,107.5,10|0,0:0|0:0,0:0:0:0:
271,15,20738,2,0,P|259:67|280:116,1,107.5,10|0,0:0|0:0,0:0:0:0:
460,92,21086,2,0,P|416:60|360:60,1,107.5,10|0,0:0|0:0,0:0:0:0:
184,152,21435,1,10,0:0:0:0:
377,162,21610,1,0,0:0:0:0:
268,272,21784,6,0,L|264:379,1,107.5,10|0,0:0|0:0,0:0:0:0:
55,297,22133,2,0,L|58:189,1,107.5,10|0,0:0|0:0,0:0:0:0:
152,44,22482,2,0,P|204:28|260:48,1,107.5,10|0,0:0|0:0,0:0:0:0:
375,167,22831,2,0,P|426:182|477:166,1,107.5,10|0,0:0|0:0,0:0:0:0:
426,91,23179,5,10,0:0:0:0:
426,91,23354,1,8,0:0:0:0:
296,184,23528,1,10,0:0:0:0:
296,184,23703,1,8,0:0:0:0:
324,28,23877,5,10,0:0:0:0:
376,168,24051,1,10,0:0:0:0:
316,4,24226,1,10,0:0:0:0:
252,96,24400,1,10,0:0:0:0:
479,83,24575,6,8,L|424:80,3,53.75,10|8|10|8,0:0|0:0|0:0|0:0,0:0:0:0:
376,160,24924,2,8,P|351:140|332:84,3,53.75,10|8|8|8,0:0|0:0|0:0|0:0,0:0:0:0:
324,28,25272,5,10,0:0:0:0:
312,20,25359,2,0,P|284:20|255:27,1,53.75,8|0,0:0|0:0,0:0:0:0:
164,112,25534,1,8,0:0:0:0:
176,120,25621,2,0,P|202:120|228:114,1,53.75,8|0,0:0|0:0,0:0:0:0:
89,21,25796,1,8,0:0:0:0:
68,12,25883,1,8,0:0:0:0:
41,13,25970,6,0,B|52:176,1,161.2500061512,14|2,3:0|0:0,0:0:0:0:
188,48,26319,2,0,L|164:96,1,53.75,10|0,3:0|0:0,0:0:0:0:
240,232,26493,2,2,L|236:188,2,44.7916666666667
240,232,26668,6,0,L|244:272,1,40.3125015377999,10|0,0:0|0:0,0:0:0:0:
200,348,26842,1,2,0:0:0:0:
160,356,26929,1,10,0:0:0:0:
120,364,27017,2,0,L|80:372,1,40.3125015377999,8|0,3:0|0:0,0:0:0:0:
64,288,27191,6,0,L|8:284,1,53.75,10|0,3:0|0:0,0:0:0:0:
297,279,27365,2,0,L|243:271,1,53.75,2|0,0:0|0:0,0:0:0:0:
160,356,27540,1,10,3:0:0:0:
184,196,27714,6,0,P|164:214|151:237,1,53.75,2|0,0:0|0:0,0:0:0:0:
152,268,27976,1,0,0:0:0:0:
155,302,28063,2,0,L|159:355,1,53.75,10|0,0:0|0:0,0:0:0:0:
256,372,28238,5,2,0:0:0:0:
252,340,28325,1,10,0:0:0:0:
248,312,28412,1,8,3:0:0:0:
280,332,28499,1,2,0:0:0:0:
312,336,28586,6,0,P|352:332|376:320,1,67.1875,14|0,3:0|0:0,0:0:0:0:
320,236,28761,1,2,0:0:0:0:
460,372,28935,1,0,0:0:0:0:
460,372,29022,1,0,0:0:0:0:
460,372,29110,2,0,L|464:292,1,80.6250030755998,2|8,0:0|3:0,0:0:0:0:
468,48,29458,5,10,0:0:0:0:
444,76,29546,1,0,0:0:0:0:
436,112,29633,1,8,3:0:0:0:
444,148,29720,1,0,0:0:0:0:
464,180,29807,2,0,L|520:184,1,53.75,2|0,0:0|0:0,0:0:0:0:
468,48,29982,6,0,B|368:40|368:40|392:64,1,134.375,14|2,3:0|0:0,0:0:0:0:
408,80,30243,1,0,0:0:0:0:
408,80,30331,2,0,L|404:120,1,40.3125015377999,2|2,0:0|0:0,0:0:0:0:
384,196,30505,5,2,0:0:0:0:
384,204,30592,1,0,0:0:0:0:
380,288,30679,2,0,P|308:248|332:128,1,201.5625,14|2,3:0|0:0,0:0:0:0:
449,254,31028,2,0,P|419:279|380:288,1,80.6250030755998,14|2,3:0|0:0,0:0:0:0:
380,200,31203,5,10,0:0:0:0:
317,140,31290,2,0,P|364:116|392:116,2,67.1875,14|6|2,3:0|0:0|0:0,0:0:0:0:
300,232,31551,5,14,3:0:0:0:
272,20,31726,2,0,L|276:60,1,40.3125015377999,14|2,0:0|0:0,0:0:0:0:
317,140,31900,5,0,0:0:0:0:
336,120,31988,2,0,L|376:116,2,40.3125015377999,2|6|2,0:0|0:0|0:0,0:0:0:0:
300,232,32249,6,0,B|352:228|352:228|412:252|412:252|456:248,1,161.2500061512,10|2,0:0|0:0,0:0:0:0:
476,324,32511,2,0,B|420:330|420:330|380:364,1,107.5,10|2,3:0|0:0,0:0:0:0:
360,360,32772,6,0,L|280:356,1,80.6250030755998,14|2,3:0|0:0,0:0:0:0:
124,276,32947,2,0,L|204:280,1,80.6250030755998,2|0,0:0|0:0,0:0:0:0:
300,232,33121,1,10,3:0:0:0:
64,216,33296,6,0,P|48:236|40:288,2,53.75,8|2|10,3:0|0:0|3:0,0:0:0:0:
144,196,33557,1,0,0:0:0:0:
144,196,33645,2,0,L|140:140,1,53.75,10|0,0:0|0:0,0:0:0:0:
284,100,33819,5,10,3:0:0:0:
280,128,33906,1,2,0:0:0:0:
300,200,33993,1,2,0:0:0:0:
304,228,34081,1,2,0:0:0:0:
272,304,34168,6,0,P|296:340|420:372,1,161.2500061512,14|2,3:0|0:0,0:0:0:0:
379,199,34517,2,0,P|387:225|383:252,1,53.75,2|0,0:0|0:0,0:0:0:0:
304,228,34691,2,0,L|224:224,1,80.625,2|2,0:0|0:0,0:0:0:0:
194,221,35040,5,10,0:0:0:0:
190,202,35127,2,0,L|186:175,2,26.875,2|2|2,0:0|0:0|0:0,0:0:0:0:
304,228,35301,2,0,P|301:254|292:279,1,53.75,2|2,0:0|0:0,0:0:0:0:
212,320,35476,5,2,0:0:0:0:
212,320,35563,2,0,B|12:352|12:352|80:340|100:280,1,322.500012302399,14|2,3:0|0:0,0:0:0:0:
16,104,36086,6,0,L|4:256,1,150.499995407105,14|0,3:0|0:0,0:0:0:0:
140,40,36435,2,0,L|148:180,1,139.749993602753,14|0,3:0|0:0,0:0:0:0:
287,260,36784,2,0,B|223:256|223:256|163:284|163:284|99:280,1,193.499994094849,14|0,3:0|0:0,0:0:0:0:
148,180,37133,6,0,P|161:137|205:89,1,107.5,14|0,3:0|0:0,0:0:0:0:
136,24,37482,2,0,P|175:1|236:4,1,102.124997272968,10|8,0:0|3:0,0:0:0:0:
296,64,37831,2,0,P|343:65|385:43,1,96.7499970474244,10|0,0:0|0:0,0:0:0:0:
468,76,38179,1,10,0:0:0:0:
448,168,38354,1,10,0:0:0:0:
428,260,38528,2,0,L|340:256,1,86,8|2,0:0|0:0,0:0:0:0:
248,180,38877,2,0,L|328:184,1,80.6250030755998,8|10,0:0|3:0,0:0:0:0:
242,256,39226,2,0,L|160:252,1,80.6250030755998,8|2,0:0|0:0,0:0:0:0:
64,176,39575,2,0,L|144:180,1,80.6250030755998,8|10,0:0|0:0,0:0:0:0:
64,268,39924,5,8,0:0:0:0:
64,268,40098,1,2,0:0:0:0:
80,84,40272,1,8,0:0:0:0:
80,84,40447,1,10,3:0:0:0:
145,180,40621,1,8,0:0:0:0:
145,180,40796,1,2,0:0:0:0:
236,140,40970,1,8,0:0:0:0:
242,256,41145,1,10,0:0:0:0:
256,264,41232,1,8,0:0:0:0:
268,272,41319,5,10,0:0:0:0:
388,260,41493,1,2,0:0:0:0:
265,194,41668,2,0,P|257:234|269:274,1,80.6250030755998,10|8,0:0|3:0,0:0:0:0:
372,152,42017,2,0,P|380:112|368:72,1,80.6250030755998,10|0,0:0|0:0,0:0:0:0:
204,128,42365,1,10,0:0:0:0:
297,115,42540,1,10,0:0:0:0:
265,194,42714,5,14,3:0:0:0:
257,242,42889,1,10,0:0:0:0:
277,182,43063,1,10,0:0:0:0:
244,253,43238,1,10,0:0:0:0:
293,178,43412,1,10,0:0:0:0:
224,256,43586,1,10,0:0:0:0:
314,179,43761,1,10,0:0:0:0:
192,252,43935,1,10,0:0:0:0:
341,187,44110,5,10,0:0:0:0:
152,216,44284,1,10,0:0:0:0:
346,209,44458,1,10,0:0:0:0:
152,136,44633,1,10,0:0:0:0:
339,236,44807,1,10,0:0:0:0:
204,48,44982,1,10,0:0:0:0:
320,260,45156,1,10,0:0:0:0:
317,0,45331,1,10,0:0:0:0:
430,148,45505,6,0,P|406:172|370:184,1,64.4999980316163,8|2,0:0|0:0,0:0:0:0:
320,260,45679,2,0,P|296:235|284:200,1,64.4999980316163,8|2,0:0|0:0,0:0:0:0:
210,150,45854,2,0,P|234:126|270:114,1,67.1875,8|2,0:0|0:0,0:0:0:0:
321,41,46028,2,0,P|345:65|357:101,1,67.1875,8|2,0:0|0:0,0:0:0:0:
393,294,46203,6,0,P|352:294|312:273,1,69.8749968013765,8|2,0:0|0:0,0:0:0:0:
197,297,46377,2,0,P|197:256|217:216,1,69.8749968013765,8|2,0:0|0:0,0:0:0:0:
195,102,46552,2,0,P|235:102|275:122,1,72.562500276804,8|2,0:0|0:0,0:0:0:0:
390,113,46726,2,0,P|390:153|369:193,1,72.562500276804,8|2,0:0|0:0,0:0:0:0:
330,47,46900,6,0,P|398:23|474:91,1,164.83333647728,10|2,3:0|0:0,0:0:0:0:
409,195,47249,2,0,B|374:249|374:249|390:113,1,201.5625,2|0,0:0|0:0,0:0:0:0:
284,144,47598,5,8,0:0:0:0:
504,148,47772,1,8,0:0:0:0:
491,168,47860,1,8,3:0:0:0:
483,191,47947,1,8,0:0:0:0:
482,216,48034,1,8,3:0:0:0:
486,239,48121,1,8,0:0:0:0:
496,259,48208,1,8,3:0:0:0:
503,277,48296,6,0,B|507:305|507:305|507:333|507:333|511:357,1,80.625,14|0,0:0|0:0,0:0:0:0:
427,361,48645,2,2,B|395:361|375:333|375:333|359:360|329:367,1,120.9375046134,2|0,0:0|0:0,0:0:0:0:
304,288,48993,6,0,L|224:296,1,80.6250030755998,14|0,3:0|0:0,0:0:0:0:
100,348,49168,1,0,0:0:0:0:
120,276,49255,2,0,L|128:356,1,80.6250030755998,2|8,0:0|0:0,0:0:0:0:
216,124,49429,1,0,0:0:0:0:
196,196,49517,2,0,L|188:116,1,80.6250030755998,2|0,0:0|0:0,0:0:0:0:
100,80,49691,6,0,P|144:32|236:32,1,161.2500061512,10|2,3:0|0:0,0:0:0:0:
360,116,50040,2,2,B|396:136|450:135|485:91|489:43|480:16|392:4|392:72,1,241.875009226799,10|0,0:0|0:0,0:0:0:0:
332,196,50389,6,0,P|370:209|411:209,1,80.6250030755998,10|0,3:0|0:0,0:0:0:0:
484,176,50563,1,0,0:0:0:0:
476,256,50650,2,0,P|465:294|466:335,1,80.6250030755998,2|8,0:0|0:0,0:0:0:0:
356,344,50825,1,2,0:0:0:0:
288,316,50912,2,0,B|368:308,1,80.6250030755998,2|0,0:0|0:0,0:0:0:0:
466,335,51086,5,10,3:0:0:0:
192,304,51261,1,2,0:0:0:0:
488,336,51435,2,2,B|492:176|492:176|452:252,1,241.875009226799,10|0,0:0|0:0,0:0:0:0:
424,132,51784,6,0,B|384:204|384:204|344:136,1,161.2500061512,10|0,3:0|0:0,0:0:0:0:
300,204,52046,2,0,L|344:136,1,80.6250030755998,10|8,3:0|0:0,0:0:0:0:
220,204,52220,5,0,0:0:0:0:
296,64,52307,2,0,L|252:132,1,80.6250030755998,10|0,3:0|0:0,0:0:0:0:
136,28,52482,6,0,B|184:92|184:92|228:24,1,161.2500061512,10|0,3:0|0:0,0:0:0:0:
118,134,52743,2,0,L|70:70,1,80.6250030755998,10|8,3:0|0:0,0:0:0:0:
62,196,52918,5,0,0:0:0:0:
139,212,53005,2,0,L|219:204,1,80.6250030755998,10|0,3:0|0:0,0:0:0:0:
343,136,53179,6,2,P|360:244|272:336,1,241.875009226799,10|0,3:0|0:0,0:0:0:0:
41,312,53528,2,2,B|9:272|9:272|110:309|110:309|192:300,1,241.875009226799,10|0,0:0|0:0,0:0:0:0:
275,334,53877,6,2,B|360:324|360:324|431:354|431:354|512:344,1,241.875009226799,14|0,3:0|0:0,0:0:0:0:
512,312,54226,2,2,B|433:321|433:321|362:291|362:291|277:301,1,241.875009226799,10|0,0:0|0:0,0:0:0:0:
209,229,54575,6,0,P|245:206|283:201,1,80.6250030755998,10|0,3:0|0:0,0:0:0:0:
277,301,54749,1,0,0:0:0:0:
178,300,54836,2,0,P|185:261|209:229,1,80.6250030755998,2|8,0:0|0:0,0:0:0:0:
277,301,55011,1,0,0:0:0:0:
205,373,55098,2,0,P|183:339|178:299,1,80.6250030755998,2|0,0:0|0:0,0:0:0:0:
277,301,55272,5,10,3:0:0:0:
84,324,55447,1,2,0:0:0:0:
200,144,55621,2,2,B|177:303|177:303|168:260|128:240,1,241.875009226799,10|0,0:0|0:0,0:0:0:0:
4,335,55970,6,0,L|85:323,1,80.6250030755998,10|0,3:0|0:0,0:0:0:0:
313,232,56145,1,0,0:0:0:0:
277,301,56232,2,0,L|288:220,1,80.6250030755998,2|8,0:0|0:0,0:0:0:0:
400,72,56406,1,2,0:0:0:0:
428,144,56493,2,0,P|384:148|340:120,1,80.6250030755998,2|0,0:0|0:0,0:0:0:0:
240,84,56668,6,2,B|204:56|136:68|112:128|164:176|164:176|196:164|208:124,1,241.875009226799,14|0,3:0|0:0,0:0:0:0:
280,180,57017,2,0,P|252:220|216:248,1,80.6250030755998,8|2,3:0|0:0,0:0:0:0:
116,248,57191,1,2,0:0:0:0:
104,244,57278,1,2,0:0:0:0:
92,240,57365,6,0,L|100:324,1,80.6250030755998,8|2,0:0|0:0,0:0:0:0:
200,348,57540,1,2,0:0:0:0:
212,340,57627,2,0,P|252:337|291:345,1,80.6250030755998,8|2,3:0|0:0,0:0:0:0:
456,272,57801,1,2,0:0:0:0:
444,280,57889,2,0,P|404:276|367:261,1,80.6250030755998,8|2,3:0|0:0,0:0:0:0:
280,180,58063,5,8,3:0:0:0:
272,172,58150,2,0,P|304:147|341:133,1,80.6250030755998,2|2,0:0|0:0,0:0:0:0:
436,148,58325,1,8,3:0:0:0:
432,160,58412,1,2,0:0:0:0:
428,172,58499,1,8,3:0:0:0:
433,225,58586,2,0,L|445:305,1,80.6250030755998,8|2,3:0|0:0,0:0:0:0:
392,368,58761,5,8,0:0:0:0:
368,320,58848,1,2,0:0:0:0:
316,304,58935,1,2,0:0:0:0:
264,312,59022,1,2,0:0:0:0:
228,356,59110,2,0,L|148:368,1,80.6250030755998,8|2,3:0|0:0,0:0:0:0:
77,240,59284,2,0,P|114:253|142:282,1,80.6250030755998,2|2,0:0|0:0,0:0:0:0:
64,328,59458,6,2,P|-8:256|60:156,1,241.875009226799,14|0,3:0|0:0,0:0:0:0:
185,180,59807,2,2,B|248:204|248:204|77:240,1,241.875009226799,10|0,0:0|0:0,0:0:0:0:
53,78,60156,6,0,P|47:117|59:154,1,80.6250030755998,10|0,3:0|0:0,0:0:0:0:
136,109,60331,1,0,0:0:0:0:
192,40,60418,2,0,P|154:23|114:23,1,80.6250030755998,2|8,0:0|0:0,0:0:0:0:
136,109,60592,1,0,0:0:0:0:
185,180,60679,2,0,P|212:148|222:111,1,80.6250030755998,2|0,0:0|0:0,0:0:0:0:
275,45,60854,5,10,3:0:0:0:
97,187,61028,1,2,0:0:0:0:
280,336,61203,2,2,B|340:348|388:304|388:304|444:252|504:276,1,241.875009226799,10|0,0:0|0:0,0:0:0:0:
504,292,61551,6,0,L|507:372,1,80.6250030755998,10|0,3:0|0:0,0:0:0:0:
288,216,61726,1,0,0:0:0:0:
309,144,61813,2,0,L|301:224,1,80.6250030755998,2|8,0:0|0:0,0:0:0:0:
436,168,61988,1,2,0:0:0:0:
484,104,62075,2,0,P|444:88|400:96,1,80.6250030755998,2|0,0:0|0:0,0:0:0:0:
309,144,62249,5,10,3:0:0:0:
128,124,62424,1,2,0:0:0:0:
304,328,62598,2,2,B|228:320|196:244|196:244|160:316|76:312,1,290.249991142273,10|0,0:0|0:0,0:0:0:0:
4,300,62947,6,0,B|20:256|20:256|27:370,1,161.2500061512,10|0,3:0|0:0,0:0:0:0:
9,380,63208,2,0,L|4:300,1,80.6250030755998,10|8,3:0|0:0,0:0:0:0:
129,192,63383,5,2,0:0:0:0:
196,244,63470,2,0,P|164:269|124:276,1,80.6250030755998,10|0,3:0|0:0,0:0:0:0:
38,185,63645,6,0,P|62:127|151:104,1,161.2500061512,10|0,3:0|0:0,0:0:0:0:
192,32,63906,2,0,L|284:64,1,80.6250030755998,10|8,3:0|0:0,0:0:0:0:
300,132,64081,5,0,0:0:0:0:
305,210,64168,2,0,L|309:290,1,80.6250030755998,10|0,3:0|0:0,0:0:0:0:
224,292,64342,6,2,B|132:244|40:308|40:308|88:304,1,241.875009226799,10|0,3:0|0:0,0:0:0:0:
249,374,64691,2,2,B|293:362|311:331|314:285|314:285|323:334|353:364|399:365,1,241.875009226799,10|0,0:0|0:0,0:0:0:0:
478,381,65040,6,0,B|484:335|456:304|456:304|456:225,1,161.2500061512,14|0,3:0|0:0,0:0:0:0:
435,70,65301,2,0,B|428:114|456:145|456:145|456:224,1,161.2500061512,14|0,3:0|0:0,0:0:0:0:
378,223,65563,2,0,P|417:215|456:225,1,80.6250030755998,14|0,3:0|0:0,0:0:0:0:
393,364,65738,5,2,0:0:0:0:
393,364,65912,1,2,0:0:0:0:
304,377,66086,6,0,B|296:331|327:298|327:298|252:294,1,161.2500061512,14|0,3:0|0:0,0:0:0:0:
198,213,66348,2,0,B|206:257|174:290|174:290|249:295,1,161.2500061512,14|0,3:0|0:0,0:0:0:0:
356,221,66610,2,0,L|275:216,1,80.6250030755998,14|0,3:0|3:0,3:0:0:0:
112,228,66784,6,2,L|92:222,6,20.1562507688999,10|2|2|2|2|2|2,0:0|0:0|0:0|0:0|0:0|0:0|0:0,0:0:0:0:
76,122,67133,6,0,P|0:183|39:309,1,241.875009226799,14|0,3:0|0:0,0:0:0:0:
129,326,67482,2,0,P|205:265|166:139,1,241.875009226799,14|0,3:0|0:0,0:0:0:0:
99,40,67831,6,2,B|200:48|200:48|264:84|264:84|372:92,1,282.18750269115,14|0,3:0|0:0,0:0:0:0:
396,100,68179,2,0,L|399:140,3,40.3125015377999,2|2|2|2,0:0|0:0|0:0|0:0,0:0:0:0:
480,216,68528,6,0,B|436:220|436:220|396:252|396:252|352:216|352:216|320:244|320:244|272:248,1,241.875009226799,14|0,3:0|0:0,0:0:0:0:
200,204,68877,1,8,0:0:0:0:
190,222,68965,1,0,0:0:0:0:
188,241,69052,1,0,0:0:0:0:
191,261,69139,1,0,0:0:0:0:
260,324,69226,6,0,B|233:353|195:365|152:356|116:324|116:324|68:280|16:284|16:284|72:276|96:224,1,376.25,14|0,3:0|0:0,0:0:0:0:
8,168,69924,6,0,L|4:186,1,18.8124994258881,10|2,0:0|0:0,0:0:0:0:
176,152,70098,5,2,0:0:0:0:
143,133,70272,5,2,0:0:0:0:
106,134,70447,5,2,0:0:0:0:
77,148,70621,5,14,3:0:0:0:
80,192,71319,2,0,B|92:240|56:244|68:296,1,107.5,2|2,0:0|0:0,0:0:0:0:
132,360,71842,2,0,P|156:316|156:288,1,53.75,2|2,0:0|0:0,0:0:0:0:
68,296,72191,1,0,0:0:0:0:
236,316,72365,5,10,0:0:0:0:
236,296,72453,2,8,P|224:268|208:252,1,32.2499990158081,8|0,0:0|0:0,0:0:0:0:
320,152,72627,1,10,0:0:0:0:
320,172,72715,2,8,P|332:200|348:220,1,40.3125015377999,10|0,0:0|0:0,0:0:0:0:
390,302,72889,1,8,0:0:0:0:
358,298,72976,1,8,0:0:0:0:
324,295,73063,5,14,0:0:0:0:
324,295,73412,6,0,P|264:296|224:320,1,107.5,14|0,3:0|0:0,0:0:0:0:
44,240,73760,2,0,P|90:265|143:264,1,107.5,10|2,0:0|0:0,0:0:0:0:
168,260,74022,1,2,0:0:0:0:
168,260,74110,1,10,3:0:0:0:
116,168,74284,1,10,3:0:0:0:
140,360,74458,1,10,0:0:0:0:
272,252,74633,1,2,0:0:0:0:
272,252,74720,1,10,3:0:0:0:
272,252,74807,6,0,L|268:144,1,107.5,10|10,3:0|3:0,3:0:0:0:
200,48,75156,1,10,0:0:0:0:
136,152,75330,1,2,0:0:0:0:
136,152,75417,1,2,0:0:0:0:
136,152,75505,1,2,0:0:0:0:
268,144,75679,1,10,3:0:0:0:
68,88,75854,2,0,P|44:128|52:192,1,107.5,10|2,0:0|0:0,0:0:0:0:
60,208,76115,1,10,0:0:0:0:
60,208,76202,5,10,3:0:0:0:
268,144,76377,1,2,0:0:0:0:
136,152,76551,1,10,0:0:0:0:
280,260,76726,1,2,0:0:0:0:
280,260,76813,1,2,0:0:0:0:
280,260,76900,1,10,3:0:0:0:
269,48,77074,1,8,3:0:0:0:
136,152,77249,2,0,B|132:204|132:204|168:260,1,107.5,10|2,0:0|0:0,0:0:0:0:
178,272,77511,1,10,3:0:0:0:
178,272,77598,5,10,3:0:0:0:
128,368,77772,1,2,0:0:0:0:
76,274,77947,2,0,P|122:260|180:273,1,107.5,10|2,0:0|0:0,0:0:0:0:
200,292,78208,1,2,0:0:0:0:
200,292,78296,1,10,3:0:0:0:
356,247,78470,1,10,3:0:0:0:
321,90,78645,1,10,0:0:0:0:
160,136,78819,1,2,0:0:0:0:
160,136,78906,1,10,3:0:0:0:
160,136,78993,6,0,L|52:128,1,107.5,10|2,3:0|0:0,0:0:0:0:
280,184,79342,2,0,L|388:176,1,107.5,10|2,0:0|0:0,0:0:0:0:
416,176,79604,1,2,0:0:0:0:
416,176,79691,1,10,3:0:0:0:
320,76,79865,1,10,3:0:0:0:
344,288,80040,1,10,0:0:0:0:
428,168,80214,1,2,0:0:0:0:
428,168,80301,1,10,3:0:0:0:
428,168,80389,5,10,3:0:0:0:
236,280,80563,1,2,0:0:0:0:
400,352,80738,2,0,P|424:320|416:244,1,107.5,10|2,0:0|0:0,0:0:0:0:
412,232,80999,1,2,0:0:0:0:
412,232,81086,1,10,3:0:0:0:
283,130,81261,1,10,3:0:0:0:
288,284,81435,1,10,0:0:0:0:
283,130,81609,2,0,L|279:186,1,53.75,2|8,0:0|0:0,0:0:0:0:
288,284,81784,6,0,P|248:280|196:228,1,107.5,14|2,3:0|0:0,0:0:0:0:
160,92,82133,2,0,P|124:52|74:41,1,107.5,10|2,0:0|0:0,0:0:0:0:
84,128,82395,1,2,0:0:0:0:
84,128,82482,1,10,3:0:0:0:
199,236,82656,1,10,0:0:0:0:
292,100,82831,1,10,0:0:0:0:
84,128,83005,2,0,L|88:184,1,53.75,2|8,0:0|3:0,0:0:0:0:
88,198,83179,6,0,P|104:246|88:298,1,107.5,10|0,3:0|0:0,0:0:0:0:
204,340,83528,2,0,P|252:324|304:340,1,107.5,10|2,0:0|0:0,0:0:0:0:
324,356,83790,1,2,0:0:0:0:
324,356,83877,1,10,3:0:0:0:
252,212,84051,1,10,3:0:0:0:
480,248,84226,2,0,L|371:256,1,107.5,10|2,0:0|0:0,0:0:0:0:
348,260,84488,1,10,3:0:0:0:
348,260,84575,5,10,3:0:0:0:
492,347,84749,2,0,P|502:295|479:247,1,107.5,2|10,0:0|0:0,0:0:0:0:
340,168,85098,1,2,0:0:0:0:
340,168,85185,1,2,0:0:0:0:
340,168,85272,1,10,3:0:0:0:
418,304,85447,1,10,3:0:0:0:
484,160,85621,1,10,0:0:0:0:
316,268,85796,2,0,L|260:272,1,53.75,2|10,0:0|3:0,0:0:0:0:
248,272,85970,5,10,3:0:0:0:
20,216,86145,1,10,3:0:0:0:
96,76,86319,2,0,B|132:118|132:118|144:169,1,107.5,10|2,0:0|0:0,0:0:0:0:
152,196,86581,1,2,0:0:0:0:
152,196,86668,1,10,3:0:0:0:
268,140,86842,1,10,3:0:0:0:
248,344,87017,2,0,P|228:296|240:244,1,107.5,10|2,0:0|0:0,0:0:0:0:
252,248,87278,1,10,0:0:0:0:
264,252,87365,5,10,3:0:0:0:
299,138,87540,1,10,0:0:0:0:
340,284,87714,1,10,0:0:0:0:
299,138,87889,1,10,0:0:0:0:
408,328,88063,2,0,P|420:264|392:220,1,107.5,10|10,0:0|3:0,0:0:0:0:
362,61,88412,2,0,P|322:83|299:140,1,107.5,10|10,0:0|0:0,0:0:0:0:
314,143,88674,1,10,3:0:0:0:
326,147,88761,5,10,3:0:0:0:
508,188,88935,1,10,0:0:0:0:
340,284,89110,1,10,0:0:0:0:
508,188,89284,1,10,0:0:0:0:
415,346,89458,2,0,B|434:298|434:298|430:242,1,107.5,10|10,0:0|3:0,0:0:0:0:
274,38,89807,2,0,B|255:86|255:86|259:142,1,107.5,10|10,0:0|3:0,0:0:0:0:
267,226,90069,1,10,3:0:0:0:
267,226,90156,5,10,3:0:0:0:
262,246,90243,1,8,0:0:0:0:
249,263,90331,1,8,0:0:0:0:
232,276,90418,1,8,0:0:0:0:
213,285,90505,1,10,0:0:0:0:
175,285,90592,1,8,0:0:0:0:
141,268,90679,1,8,0:0:0:0:
121,235,90767,1,8,0:0:0:0:
119,197,90854,6,8,P|121:165|133:143,3,53.75,10|8|10|8,0:0|0:0|3:0|0:0,0:0:0:0:
147,67,91203,2,8,P|171:76|192:93,3,53.75,10|8|10|8,0:0|0:0|0:0|3:0,0:0:0:0:
198,186,91551,5,8,3:0:0:0:
240,171,91639,1,8,0:0:0:0:
272,140,91726,1,10,3:0:0:0:
283,101,91813,1,8,0:0:0:0:
274,58,91900,5,10,0:0:0:0:
303,98,91988,1,8,0:0:0:0:
331,137,92075,1,8,0:0:0:0:
359,177,92162,1,8,0:0:0:0:
395,218,92249,5,10,0:0:0:0:
447,221,92336,1,8,0:0:0:0:
488,186,92424,1,8,0:0:0:0:
491,132,92511,1,8,0:0:0:0:
455,92,92598,1,8,0:0:0:0:
402,88,92685,1,8,0:0:0:0:
362,123,92772,1,8,0:0:0:0:
359,177,92860,1,8,0:0:0:0:
425,156,92947,5,14,3:0:0:0:
425,156,93688,6,0,P|353:176|326:172,1,94.0625,2|2,0:0|0:0,0:0:0:0:
236,76,94255,2,0,P|228:112|235:162,1,80.625,2|0,0:0|0:0,0:0:0:0:
264,248,94691,2,0,L|256:388,2,107.5,2|2|2,0:0|0:0|0:0,0:0:0:0:
121,166,95738,2,0,L|129:306,2,107.5,2|2|2,0:0|0:0|0:0,0:0:0:0:
112,60,96784,1,2,0:0:0:0:
112,60,97133,6,0,P|186:31|288:56,1,188.125,2|0,0:0|0:0,0:0:0:0:
296,140,97831,2,0,P|373:162|472:128,1,188.125,2|0,0:0|0:0,0:0:0:0:
500,212,98528,2,0,B|532:288|488:364|488:364|480:300|408:276|408:276|408:328|376:360|344:368,1,403.125,2|0,0:0|0:0,0:0:0:0:
316,280,99924,2,0,B|208:284|208:284|144:332,1,188.125,2|0,0:0|0:0,0:0:0:0:
244,372,100621,2,0,B|352:368|352:368|416:316,1,188.125,2|0,0:0|0:0,0:0:0:0:
392,228,101319,2,0,B|344:156|396:64|396:64|336:80|308:132|308:132|300:88|264:64|224:64,1,403.125,2|0,0:0|0:0,0:0:0:0:
256,192,102714,12,0,103935,0:0:0:0:
308,140,104110,6,0,L|416:136,1,107.5,10|0,3:0|0:0,0:0:0:0:
256,216,104458,2,0,L|148:220,1,107.5,10|8,3:0|3:0,0:0:0:0:
312,288,104807,2,0,L|420:284,1,107.5,10|0,3:0|0:0,0:0:0:0:
244,352,105156,1,10,3:0:0:0:
136,355,105331,1,10,0:0:0:0:
70,269,105505,6,0,P|56:218|72:168,1,107.5,10|0,3:0|0:0,0:0:0:0:
257,114,105854,2,0,P|271:165|255:215,1,107.5,10|8,3:0|3:0,0:0:0:0:
24,92,106203,2,0,P|75:78|126:94,1,107.5,10|0,3:0|0:0,0:0:0:0:
300,292,106551,1,10,3:0:0:0:
198,290,106726,1,10,0:0:0:0:
134,168,106900,5,10,3:0:0:0:
134,168,107075,1,0,0:0:0:0:
198,290,107249,1,10,3:0:0:0:
198,290,107424,1,8,3:0:0:0:
268,172,107598,1,10,3:0:0:0:
268,172,107772,1,0,0:0:0:0:
70,269,107947,2,0,L|80:376,1,107.5,10|8,3:0|0:0,0:0:0:0:
240,284,108296,6,0,P|290:266|344:272,1,107.5,10|0,3:0|0:0,0:0:0:0:
472,120,108645,2,0,P|421:137|368:132,1,107.5,10|8,3:0|3:0,0:0:0:0:
144,176,108993,2,0,P|194:158|247:163,1,107.5,10|0,3:0|0:0,0:0:0:0:
375,11,109342,2,0,P|324:28|271:23,1,107.5,10|8,3:0|0:0,0:0:0:0:
368,132,109691,5,14,0:0:0:0:
368,132,109865,1,8,0:0:0:0:
472,120,110040,1,10,0:0:0:0:
472,120,110214,1,8,0:0:0:0:
271,23,110389,2,0,P|240:68|228:120,1,107.5,10|8,0:0|0:0,0:0:0:0:
332,288,110738,2,0,P|301:243|289:191,1,107.5,10|8,0:0|0:0,0:0:0:0:
408,196,111086,5,10,0:0:0:0:
504,208,111261,1,8,0:0:0:0:
332,288,111435,1,10,0:0:0:0:
448,268,111610,1,8,0:0:0:0:
316,292,111784,1,10,0:0:0:0:
416,184,111958,1,8,0:0:0:0:
404,360,112133,1,10,0:0:0:0:
418,167,112307,1,8,0:0:0:0:
300,296,112482,6,0,L|260:300,1,40.3125015377999,10|0,3:0|0:0,0:0:0:0:
40,248,112656,2,0,L|88:244,1,45.6875008714199,8|0,3:0|0:0,0:0:0:0:
224,372,112831,2,0,L|188:336,1,51.0624986364842,10|0,3:0|0:0,0:0:0:0:
124,160,113005,2,0,L|168:200,1,56.4374982776642,8|0,3:0|0:0,0:0:0:0:
112,384,113179,2,0,B|104:352|104:352|108:324,1,61.8125011789799,10|0,3:0|0:0,0:0:0:0:
256,216,113354,2,0,B|268:248|268:248|260:280,1,67.1875,10|0,3:0|0:0,0:0:0:0:
40,248,113528,2,0,B|24:216|24:216|36:180,1,72.562500276804,10|0,3:0|0:0,0:0:0:0:
224,53,113703,2,0,B|244:88|244:88|228:124,1,77.9375023784638,10|0,3:0|0:0,0:0:0:0:
156,200,113877,5,8,0:0:0:0:
224,53,114051,1,2,0:0:0:0:
256,216,114226,1,8,0:0:0:0:
257,234,114313,1,2,0:0:0:0:
92,80,114575,1,10,0:0:0:0:
324,180,114836,5,2,0:0:0:0:
390,227,114924,2,2,B|414:201|424:155|390:107|372:88|316:95|296:144|324:180,1,241.875009226799,14|0,0:0|0:0,0:0:0:0:
456,80,115272,6,2,B|416:32|352:32|352:32|280:36|248:92,1,241.875009226799,14|0,3:0|0:0,0:0:0:0:
177,159,115621,5,14,3:0:0:0:
166,150,115708,1,0,0:0:0:0:
154,142,115796,2,0,P|141:108|143:65,1,53.75,0|0,3:0|0:0,0:0:0:0:
275,130,115970,1,10,3:0:0:0:
286,137,116057,1,0,0:0:0:0:
297,144,116145,2,0,P|309:177|307:220,1,53.75,0|0,3:0|0:0,0:0:0:0:
242,335,116319,5,10,3:0:0:0:
231,326,116406,1,0,0:0:0:0:
220,317,116494,2,0,P|207:283|209:240,1,53.75,0|0,3:0|0:0,0:0:0:0:
246,169,116668,1,10,0:0:0:0:
257,162,116755,1,0,0:0:0:0:
269,156,116842,2,0,L|325:160,1,53.75
206,265,117017,1,10,3:0:0:0:
218,261,117104,1,0,0:0:0:0:
230,257,117191,2,0,L|286:261,1,53.75
178,363,117365,5,10,3:0:0:0:
190,367,117453,1,0,0:0:0:0:
202,371,117540,1,0,0:0:0:0:
214,375,117627,1,0,0:0:0:0:
226,379,117714,1,10,3:0:0:0:
206,343,117801,1,0,0:0:0:0:
170,323,117889,1,0,0:0:0:0:
126,323,117976,1,0,0:0:0:0:
86,339,118063,6,0,P|64:354|46:375,3,53.75,10|0|0|0,3:0|0:0|0:0|0:0,0:0:0:0:
31,254,118412,1,10,0:0:0:0:
31,254,118499,1,0,0:0:0:0:
31,254,118586,2,0,P|51:238|71:217,1,53.75,0|0,3:0|0:0,0:0:0:0:
168,226,118760,5,10,0:0:0:0:
168,226,118847,1,0,0:0:0:0:
168,226,118935,2,0,L|159:280,1,53.75,0|0,3:0|0:0,0:0:0:0:
237,171,119110,1,10,0:0:0:0:
237,171,119197,1,0,0:0:0:0:
237,171,119285,2,0,L|246:117,1,53.75,0|0,3:0|0:0,0:0:0:0:
300,228,119458,5,10,3:0:0:0:
312,232,119546,1,0,0:0:0:0:
324,236,119633,2,0,P|356:236|380:228,1,53.75
412,132,119807,1,10,3:0:0:0:
400,128,119895,1,0,0:0:0:0:
388,124,119982,2,0,P|356:124|332:132,1,53.75
428,300,120156,5,10,3:0:0:0:
450,281,120243,1,0,0:0:0:0:
463,256,120331,1,0,0:0:0:0:
466,228,120418,1,0,0:0:0:0:
456,200,120505,2,2,B|468:224|471:258|471:258|512:297|512:297|500:344|532:376,1,201.5625,10|0,0:0|0:0,0:0:0:0:
440,372,120854,5,10,3:0:0:0:
428,366,120941,1,0,0:0:0:0:
418,359,121028,2,0,P|396:339|376:314,1,53.75
316,176,121203,1,10,3:0:0:0:
320,188,121290,1,0,0:0:0:0:
324,200,121377,2,0,P|326:229|322:261,1,53.75
252,304,121551,5,10,3:0:0:0:
240,300,121639,1,0,0:0:0:0:
228,296,121726,2,0,L|172:300,1,53.75
40,228,121900,1,10,3:0:0:0:
52,232,121988,1,0,0:0:0:0:
64,236,122075,2,0,L|120:232,1,53.75
188,168,122249,5,10,3:0:0:0:
180,160,122336,1,0,0:0:0:0:
172,152,122424,2,0,P|144:140|120:136,1,53.75
52,44,122598,1,10,3:0:0:0:
60,52,122685,1,0,0:0:0:0:
68,60,122772,2,0,P|94:55|118:44,1,53.75
221,34,122947,5,10,3:0:0:0:
222,46,123034,1,0,0:0:0:0:
222,57,123122,2,0,P|233:85|247:105,1,53.75
385,83,123296,1,10,3:0:0:0:
388,124,123383,1,0,0:0:0:0:
379,167,123470,1,0,0:0:0:0:
351,201,123557,1,0,0:0:0:0:
308,216,123645,5,10,0:0:0:0:
295,214,123732,1,0,0:0:0:0:
283,212,123819,2,0,L|275:265,1,53.75
142,341,123993,1,10,0:0:0:0:
129,343,124080,1,0,0:0:0:0:
117,345,124167,2,0,L|109:292,1,53.75
148,178,124342,5,10,0:0:0:0:
161,176,124429,1,0,0:0:0:0:
173,174,124516,2,0,L|181:227,1,53.75
236,322,124691,1,10,3:0:0:0:
248,330,124778,1,0,0:0:0:0:
262,334,124865,1,0,0:0:0:0:
273,335,124953,1,0,0:0:0:0:
289,332,125040,6,0,L|276:384,3,53.75,10|0|0|0,0:0|0:0|0:0|0:0,0:0:0:0:
364,369,125389,2,0,L|420:365,3,53.75,10|0|0|0,0:0|0:0|0:0|0:0,0:0:0:0:
497,355,125738,6,0,B|499:323|499:323|479:292,1,67.1875,10|0,0:0|0:0,0:0:0:0:
351,232,125912,2,0,B|349:200|349:200|369:169,1,67.1875,2|0,0:0|0:0,0:0:0:0:
508,20,126086,6,0,B|484:196|484:196|448:97,1,282.18750269115,10|0,0:0|0:0,0:0:0:0:
412,4,126435,2,0,B|372:12|372:12|351:43|351:43|313:20|313:20|287:51|287:51|256:40|232:64|232:64|264:72|292:56,1,282.18750269115,10|0,0:0|0:0,0:0:0:0:
160,24,126784,6,0,P|152:80|160:104,1,80.6250030755998,14|0,0:0|0:0,0:0:0:0:
168,188,126958,2,0,P|212:172|240:136,1,80.6250030755998,2|0,1:0|0:0,0:0:0:0:
88,144,127133,1,8,3:0:0:0:
92,224,127220,2,0,L|96:304,1,80.6250030755998,2|2,0:0|1:0,0:0:0:0:
152,364,127395,1,0,0:0:0:0:
184,276,127482,2,2,B|244:304|244:372|244:372|256:300|316:284,1,241.875009226799,10|0,0:0|0:0,0:0:0:0:
396,372,127831,6,0,L|340:372,1,53.75,10|0,3:0|0:0,0:0:0:0:
316,284,128005,2,0,P|319:244|340:209,1,80.6250030755998,2|0,1:0|0:0,0:0:0:0:
410,150,128179,2,2,B|436:176|444:236|404:276|404:276|460:280|488:332,1,241.875009226799,10|0,0:0|0:0,0:0:0:0:
396,372,128528,2,0,L|316:372,1,80.6250030755998,10|0,3:0|0:0,0:0:0:0:
152,364,128703,2,0,L|72:364,1,80.6250030755998,2|0,1:0|0:0,0:0:0:0:
232,172,128877,2,2,B|240:336|240:336|224:296|188:280,1,241.875009226799,10|0,0:0|0:0,0:0:0:0:
104,260,129226,6,2,P|96:96|96:96,1,161.2500061512,10|2,3:0|1:0,0:0:0:0:
92,8,129488,1,0,0:0:0:0:
188,0,129575,2,0,P|188:24|160:76,1,80.6250030755998,10|0,0:0|0:0,0:0:0:0:
28,76,129749,2,2,P|6:42|0:3,1,80.6250030755998,2|0,1:0|0:0,0:0:0:0:
264,0,129924,2,2,P|256:72|200:144,1,161.2500061512,10|2,3:0|1:0,0:0:0:0:
120,148,130185,1,0,0:0:0:0:
44,200,130272,2,2,B|112:248|112:248|184:212,1,161.2500061512,10|2,0:0|1:0,0:0:0:0:
120,148,130534,5,2,0:0:0:0:
68,80,130621,2,0,P|52:96|36:132,1,53.75,10|2,3:0|0:0,0:0:0:0:
76,316,130796,2,0,B|112:332|112:332|156:312,1,80.6250030755998,2|0,1:0|0:0,0:0:0:0:
256,284,130970,2,2,B|336:288|336:288|396:344|396:344|476:348,1,241.875009226799,10|0,0:0|0:0,0:0:0:0:
444,180,131319,2,2,P|448:216|432:256,1,80.6250030755998,10|0,3:0|0:0,0:0:0:0:
280,200,131493,2,0,L|360:204,1,80.6250030755998,2|0,1:0|0:0,0:0:0:0:
448,92,131668,2,2,P|412:96|376:120,1,80.6250030755998,10|0,0:0|0:0,0:0:0:0:
288,112,131842,2,0,L|292:32,1,80.6250030755998,2|0,1:0|0:0,0:0:0:0:
280,200,132017,6,2,B|212:192|200:120|200:120|192:188|124:204,1,241.875009226799,10|0,3:0|0:0,0:0:0:0:
108,112,132365,2,0,P|64:132|40:164,1,80.6250030755998,10|0,0:0|0:0,0:0:0:0:
116,292,132540,2,2,P|72:272|48:240,1,80.6250030755998,2|0,1:0|0:0,0:0:0:0:
200,256,132714,1,10,3:0:0:0:
276,300,132801,2,0,L|280:368,2,67.1875,2|2|0,0:0|1:0|0:0,0:0:0:0:
267,101,133063,2,2,P|359:139|279:199,1,241.875009226799,10|0,0:0|0:0,0:0:0:0:
236,32,133412,6,0,P|276:16|324:16,1,80.6250030755998,10|0,3:0|0:0,0:0:0:0:
416,80,133586,2,0,P|432:120|432:172,1,80.6250030755998,2|0,1:0|0:0,0:0:0:0:
392,248,133761,2,2,P|340:276|236:264,1,161.2500061512,10|2,0:0|1:0,0:0:0:0:
180,216,134022,1,0,0:0:0:0:
164,292,134110,2,0,L|172:372,1,80.6250030755998,10|0,3:0|0:0,0:0:0:0:
100,252,134284,2,0,L|92:172,1,80.6250030755998,2|0,1:0|0:0,0:0:0:0:
189,103,134458,2,2,B|249:59|309:91|309:91|365:119|417:79,1,241.875009226799,10|0,0:0|0:0,0:0:0:0:
424,92,134807,6,2,B|364:136|304:104|304:104|248:76|196:116,1,241.875009226799,10|0,3:0|0:0,0:0:0:0:
248,252,135156,2,0,L|256:172,1,80.6250030755998,10|0,0:0|0:0,0:0:0:0:
168,292,135331,2,2,L|176:372,1,80.6250030755998,2|0,1:0|0:0,0:0:0:0:
256,336,135505,1,8,3:0:0:0:
332,368,135592,2,0,P|338:334|320:284,2,80.6250030755998,2|2|0,0:0|1:0|0:0,0:0:0:0:
424,364,135854,2,2,B|436:291|393:233|393:233|442:258|493:232,1,241.875009226799,10|0,0:0|0:0,0:0:0:0:
432,80,136203,6,0,P|425:113|444:164,1,80.6250030755998,10|0,3:0|0:0,0:0:0:0:
332,368,136377,2,0,P|338:334|320:284,1,80.6250030755998,2|0,1:0|0:0,0:0:0:0:
216,52,136551,2,2,B|188:108|208:172|208:172|152:140|92:160,1,241.875009226799,10|0,0:0|0:0,0:0:0:0:
100,240,136900,2,0,P|144:228|184:252,1,94.0625008970499,10|0,3:0|0:0,0:0:0:0:
332,368,137075,2,0,P|292:368|264:340,1,80.6250030755998,2|0,1:0|0:0,0:0:0:0:
382,148,137249,2,2,P|446:122|501:151,1,134.375,10|2,0:0|1:0,0:0:0:0:
440,199,137511,1,2,0:0:0:0:
505,240,137598,6,2,P|412:270|371:232,1,161.2500061512,14|2,3:0|1:0,0:0:0:0:
272,216,137860,1,0,0:0:0:0:
184,252,137947,2,0,L|180:332,1,80.6250030755998,10|0,0:0|0:0,0:0:0:0:
12,300,138121,2,2,P|40:288|92:288,1,80.6250030755998,2|0,1:0|0:0,0:0:0:0:
264,372,138296,1,8,3:0:0:0:
268,296,138383,2,0,L|272:216,2,80.6250030755998,2|2|0,0:0|1:0|0:0,0:0:0:0:
200,168,138645,2,2,P|240:136|348:176,1,161.2500061512,10|2,0:0|1:0,0:0:0:0:
272,216,138906,5,0,0:0:0:0:
338,162,138993,2,0,P|356:196|356:240,1,80.6250030755998,10|0,3:0|0:0,0:0:0:0:
191,245,139168,2,0,P|187:205|200:168,1,80.6250030755998,2|0,1:0|0:0,0:0:0:0:
424,292,139342,2,2,P|372:324|280:280,1,161.2500061512,10|2,0:0|1:0,0:0:0:0:
356,237,139604,1,0,0:0:0:0:
424,292,139691,2,0,L|432:376,1,80.6250030755998,10|0,3:0|0:0,0:0:0:0:
508,252,139865,2,2,L|500:171,1,80.6250030755998,2|0,1:0|0:0,0:0:0:0:
512,84,140040,2,2,B|476:60|476:60|356:72,1,161.2500061512,10|2,0:0|1:0,0:0:0:0:
272,80,140301,5,0,0:0:0:0:
228,156,140389,2,2,P|188:104|216:12,1,161.2500061512,10|2,3:0|1:0,0:0:0:0:
272,80,140650,1,0,0:0:0:0:
358,71,140738,2,0,P|352:116|328:148,1,80.6250030755998,10|0,0:0|0:0,0:0:0:0:
158,190,140912,2,2,P|194:162|233:156,1,80.6250030755998,2|0,1:0|0:0,0:0:0:0:
288,220,141086,1,8,3:0:0:0:
292,304,141174,2,0,L|296:372,2,67.1875,2|2|0,0:0|1:0|0:0,0:0:0:0:
404,356,141435,2,2,B|456:329|456:329|380:336,1,134.375,10|2,0:0|1:0,0:0:0:0:
208,348,141697,5,0,0:0:0:0:
136,320,141784,2,0,L|132:240,1,80.6250030755998,10|0,3:0|0:0,0:0:0:0:
232,74,141958,2,2,L|228:154,1,80.6250030755998,2|0,1:0|0:0,0:0:0:0:
380,336,142133,2,2,B|372:180|372:180|336:260,1,241.875009226799,10|0,0:0|0:0,0:0:0:0:
0,326,142482,6,2,B|60:200|60:200|136:320,1,282.18750269115,10|0,3:0|0:0,0:0:0:0:
136,320,142831,6,2,B|160:224|60:200|60:200|-32:240|0:326,1,322.5,10|0,0:0|0:0,0:0:0:0:
0,327,143179,6,2,P|63:242|136:320,1,241.875009226799,10|0,3:0|0:0,0:0:0:0:
208,344,143528,2,0,P|212:308|204:264,1,80.6250030755998,10|0,0:0|0:0,0:0:0:0:
160,200,143703,2,2,P|124:176|76:168,1,80.6250030755998,2|0,1:0|0:0,0:0:0:0:
12,176,143877,1,10,3:0:0:0:
0,100,143964,2,2,P|8:64|96:96,1,161.2500061512,2|0,0:0|0:0,0:0:0:0:
176,112,144226,2,2,B|188:56|148:4|148:4|196:52|264:28,1,241.875009226799,10|0,0:0|0:0,0:0:0:0:
344,24,144575,6,0,L|336:104,1,80.6250030755998,10|0,3:0|0:0,0:0:0:0:
260,184,144749,2,0,L|252:264,1,80.6250030755998,2|0,1:0|0:0,0:0:0:0:
312,356,144924,2,2,B|372:352|372:352|408:336|408:336|472:332,1,161.2500061512,10|2,0:0|1:0,0:0:0:0:
348,260,145185,1,0,0:0:0:0:
252,264,145272,2,0,B|237:300|237:300|236:341,1,80.6250030755998,10|0,3:0|0:0,0:0:0:0:
160,249,145447,2,2,B|175:213|175:213|181:173,1,80.6250030755998,2|0,1:0|0:0,0:0:0:0:
120,96,145621,2,2,P|196:76|268:120,1,161.2500061512,10|2,0:0|1:0,0:0:0:0:
181,172,145883,5,0,0:0:0:0:
120,96,145970,2,2,B|203:27|203:27|264:115,1,215,14|2,3:0|0:0,0:0:0:0:
308,192,146493,2,2,L|388:188,1,80.6250030755998,2|0,1:0|0:0,0:0:0:0:
252,264,146842,2,2,L|172:268,1,80.6250030755998,2|0,1:0|0:0,0:0:0:0:
320,320,147191,2,2,L|400:316,1,80.6250030755998,2|0,1:0|0:0,0:0:0:0:
240,368,147540,2,2,L|160:372,1,80.6250030755998,2|0,1:0|0:0,0:0:0:0:
60,320,147889,2,2,L|136:316,1,40.3125015377999,2|0,1:0|0:0,0:0:0:0:
60,320,148063,5,8,0:0:0:0:
36,300,148150,1,8,0:0:0:0:
24,272,148238,1,8,0:0:0:0:
20,244,148325,1,8,3:0:0:0:
57,174,148412,5,8,0:0:0:0:
81,194,148499,1,8,0:0:0:0:
95,222,148586,1,8,0:0:0:0:
99,248,148674,1,8,3:0:0:0:
59,319,148761,6,0,B|3:275|27:215|27:215|80:212|103:255,1,201.5625,14|0,3:0|0:0,0:0:0:0:
156,320,149110,6,2,B|260:240|260:240|368:328,1,268.75,10|0,0:0|0:0,0:0:0:0:
366,326,149633,6,2,B|304:308|260:240|260:240|216:304|156:320,1,274.125001673126,10|0,0:0|0:0,0:0:0:0:
155,320,150156,6,2,B|226:320|260:240|260:240|287:320|370:326,1,284.875000434685,10|0,0:0|0:0,0:0:0:0:
365,325,150679,6,2,B|282:337|260:240|260:240|237:336|152:320,1,301.000003674316,10|0,0:0|0:0,0:0:0:0:
176,244,151203,5,8,0:0:0:0:
176,244,151551,6,2,B|114:254|76:196|76:196|108:136|180:144,1,241.875009226799,14|0,3:0|0:0,0:0:0:0:
256,144,151900,2,0,L|260:88,1,53.75,10|0,0:0|0:0,0:0:0:0:
224,16,152075,1,0,0:0:0:0:
208,20,152162,1,8,3:0:0:0:
320,28,152249,6,0,B|400:32|400:32|376:48,1,107.5,2|0,0:0|0:0,0:0:0:0:
417,121,152511,2,0,B|470:180|470:180|442:175,1,107.5,2|0,0:0|0:0,0:0:0:0:
420,256,152772,2,2,B|416:336|416:336,1,61.8125011789799,2|0,0:0|0:0,0:0:0:0:
332,372,152947,6,2,B|297:323|329:258|329:258|278:313|213:288,1,241.875009226799,10|0,3:0|0:0,0:0:0:0:
194,188,153296,2,0,L|247:191,1,53.75,10|0,0:0|0:0,0:0:0:0:
335,243,153470,1,0,0:0:0:0:
328,258,153557,1,8,3:0:0:0:
338,151,153645,2,0,P|310:115|240:94,1,107.5,2|0,0:0|0:0,0:0:0:0:
276,4,153906,5,2,0:0:0:0:
244,8,153993,2,2,P|208:20|168:72,1,94.0625008970499,10|0,0:0|0:0,0:0:0:0:
92,96,154168,2,2,P|86:49|105:7,1,94.0625008970499,2|0,0:0|0:0,0:0:0:0:
160,172,154342,5,10,3:0:0:0:
164,192,154429,1,0,0:0:0:0:
184,228,154517,1,10,3:0:0:0:
180,248,154604,1,8,3:0:0:0:
168,288,154691,2,0,L|176:344,1,53.75,10|0,0:0|0:0,0:0:0:0:
68,272,154865,2,0,L|60:218,1,53.75,2|8,0:0|3:0,0:0:0:0:
152,130,155040,6,0,L|160:186,3,53.75,2|0|8|2,0:0|0:0|3:0|0:0,0:0:0:0:
240,232,155389,2,0,P|276:224|296:212,1,53.75,10|0,0:0|0:0,0:0:0:0:
364,160,155563,2,0,P|388:148|424:144,1,61.8125011789799,2|0,0:0|0:0,0:0:0:0:
500,172,155738,5,8,3:0:0:0:
504,156,155825,1,8,3:0:0:0:
478,255,155912,2,2,P|472:289|506:261,1,107.5,2|0,0:0|0:0,0:0:0:0:
392,288,156086,2,2,P|408:332|524:364,1,161.2500061512,10|2,0:0|0:0,0:0:0:0:
340,368,156348,5,8,3:0:0:0:
312,370,156435,2,0,L|256:372,1,53.75,2|2,0:0|0:0,0:0:0:0:
176,336,156610,2,0,P|192:312|216:292,1,53.75,8|2,3:0|0:0,0:0:0:0:
89,336,156784,6,2,B|105:258|170:221|170:221|92:239|41:193,1,282.18750269115,14|0,0:0|0:0,0:0:0:0:
149,65,157133,2,2,P|149:129|125:59,1,201.5625,2|0,0:0|0:0,0:0:0:0:
200,4,157482,6,2,P|232:40|232:152,1,161.2500061512,14|0,0:0|0:0,0:0:0:0:
336,136,157743,1,8,3:0:0:0:
364,132,157831,2,0,B|444:124|444:124|420:144,1,107.5,2|0,0:0|0:0,0:0:0:0:
374,225,158092,2,0,B|437:276|437:276,1,53.75,2|8,0:0|0:0,0:0:0:0:
276,272,158267,1,0,0:0:0:0:
277,296,158354,2,2,L|279:352,1,53.75,2|0,0:0|0:0,0:0:0:0:
196,332,158528,5,10,3:0:0:0:
360,316,158703,1,2,0:0:0:0:
180,332,158877,2,2,L|124:328,1,53.75,8|0,0:0|0:0,0:0:0:0:
37,251,159051,2,0,P|51:219|54:260,1,107.5,2|8,0:0|3:0,0:0:0:0:
12,148,159226,6,0,P|61:138|96:147,1,53.75,2|2,0:0|3:0,0:0:0:0:
148,72,159400,1,8,3:0:0:0:
168,88,159487,1,2,0:0:0:0:
208,128,159575,2,2,P|212:172|196:212,1,80.6250030755998,10|0,0:0|0:0,0:0:0:0:
56,260,159749,2,2,P|44:298|49:329,1,72.562500276804,2|0,0:0|0:0,0:0:0:0:
248,329,159924,6,2,B|284:293|284:293|132:305,1,201.5625,8|0,3:0|0:0,0:0:0:0:
146,209,160272,2,0,L|250:201,1,53.75,8|0,0:0|0:0,0:0:0:0:
293,202,160447,1,0,0:0:0:0:
319,200,160534,1,8,3:0:0:0:
376,196,160621,2,0,L|380:140,1,53.75,10|0,3:0|0:0,0:0:0:0:
284,293,160796,2,0,L|287:346,1,53.75,8|0,3:0|0:0,0:0:0:0:
512,289,160970,5,10,0:0:0:0:
436,281,161057,1,2,0:0:0:0:
360,273,161145,2,0,L|428:268,1,67.1875,2|0,0:0|0:0,0:0:0:0:
424,372,161319,6,0,P|397:370|372:356,1,53.75,10|2,3:0|0:0,0:0:0:0:
287,346,161493,2,0,L|220:352,1,67.1875,2|0,0:0|0:0,0:0:0:0:
20,364,161668,2,2,P|75:323|135:357,1,145.125000553608,10|0,0:0|0:0,0:0:0:0:
192,308,161929,5,14,3:0:0:0:
179,291,162016,2,2,P|151:267|127:255,1,53.75,2|0,0:0|0:0,0:0:0:0:
65,250,162191,2,2,P|39:254|13:265,1,53.75,2|0,0:0|0:0,0:0:0:0:
161,191,162452,2,2,P|83:173|4:186,1,161.2500061512,2|0,0:0|0:0,0:0:0:0:
79,95,162714,6,2,B|65:250|65:250|3:185,1,243.487497213507,14|0,3:0|0:0,0:0:0:0:
48,20,163063,2,0,L|104:16,1,53.75,10|2,0:0|0:0,0:0:0:0:
188,80,163238,1,0,0:0:0:0:
184,100,163325,1,8,3:0:0:0:
196,4,163412,6,0,L|304:0,1,107.5,2|8,0:0|3:0,0:0:0:0:
368,84,163674,2,2,L|304:88,2,53.75,2|10|2,0:0|0:0|0:0,0:0:0:0:
448,124,163935,2,2,P|456:72|440:32,1,94.0625008970499,2|0,0:0|0:0,0:0:0:0:
368,84,164110,5,10,3:0:0:0:
380,224,164284,1,2,0:0:0:0:
464,132,164458,1,10,0:0:0:0:
448,124,164546,2,0,L|452:180,1,53.75,10|0,3:0|0:0,0:0:0:0:
460,268,164720,5,8,3:0:0:0:
460,288,164807,2,0,L|464:344,1,53.75,10|0,3:0|0:0,0:0:0:0:
284,236,164982,2,2,P|328:216|384:232,1,107.5,2|0,0:0|0:0,0:0:0:0:
340,348,165156,2,2,L|336:292,1,53.75,10|0,0:0|0:0,0:0:0:0:
324,140,165331,2,2,L|320:84,1,53.75,2|0,0:0|0:0,0:0:0:0:
240,28,165505,5,10,3:0:0:0:
216,15,165592,1,0,0:0:0:0:
189,12,165679,1,2,0:0:0:0:
163,17,165767,1,0,0:0:0:0:
140,32,165854,2,2,B|40:36|40:36|76:8,1,134.375,10|0,0:0|0:0,0:0:0:0:
232,144,166115,6,2,B|100:152|100:152|164:120,1,201.5625,10|8,3:0|3:0,0:0:0:0:
240,28,166464,2,0,L|296:24,2,53.75,2|8|2,0:0|0:0|0:0,0:0:0:0:
312,108,166726,2,2,P|352:88|376:56,1,80.6250030755998,2|0,0:0|0:0,0:0:0:0:
232,144,166900,5,8,3:0:0:0:
308,264,167075,2,2,L|304:196,1,67.1875,0|2,0:0|0:0,0:0:0:0:
232,312,167249,2,2,P|288:352|384:316,1,161.2500061512,10|2,0:0|0:0,0:0:0:0:
232,312,167511,2,2,P|244:344|280:372,1,80.6250030755998,8|2,3:0|0:0,0:0:0:0:
308,264,167685,1,0,0:0:0:0:
308,246,167772,2,2,L|304:192,1,53.75,10|0,3:0|0:0,0:0:0:0:
464,148,167947,6,2,B|523:140|536:177|538:226|508:239|456:244|409:246|380:164|380:164|366:120|304:88|249:132,1,435.375001660824,14|2,0:0|0:0,0:0:0:0:
304,192,168296,5,14,3:0:0:0:
356,40,168470,1,0,0:0:0:0:
252,129,168645,2,0,P|264:80|236:24,1,107.5,10|0,0:0|0:0,0:0:0:0:
180,88,168906,5,8,3:0:0:0:
160,100,168993,2,0,B|120:96|120:96|72:48,1,107.5,2|0,0:0|0:0,0:0:0:0:
123,194,169255,2,0,L|80:228,1,53.75,2|8,0:0|0:0,0:0:0:0:
167,269,169429,1,2,0:0:0:0:
164,288,169517,2,0,L|156:352,1,61.8125011789799,2|8,0:0|0:0,0:0:0:0:
248,364,169691,5,10,3:0:0:0:
216,188,169865,1,2,0:0:0:0:
264,364,170040,2,0,P|332:364|376:308,1,134.375,10|0,0:0|0:0,0:0:0:0:
312,252,170301,5,2,0:0:0:0:
304,236,170389,2,0,L|296:292,1,53.75,10|0,3:0|0:0,0:0:0:0:
472,268,170563,2,2,P|424:228|392:220,1,94.0625008970499,2|0,0:0|0:0,0:0:0:0:
260,152,170738,6,2,L|340:148,1,80.6250030755998,14|0,0:0|0:0,0:0:0:0:
207,247,170912,2,2,L|139:243,1,67.1875,2|0,0:0|0:0,0:0:0:0:
8,204,171086,6,2,B|56:152|56:152|44:324,1,241.875009226799,14|0,3:0|0:0,0:0:0:0:
140,244,171435,2,2,L|148:136,1,107.5,10|0,0:0|0:0,0:0:0:0:
108,61,171697,5,8,3:0:0:0:
128,52,171784,2,0,L|184:56,1,53.75,10|8,3:0|3:0,0:0:0:0:
301,131,171958,2,0,L|248:128,1,53.75,10|0,3:0|0:0,0:0:0:0:
384,68,172133,2,2,L|448:72,6,33.59375,10|2|2|2|2|2|2,0:0|0:0|0:0|0:0|0:0|0:0|0:0,0:0:0:0:
301,131,172481,5,12,3:0:0:0:
298,143,172569,2,0,P|297:188|309:224,1,80.6250030755998,2|0,0:0|0:0,0:0:0:0:
475,325,172917,6,0,P|443:291|408:274,1,86,2|0,0:0|0:0,0:0:0:0:
189,329,173266,6,0,P|237:330|277:317,1,91.3750017428398,2|0,0:0|0:0,0:0:0:0:
73,204,173615,6,0,P|41:223|-9:298,1,102.124997272968,2|0,0:0|0:0,0:0:0:0:
126,371,173877,6,2,P|132:286|96:364,1,241.875009226799,14|0,3:0|0:0,0:0:0:0:
240,368,174226,2,0,P|248:316|232:264,1,107.5,8|2,0:0|0:0,0:0:0:0:
324,132,174575,6,2,B|320:212|320:212|340:292|340:292|336:372,1,241.875009226799,14|0,3:0|0:0,0:0:0:0:
424,376,174924,2,2,L|428:312,6,33.59375,10|2|2|2|2|2|2,0:0|0:0|0:0|0:0|0:0|0:0|0:0,0:0:0:0:
512,372,175272,6,2,B|516:220|516:220|484:254|436:251,1,241.875009226799,14|0,3:0|0:0,0:0:0:0:
448,164,175621,2,0,L|452:56,1,107.5,10|0,0:0|0:0,0:0:0:0:
435,251,175970,6,2,P|372:208|432:76,1,241.875009226799,14|0,3:0|0:0,0:0:0:0:
448,164,176319,2,2,B|384:168|384:168|324:152|324:152|264:156,1,185.43750353694,10|0,0:0|0:0,0:0:0:0:
114,112,176668,6,2,B|74:132|74:132|116:148|116:148|172:144|172:144|211:159|211:159|264:155,1,241.875009226799,14|0,3:0|0:0,0:0:0:0:
224,80,177017,1,10,0:0:0:0:
224,80,177191,1,10,0:0:0:0:
160,232,177365,6,2,B|136:264|144:304|144:304|156:344|138:373|138:373|120:328|120:328|132:308|132:284,1,241.875009226799,14|0,3:0|0:0,0:0:0:0:
108,167,177714,2,0,P|70:222|55:287,1,134.375,10|0,0:0|0:0,0:0:0:0:
220,284,178063,6,2,B|364:272|364:272|300:248,1,201.5625,14|2,3:0|0:0,0:0:0:0:
352,180,178412,2,2,B|392:192|392:192|428:180,1,80.6250030755998,10|10,0:0|0:0,0:0:0:0:
476,72,178761,6,2,B|440:36|388:24|388:24|336:36|304:72,1,198.874999241352,14|0,3:0|0:0,0:0:0:0:
180,186,179110,2,2,B|137:208|100:195|60:176|32:136|51:83|73:57|133:67|142:112,1,282.18750269115,10|0,0:0|0:0,0:0:0:0:
101,268,179458,6,2,P|57:252|5:196,1,107.5,14|8,3:0|0:0,0:0:0:0:
0,187,179720,1,8,0:0:0:0:
0,187,179807,1,14,3:0:0:0:
142,110,179982,1,8,0:0:0:0:
236,250,180156,2,2,P|251:293|242:362,1,118.250003608704,14|8,3:0|0:0,0:0:0:0:
460,280,180505,2,0,P|444:323|384:372,1,123.62500235796,14|8,3:0|0:0,0:0:0:0:
416,160,180854,5,14,3:0:0:0:
468,288,181028,1,8,0:0:0:0:
468,288,181115,1,8,0:0:0:0:
468,288,181203,1,14,3:0:0:0:
328,260,181377,1,8,0:0:0:0:
241,363,181551,5,14,3:0:0:0:
336,268,181726,1,8,0:0:0:0:
336,268,181813,1,8,0:0:0:0:
336,268,181900,1,14,3:0:0:0:
416,372,182075,1,8,0:0:0:0:
435,146,182249,6,8,L|431:202,1,53.75,14|8,3:0|0:0,0:0:0:0:
339,214,182424,2,10,L|335:270,1,53.75,14|8,3:0|0:0,0:0:0:0:
240,124,182598,6,8,L|244:192,1,67.1875,10|8,3:0|0:0,0:0:0:0:
164,240,182772,2,10,L|168:308,1,67.1875,14|8,0:0|0:0,0:0:0:0:
92,212,182947,6,8,P|120:176|156:164,1,80.6250030755998,10|8,3:0|0:0,0:0:0:0:
108,360,183121,2,10,P|71:344|48:312,1,80.6250030755998,14|8,3:0|0:0,0:0:0:0:
243,191,183296,2,0,P|270:228|271:274,1,94.0625008970499,10|8,3:0|0:0,0:0:0:0:
32,152,183470,2,2,B|28:100|28:100|4:64,1,94.0625008970499,14|8,3:0|0:0,0:0:0:0:
112,56,183645,6,2,L|180:52,1,67.1875,14|0,3:0|0:0,0:0:0:0:
349,43,183819,2,2,B|328:44|328:44|303:52|303:52|282:53,1,67.1875,2|0,1:0|0:0,0:0:0:0:
204,180,183993,6,2,P|224:148|228:108,1,53.75,2|0,1:0|0:0,0:0:0:0:
132,248,184168,2,10,P|138:300|154:322,1,80.6250030755998,2|0,1:0|0:0,0:0:0:0:
252,368,184342,6,2,P|314:352|211:276,1,282.18750269115,2|0,0:0|0:0,0:0:0:0:
244,374,184691,6,2,P|338:284|210:260,1,322.5,2|0,0:0|0:0,0:0:0:0:
269,305,185040,6,0,B|274:270|299:251|299:251|299:222|299:222|330:223|353:199|353:199|334:180|325:158|330:132|330:132|334:108|354:86|378:80|378:80|403:73|429:81|447:100|447:100|434:131|400:145|400:145|442:139|470:113|470:113|490:95|511:71|511:71|488:24|431:-1|393:0|351:6|312:34,1,806.25,14|0,3:0|2:0,0:0:0:0:
240,84,187831,2,0,B|225:120|230:157|230:157|91:162|91:162|131:211|106:265,1,323.575004937363,2|0,0:0|0:0,0:0:0:0:
11,258,189226,2,0,B|7:310|45:354|96:360|96:360|147:366|196:328|201:278|201:278|208:324|244:344,1,376.25,2|0,0:0|0:0,0:0:0:0:
288,272,190621,6,0,B|332:300|328:348|328:348|372:296|424:312|424:312|472:328|512:292,1,293.475009851761,2|0,0:0|0:0,0:0:0:0:
452,232,192017,2,0,P|456:196|360:100,1,161.25,2|0,0:0|0:0,0:0:0:0:
352,204,192714,2,0,L|190:211,1,161.25,2|0,0:0|0:0,0:0:0:0:
204,107,193412,6,0,B|276:104|276:104|284:79|305:60|331:56|331:56|357:51|384:61|401:81|401:81|418:102|421:129|412:154|412:154|386:126|347:128|347:128|372:116|385:93,1,428.924994764099,2|0,0:0|0:0,0:0:0:0:
352,204,194807,2,0,P|440:228|489:162,1,183.824997756043,2|0,0:0|0:0,0:0:0:0:
412,154,195505,2,0,P|324:130|275:196,1,183.824997756043,2|0,0:0|0:0,0:0:0:0:
256,312,196203,6,0,B|156:284|160:136|160:136|124:260|0:252,1,428.924994764099,2|0,0:0|0:0,0:0:0:0:
20,344,197598,2,0,B|76:344|116:324|116:324|140:360|180:380,1,183.824997756043,2|0,0:0|0:0,0:0:0:0:
254,335,198296,2,0,B|250:286|250:286|195:225|195:225|199:173,1,183.824997756043,2|0,0:0|0:0,0:0:0:0:
128,145,198993,6,0,B|140:117|166:96|198:96|198:96|229:96|258:113|271:142|271:142|317:128|317:128|339:148|369:155|397:148|397:148|426:141|450:120|460:92,1,398.825000608559,2|0,0:0|0:0,0:0:0:0:
376,61,200389,2,0,B|370:104|396:145|396:145|388:217|388:217|422:258|412:313|412:313|372:280|372:280|360:328|316:336,1,398.825000608559,2|0,0:0|0:0,0:0:0:0:
208,348,201784,6,0,B|152:320|108:356|108:356|40:348|40:348|0:304|8:236|8:236|8:276|40:300,1,368.724996624222,2|0,0:0|0:0,0:0:0:0:
8,156,203179,2,0,B|12:48|12:48|44:8,1,158.024998553238,2|0,0:0|0:0,0:0:0:0:
132,16,203877,2,0,P|180:76|256:88,1,158.024998553238,2|0,0:0|0:0,0:0:0:0:
336,32,204575,6,0,B|368:76|360:144|304:176|304:176|476:168|476:168|456:140|464:100,1,398.825000608559,2|0,0:0|0:0,0:0:0:0:
496,248,205970,2,0,B|374:254|374:254|364:284|340:328|276:360|196:344|156:272,1,398.825000608559,2|0,0:0|0:0,0:0:0:0:
262,175,207365,38,0,P|300:232|233:247,1,161.25,6|2,0:0|0:0,0:0:0:0:
156,272,208063,2,0,P|197:316|240:333,1,107.5,2|2,0:0|0:0,0:0:0:0:
348,328,208761,2,0,L|344:220,1,107.5,2|2,0:0|0:0,0:0:0:0:
340,100,209284,1,2,0:0:0:0:
393,157,209458,2,0,P|342:178|293:161,1,107.5,2|2,0:0|0:0,0:0:0:0:
188,160,210156,6,0,P|154:163|136:171,2,53.75,2|2|2,0:0|0:0|0:0,0:0:0:0:
179,245,210679,1,2,0:0:0:0:
56,152,210854,2,0,L|52:260,1,107.5,2|2,0:0|0:0,0:0:0:0:
44,344,211551,6,0,P|78:341|96:333,2,53.75,2|2|2,0:0|0:0|0:0,0:0:0:0:
52,260,212074,1,2,0:0:0:0:
175,353,212249,2,0,L|179:245,1,107.5,2|2,0:0|0:0,0:0:0:0:
179,246,212947,5,2,0:0:0:0:
276,212,213296,1,2,0:0:0:0:
320,304,213645,2,0,L|428:312,1,107.5,2|2,0:0|0:0,0:0:0:0:
392,208,214342,2,0,P|384:176|384:156,1,53.75,2|2,0:0|0:0,0:0:0:0:
488,120,214691,2,0,P|500:176|496:228,2,107.5,2|2|2,0:0|0:0|0:0,0:0:0:0:
488,120,215738,5,2,0:0:0:0:
488,120,216086,1,2,0:0:0:0:
392,72,216435,1,2,0:0:0:0:
392,72,216783,1,2,0:0:0:0:
304,136,217133,2,0,L|248:140,1,53.75,2|2,0:0|0:0,0:0:0:0:
180,104,217482,2,0,P|204:152|204:204,2,107.5,2|2|2,0:0|0:0|0:0,0:0:0:0:
260,40,218354,5,2,0:0:0:0:
312,116,218528,2,0,L|308:224,1,107.5,2|0,0:0|0:0,0:0:0:0:
304,316,219051,1,2,0:0:0:0:
388,356,219226,2,0,P|396:320|392:288,1,53.75,2|0,0:0|0:0,0:0:0:0:
220,304,219575,2,0,P|220:330|227:356,1,53.75,2|0,0:0|0:0,0:0:0:0:
308,223,219924,2,0,P|264:192|160:200,1,161.25,2|2,0:0|0:0,0:0:0:0:
220,304,220621,1,2,0:0:0:0:
220,304,220970,1,2,0:0:0:0:
307,222,221319,6,0,B|315:198|307:170|307:170|299:142|307:114,1,107.5,2|0,0:0|0:0,0:0:0:0:
384,144,221842,1,2,0:0:0:0:
232,195,222017,2,0,P|192:203|132:175,1,107.5,2|2,0:0|0:0,0:0:0:0:
196,16,222714,6,0,B|188:40|196:68|196:68|204:96|196:124,1,107.5,2|0,0:0|0:0,0:0:0:0:
120,95,223238,1,2,0:0:0:0:
272,43,223412,2,0,P|312:35|372:63,1,107.5,2|2,0:0|0:0,0:0:0:0:
307,116,224110,1,2,0:0:0:0:
256,192,224197,12,0,229517,1:0:0:0:
140,120,229691,6,0,L|136:200,1,80.6250030755998,14|0,3:0|0:0,0:0:0:0:
232,68,230040,2,0,L|236:148,1,80.6250030755998,8|10,3:0|3:0,0:0:0:0:
320,204,230389,1,10,3:0:0:0:
328,92,230563,1,0,0:0:0:0:
319,219,230738,2,0,L|315:299,1,80.6250030755998,10|0,3:0|0:0,0:0:0:0:
236,356,231086,6,0,P|192:364|156:356,1,80.6250030755998,10|0,3:0|0:0,0:0:0:0:
315,300,231435,2,0,P|359:292|395:300,1,80.6250030755998,8|2,3:0|0:0,0:0:0:0:
196,276,231784,1,10,3:0:0:0:
320,204,231958,1,8,0:0:0:0:
236,356,232133,1,8,3:0:0:0:
272,217,232307,1,8,0:0:0:0:
316,300,232482,6,2,B|356:284|393:300|393:300|432:280|472:296,1,161.2500061512,10|10,3:0|3:0,0:0:0:0:
436,368,233005,1,10,3:0:0:0:
352,372,233179,2,0,P|288:376|248:344,1,80.6250030755998,10|8,3:0|0:0,0:0:0:0:
208,320,233528,2,0,P|169:308|130:316,1,80.6250030755998,10|8,3:0|0:0,0:0:0:0:
64,372,233877,6,2,P|92:320|36:232,1,161.2500061512,10|8,3:0|3:0,0:0:0:0:
10,310,234400,1,2,0:0:0:0:
28,160,234575,5,0,3:0:0:0:
64,372,234749,1,8,0:0:0:0:
47,236,234924,1,8,3:0:0:0:
180,256,235098,1,8,0:0:0:0:
268,156,235272,6,0,B|272:92|272:92|292:64|292:64|296:0,1,161.2500061512,10|8,3:0|3:0,0:0:0:0:
204,28,235796,1,10,3:0:0:0:
360,132,235970,2,0,P|400:132|436:116,1,80.6250030755998,10|0,3:0|0:0,0:0:0:0:
324,244,236319,2,0,P|284:244|248:260,1,80.6250030755998,8|10,3:0|3:0,0:0:0:0:
216,352,236668,6,0,P|168:316|168:204,1,161.2500061512,10|8,3:0|3:0,0:0:0:0:
247,260,237191,1,2,0:0:0:0:
216,352,237365,1,10,3:0:0:0:
159,221,237540,1,8,0:0:0:0:
300,360,237714,1,8,3:0:0:0:
324,244,237889,1,8,0:0:0:0:
384,336,238063,6,2,P|420:296|420:192,1,161.2500061512,10|8,3:0|3:0,0:0:0:0:
324,244,238586,1,2,0:0:0:0:
384,336,238761,2,0,L|464:340,1,80.6250030755998,8|8,3:0|0:0,0:0:0:0:
324,244,239110,2,0,L|244:240,1,80.6250030755998,8|8,3:0|0:0,0:0:0:0:
39,307,239458,6,2,P|99:347|191:295,1,161.2500061512,10|8,3:0|3:0,0:0:0:0:
111,261,239982,1,2,0:0:0:0:
39,307,240156,1,10,3:0:0:0:
177,318,240331,1,8,0:0:0:0:
120,164,240505,1,8,3:0:0:0:
111,261,240679,1,8,0:0:0:0:
280,336,240854,6,0,L|388:340,1,107.5,14|2,1:0|0:0,0:0:0:0:
243,239,241203,2,0,L|135:243,1,107.5,10|2,1:0|0:0,0:0:0:0:
296,152,241551,2,0,L|404:156,1,107.5,10|2,1:0|0:0,0:0:0:0:
264,60,241900,1,10,1:0:0:0:
324,244,242074,1,2,0:0:0:0:
324,244,242162,1,2,0:0:0:0:
324,244,242249,5,10,0:0:0:0:
403,155,242423,2,0,P|374:132|301:126,1,107.5,2|8,1:0|0:0,0:0:0:0:
249,313,242772,2,0,P|283:299|325:239,1,107.5,2|8,1:0|0:0,0:0:0:0:
192,108,243121,2,0,P|186:144|217:210,1,107.5,2|8,1:0|0:0,0:0:0:0:
418,276,243470,1,2,0:0:0:0:
418,276,243557,1,2,0:0:0:0:
418,276,243645,6,0,P|386:248|322:244,1,107.5,10|2,1:0|0:0,0:0:0:0:
203,357,243993,2,0,L|197:248,1,107.5,10|2,1:0|0:0,0:0:0:0:
338,347,244342,2,0,P|379:379|432:379,1,107.5,10|2,1:0|0:0,0:0:0:0:
504,280,244691,1,10,1:0:0:0:
407,298,244865,1,10,0:0:0:0:
504,280,245040,6,0,L|508:172,1,107.5,10|10,1:0|0:0,0:0:0:0:
408,88,245389,2,0,L|404:196,1,107.5,10|2,1:0|0:0,0:0:0:0:
298,228,245738,2,0,L|302:120,1,107.5,10|10,1:0|0:0,0:0:0:0:
202,36,246086,2,0,L|198:144,1,107.5,10|2,1:0|0:0,0:0:0:0:
193,237,246435,5,14,1:0:0:0:
193,237,246610,1,10,0:0:0:0:
326,334,246784,2,0,P|376:307|406:262,1,107.5,10|2,1:0|0:0,0:0:0:0:
512,106,247133,2,0,P|457:88|404:99,2,107.5,10|2|10,1:0|0:0|1:0,0:0:0:0:
299,173,247656,2,0,P|246:181|196:164,1,107.5,2|2,1:0|0:0,0:0:0:0:
14,90,248005,6,0,L|121:86,1,107.5,2|10,1:0|0:0,0:0:0:0:
256,78,248354,1,2,0:0:0:0:
256,78,248528,1,10,1:0:0:0:
228,265,248703,1,2,1:0:0:0:
385,67,248877,1,10,1:0:0:0:
199,166,249051,1,2,0:0:0:0:
385,67,249226,6,0,L|389:11,1,53.75,8|0,0:0|0:0,0:0:0:0:
308,120,249400,1,10,3:0:0:0:
308,120,249488,1,10,3:0:0:0:
308,120,249575,2,0,L|312:176,1,53.75,8|0,0:0|0:0,0:0:0:0:
224,72,249749,1,10,0:0:0:0:
224,72,249836,1,2,0:0:0:0:
224,72,249924,6,0,L|227:18,1,53.75,8|0,0:0|0:0,0:0:0:0:
208,168,250098,1,10,3:0:0:0:
208,168,250185,1,2,3:0:0:0:
208,168,250272,2,0,L|152:164,1,53.75,8|0,0:0|0:0,0:0:0:0:
256,260,250447,1,10,0:0:0:0:
256,260,250534,1,2,0:0:0:0:
256,260,250621,6,0,L|309:257,3,53.75,8|2|10|2,0:0|0:0|3:0|3:0,0:0:0:0:
380,320,250970,5,8,0:0:0:0:
460,168,251145,1,10,0:0:0:0:
448,104,251232,1,10,0:0:0:0:
436,40,251319,1,10,0:0:0:0:
310,257,251493,5,10,0:0:0:0:
296,186,251581,1,10,0:0:0:0:
283,116,251668,1,10,0:0:0:0:
164,328,251842,5,10,0:0:0:0:
148,249,251929,1,10,0:0:0:0:
134,172,252017,6,8,L|140:120,3,26.875,14|8|8|8,3:0|3:0|3:0|3:0,3:0:0:0:
225,73,252365,2,8,L|221:129,3,29.5625009021759,10|8|8|8,3:0|3:0|3:0|3:0,3:0:0:0:
317,147,252714,2,8,L|320:84,3,32.2499990158081,10|8|8|8,3:0|3:0|3:0|3:0,3:0:0:0:
412,44,253063,1,10,3:0:0:0:
411,49,253150,1,8,3:0:0:0:
411,54,253238,1,8,3:0:0:0:
410,60,253325,1,8,3:0:0:0:
410,65,253412,5,10,3:0:0:0:
388,36,253499,1,8,3:0:0:0:
356,20,253586,1,8,3:0:0:0:
320,12,253674,1,8,3:0:0:0:
284,20,253761,1,10,3:0:0:0:
252,40,253848,1,8,3:0:0:0:
216,52,253935,1,8,3:0:0:0:
180,52,254022,1,8,3:0:0:0:
148,36,254110,5,10,3:0:0:0:
188,24,254197,1,8,3:0:0:0:
216,52,254284,1,8,3:0:0:0:
196,88,254371,1,8,3:0:0:0:
156,80,254458,1,10,3:0:0:0:
108,88,254546,1,8,3:0:0:0:
72,120,254633,1,8,3:0:0:0:
64,168,254720,1,8,3:0:0:0:
84,212,254807,5,10,3:0:0:0:
104,256,254895,1,8,3:0:0:0:
100,304,254982,1,8,3:0:0:0:
72,344,255069,1,8,3:0:0:0:
28,360,255156,1,10,3:0:0:0:
24,308,255243,1,8,3:0:0:0:
52,264,255331,1,8,3:0:0:0:
104,256,255418,1,8,3:0:0:0:
148,288,255505,5,10,3:0:0:0:
196,312,255592,1,8,3:0:0:0:
248,312,255679,1,8,3:0:0:0:
300,292,255767,1,8,3:0:0:0:
332,244,255854,1,10,3:0:0:0:
388,220,255941,1,8,3:0:0:0:
448,220,256028,1,8,3:0:0:0:
496,256,256115,1,8,3:0:0:0:
504,312,256203,6,0,B|387:351|387:351|408:315,1,164.83333647728,10|2,3:0|0:0,0:0:0:0:
448,220,256551,2,0,P|418:141|496:72,1,201.5625,2|0,0:0|0:0,0:0:0:0:
500,156,256900,5,8,0:0:0:0:
352,248,257075,2,0,L|312:252,1,40.3125015377999,8|8,0:0|3:0,0:0:0:0:
208,284,257249,1,8,0:0:0:0:
225,246,257336,1,8,3:0:0:0:
218,207,257424,1,8,0:0:0:0:
192,177,257511,1,8,3:0:0:0:
156,156,257598,6,0,B|136:152|120:140|120:140|104:152|80:156,1,80.625,6|0,0:0|0:0,0:0:0:0:
48,32,257947,2,2,B|96:32|122:63|122:63|152:32|200:36,1,161.25,2|0,0:0|0:0,0:0:0:0:
273,152,258296,6,0,P|273:116|253:80,1,67.1875,14|0,3:0|0:0,0:0:0:0:
191,136,258470,1,0,0:0:0:0:
221,216,258557,2,0,P|253:232|293:232,1,67.1875,2|0,0:0|0:0,0:0:0:0:
191,136,258732,1,0,0:0:0:0:
140,203,258819,2,0,P|140:236|153:265,1,67.1875,2|0,0:0|0:0,0:0:0:0:
191,136,258993,6,0,P|155:120|67:156,1,134.375,10|2,3:0|0:0,0:0:0:0:
104,348,259342,2,2,B|152:372|200:348|200:348|252:324|300:352,1,201.5625,2|0,0:0|0:0,0:0:0:0:
468,324,259691,6,0,L|400:328,1,67.1875,10|0,0:0|0:0,0:0:0:0:
344,248,259865,1,0,0:0:0:0:
360,176,259953,2,0,L|356:244,1,67.1875,2|0,0:0|0:0,0:0:0:0:
440,132,260127,1,2,0:0:0:0:
512,148,260214,2,0,L|444:144,1,67.1875,2|0,0:0|0:0,0:0:0:0:
280,132,260389,6,0,B|240:152|240:152|232:272,1,134.375,10|2,3:0|0:0,0:0:0:0:
297,350,260738,2,2,B|252:324|200:348|200:348|152:372|104:348,1,201.5625,2|0,0:0|0:0,0:0:0:0:
20,368,261086,6,2,P|20:324|84:264,1,134.375,10|0,0:0|0:0,0:0:0:0:
180,110,261348,2,2,P|211:141|208:228,1,134.375,2|0,0:0|0:0,0:0:0:0:
69,171,261610,2,2,P|102:170|133:181,1,67.1875,2|0,0:0|0:0,0:0:0:0:
332,208,261784,6,2,B|379:205|379:205|415:184|415:184|459:181,1,134.375,10|0,3:0|0:0,0:0:0:0:
456,168,262046,2,2,B|411:170|411:170|375:191|375:191|328:194,1,134.375,2|0,0:0|0:0,0:0:0:0:
324,284,262307,2,2,L|392:280,1,67.1875,2|0,0:0|0:0,0:0:0:0:
440,360,262482,6,2,B|304:368|304:368|248:336,1,201.5625,10|0,0:0|0:0,0:0:0:0:
160,280,262831,2,2,P|88:272|140:356,1,201.5625,2|0,0:0|0:0,0:0:0:0:
231,245,263179,6,2,B|216:188|156:188|156:188|128:240|160:280,1,201.5625,14|0,3:0|0:0,0:0:0:0:
304,216,263528,2,2,B|280:144|212:120|212:120|184:112|148:112,1,201.5625,14|0,3:0|0:0,0:0:0:0:
64,144,263877,6,0,P|60:100|68:72,1,67.1875,10|0,0:0|0:0,0:0:0:0:
149,112,264051,1,0,0:0:0:0:
106,193,264139,2,0,P|80:173|64:144,1,67.1875,2|0,0:0|0:0,0:0:0:0:
149,112,264313,1,0,0:0:0:0:
171,204,264400,2,0,P|137:205|106:193,1,67.1875,2|0,0:0|0:0,0:0:0:0:
248,108,264575,6,0,P|228:171|171:204,1,134.375,10|2,3:0|0:0,0:0:0:0:
192,324,264924,2,2,P|260:304|344:208,1,201.5625,2|0,0:0|0:0,0:0:0:0:
336,88,265272,6,0,L|404:84,1,67.1875,10|0,0:0|0:0,0:0:0:0:
476,136,265447,1,0,0:0:0:0:
460,208,265534,2,0,L|464:140,1,67.1875,2|0,0:0|0:0,0:0:0:0:
488,284,265708,1,2,0:0:0:0:
415,285,265796,2,0,P|446:296|480:296,1,67.1875,2|0,0:0|0:0,0:0:0:0:
344,344,265970,6,2,B|276:340|276:340|216:368|216:368|148:364,1,201.5625,14|0,3:0|0:0,0:0:0:0:
32,308,266319,6,2,B|52:142|52:142|82:313,1,335.9375,10|0,0:0|0:0,0:0:0:0:
81,309,266842,6,2,B|92:217|52:142|52:142|16:225|32:308,1,341.312497395992,10|0,0:0|0:0,0:0:0:0:
32,308,267365,6,2,B|-3:221|52:142|52:142|114:220|81:309,1,352.062506446457,10|0,0:0|0:0,0:0:0:0:
81,309,267889,6,2,B|134:219|52:142|52:142|-23:224|32:308,1,368.187510393477,10|0,0:0|0:0,0:0:0:0:
140,364,268412,6,2,B|183:318|184:236|184:236|204:324|262:349,1,282.18750269115,14|0,0:0|0:0,0:0:0:0:
344,368,268761,6,2,B|380:393|434:387|469:343|473:295|461:269|377:253|372:333,1,241.875009226799,14|0,3:0|0:0,0:0:0:0:
292,247,269110,2,2,P|391:185|507:209,1,241.875009226799,10|0,0:0|0:0,0:0:0:0:
496,24,269458,6,0,L|500:104,1,80.6250030755998,10|0,3:0|0:0,0:0:0:0:
364,72,269633,1,0,0:0:0:0:
288,60,269720,2,0,L|368:64,1,80.6250030755998,2|8,0:0|0:0,0:0:0:0:
216,140,269895,1,0,0:0:0:0:
140,152,269982,2,0,L|220:148,1,80.6250030755998,2|0,0:0|0:0,0:0:0:0:
76,72,270156,6,0,P|40:148|64:220,1,161.2500061512,10|2,3:0|0:0,0:0:0:0:
280,248,270505,2,2,B|332:224|332:224|148:236,1,241.875009226799,10|0,0:0|0:0,0:0:0:0:
92,380,270854,6,0,L|88:300,1,80.6250030755998,10|0,3:0|0:0,0:0:0:0:
140,152,271028,1,0,0:0:0:0:
192,80,271115,2,0,P|216:107|228:164,1,80.6250030755998,2|8,0:0|0:0,0:0:0:0:
280,248,271290,1,2,0:0:0:0:
356,236,271377,2,0,L|276:240,1,80.6250030755998,2|0,0:0|0:0,0:0:0:0:
148,236,271551,5,10,3:0:0:0:
476,216,271726,1,2,0:0:0:0:
108,324,271900,2,2,B|101:166|101:166|149:238,1,241.875009226799,10|0,0:0|0:0,0:0:0:0:
164,124,272249,6,0,B|210:192|210:192|244:121,1,161.2500061512,10|0,3:0|0:0,0:0:0:0:
293,184,272511,2,0,L|243:120,1,80.6250030755998,10|8,3:0|0:0,0:0:0:0:
373,177,272685,5,0,0:0:0:0:
284,52,272772,2,0,L|333:115,1,80.6250030755998,10|0,3:0|0:0,0:0:0:0:
440,8,272947,6,0,B|396:72|396:72|340:4,1,161.2500061512,10|0,3:0|0:0,0:0:0:0:
469,100,273208,2,0,L|513:32,1,80.6250030755998,10|8,3:0|0:0,0:0:0:0:
512,161,273383,5,0,0:0:0:0:
437,171,273470,2,0,L|373:174,1,64.4999980316163,10|0,3:0|0:0,0:0:0:0:
352,252,273645,6,2,B|479:245|479:245|440:296|464:352,1,241.875009226799,10|0,3:0|0:0,0:0:0:0:
360,360,273993,2,2,B|233:367|233:367|272:316|248:260,1,241.875009226799,10|0,0:0|0:0,0:0:0:0:
16,314,274342,6,0,B|60:310|60:310|92:290|92:290|132:286|132:286|168:302,1,161.2500061512,14|0,3:0|0:0,0:0:0:0:
260,168,274604,2,0,B|216:172|216:172|184:192|184:192|144:196|144:196|108:180,1,161.2500061512,14|0,3:0|0:0,0:0:0:0:
247,259,274865,2,0,B|286:255|286:255|324:236,1,80.6250030755998,14|0,3:0|0:0,0:0:0:0:
344,152,275040,5,2,0:0:0:0:
344,152,275214,1,2,0:0:0:0:
280,36,275389,6,0,B|284:84|284:84|311:55|355:50|387:70,1,161.2500061512,14|0,3:0|0:0,0:0:0:0:
472,184,275650,2,0,B|435:152|435:152|436:192|409:227|372:235,1,161.2500061512,14|0,3:0|0:0,0:0:0:0:
256,164,275912,2,0,P|267:204|307:236,1,80.6250030755998,14|0,3:0|0:0,0:0:0:0:
344,152,276086,6,2,L|340:120,6,20.1562507688999,10|2|2|2|2|2|2,0:0|0:0|0:0|0:0|0:0|0:0|0:0,0:0:0:0:
372,236,276435,6,0,B|388:344|388:344|324:304|268:356,1,241.875009226799,14|0,3:0|0:0,0:0:0:0:
164,336,276784,2,0,B|147:227|147:227|212:264|272:212,1,241.875009226799,14|0,3:0|0:0,0:0:0:0:
248,40,277133,6,2,B|196:80|200:144|200:144|180:72|120:56,1,241.875009226799,14|0,3:0|0:0,0:0:0:0:
92,156,277482,2,0,P|72:180|64:204,3,40.3125015377999,2|2|2|2,0:0|0:0|0:0|0:0,0:0:0:0:
60,272,277831,6,2,B|60:352|136:372|136:372|184:340|240:368,1,241.875009226799,14|0,3:0|0:0,0:0:0:0:
320,364,278179,1,8,0:0:0:0:
340,364,278267,1,0,0:0:0:0:
360,360,278354,1,0,0:0:0:0:
380,352,278441,1,0,0:0:0:0:
464,336,278528,6,2,B|452:282|405:256|355:268|355:268|383:227|375:171|332:131|284:139|257:191|291:225,1,376.25,14|2,3:0|0:0,0:0:0:0:
317,345,279226,6,0,L|321:380,1,18.8124994258881,10|0,0:0|0:0,0:0:0:0:
291,225,279400,5,2,0:0:0:0:
257,209,279575,5,2,0:0:0:0:
217,213,279749,5,2,0:0:0:0:
182,236,279924,6,0,P|134:252|42:200,1,161.25,14|2,3:0|0:0,0:0:0:0:
122,52,280621,2,0,L|126:160,1,107.5,2|2,0:0|0:0,0:0:0:0:
249,315,281319,6,0,P|285:245|258:171,1,161.25,2|2,0:0|0:0,0:0:0:0:
182,236,282017,1,2,0:0:0:0:
182,236,282365,1,2,0:0:0:0:
258,171,282714,6,2,P|306:135|398:171,1,161.25
333,319,283412,2,0,B|321:290|329:263|329:263|337:238|325:208,1,107.5,2|2,0:0|0:0,0:0:0:0:
258,171,284110,6,2,P|218:93|262:23,1,161.25
409,92,284807,2,0,B|379:104|352:95|352:95|327:88|300:100,1,107.5,2|2,0:0|0:0,0:0:0:0:
258,171,285505,5,2,0:0:0:0:
258,171,285854,1,2,0:0:0:0:
345,269,286203,1,2,0:0:0:0:
345,269,286551,1,2,0:0:0:0:
464,324,286900,2,0,P|480:288|456:212,1,107.5,2|2,0:0|0:0,0:0:0:0:
407,139,287598,2,0,P|391:88|408:38,1,107.5,2|2,0:0|0:0,0:0:0:0:
296,44,288296,6,0,L|188:48,2,107.5,2|2|2,0:0|0:0|0:0,0:0:0:0:
409,39,289342,1,2,0:0:0:0:
248,132,289691,2,0,P|239:184|257:234,2,107.5,2|2|2,0:0|0:0|0:0,0:0:0:0:
340,264,290738,1,2,0:0:0:0:
328,176,290912,1,2,0:0:0:0:
340,264,291086,6,0,P|312:304|204:304,1,161.25,2|2,0:0|0:0,0:0:0:0:
140,248,291784,2,0,L|32:256,1,107.5,2|2,0:0|0:0,0:0:0:0:
92,344,292307,1,2,0:0:0:0:
207,306,292482,2,0,P|224:216|180:168,1,161.25,2|2,0:0|0:0,0:0:0:0:
32,256,293179,2,0,L|140:248,1,107.5,2|2,0:0|0:0,0:0:0:0:
320,232,293877,6,2,B|332:192|316:156|316:156|300:116|320:76,1,161.25
380,20,294575,2,0,P|402:69|388:120,1,107.5,2|2,0:0|0:0,0:0:0:0:
244,196,295272,6,2,B|203:184|164:200|164:200|127:216|87:196,1,161.25
32,135,295970,2,0,P|80:113|131:127,1,107.5,2|2,0:0|0:0,0:0:0:0:
208,272,296668,6,0,L|204:380,1,107.5,2|2,0:0|0:0,0:0:0:0:
300,328,297365,2,0,P|344:308|412:336,1,107.5,2|2,0:0|0:0,0:0:0:0:
352,384,298063,1,2,0:0:0:0:
352,384,298412,1,2,0:0:0:0:
352,232,298761,1,2,0:0:0:0:
352,232,299110,1,2,0:0:0:0:
399,323,299458,5,2,0:0:0:0:
456,220,299807,5,2,0:0:0:0:
364,128,300156,5,2,0:0:0:0:
256,192,300505,5,2,0:0:0:0:
284,308,300854,6,0,L|340:312,1,53.75,2|0,0:0|0:0,0:0:0:0:
