osu file format v14

[General]
AudioFilename: audio.mp3
AudioLeadIn: 0
PreviewTime: 48250
Countdown: 1
SampleSet: Normal
StackLeniency: 0.7
Mode: 1
LetterboxInBreaks: 0
WidescreenStoryboard: 0

[Editor]
Bookmarks: 14762,92902,115576,126739,145925,173832
DistanceSpacing: 1.3
BeatDivisor: 4
GridSize: 32
TimelineZoom: 3.1

[Metadata]
Title:Hype feat. Such
TitleUnicode:Hype feat. Such
Artist:PSYQUI
ArtistUnicode:PSYQUI
Creator:KinomiCandy
Version:Future Oni
Source:FÜGENE2
Tags:fugene 2 future bass your voice so
BeatmapID:1634000
BeatmapSetID:777879

[Difficulty]
HPDrainRate:5
CircleSize:4
OverallDifficulty:5
ApproachRate:5
SliderMultiplier:1.5
SliderTickRate:1

[Events]
//Background and Video events
0,0,"dostedt.jpg",0,-70
//Break Periods
//Storyboard Layer 0 (Background)
//Storyboard Layer 1 (Fail)
//Storyboard Layer 2 (Pass)
//Storyboard Layer 3 (Foreground)
//Storyboard Sound Samples

[TimingPoints]
3599.74829866246,348.837209302326,4,1,0,50,1,0
3948,-117.647058823529,4,1,0,50,0,0
14762,-111.111111111111,4,1,0,50,0,0
20343,-105.263157894737,4,1,0,50,0,0
23134,-100,4,1,0,50,0,0
24529,-95.2380952380952,4,1,0,50,0,0
25925,-95.2380952380952,4,1,0,50,0,1
26099,-90.9090909090909,4,1,0,50,0,1
34471,-95.2380952380952,4,1,0,50,0,1
34646,-100,4,1,0,50,0,1
34820,-90.9090909090909,4,1,0,50,0,1
37088,-111.111111111111,4,1,0,50,0,0
42669,-100,4,1,0,50,0,0
45460,-95.2380952380952,4,1,0,50,0,0
47553,-90.9090909090909,4,1,0,50,0,0
47843,-92.5925925925926,4,1,0,50,0,0
47960,-94.3396226415094,4,1,0,50,0,0
48018,-96.1538461538461,4,1,0,50,0,0
48134,-98.0392156862745,4,1,0,50,0,0
48192,-111.111111111111,4,1,0,50,0,0
48250,-100,4,1,0,50,0,0
48948,-90.9090909090909,4,1,0,50,0,1
65256,-95.2380952380952,4,1,0,50,0,1
65518,-100,4,1,0,50,0,1
65692,-90.9090909090909,4,1,0,50,0,1
66303,-95.2380952380952,4,1,0,50,0,1
66564,-100,4,1,0,50,0,1
66826,-90.9090909090909,4,1,0,50,0,1
69878,-94.3396226415094,4,1,0,50,0,1
70053,-98.0392156862745,4,1,0,50,0,1
70227,-102.040816326531,4,1,0,50,0,1
70402,-106.382978723404,4,1,0,50,0,1
70576,-111.111111111111,4,1,0,50,0,0
71971,-105.263157894737,4,1,0,50,0,0
73367,-100,4,1,0,50,0,0
93599,-125,4,1,0,50,0,0
104064,-111.111111111111,4,1,0,50,0,0
109646,-100,4,1,0,50,0,0
112436,-95.2380952380952,4,1,0,50,0,0
114006,-111.111111111111,4,1,0,50,0,0
115053,-83.3333333333333,4,1,0,50,0,0
115576,-90.9090909090909,4,1,0,50,0,1
148716,-90.9090909090909,4,1,0,50,0,0
148948,-93.4579439252336,4,1,0,50,0,0
149064,-95.2380952380952,4,1,0,50,0,0
149471,-97.0873786407767,4,1,0,50,0,0
149588,-100,4,1,0,50,0,0
149995,-103.092783505155,4,1,0,50,0,0
150111,-105.263157894737,4,1,0,50,0,0
150518,-107.52688172043,4,1,0,50,0,0
150634,-111.111111111111,4,1,0,50,0,0
151506,-90.9090909090909,4,1,0,50,0,1
173832,-100,4,1,0,50,0,1
179413,-95.2380952380952,4,1,0,50,0,1
182204,-90.9090909090909,4,1,0,50,0,1
184995,-90.9090909090909,4,1,0,50,0,0
186390,-125,4,1,0,20,0,0
197553,-125,4,1,0,30,0,0
203134,-125,4,1,0,40,0,0
207320,-117.647058823529,4,1,0,50,0,0
229471,-111.111111111111,4,1,0,50,0,0
240721,-105.263157894737,4,1,0,50,0,0
249093,-100,4,1,0,50,0,0
252059,-95.2380952380952,4,1,0,5,0,0
252625,-95.2380952380952,4,1,0,10,0,0
252974,-95.2380952380952,4,1,0,15,0,0
253323,-95.2380952380952,4,1,0,20,0,0
253672,-95.2380952380952,4,1,0,25,0,0
254021,-95.2380952380952,4,1,0,30,0,0
254370,-95.2380952380952,4,1,0,35,0,0
254718,-95.2380952380952,4,1,0,40,0,0
255067,-95.2380952380952,4,1,0,45,0,0
255416,-95.2380952380952,4,1,0,50,0,0
256288,-105.263157894737,4,1,0,50,0,0
256855,-90.9090909090909,4,1,0,50,0,0
257146,-92.5925925925926,4,1,0,50,0,0
257262,-94.3396226415094,4,1,0,50,0,0
257320,-96.1538461538461,4,1,0,50,0,0
257436,-98.0392156862745,4,1,0,50,0,0
257495,-100,4,1,0,50,0,0
266012,-90.9090909090909,4,1,0,50,0,0
266157,-93.4579439252336,4,1,0,50,0,0
266274,-95.2380952380952,4,1,0,50,0,0
266681,-97.0873786407767,4,1,0,50,0,0
266797,-100,4,1,0,50,0,0
267204,-103.092783505155,4,1,0,50,0,0
267320,-105.263157894737,4,1,0,50,0,0
267727,-107.52688172043,4,1,0,50,0,0
267843,-111.111111111111,4,1,0,50,0,0
268716,-90.9090909090909,4,1,0,50,0,1
274559,-95.2380952380952,4,1,0,50,0,1
274820,-100,4,1,0,50,0,1
274995,-90.9090909090909,4,1,0,50,0,1
275605,-95.2380952380952,4,1,0,50,0,1
275867,-100,4,1,0,50,0,1
276128,-90.9090909090909,4,1,0,50,0,1
279181,-94.3396226415094,4,1,0,50,0,1
279355,-98.0392156862745,4,1,0,50,0,1
279529,-102.040816326531,4,1,0,50,0,1
279704,-106.382978723404,4,1,0,50,0,1
279878,-111.111111111111,4,1,0,50,0,0
290867,-117.647058823529,4,1,0,50,0,0
291041,-125,4,1,0,50,0,0

[HitObjects]
256,192,1332,12,0,3425,0:0:0:0:
256,192,3599,5,4,0:0:0:0:
256,192,4297,1,8,0:0:0:0:
256,192,4646,1,0,0:0:0:0:
256,192,4820,1,0,0:0:0:0:
256,192,4995,1,8,0:0:0:0:
256,192,5343,1,0,0:0:0:0:
256,192,5692,1,8,0:0:0:0:
256,192,6041,1,8,0:0:0:0:
256,192,6390,1,0,0:0:0:0:
256,192,6739,1,8,0:0:0:0:
256,192,6913,1,8,0:0:0:0:
256,192,7088,1,0,0:0:0:0:
256,192,7436,1,8,0:0:0:0:
256,192,7785,1,0,0:0:0:0:
256,192,8134,1,0,0:0:0:0:
256,192,8483,1,8,0:0:0:0:
256,192,8832,1,0,0:0:0:0:
256,192,9006,1,0,0:0:0:0:
256,192,9181,1,8,0:0:0:0:
256,192,9529,1,0,0:0:0:0:
256,192,9878,1,8,0:0:0:0:
256,192,10227,1,8,0:0:0:0:
256,192,10576,1,0,0:0:0:0:
256,192,10925,1,8,0:0:0:0:
256,192,11099,1,8,0:0:0:0:
256,192,11274,1,0,0:0:0:0:
256,192,11623,1,8,0:0:0:0:
256,192,11971,1,0,0:0:0:0:
256,192,12320,1,0,0:0:0:0:
256,192,12669,1,8,0:0:0:0:
256,192,13018,1,0,0:0:0:0:
256,192,13192,1,0,0:0:0:0:
256,192,13367,1,8,0:0:0:0:
256,192,13541,1,0,0:0:0:0:
256,192,13716,5,8,0:0:0:0:
256,192,14064,1,8,0:0:0:0:
256,192,14239,1,8,0:0:0:0:
256,192,14413,1,0,0:0:0:0:
256,192,14588,1,0,0:0:0:0:
256,192,14762,5,0,0:0:0:0:
256,192,15111,1,8,0:0:0:0:
256,192,15460,1,8,0:0:0:0:
256,192,15809,1,8,0:0:0:0:
256,192,16157,1,0,0:0:0:0:
256,192,16506,1,8,0:0:0:0:
256,192,16855,1,8,0:0:0:0:
256,192,17204,1,8,0:0:0:0:
256,192,17553,1,0,0:0:0:0:
256,192,17902,1,8,0:0:0:0:
256,192,18250,1,8,0:0:0:0:
256,192,18599,1,8,0:0:0:0:
256,192,18948,1,0,0:0:0:0:
256,192,19297,1,8,0:0:0:0:
256,192,19646,1,8,0:0:0:0:
256,192,19995,1,8,0:0:0:0:
256,192,20343,1,0,0:0:0:0:
256,192,20692,1,0,0:0:0:0:
256,192,21041,1,8,0:0:0:0:
256,192,21390,1,8,0:0:0:0:
256,192,21739,1,0,0:0:0:0:
256,192,22088,5,0,0:0:0:0:
256,192,22436,1,8,0:0:0:0:
256,192,22785,1,0,0:0:0:0:
256,192,23134,5,0,0:0:0:0:
256,192,23309,1,0,0:0:0:0:
256,192,23483,1,8,0:0:0:0:
256,192,23657,1,8,0:0:0:0:
256,192,23832,1,0,0:0:0:0:
256,192,24006,1,0,0:0:0:0:
256,192,24181,1,8,0:0:0:0:
256,192,24355,1,0,0:0:0:0:
256,192,24529,1,8,0:0:0:0:
256,192,24617,1,8,0:0:0:0:
256,192,24704,1,0,0:0:0:0:
256,192,24791,1,8,0:0:0:0:
256,192,24878,1,0,0:0:0:0:
256,192,24966,1,0,0:0:0:0:
256,192,25053,1,8,0:0:0:0:
256,192,25111,1,8,0:0:0:0:
256,192,25169,1,8,0:0:0:0:
256,192,25227,1,0,0:0:0:0:
256,192,25314,1,0,0:0:0:0:
256,192,25402,1,0,0:0:0:0:
256,192,25489,1,8,0:0:0:0:
256,192,25576,1,0,0:0:0:0:
256,192,25663,1,0,0:0:0:0:
256,192,25750,1,8,0:0:0:0:
256,192,25838,1,8,0:0:0:0:
256,192,25925,1,0,0:0:0:0:
256,192,26274,1,0,0:0:0:0:
256,192,26448,1,8,0:0:0:0:
256,192,26506,1,8,0:0:0:0:
256,192,26564,1,8,0:0:0:0:
256,192,26623,1,0,0:0:0:0:
256,192,26797,1,8,0:0:0:0:
256,192,26884,1,8,0:0:0:0:
256,192,26971,1,0,0:0:0:0:
256,192,27029,1,0,0:0:0:0:
256,192,27088,1,0,0:0:0:0:
256,192,27146,1,8,0:0:0:0:
256,192,27320,1,0,0:0:0:0:
256,192,27495,1,0,0:0:0:0:
256,192,27582,1,0,0:0:0:0:
256,192,27669,1,8,0:0:0:0:
256,192,27843,1,0,0:0:0:0:
256,192,28018,1,8,0:0:0:0:
256,192,28105,1,0,0:0:0:0:
256,192,28192,1,8,0:0:0:0:
256,192,28279,1,8,0:0:0:0:
256,192,28367,1,0,0:0:0:0:
256,192,28454,1,8,0:0:0:0:
256,192,28541,1,0,0:0:0:0:
256,192,28628,1,0,0:0:0:0:
256,192,28716,1,8,0:0:0:0:
256,192,28774,1,8,0:0:0:0:
256,192,28832,1,8,0:0:0:0:
256,192,28890,1,0,0:0:0:0:
256,192,28977,1,0,0:0:0:0:
256,192,29064,1,8,0:0:0:0:
256,192,29239,1,0,0:0:0:0:
256,192,29413,1,8,0:0:0:0:
256,192,29500,1,8,0:0:0:0:
256,192,29588,1,0,0:0:0:0:
256,192,29675,1,8,0:0:0:0:
256,192,29762,1,0,0:0:0:0:
256,192,29849,1,0,0:0:0:0:
256,192,29936,1,8,0:0:0:0:
256,192,30024,1,0,0:0:0:0:
256,192,30111,1,8,0:0:0:0:
256,192,30198,1,8,0:0:0:0:
256,192,30285,1,0,0:0:0:0:
256,192,30373,1,8,0:0:0:0:
256,192,30460,1,0,0:0:0:0:
256,192,30547,1,0,0:0:0:0:
256,192,30634,1,8,0:0:0:0:
256,192,30809,1,8,0:0:0:0:
256,192,30896,1,0,0:0:0:0:
256,192,30983,1,8,0:0:0:0:
256,192,31070,1,8,0:0:0:0:
256,192,31157,1,0,0:0:0:0:
256,192,31245,1,0,0:0:0:0:
256,192,31332,1,8,0:0:0:0:
256,192,31390,1,8,0:0:0:0:
256,192,31448,1,8,0:0:0:0:
256,192,31506,1,0,0:0:0:0:
256,192,31593,1,0,0:0:0:0:
256,192,31681,1,8,0:0:0:0:
256,192,31739,1,8,0:0:0:0:
256,192,31797,1,8,0:0:0:0:
256,192,31855,1,0,0:0:0:0:
256,192,31942,1,0,0:0:0:0:
256,192,32029,1,8,0:0:0:0:
256,192,32088,1,8,0:0:0:0:
256,192,32146,1,8,0:0:0:0:
256,192,32204,1,0,0:0:0:0:
256,192,32291,1,8,0:0:0:0:
256,192,32378,1,0,0:0:0:0:
256,192,32466,1,0,0:0:0:0:
256,192,32553,1,8,0:0:0:0:
256,192,32640,1,8,0:0:0:0:
256,192,32727,1,0,0:0:0:0:
256,192,32902,1,8,0:0:0:0:
256,192,32989,1,8,0:0:0:0:
256,192,33076,1,0,0:0:0:0:
256,192,33163,1,0,0:0:0:0:
256,192,33250,1,8,0:0:0:0:
256,192,33425,1,0,0:0:0:0:
256,192,33599,1,8,0:0:0:0:
256,192,33686,1,8,0:0:0:0:
256,192,33774,1,0,0:0:0:0:
256,192,33861,1,8,0:0:0:0:
256,192,33948,1,0,0:0:0:0:
256,192,34035,1,0,0:0:0:0:
256,192,34123,1,8,0:0:0:0:
256,192,34210,1,8,0:0:0:0:
256,192,34297,1,0,0:0:0:0:
256,192,34471,1,8,0:0:0:0:
256,192,34646,1,0,0:0:0:0:
256,192,34820,1,0,0:0:0:0:
256,192,34878,1,0,0:0:0:0:
256,192,34936,1,0,0:0:0:0:
256,192,34995,1,8,0:0:0:0:
256,192,35082,1,0,0:0:0:0:
256,192,35169,1,0,0:0:0:0:
256,192,35256,1,0,0:0:0:0:
256,192,35343,1,8,0:0:0:0:
256,192,35518,1,4,0:0:0:0:
256,192,35692,1,8,0:0:0:0:
256,192,35779,1,8,0:0:0:0:
256,192,35867,1,8,0:0:0:0:
256,192,35954,1,8,0:0:0:0:
256,192,36041,1,0,0:0:0:0:
256,192,36216,1,8,0:0:0:0:
256,192,36303,1,8,0:0:0:0:
256,192,36390,1,0,0:0:0:0:
256,192,36564,1,8,0:0:0:0:
256,192,36739,1,0,0:0:0:0:
256,192,37088,1,4,0:0:0:0:
256,192,37436,1,0,0:0:0:0:
256,192,37785,1,0,0:0:0:0:
256,192,38134,1,0,0:0:0:0:
256,192,38309,1,8,0:0:0:0:
256,192,38483,1,0,0:0:0:0:
256,192,38832,1,0,0:0:0:0:
256,192,39181,1,0,0:0:0:0:
256,192,39529,1,0,0:0:0:0:
256,192,39704,1,8,0:0:0:0:
256,192,39878,1,0,0:0:0:0:
256,192,40227,1,0,0:0:0:0:
256,192,40576,1,0,0:0:0:0:
256,192,40925,1,0,0:0:0:0:
256,192,41099,1,8,0:0:0:0:
256,192,41186,1,8,0:0:0:0:
256,192,41274,1,0,0:0:0:0:
256,192,41448,1,8,0:0:0:0:
256,192,41623,1,0,0:0:0:0:
256,192,41971,1,0,0:0:0:0:
256,192,42320,1,0,0:0:0:0:
256,192,42495,1,8,0:0:0:0:
256,192,42669,1,4,0:0:0:0:
256,192,42843,1,0,0:0:0:0:
256,192,43018,1,8,0:0:0:0:
256,192,43192,1,8,0:0:0:0:
256,192,43367,1,0,0:0:0:0:
256,192,43541,1,0,0:0:0:0:
256,192,43716,1,8,0:0:0:0:
256,192,43890,1,8,0:0:0:0:
256,192,44064,1,0,0:0:0:0:
256,192,44239,1,8,0:0:0:0:
256,192,44413,1,0,0:0:0:0:
256,192,44588,1,0,0:0:0:0:
256,192,44762,1,8,0:0:0:0:
256,192,44936,1,8,0:0:0:0:
256,192,45111,1,0,0:0:0:0:
256,192,45285,1,0,0:0:0:0:
256,192,45460,1,8,0:0:0:0:
256,192,45547,1,8,0:0:0:0:
256,192,45634,1,0,0:0:0:0:
256,192,45721,1,8,0:0:0:0:
256,192,45809,1,0,0:0:0:0:
256,192,45896,1,0,0:0:0:0:
256,192,45983,1,8,0:0:0:0:
256,192,46070,1,8,0:0:0:0:
256,192,46157,1,0,0:0:0:0:
256,192,46245,1,8,0:0:0:0:
256,192,46332,1,0,0:0:0:0:
256,192,46419,1,0,0:0:0:0:
256,192,46506,1,8,0:0:0:0:
256,192,46593,1,8,0:0:0:0:
256,192,46681,1,8,0:0:0:0:
256,192,46768,1,8,0:0:0:0:
256,192,46855,1,0,0:0:0:0:
256,192,47117,1,8,0:0:0:0:
256,192,47204,1,0,0:0:0:0:
256,192,47553,1,8,0:0:0:0:
256,192,47727,1,0,0:0:0:0:
256,192,47814,1,8,0:0:0:0:
256,192,47902,1,0,0:0:0:0:
256,192,47989,1,8,0:0:0:0:
256,192,48076,1,0,0:0:0:0:
256,192,48163,1,8,0:0:0:0:
256,192,48250,1,0,0:0:0:0:
256,192,48309,1,0,0:0:0:0:
256,192,48367,1,0,0:0:0:0:
256,192,48425,1,8,0:0:0:0:
256,192,48599,1,8,0:0:0:0:
256,192,48657,1,8,0:0:0:0:
256,192,48716,1,8,0:0:0:0:
256,192,48774,1,0,0:0:0:0:
256,192,48948,1,4,0:0:0:0:
256,192,49123,1,0,0:0:0:0:
256,192,49210,1,8,0:0:0:0:
256,192,49384,1,0,0:0:0:0:
256,192,49471,1,8,0:0:0:0:
256,192,49646,1,0,0:0:0:0:
256,192,49820,1,8,0:0:0:0:
256,192,49907,1,8,0:0:0:0:
256,192,49995,1,0,0:0:0:0:
256,192,50169,1,8,0:0:0:0:
256,192,50343,1,0,0:0:0:0:
256,192,50431,1,8,0:0:0:0:
256,192,50518,1,8,0:0:0:0:
256,192,50605,1,0,0:0:0:0:
256,192,50692,1,8,0:0:0:0:
256,192,50779,1,8,0:0:0:0:
256,192,50867,1,0,0:0:0:0:
256,192,50954,1,0,0:0:0:0:
256,192,51041,1,8,0:0:0:0:
256,192,51216,1,8,0:0:0:0:
256,192,51303,1,8,0:0:0:0:
256,192,51390,1,0,0:0:0:0:
256,192,51564,1,8,0:0:0:0:
256,192,51739,1,0,0:0:0:0:
256,192,51913,1,0,0:0:0:0:
256,192,51971,1,0,0:0:0:0:
256,192,52029,1,0,0:0:0:0:
256,192,52088,1,8,0:0:0:0:
256,192,52262,1,0,0:0:0:0:
256,192,52436,1,0,0:0:0:0:
256,192,52698,1,0,0:0:0:0:
256,192,52785,1,8,0:0:0:0:
256,192,52960,1,0,0:0:0:0:
256,192,53134,1,0,0:0:0:0:
256,192,53221,1,8,0:0:0:0:
256,192,53309,1,0,0:0:0:0:
256,192,53396,1,0,0:0:0:0:
256,192,53483,1,8,0:0:0:0:
256,192,53657,1,8,0:0:0:0:
256,192,53832,1,4,0:0:0:0:
256,192,54006,1,8,0:0:0:0:
256,192,54093,1,8,0:0:0:0:
256,192,54181,1,0,0:0:0:0:
256,192,54355,1,8,0:0:0:0:
256,192,54529,1,0,0:0:0:0:
256,192,54617,1,0,0:0:0:0:
256,192,54704,1,0,0:0:0:0:
256,192,54791,1,8,0:0:0:0:
256,192,54878,1,0,0:0:0:0:
256,192,54966,1,0,0:0:0:0:
256,192,55053,1,8,0:0:0:0:
256,192,55140,1,8,0:0:0:0:
256,192,55227,1,0,0:0:0:0:
256,192,55402,1,0,0:0:0:0:
256,192,55489,1,0,0:0:0:0:
256,192,55576,1,8,0:0:0:0:
256,192,55750,1,0,0:0:0:0:
256,192,55925,1,8,0:0:0:0:
256,192,56012,1,8,0:0:0:0:
256,192,56099,1,0,0:0:0:0:
256,192,56186,1,8,0:0:0:0:
256,192,56274,1,0,0:0:0:0:
256,192,56361,1,0,0:0:0:0:
256,192,56448,1,8,0:0:0:0:
256,192,56623,1,0,0:0:0:0:
256,192,56797,1,0,0:0:0:0:
256,192,56971,1,0,0:0:0:0:
256,192,57146,1,8,0:0:0:0:
256,192,57233,1,0,0:0:0:0:
256,192,57320,1,8,0:0:0:0:
256,192,57407,1,8,0:0:0:0:
256,192,57495,1,0,0:0:0:0:
256,192,57582,1,8,0:0:0:0:
256,192,57669,1,0,0:0:0:0:
256,192,57756,1,0,0:0:0:0:
256,192,57843,1,8,0:0:0:0:
256,192,57931,1,8,0:0:0:0:
256,192,58018,1,0,0:0:0:0:
256,192,58192,1,8,0:0:0:0:
256,192,58279,1,0,0:0:0:0:
256,192,58367,1,8,0:0:0:0:
256,192,58454,1,0,0:0:0:0:
256,192,58541,1,0,0:0:0:0:
256,192,58628,1,0,0:0:0:0:
256,192,58716,1,8,0:0:0:0:
256,192,58803,1,0,0:0:0:0:
256,192,58890,1,8,0:0:0:0:
256,192,58977,1,8,0:0:0:0:
256,192,59064,1,0,0:0:0:0:
256,192,59239,1,8,0:0:0:0:
256,192,59413,1,4,0:0:0:0:
256,192,59588,1,8,0:0:0:0:
256,192,59675,1,8,0:0:0:0:
256,192,59762,1,0,0:0:0:0:
256,192,59936,1,8,0:0:0:0:
256,192,60111,1,0,0:0:0:0:
256,192,60285,1,0,0:0:0:0:
256,192,60372,1,8,0:0:0:0:
256,192,60546,1,0,0:0:0:0:
256,192,60633,1,8,0:0:0:0:
256,192,60808,1,0,0:0:0:0:
256,192,60982,1,8,0:0:0:0:
256,192,61069,1,8,0:0:0:0:
256,192,61157,1,0,0:0:0:0:
256,192,61331,1,8,0:0:0:0:
256,192,61505,1,0,0:0:0:0:
256,192,61593,1,8,0:0:0:0:
256,192,61680,1,8,0:0:0:0:
256,192,61767,1,0,0:0:0:0:
256,192,61854,1,8,0:0:0:0:
256,192,61941,1,8,0:0:0:0:
256,192,62029,1,0,0:0:0:0:
256,192,62116,1,0,0:0:0:0:
256,192,62203,1,8,0:0:0:0:
256,192,62378,1,8,0:0:0:0:
256,192,62465,1,8,0:0:0:0:
256,192,62552,1,0,0:0:0:0:
256,192,62726,1,8,0:0:0:0:
256,192,62901,1,0,0:0:0:0:
256,192,63075,1,0,0:0:0:0:
256,192,63133,1,0,0:0:0:0:
256,192,63191,1,0,0:0:0:0:
256,192,63250,1,8,0:0:0:0:
256,192,63424,1,0,0:0:0:0:
256,192,63598,1,0,0:0:0:0:
256,192,63860,1,0,0:0:0:0:
256,192,63947,1,8,0:0:0:0:
256,192,64122,1,0,0:0:0:0:
256,192,64296,1,0,0:0:0:0:
256,192,64383,1,8,0:0:0:0:
256,192,64471,1,0,0:0:0:0:
256,192,64558,1,0,0:0:0:0:
256,192,64645,1,8,0:0:0:0:
256,192,64819,1,8,0:0:0:0:
256,192,64994,1,4,0:0:0:0:
256,192,65256,1,4,0:0:0:0:
256,192,65518,1,4,0:0:0:0:
256,192,65692,1,8,0:0:0:0:
256,192,65867,1,0,0:0:0:0:
256,192,66041,1,12,0:0:0:0:
256,192,66303,1,12,0:0:0:0:
256,192,66564,1,12,0:0:0:0:
256,192,66739,1,8,0:0:0:0:
256,192,66913,1,0,0:0:0:0:
256,192,66971,1,0,0:0:0:0:
256,192,67029,1,0,0:0:0:0:
256,192,67088,1,8,0:0:0:0:
256,192,67436,1,8,0:0:0:0:
256,192,67785,1,12,0:0:0:0:
256,192,68134,1,0,0:0:0:0:
256,192,68221,1,0,0:0:0:0:
256,192,68309,1,0,0:0:0:0:
256,192,68396,1,0,0:0:0:0:
256,192,68483,1,8,0:0:0:0:
256,192,68657,1,0,0:0:0:0:
256,192,68716,1,0,0:0:0:0:
256,192,68774,1,0,0:0:0:0:
256,192,68832,1,8,0:0:0:0:
256,192,68919,1,0,0:0:0:0:
256,192,69006,1,0,0:0:0:0:
256,192,69093,1,0,0:0:0:0:
256,192,69181,1,8,0:0:0:0:
256,192,69355,12,0,69704,0:0:0:0:
256,192,69878,5,8,0:0:0:0:
256,192,70053,1,8,0:0:0:0:
256,192,70227,1,0,0:0:0:0:
256,192,70402,1,8,0:0:0:0:
256,192,70576,1,4,0:0:0:0:
256,192,71274,1,8,0:0:0:0:
256,192,71623,1,0,0:0:0:0:
256,192,71797,1,8,0:0:0:0:
256,192,71971,1,0,0:0:0:0:
256,192,72059,1,0,0:0:0:0:
256,192,72146,1,8,0:0:0:0:
256,192,72233,1,8,0:0:0:0:
256,192,72320,1,0,0:0:0:0:
256,192,72407,1,8,0:0:0:0:
256,192,72582,1,8,0:0:0:0:
256,192,72669,1,0,0:0:0:0:
256,192,72843,1,0,0:0:0:0:
256,192,72931,1,0,0:0:0:0:
256,192,73018,1,8,0:0:0:0:
256,192,73076,1,8,0:0:0:0:
256,192,73134,1,8,0:0:0:0:
256,192,73192,1,0,0:0:0:0:
256,192,73367,1,4,0:0:0:0:
256,192,73541,1,0,0:0:0:0:
256,192,73716,1,8,0:0:0:0:
256,192,73890,1,0,0:0:0:0:
256,192,73977,1,8,0:0:0:0:
256,192,74064,1,0,0:0:0:0:
256,192,74239,1,0,0:0:0:0:
256,192,74413,1,8,0:0:0:0:
256,192,74588,1,8,0:0:0:0:
256,192,74675,1,8,0:0:0:0:
256,192,74762,1,0,0:0:0:0:
256,192,74936,1,0,0:0:0:0:
256,192,75111,1,8,0:0:0:0:
256,192,75285,1,0,0:0:0:0:
256,192,75460,1,0,0:0:0:0:
256,192,75547,1,0,0:0:0:0:
256,192,75634,1,0,0:0:0:0:
256,192,75721,1,0,0:0:0:0:
256,192,75809,1,8,0:0:0:0:
256,192,75983,1,0,0:0:0:0:
256,192,76070,1,8,0:0:0:0:
256,192,76157,1,0,0:0:0:0:
256,192,76332,1,0,0:0:0:0:
256,192,76506,1,8,0:0:0:0:
256,192,76681,1,0,0:0:0:0:
256,192,76768,1,0,0:0:0:0:
256,192,76855,1,0,0:0:0:0:
256,192,77029,1,0,0:0:0:0:
256,192,77204,1,8,0:0:0:0:
256,192,77378,1,8,0:0:0:0:
256,192,77466,1,8,0:0:0:0:
256,192,77553,1,0,0:0:0:0:
256,192,77727,1,0,0:0:0:0:
256,192,77902,1,8,0:0:0:0:
256,192,78076,1,8,0:0:0:0:
256,192,78250,1,0,0:0:0:0:
256,192,78425,1,0,0:0:0:0:
256,192,78599,1,8,0:0:0:0:
256,192,78686,1,8,0:0:0:0:
256,192,78774,1,8,0:0:0:0:
256,192,78861,1,8,0:0:0:0:
256,192,78948,1,0,0:0:0:0:
256,192,79123,1,0,0:0:0:0:
256,192,79297,1,8,0:0:0:0:
256,192,79471,1,0,0:0:0:0:
256,192,79559,1,0,0:0:0:0:
256,192,79646,1,0,0:0:0:0:
256,192,79820,1,0,0:0:0:0:
256,192,79995,1,8,0:0:0:0:
256,192,80169,1,0,0:0:0:0:
256,192,80256,1,8,0:0:0:0:
256,192,80343,1,0,0:0:0:0:
256,192,80518,1,0,0:0:0:0:
256,192,80692,1,8,0:0:0:0:
256,192,80867,1,0,0:0:0:0:
256,192,80954,1,8,0:0:0:0:
256,192,81041,1,0,0:0:0:0:
256,192,81128,1,0,0:0:0:0:
256,192,81216,1,0,0:0:0:0:
256,192,81303,1,0,0:0:0:0:
256,192,81390,1,8,0:0:0:0:
256,192,81564,1,8,0:0:0:0:
256,192,81652,1,8,0:0:0:0:
256,192,81739,1,0,0:0:0:0:
256,192,81913,1,0,0:0:0:0:
256,192,82088,1,8,0:0:0:0:
256,192,82262,1,0,0:0:0:0:
256,192,82436,1,8,0:0:0:0:
256,192,82524,1,8,0:0:0:0:
256,192,82611,1,0,0:0:0:0:
256,192,82698,1,0,0:0:0:0:
256,192,82785,1,8,0:0:0:0:
256,192,82960,1,0,0:0:0:0:
256,192,83047,1,8,0:0:0:0:
256,192,83134,1,0,0:0:0:0:
256,192,83309,1,0,0:0:0:0:
256,192,83483,1,8,0:0:0:0:
256,192,83657,1,0,0:0:0:0:
256,192,83745,1,0,0:0:0:0:
256,192,83832,1,0,0:0:0:0:
256,192,84006,1,0,0:0:0:0:
256,192,84181,1,8,0:0:0:0:
256,192,84355,1,8,0:0:0:0:
256,192,84442,1,8,0:0:0:0:
256,192,84529,1,0,0:0:0:0:
256,192,84704,1,0,0:0:0:0:
256,192,84878,1,8,0:0:0:0:
256,192,85053,1,0,0:0:0:0:
256,192,85140,1,8,0:0:0:0:
256,192,85227,1,0,0:0:0:0:
256,192,85402,1,0,0:0:0:0:
256,192,85576,1,8,0:0:0:0:
256,192,85750,1,8,0:0:0:0:
256,192,85838,1,8,0:0:0:0:
256,192,85925,1,0,0:0:0:0:
256,192,86099,1,0,0:0:0:0:
256,192,86274,1,8,0:0:0:0:
256,192,86448,1,0,0:0:0:0:
256,192,86623,1,0,0:0:0:0:
256,192,86710,1,0,0:0:0:0:
256,192,86797,1,0,0:0:0:0:
256,192,86884,1,0,0:0:0:0:
256,192,86971,1,8,0:0:0:0:
256,192,87146,1,8,0:0:0:0:
256,192,87233,1,8,0:0:0:0:
256,192,87320,1,0,0:0:0:0:
256,192,87495,1,0,0:0:0:0:
256,192,87669,1,8,0:0:0:0:
256,192,87843,1,8,0:0:0:0:
256,192,88019,1,0,0:0:0:0:
256,192,88193,1,0,0:0:0:0:
256,192,88367,1,8,0:0:0:0:
256,192,88541,1,8,0:0:0:0:
256,192,88628,1,8,0:0:0:0:
256,192,88716,1,0,0:0:0:0:
256,192,88890,1,0,0:0:0:0:
256,192,89064,1,8,0:0:0:0:
256,192,89239,1,8,0:0:0:0:
256,192,89413,1,0,0:0:0:0:
256,192,89500,1,0,0:0:0:0:
256,192,89588,1,0,0:0:0:0:
256,192,89675,1,8,0:0:0:0:
256,192,89762,1,0,0:0:0:0:
256,192,89936,5,8,0:0:0:0:
256,192,90024,1,8,0:0:0:0:
256,192,90111,1,0,0:0:0:0:
256,192,90198,1,0,0:0:0:0:
256,192,90285,1,0,0:0:0:0:
256,192,90373,1,0,0:0:0:0:
256,192,90460,1,8,0:0:0:0:
256,192,90547,1,8,0:0:0:0:
256,192,90634,1,8,0:0:0:0:
256,192,90721,1,8,0:0:0:0:
256,192,90809,1,0,0:0:0:0:
256,192,90896,1,8,0:0:0:0:
256,192,90983,1,0,0:0:0:0:
256,192,91070,1,8,0:0:0:0:
256,192,91157,1,0,0:0:0:0:
256,192,91245,1,0,0:0:0:0:
256,192,91332,1,8,0:0:0:0:
256,192,91419,1,8,0:0:0:0:
256,192,91506,1,0,0:0:0:0:
256,192,91593,1,8,0:0:0:0:
256,192,91681,1,0,0:0:0:0:
256,192,91768,1,0,0:0:0:0:
256,192,91855,1,8,0:0:0:0:
256,192,91942,1,8,0:0:0:0:
256,192,92029,1,8,0:0:0:0:
256,192,92117,1,8,0:0:0:0:
256,192,92204,1,0,0:0:0:0:
256,192,92291,1,8,0:0:0:0:
256,192,92378,1,0,0:0:0:0:
256,192,92466,1,0,0:0:0:0:
256,192,92553,1,8,0:0:0:0:
256,192,92640,1,8,0:0:0:0:
256,192,92727,1,8,0:0:0:0:
256,192,92814,1,8,0:0:0:0:
256,192,92902,1,0,0:0:0:0:
256,192,93599,1,8,0:0:0:0:
256,192,93948,1,0,0:0:0:0:
256,192,94166,1,0,0:0:0:0:
256,192,94646,1,8,0:0:0:0:
256,192,95692,1,8,0:0:0:0:
256,192,97088,1,0,0:0:0:0:
256,192,97785,1,0,0:0:0:0:
256,192,98483,1,8,0:0:0:0:
256,192,99878,1,0,0:0:0:0:
256,192,100576,1,8,0:0:0:0:
256,192,101274,1,8,0:0:0:0:
256,192,102669,1,0,0:0:0:0:
256,192,102843,12,0,103890,0:0:0:0:
256,192,104064,5,0,0:0:0:0:
256,192,104413,1,0,0:0:0:0:
256,192,104762,1,0,0:0:0:0:
256,192,104936,1,8,0:0:0:0:
256,192,105111,1,0,0:0:0:0:
256,192,105285,1,8,0:0:0:0:
256,192,105460,1,0,0:0:0:0:
256,192,105809,1,0,0:0:0:0:
256,192,106157,1,0,0:0:0:0:
256,192,106506,1,0,0:0:0:0:
256,192,106681,1,8,0:0:0:0:
256,192,106855,1,0,0:0:0:0:
256,192,107204,1,0,0:0:0:0:
256,192,107553,1,0,0:0:0:0:
256,192,107902,1,0,0:0:0:0:
256,192,108076,1,8,0:0:0:0:
256,192,108250,1,0,0:0:0:0:
256,192,108599,1,0,0:0:0:0:
256,192,108948,1,0,0:0:0:0:
256,192,109297,1,0,0:0:0:0:
256,192,109471,1,8,0:0:0:0:
256,192,109646,1,4,0:0:0:0:
256,192,109820,1,0,0:0:0:0:
256,192,109995,1,8,0:0:0:0:
256,192,110169,1,8,0:0:0:0:
256,192,110343,1,0,0:0:0:0:
256,192,110518,1,0,0:0:0:0:
256,192,110692,1,8,0:0:0:0:
256,192,110867,1,8,0:0:0:0:
256,192,111041,1,0,0:0:0:0:
256,192,111216,1,8,0:0:0:0:
256,192,111390,1,0,0:0:0:0:
256,192,111564,1,0,0:0:0:0:
256,192,111739,1,8,0:0:0:0:
256,192,111913,1,8,0:0:0:0:
256,192,112088,1,0,0:0:0:0:
256,192,112262,1,8,0:0:0:0:
256,192,112436,1,0,0:0:0:0:
256,192,112524,1,8,0:0:0:0:
256,192,112611,1,8,0:0:0:0:
256,192,112698,1,8,0:0:0:0:
256,192,112785,1,0,0:0:0:0:
256,192,112873,1,8,0:0:0:0:
256,192,112960,1,0,0:0:0:0:
256,192,113047,1,0,0:0:0:0:
256,192,113134,1,8,0:0:0:0:
256,192,113221,1,8,0:0:0:0:
256,192,113309,1,8,0:0:0:0:
256,192,113396,1,8,0:0:0:0:
256,192,113483,1,0,0:0:0:0:
256,192,113570,1,8,0:0:0:0:
256,192,113657,1,0,0:0:0:0:
256,192,113745,1,0,0:0:0:0:
256,192,113832,1,8,0:0:0:0:
256,192,114006,1,0,0:0:0:0:
256,192,114181,1,8,0:0:0:0:
256,192,114268,1,0,0:0:0:0:
256,192,114529,1,8,0:0:0:0:
256,192,114791,1,0,0:0:0:0:
256,192,114878,1,8,0:0:0:0:
256,192,115053,1,0,0:0:0:0:
256,192,115111,1,0,0:0:0:0:
256,192,115169,1,0,0:0:0:0:
256,192,115227,1,8,0:0:0:0:
256,192,115576,1,0,0:0:0:0:
256,192,115663,1,8,0:0:0:0:
256,192,115750,1,8,0:0:0:0:
256,192,115838,1,8,0:0:0:0:
256,192,115925,1,0,0:0:0:0:
256,192,116012,1,8,0:0:0:0:
256,192,116099,1,8,0:0:0:0:
256,192,116186,1,8,0:0:0:0:
256,192,116274,1,0,0:0:0:0:
256,192,116361,1,8,0:0:0:0:
256,192,116448,1,8,0:0:0:0:
256,192,116535,1,8,0:0:0:0:
256,192,116623,1,0,0:0:0:0:
256,192,116710,1,8,0:0:0:0:
256,192,116797,1,8,0:0:0:0:
256,192,116885,1,8,0:0:0:0:
256,192,116972,1,0,0:0:0:0:
256,192,117059,1,8,0:0:0:0:
256,192,117146,1,8,0:0:0:0:
256,192,117233,1,8,0:0:0:0:
256,192,117321,1,0,0:0:0:0:
256,192,117408,1,8,0:0:0:0:
256,192,117495,1,8,0:0:0:0:
256,192,117582,1,8,0:0:0:0:
256,192,117669,1,0,0:0:0:0:
256,192,117756,1,8,0:0:0:0:
256,192,117843,1,8,0:0:0:0:
256,192,117931,1,8,0:0:0:0:
256,192,118018,1,0,0:0:0:0:
256,192,118105,1,8,0:0:0:0:
256,192,118192,1,8,0:0:0:0:
256,192,118279,1,8,0:0:0:0:
256,192,118367,1,0,0:0:0:0:
256,192,118454,1,8,0:0:0:0:
256,192,118541,1,8,0:0:0:0:
256,192,118628,1,8,0:0:0:0:
256,192,118716,1,0,0:0:0:0:
256,192,118803,1,8,0:0:0:0:
256,192,118890,1,8,0:0:0:0:
256,192,118978,1,8,0:0:0:0:
256,192,119065,1,0,0:0:0:0:
256,192,119152,1,8,0:0:0:0:
256,192,119239,1,8,0:0:0:0:
256,192,119326,1,8,0:0:0:0:
256,192,119414,1,0,0:0:0:0:
256,192,119501,1,8,0:0:0:0:
256,192,119588,1,8,0:0:0:0:
256,192,119675,1,8,0:0:0:0:
256,192,119762,1,0,0:0:0:0:
256,192,119849,1,8,0:0:0:0:
256,192,119936,1,8,0:0:0:0:
256,192,120024,1,8,0:0:0:0:
256,192,120111,1,0,0:0:0:0:
256,192,120198,1,8,0:0:0:0:
256,192,120285,1,8,0:0:0:0:
256,192,120372,1,8,0:0:0:0:
256,192,120460,1,0,0:0:0:0:
256,192,120809,1,0,0:0:0:0:
256,192,120896,1,8,0:0:0:0:
256,192,120983,1,8,0:0:0:0:
256,192,121071,1,8,0:0:0:0:
256,192,121158,1,0,0:0:0:0:
256,192,121245,1,8,0:0:0:0:
256,192,121332,1,8,0:0:0:0:
256,192,121419,1,8,0:0:0:0:
256,192,121507,1,0,0:0:0:0:
256,192,121594,1,8,0:0:0:0:
256,192,121681,1,8,0:0:0:0:
256,192,121768,1,8,0:0:0:0:
256,192,121856,1,0,0:0:0:0:
256,192,121943,1,8,0:0:0:0:
256,192,122030,1,8,0:0:0:0:
256,192,122118,1,8,0:0:0:0:
256,192,122205,1,0,0:0:0:0:
256,192,122292,1,8,0:0:0:0:
256,192,122379,1,8,0:0:0:0:
256,192,122466,1,8,0:0:0:0:
256,192,122554,1,0,0:0:0:0:
256,192,122641,1,8,0:0:0:0:
256,192,122728,1,8,0:0:0:0:
256,192,122815,1,8,0:0:0:0:
256,192,122902,1,0,0:0:0:0:
256,192,122989,1,8,0:0:0:0:
256,192,123076,1,8,0:0:0:0:
256,192,123164,1,8,0:0:0:0:
256,192,123251,1,0,0:0:0:0:
256,192,123338,1,8,0:0:0:0:
256,192,123425,1,8,0:0:0:0:
256,192,123512,1,8,0:0:0:0:
256,192,123600,1,0,0:0:0:0:
256,192,123687,1,8,0:0:0:0:
256,192,123774,1,8,0:0:0:0:
256,192,123861,1,8,0:0:0:0:
256,192,123949,1,0,0:0:0:0:
256,192,124036,1,8,0:0:0:0:
256,192,124123,1,8,0:0:0:0:
256,192,124211,1,8,0:0:0:0:
256,192,124298,1,0,0:0:0:0:
256,192,124385,1,8,0:0:0:0:
256,192,124472,1,8,0:0:0:0:
256,192,124559,1,8,0:0:0:0:
256,192,124647,1,0,0:0:0:0:
256,192,124734,1,8,0:0:0:0:
256,192,124821,1,8,0:0:0:0:
256,192,124908,1,8,0:0:0:0:
256,192,124995,1,8,0:0:0:0:
256,192,125082,1,0,0:0:0:0:
256,192,125169,1,0,0:0:0:0:
256,192,125257,1,0,0:0:0:0:
256,192,125343,1,8,0:0:0:0:
256,192,125431,1,0,0:0:0:0:
256,192,125518,1,0,0:0:0:0:
256,192,125605,1,0,0:0:0:0:
256,192,125693,1,8,0:0:0:0:
256,192,125867,1,0,0:0:0:0:
256,192,126041,1,8,0:0:0:0:
256,192,126216,1,0,0:0:0:0:
256,192,126390,1,8,0:0:0:0:
256,192,126564,1,0,0:0:0:0:
256,192,126739,1,8,0:0:0:0:
256,192,126826,1,8,0:0:0:0:
256,192,126913,1,0,0:0:0:0:
256,192,127000,1,8,0:0:0:0:
256,192,127088,1,0,0:0:0:0:
256,192,127175,1,0,0:0:0:0:
256,192,127262,1,8,0:0:0:0:
256,192,127349,1,0,0:0:0:0:
256,192,127436,1,8,0:0:0:0:
256,192,127524,1,0,0:0:0:0:
256,192,127611,1,0,0:0:0:0:
256,192,127698,1,8,0:0:0:0:
256,192,127785,1,8,0:0:0:0:
256,192,127873,1,0,0:0:0:0:
256,192,127960,1,8,0:0:0:0:
256,192,128047,1,0,0:0:0:0:
256,192,128134,1,8,0:0:0:0:
256,192,128221,1,0,0:0:0:0:
256,192,128309,1,0,0:0:0:0:
256,192,128396,1,8,0:0:0:0:
256,192,128483,1,8,0:0:0:0:
256,192,128570,1,0,0:0:0:0:
256,192,128657,1,8,0:0:0:0:
256,192,128745,1,0,0:0:0:0:
256,192,128832,1,8,0:0:0:0:
256,192,128919,1,0,0:0:0:0:
256,192,129006,1,8,0:0:0:0:
256,192,129093,1,8,0:0:0:0:
256,192,129181,1,0,0:0:0:0:
256,192,129268,1,0,0:0:0:0:
256,192,129355,1,0,0:0:0:0:
256,192,129442,1,0,0:0:0:0:
256,192,129529,1,8,0:0:0:0:
256,192,129617,1,8,0:0:0:0:
256,192,129704,1,8,0:0:0:0:
256,192,129791,1,8,0:0:0:0:
256,192,129878,1,0,0:0:0:0:
256,192,129966,1,8,0:0:0:0:
256,192,130053,1,0,0:0:0:0:
256,192,130140,1,0,0:0:0:0:
256,192,130227,1,8,0:0:0:0:
256,192,130314,1,8,0:0:0:0:
256,192,130402,1,8,0:0:0:0:
256,192,130489,1,8,0:0:0:0:
256,192,130576,1,0,0:0:0:0:
256,192,130663,1,8,0:0:0:0:
256,192,130750,1,0,0:0:0:0:
256,192,130838,1,8,0:0:0:0:
256,192,130925,1,0,0:0:0:0:
256,192,131012,1,0,0:0:0:0:
256,192,131099,1,8,0:0:0:0:
256,192,131186,1,8,0:0:0:0:
256,192,131274,1,0,0:0:0:0:
256,192,131448,1,8,0:0:0:0:
256,192,131623,1,0,0:0:0:0:
256,192,131797,1,8,0:0:0:0:
256,192,131971,1,0,0:0:0:0:
256,192,132059,1,0,0:0:0:0:
256,192,132146,1,0,0:0:0:0:
256,192,132233,1,0,0:0:0:0:
256,192,132320,1,8,0:0:0:0:
256,192,132407,1,8,0:0:0:0:
256,192,132494,1,0,0:0:0:0:
256,192,132581,1,8,0:0:0:0:
256,192,132669,1,0,0:0:0:0:
256,192,132756,1,0,0:0:0:0:
256,192,132843,1,8,0:0:0:0:
256,192,132930,1,0,0:0:0:0:
256,192,133017,1,8,0:0:0:0:
256,192,133105,1,0,0:0:0:0:
256,192,133192,1,0,0:0:0:0:
256,192,133279,1,8,0:0:0:0:
256,192,133366,1,8,0:0:0:0:
256,192,133454,1,0,0:0:0:0:
256,192,133541,1,8,0:0:0:0:
256,192,133628,1,0,0:0:0:0:
256,192,133715,1,8,0:0:0:0:
256,192,133802,1,0,0:0:0:0:
256,192,133890,1,0,0:0:0:0:
256,192,133977,1,8,0:0:0:0:
256,192,134064,1,8,0:0:0:0:
256,192,134151,1,0,0:0:0:0:
256,192,134238,1,8,0:0:0:0:
256,192,134326,1,0,0:0:0:0:
256,192,134413,1,8,0:0:0:0:
256,192,134500,1,0,0:0:0:0:
256,192,134587,1,8,0:0:0:0:
256,192,134674,1,8,0:0:0:0:
256,192,134762,1,0,0:0:0:0:
256,192,134849,1,0,0:0:0:0:
256,192,134936,1,0,0:0:0:0:
256,192,135023,1,0,0:0:0:0:
256,192,135110,1,8,0:0:0:0:
256,192,135198,1,8,0:0:0:0:
256,192,135285,1,8,0:0:0:0:
256,192,135372,1,8,0:0:0:0:
256,192,135459,1,0,0:0:0:0:
256,192,135547,1,8,0:0:0:0:
256,192,135634,1,0,0:0:0:0:
256,192,135721,1,0,0:0:0:0:
256,192,135808,1,8,0:0:0:0:
256,192,135895,1,8,0:0:0:0:
256,192,135983,1,8,0:0:0:0:
256,192,136070,1,8,0:0:0:0:
256,192,136157,1,0,0:0:0:0:
256,192,136244,1,8,0:0:0:0:
256,192,136331,1,0,0:0:0:0:
256,192,136419,1,8,0:0:0:0:
256,192,136506,1,0,0:0:0:0:
256,192,136593,1,0,0:0:0:0:
256,192,136680,1,8,0:0:0:0:
256,192,136767,1,8,0:0:0:0:
256,192,136855,1,0,0:0:0:0:
256,192,136942,1,8,0:0:0:0:
256,192,137029,1,8,0:0:0:0:
256,192,137117,1,8,0:0:0:0:
256,192,137204,1,0,0:0:0:0:
256,192,137378,1,8,0:0:0:0:
256,192,137436,1,8,0:0:0:0:
256,192,137495,1,8,0:0:0:0:
256,192,137553,1,0,0:0:0:0:
256,192,137641,1,0,0:0:0:0:
256,192,137728,1,0,0:0:0:0:
256,192,137815,1,0,0:0:0:0:
256,192,137902,1,8,0:0:0:0:
256,192,137989,1,8,0:0:0:0:
256,192,138076,1,0,0:0:0:0:
256,192,138163,1,8,0:0:0:0:
256,192,138251,1,0,0:0:0:0:
256,192,138338,1,0,0:0:0:0:
256,192,138425,1,8,0:0:0:0:
256,192,138512,1,0,0:0:0:0:
256,192,138599,1,8,0:0:0:0:
256,192,138687,1,0,0:0:0:0:
256,192,138774,1,0,0:0:0:0:
256,192,138861,1,8,0:0:0:0:
256,192,138948,1,8,0:0:0:0:
256,192,139036,1,0,0:0:0:0:
256,192,139123,1,8,0:0:0:0:
256,192,139210,1,0,0:0:0:0:
256,192,139297,1,8,0:0:0:0:
256,192,139384,1,0,0:0:0:0:
256,192,139472,1,0,0:0:0:0:
256,192,139559,1,8,0:0:0:0:
256,192,139646,1,8,0:0:0:0:
256,192,139733,1,0,0:0:0:0:
256,192,139820,1,8,0:0:0:0:
256,192,139908,1,0,0:0:0:0:
256,192,139995,1,8,0:0:0:0:
256,192,140082,1,0,0:0:0:0:
256,192,140169,1,8,0:0:0:0:
256,192,140256,1,8,0:0:0:0:
256,192,140344,1,0,0:0:0:0:
256,192,140431,1,0,0:0:0:0:
256,192,140518,1,0,0:0:0:0:
256,192,140605,1,0,0:0:0:0:
256,192,140692,1,8,0:0:0:0:
256,192,140780,1,8,0:0:0:0:
256,192,140867,1,8,0:0:0:0:
256,192,140954,1,8,0:0:0:0:
256,192,141041,1,0,0:0:0:0:
256,192,141129,1,8,0:0:0:0:
256,192,141216,1,0,0:0:0:0:
256,192,141303,1,0,0:0:0:0:
256,192,141390,1,8,0:0:0:0:
256,192,141477,1,8,0:0:0:0:
256,192,141565,1,8,0:0:0:0:
256,192,141652,1,8,0:0:0:0:
256,192,141739,1,0,0:0:0:0:
256,192,141826,1,8,0:0:0:0:
256,192,141913,1,0,0:0:0:0:
256,192,142001,1,8,0:0:0:0:
256,192,142088,1,0,0:0:0:0:
256,192,142175,1,0,0:0:0:0:
256,192,142262,1,8,0:0:0:0:
256,192,142349,1,8,0:0:0:0:
256,192,142437,1,0,0:0:0:0:
256,192,142524,1,8,0:0:0:0:
256,192,142611,1,8,0:0:0:0:
256,192,142698,1,8,0:0:0:0:
256,192,142785,1,0,0:0:0:0:
256,192,142873,1,8,0:0:0:0:
256,192,142960,1,8,0:0:0:0:
256,192,143047,1,8,0:0:0:0:
256,192,143134,1,0,0:0:0:0:
256,192,143222,1,0,0:0:0:0:
256,192,143309,1,0,0:0:0:0:
256,192,143396,1,0,0:0:0:0:
256,192,143483,1,8,0:0:0:0:
256,192,143570,1,8,0:0:0:0:
256,192,143657,1,0,0:0:0:0:
256,192,143744,1,8,0:0:0:0:
256,192,143832,1,0,0:0:0:0:
256,192,143919,1,0,0:0:0:0:
256,192,144006,1,8,0:0:0:0:
256,192,144093,1,0,0:0:0:0:
256,192,144180,1,8,0:0:0:0:
256,192,144268,1,0,0:0:0:0:
256,192,144355,1,0,0:0:0:0:
256,192,144442,1,8,0:0:0:0:
256,192,144529,1,8,0:0:0:0:
256,192,144617,1,0,0:0:0:0:
256,192,144704,1,8,0:0:0:0:
256,192,144791,1,0,0:0:0:0:
256,192,144878,1,8,0:0:0:0:
256,192,144965,1,0,0:0:0:0:
256,192,145053,1,0,0:0:0:0:
256,192,145140,1,8,0:0:0:0:
256,192,145227,1,8,0:0:0:0:
256,192,145314,1,0,0:0:0:0:
256,192,145401,1,8,0:0:0:0:
256,192,145489,1,0,0:0:0:0:
256,192,145576,1,8,0:0:0:0:
256,192,145663,1,0,0:0:0:0:
256,192,145750,1,8,0:0:0:0:
256,192,145837,1,8,0:0:0:0:
256,192,145925,1,0,0:0:0:0:
256,192,146099,1,8,0:0:0:0:
256,192,146448,1,8,0:0:0:0:
256,192,146797,1,8,0:0:0:0:
256,192,147146,1,8,0:0:0:0:
256,192,147495,1,8,0:0:0:0:
256,192,147843,1,0,0:0:0:0:
256,192,148018,1,8,0:0:0:0:
256,192,148105,1,0,0:0:0:0:
256,192,148192,1,0,0:0:0:0:
256,192,148279,1,0,0:0:0:0:
256,192,148367,1,8,0:0:0:0:
256,192,148454,1,0,0:0:0:0:
256,192,148541,1,0,0:0:0:0:
256,192,148628,1,0,0:0:0:0:
256,192,148716,1,8,0:0:0:0:
256,192,148890,1,0,0:0:0:0:
256,192,148977,1,8,0:0:0:0:
256,192,149064,1,0,0:0:0:0:
256,192,149152,1,0,0:0:0:0:
256,192,149239,1,8,0:0:0:0:
256,192,149326,1,8,0:0:0:0:
256,192,149413,1,0,0:0:0:0:
256,192,149500,1,8,0:0:0:0:
256,192,149588,1,0,0:0:0:0:
256,192,149675,1,0,0:0:0:0:
256,192,149762,1,0,0:0:0:0:
256,192,149849,1,8,0:0:0:0:
256,192,149936,1,0,0:0:0:0:
256,192,150024,1,8,0:0:0:0:
256,192,150111,1,0,0:0:0:0:
256,192,150198,1,0,0:0:0:0:
256,192,150285,1,8,0:0:0:0:
256,192,150373,1,8,0:0:0:0:
256,192,150460,1,0,0:0:0:0:
256,192,150547,1,8,0:0:0:0:
256,192,150634,1,0,0:0:0:0:
256,192,150721,1,0,0:0:0:0:
256,192,150809,1,0,0:0:0:0:
256,192,150896,1,8,0:0:0:0:
256,192,150983,1,0,0:0:0:0:
256,192,151041,1,0,0:0:0:0:
256,192,151099,1,0,0:0:0:0:
256,192,151157,1,8,0:0:0:0:
256,192,151506,1,4,0:0:0:0:
256,192,151855,1,8,0:0:0:0:
256,192,151942,1,0,0:0:0:0:
256,192,152029,1,8,0:0:0:0:
256,192,152117,1,8,0:0:0:0:
256,192,152204,1,0,0:0:0:0:
256,192,152291,1,0,0:0:0:0:
256,192,152378,1,0,0:0:0:0:
256,192,152466,1,8,0:0:0:0:
256,192,152553,1,0,0:0:0:0:
256,192,152640,1,0,0:0:0:0:
256,192,152727,1,8,0:0:0:0:
256,192,152814,1,0,0:0:0:0:
256,192,152902,1,8,0:0:0:0:
256,192,152960,1,8,0:0:0:0:
256,192,153018,1,8,0:0:0:0:
256,192,153076,1,0,0:0:0:0:
256,192,153163,1,8,0:0:0:0:
256,192,153250,1,0,0:0:0:0:
256,192,153338,1,0,0:0:0:0:
256,192,153425,1,8,0:0:0:0:
256,192,153512,1,8,0:0:0:0:
256,192,153599,1,0,0:0:0:0:
256,192,153686,1,8,0:0:0:0:
256,192,153774,1,0,0:0:0:0:
256,192,153861,1,0,0:0:0:0:
256,192,153948,1,8,0:0:0:0:
256,192,154006,1,8,0:0:0:0:
256,192,154123,1,8,0:0:0:0:
256,192,154181,1,8,0:0:0:0:
256,192,154297,1,0,0:0:0:0:
256,192,154384,1,8,0:0:0:0:
256,192,154471,1,0,0:0:0:0:
256,192,154559,1,0,0:0:0:0:
256,192,154646,1,8,0:0:0:0:
256,192,154820,1,0,0:0:0:0:
256,192,154995,1,8,0:0:0:0:
256,192,155169,1,0,0:0:0:0:
256,192,155227,1,0,0:0:0:0:
256,192,155285,1,0,0:0:0:0:
256,192,155343,1,8,0:0:0:0:
256,192,155518,1,8,0:0:0:0:
256,192,155605,1,8,0:0:0:0:
256,192,155692,1,0,0:0:0:0:
256,192,155779,1,0,0:0:0:0:
256,192,155867,1,0,0:0:0:0:
256,192,155954,1,8,0:0:0:0:
256,192,156041,1,0,0:0:0:0:
256,192,156128,1,0,0:0:0:0:
256,192,156216,1,8,0:0:0:0:
256,192,156303,1,8,0:0:0:0:
256,192,156390,1,0,0:0:0:0:
256,192,156564,1,0,0:0:0:0:
256,192,156739,1,8,0:0:0:0:
256,192,156913,12,0,157262,0:0:0:0:
256,192,157436,5,4,0:0:0:0:
256,192,157611,1,8,0:0:0:0:
256,192,157698,1,0,0:0:0:0:
256,192,157785,1,8,0:0:0:0:
256,192,157873,1,8,0:0:0:0:
256,192,157960,1,0,0:0:0:0:
256,192,158047,1,8,0:0:0:0:
256,192,158134,1,0,0:0:0:0:
256,192,158221,1,0,0:0:0:0:
256,192,158309,1,8,0:0:0:0:
256,192,158396,1,8,0:0:0:0:
256,192,158483,1,0,0:0:0:0:
256,192,158570,1,8,0:0:0:0:
256,192,158657,1,0,0:0:0:0:
256,192,158745,1,0,0:0:0:0:
256,192,158832,1,8,0:0:0:0:
256,192,159006,1,0,0:0:0:0:
256,192,159093,1,0,0:0:0:0:
256,192,159181,1,0,0:0:0:0:
256,192,159268,1,8,0:0:0:0:
256,192,159355,1,0,0:0:0:0:
256,192,159442,1,0,0:0:0:0:
256,192,159529,1,8,0:0:0:0:
256,192,159588,1,8,0:0:0:0:
256,192,159646,1,8,0:0:0:0:
256,192,159704,1,0,0:0:0:0:
256,192,159791,1,0,0:0:0:0:
256,192,159878,1,8,0:0:0:0:
256,192,160053,1,0,0:0:0:0:
256,192,160227,1,8,0:0:0:0:
256,192,160314,1,8,0:0:0:0:
256,192,160402,1,0,0:0:0:0:
256,192,160489,1,8,0:0:0:0:
256,192,160576,1,0,0:0:0:0:
256,192,160663,1,0,0:0:0:0:
256,192,160750,1,0,0:0:0:0:
256,192,160838,1,0,0:0:0:0:
256,192,160925,1,8,0:0:0:0:
256,192,161099,1,8,0:0:0:0:
256,192,161186,1,8,0:0:0:0:
256,192,161274,1,0,0:0:0:0:
256,192,161448,1,0,0:0:0:0:
256,192,161623,1,8,0:0:0:0:
256,192,161884,1,4,0:0:0:0:
256,192,162146,1,0,0:0:0:0:
256,192,162407,1,8,0:0:0:0:
256,192,162538,1,8,0:0:0:0:
256,192,162669,1,4,0:0:0:0:
256,192,163018,1,8,0:0:0:0:
256,192,163105,1,0,0:0:0:0:
256,192,163192,1,8,0:0:0:0:
256,192,163280,1,8,0:0:0:0:
256,192,163367,1,0,0:0:0:0:
256,192,163454,1,0,0:0:0:0:
256,192,163541,1,0,0:0:0:0:
256,192,163629,1,8,0:0:0:0:
256,192,163716,1,0,0:0:0:0:
256,192,163803,1,0,0:0:0:0:
256,192,163890,1,8,0:0:0:0:
256,192,163977,1,0,0:0:0:0:
256,192,164065,1,8,0:0:0:0:
256,192,164123,1,8,0:0:0:0:
256,192,164181,1,8,0:0:0:0:
256,192,164239,1,0,0:0:0:0:
256,192,164326,1,8,0:0:0:0:
256,192,164413,1,0,0:0:0:0:
256,192,164501,1,0,0:0:0:0:
256,192,164588,1,8,0:0:0:0:
256,192,164675,1,8,0:0:0:0:
256,192,164762,1,0,0:0:0:0:
256,192,164849,1,8,0:0:0:0:
256,192,164937,1,0,0:0:0:0:
256,192,165024,1,0,0:0:0:0:
256,192,165111,1,8,0:0:0:0:
256,192,165169,1,8,0:0:0:0:
256,192,165286,1,8,0:0:0:0:
256,192,165344,1,8,0:0:0:0:
256,192,165460,1,0,0:0:0:0:
256,192,165547,1,8,0:0:0:0:
256,192,165634,1,0,0:0:0:0:
256,192,165722,1,0,0:0:0:0:
256,192,165809,1,8,0:0:0:0:
256,192,165983,1,0,0:0:0:0:
256,192,166158,1,8,0:0:0:0:
256,192,166332,1,0,0:0:0:0:
256,192,166390,1,0,0:0:0:0:
256,192,166448,1,0,0:0:0:0:
256,192,166506,1,8,0:0:0:0:
256,192,166681,1,8,0:0:0:0:
256,192,166768,1,8,0:0:0:0:
256,192,166855,1,0,0:0:0:0:
256,192,166942,1,0,0:0:0:0:
256,192,167030,1,0,0:0:0:0:
256,192,167117,1,8,0:0:0:0:
256,192,167204,1,0,0:0:0:0:
256,192,167291,1,0,0:0:0:0:
256,192,167379,1,8,0:0:0:0:
256,192,167466,1,8,0:0:0:0:
256,192,167553,1,0,0:0:0:0:
256,192,167727,1,0,0:0:0:0:
256,192,167902,1,8,0:0:0:0:
256,192,168076,1,8,0:0:0:0:
256,192,168134,1,8,0:0:0:0:
256,192,168192,1,8,0:0:0:0:
256,192,168250,1,0,0:0:0:0:
256,192,168599,5,8,0:0:0:0:
256,192,168774,1,0,0:0:0:0:
256,192,168861,1,0,0:0:0:0:
256,192,168948,1,8,0:0:0:0:
256,192,169036,1,8,0:0:0:0:
256,192,169123,1,0,0:0:0:0:
256,192,169210,1,8,0:0:0:0:
256,192,169297,1,0,0:0:0:0:
256,192,169384,1,0,0:0:0:0:
256,192,169472,1,8,0:0:0:0:
256,192,169559,1,8,0:0:0:0:
256,192,169646,1,0,0:0:0:0:
256,192,169733,1,8,0:0:0:0:
256,192,169820,1,0,0:0:0:0:
256,192,169908,1,0,0:0:0:0:
256,192,169995,1,8,0:0:0:0:
256,192,170169,1,0,0:0:0:0:
256,192,170256,1,0,0:0:0:0:
256,192,170344,1,0,0:0:0:0:
256,192,170431,1,8,0:0:0:0:
256,192,170518,1,0,0:0:0:0:
256,192,170605,1,0,0:0:0:0:
256,192,170692,1,8,0:0:0:0:
256,192,170779,1,8,0:0:0:0:
256,192,170867,1,8,0:0:0:0:
256,192,170954,1,8,0:0:0:0:
256,192,171041,1,0,0:0:0:0:
256,192,171216,1,0,0:0:0:0:
256,192,171390,1,8,0:0:0:0:
256,192,171477,1,8,0:0:0:0:
256,192,171565,1,0,0:0:0:0:
256,192,171652,1,8,0:0:0:0:
256,192,171739,1,0,0:0:0:0:
256,192,171826,1,0,0:0:0:0:
256,192,171913,1,0,0:0:0:0:
256,192,172001,1,0,0:0:0:0:
256,192,172088,1,8,0:0:0:0:
256,192,172262,1,8,0:0:0:0:
256,192,172349,1,8,0:0:0:0:
256,192,172437,1,0,0:0:0:0:
256,192,172611,1,8,0:0:0:0:
256,192,172960,1,8,0:0:0:0:
256,192,173309,1,8,0:0:0:0:
256,192,173657,1,8,0:0:0:0:
256,192,173832,1,4,0:0:0:0:
256,192,174181,1,8,0:0:0:0:
256,192,174529,1,4,0:0:0:0:
256,192,174878,1,8,0:0:0:0:
256,192,175227,1,4,0:0:0:0:
256,192,175576,1,8,0:0:0:0:
256,192,175750,1,0,0:0:0:0:
256,192,175925,1,4,0:0:0:0:
256,192,176274,1,8,0:0:0:0:
256,192,176623,1,4,0:0:0:0:
256,192,176884,1,0,0:0:0:0:
256,192,176971,1,8,0:0:0:0:
256,192,177146,1,0,0:0:0:0:
256,192,177320,1,4,0:0:0:0:
256,192,177495,1,0,0:0:0:0:
256,192,177669,1,8,0:0:0:0:
256,192,177843,1,8,0:0:0:0:
256,192,178018,1,4,0:0:0:0:
256,192,178279,1,0,0:0:0:0:
256,192,178367,1,8,0:0:0:0:
256,192,178541,1,0,0:0:0:0:
256,192,178716,1,4,0:0:0:0:
256,192,178890,1,0,0:0:0:0:
256,192,179064,1,8,0:0:0:0:
256,192,179413,1,4,0:0:0:0:
256,192,179588,1,8,0:0:0:0:
256,192,179675,1,8,0:0:0:0:
256,192,179762,1,0,0:0:0:0:
256,192,179936,1,8,0:0:0:0:
256,192,180111,1,0,0:0:0:0:
256,192,180285,1,8,0:0:0:0:
256,192,180373,1,8,0:0:0:0:
256,192,180460,1,0,0:0:0:0:
256,192,180634,1,8,0:0:0:0:
256,192,180809,1,0,0:0:0:0:
256,192,180983,1,8,0:0:0:0:
256,192,181070,1,8,0:0:0:0:
256,192,181157,1,0,0:0:0:0:
256,192,181332,1,8,0:0:0:0:
256,192,181506,1,0,0:0:0:0:
256,192,181681,1,8,0:0:0:0:
256,192,181768,1,8,0:0:0:0:
256,192,181855,1,0,0:0:0:0:
256,192,182029,1,8,0:0:0:0:
256,192,182204,1,0,0:0:0:0:
256,192,182291,1,8,0:0:0:0:
256,192,182378,1,0,0:0:0:0:
256,192,182466,1,8,0:0:0:0:
256,192,182553,1,0,0:0:0:0:
256,192,182640,1,8,0:0:0:0:
256,192,182727,1,0,0:0:0:0:
256,192,182814,1,8,0:0:0:0:
256,192,182902,1,0,0:0:0:0:
256,192,182989,1,8,0:0:0:0:
256,192,183076,1,0,0:0:0:0:
256,192,183163,1,8,0:0:0:0:
256,192,183250,1,0,0:0:0:0:
256,192,183338,1,8,0:0:0:0:
256,192,183425,1,0,0:0:0:0:
256,192,183512,1,8,0:0:0:0:
256,192,183599,1,0,0:0:0:0:
256,192,183657,1,0,0:0:0:0:
256,192,183716,1,0,0:0:0:0:
256,192,183774,1,0,0:0:0:0:
256,192,183861,1,0,0:0:0:0:
256,192,183948,1,8,0:0:0:0:
256,192,184006,1,8,0:0:0:0:
256,192,184064,1,8,0:0:0:0:
256,192,184123,1,0,0:0:0:0:
256,192,184210,1,0,0:0:0:0:
256,192,184297,1,8,0:0:0:0:
256,192,184384,1,8,0:0:0:0:
256,192,184471,1,0,0:0:0:0:
256,192,184559,1,8,0:0:0:0:
256,192,184646,1,0,0:0:0:0:
256,192,184733,1,0,0:0:0:0:
256,192,184820,1,8,0:0:0:0:
256,192,184907,1,8,0:0:0:0:
256,192,184995,1,0,0:0:0:0:
256,192,186477,1,8,0:0:0:0:
256,192,187785,1,8,0:0:0:0:
256,192,189181,1,8,0:0:0:0:
256,192,190576,1,8,0:0:0:0:
256,192,191971,1,8,0:0:0:0:
256,192,192669,1,8,0:0:0:0:
256,192,193367,1,8,0:0:0:0:
256,192,194762,1,8,0:0:0:0:
256,192,195460,1,8,0:0:0:0:
256,192,196157,1,8,0:0:0:0:
256,192,197553,1,8,0:0:0:0:
256,192,198250,1,8,0:0:0:0:
256,192,198948,1,8,0:0:0:0:
256,192,200343,1,8,0:0:0:0:
256,192,201739,1,8,0:0:0:0:
256,192,203134,1,8,0:0:0:0:
256,192,203832,1,8,0:0:0:0:
256,192,204529,1,8,0:0:0:0:
256,192,205925,1,8,0:0:0:0:
256,192,207320,1,4,0:0:0:0:
256,192,207843,1,8,0:0:0:0:
256,192,208018,1,8,0:0:0:0:
256,192,208367,1,0,0:0:0:0:
256,192,208716,1,8,0:0:0:0:
256,192,209239,1,0,0:0:0:0:
256,192,209413,1,8,0:0:0:0:
256,192,209762,1,0,0:0:0:0:
256,192,210111,1,8,0:0:0:0:
256,192,210634,1,8,0:0:0:0:
256,192,210809,1,0,0:0:0:0:
256,192,211157,1,0,0:0:0:0:
256,192,211506,1,8,0:0:0:0:
256,192,212029,1,0,0:0:0:0:
256,192,212204,1,8,0:0:0:0:
256,192,212553,1,8,0:0:0:0:
256,192,212902,1,0,0:0:0:0:
256,192,213250,1,0,0:0:0:0:
256,192,213599,1,8,0:0:0:0:
256,192,213948,1,8,0:0:0:0:
256,192,214297,1,0,0:0:0:0:
256,192,214646,1,8,0:0:0:0:
256,192,214995,1,0,0:0:0:0:
256,192,215343,1,0,0:0:0:0:
256,192,215692,1,8,0:0:0:0:
256,192,216041,1,8,0:0:0:0:
256,192,216390,1,0,0:0:0:0:
256,192,216739,1,0,0:0:0:0:
256,192,217088,1,8,0:0:0:0:
256,192,217436,1,0,0:0:0:0:
256,192,217785,1,8,0:0:0:0:
256,192,218134,1,0,0:0:0:0:
256,192,218309,1,8,0:0:0:0:
256,192,218483,1,0,0:0:0:0:
256,192,219006,1,8,0:0:0:0:
256,192,219181,1,8,0:0:0:0:
256,192,219529,1,0,0:0:0:0:
256,192,219878,1,8,0:0:0:0:
256,192,220402,1,0,0:0:0:0:
256,192,220576,1,8,0:0:0:0:
256,192,220925,1,0,0:0:0:0:
256,192,221274,1,8,0:0:0:0:
256,192,221797,1,8,0:0:0:0:
256,192,221971,1,0,0:0:0:0:
256,192,222320,1,0,0:0:0:0:
256,192,222669,1,8,0:0:0:0:
256,192,223192,1,0,0:0:0:0:
256,192,223367,1,8,0:0:0:0:
256,192,223716,1,0,0:0:0:0:
256,192,224064,1,8,0:0:0:0:
256,192,224413,1,8,0:0:0:0:
256,192,224762,1,0,0:0:0:0:
256,192,225111,1,0,0:0:0:0:
256,192,225460,1,8,0:0:0:0:
256,192,225809,1,0,0:0:0:0:
256,192,226157,1,8,0:0:0:0:
256,192,226506,1,0,0:0:0:0:
256,192,226855,1,8,0:0:0:0:
256,192,227204,1,8,0:0:0:0:
256,192,227553,1,0,0:0:0:0:
256,192,227902,1,0,0:0:0:0:
256,192,228250,1,8,0:0:0:0:
256,192,228425,12,0,229297,0:0:0:0:
256,192,229471,5,0,0:0:0:0:
256,192,229646,1,4,0:0:0:0:
256,192,229907,1,8,0:0:0:0:
256,192,229995,1,0,0:0:0:0:
256,192,230169,1,8,0:0:0:0:
256,192,230343,1,0,0:0:0:0:
256,192,230518,1,8,0:0:0:0:
256,192,230605,1,8,0:0:0:0:
256,192,230692,1,0,0:0:0:0:
256,192,230867,1,8,0:0:0:0:
256,192,231041,1,0,0:0:0:0:
256,192,231128,1,0,0:0:0:0:
256,192,231216,1,0,0:0:0:0:
256,192,231303,1,8,0:0:0:0:
256,192,231390,1,0,0:0:0:0:
256,192,231564,1,8,0:0:0:0:
256,192,231652,1,8,0:0:0:0:
256,192,231739,1,0,0:0:0:0:
256,192,231913,1,8,0:0:0:0:
256,192,232088,1,0,0:0:0:0:
256,192,232262,1,8,0:0:0:0:
256,192,232436,1,0,0:0:0:0:
256,192,232524,1,0,0:0:0:0:
256,192,232611,1,8,0:0:0:0:
256,192,232698,1,8,0:0:0:0:
256,192,232785,1,0,0:0:0:0:
256,192,232960,1,8,0:0:0:0:
256,192,233047,1,8,0:0:0:0:
256,192,233134,1,0,0:0:0:0:
256,192,233309,1,8,0:0:0:0:
256,192,233483,1,0,0:0:0:0:
256,192,233657,1,8,0:0:0:0:
256,192,233832,1,0,0:0:0:0:
256,192,234006,1,8,0:0:0:0:
256,192,234093,1,8,0:0:0:0:
256,192,234181,1,0,0:0:0:0:
256,192,234355,1,8,0:0:0:0:
256,192,234529,1,0,0:0:0:0:
256,192,234617,1,0,0:0:0:0:
256,192,234704,1,8,0:0:0:0:
256,192,234878,1,0,0:0:0:0:
256,192,235053,1,8,0:0:0:0:
256,192,235227,1,0,0:0:0:0:
256,192,235489,1,8,0:0:0:0:
256,192,235577,1,0,0:0:0:0:
256,192,235751,1,8,0:0:0:0:
256,192,235925,1,0,0:0:0:0:
256,192,236100,1,8,0:0:0:0:
256,192,236187,1,8,0:0:0:0:
256,192,236274,1,0,0:0:0:0:
256,192,236449,1,8,0:0:0:0:
256,192,236623,1,0,0:0:0:0:
256,192,236710,1,0,0:0:0:0:
256,192,236798,1,0,0:0:0:0:
256,192,236885,1,8,0:0:0:0:
256,192,236972,1,0,0:0:0:0:
256,192,237146,1,8,0:0:0:0:
256,192,237234,1,8,0:0:0:0:
256,192,237321,1,0,0:0:0:0:
256,192,237495,1,8,0:0:0:0:
256,192,237670,1,0,0:0:0:0:
256,192,237844,1,8,0:0:0:0:
256,192,238018,1,0,0:0:0:0:
256,192,238106,1,0,0:0:0:0:
256,192,238193,1,8,0:0:0:0:
256,192,238280,1,8,0:0:0:0:
256,192,238367,1,0,0:0:0:0:
256,192,238542,1,8,0:0:0:0:
256,192,238629,1,8,0:0:0:0:
256,192,238716,1,0,0:0:0:0:
256,192,238891,1,8,0:0:0:0:
256,192,239065,1,0,0:0:0:0:
256,192,239239,1,8,0:0:0:0:
256,192,239414,1,0,0:0:0:0:
256,192,239588,1,8,0:0:0:0:
256,192,239675,1,8,0:0:0:0:
256,192,239763,1,0,0:0:0:0:
256,192,239937,1,8,0:0:0:0:
256,192,240024,1,0,0:0:0:0:
256,192,240111,1,0,0:0:0:0:
256,192,240199,1,0,0:0:0:0:
256,192,240286,1,8,0:0:0:0:
256,192,240460,1,0,0:0:0:0:
256,192,240635,1,8,0:0:0:0:
256,192,240809,1,4,0:0:0:0:
256,192,240983,1,8,0:0:0:0:
256,192,241070,1,8,0:0:0:0:
256,192,241157,1,0,0:0:0:0:
256,192,241332,1,8,0:0:0:0:
256,192,241506,1,0,0:0:0:0:
256,192,241593,1,8,0:0:0:0:
256,192,241681,1,0,0:0:0:0:
256,192,241768,1,0,0:0:0:0:
256,192,241855,1,8,0:0:0:0:
256,192,242029,1,0,0:0:0:0:
256,192,242088,1,0,0:0:0:0:
256,192,242146,1,0,0:0:0:0:
256,192,242204,1,8,0:0:0:0:
256,192,242378,1,8,0:0:0:0:
256,192,242553,1,0,0:0:0:0:
256,192,242727,1,8,0:0:0:0:
256,192,242902,1,0,0:0:0:0:
256,192,242989,1,0,0:0:0:0:
256,192,243076,1,8,0:0:0:0:
256,192,243250,1,0,0:0:0:0:
256,192,243425,1,8,0:0:0:0:
256,192,243483,1,8,0:0:0:0:
256,192,243541,1,8,0:0:0:0:
256,192,243599,1,0,0:0:0:0:
256,192,243774,1,8,0:0:0:0:
256,192,243948,1,0,0:0:0:0:
256,192,244210,1,8,0:0:0:0:
256,192,244297,1,0,0:0:0:0:
256,192,244471,1,8,0:0:0:0:
256,192,244646,1,0,0:0:0:0:
256,192,244820,1,8,0:0:0:0:
256,192,244995,1,0,0:0:0:0:
256,192,245082,1,0,0:0:0:0:
256,192,245169,1,0,0:0:0:0:
256,192,245256,1,8,0:0:0:0:
256,192,245343,1,0,0:0:0:0:
256,192,245518,1,8,0:0:0:0:
256,192,245605,1,8,0:0:0:0:
256,192,245692,1,0,0:0:0:0:
256,192,245867,1,8,0:0:0:0:
256,192,246041,1,0,0:0:0:0:
256,192,246216,1,8,0:0:0:0:
256,192,246390,5,4,0:0:0:0:
256,192,246564,1,0,0:0:0:0:
256,192,246739,1,8,0:0:0:0:
256,192,246913,1,8,0:0:0:0:
256,192,247088,1,0,0:0:0:0:
256,192,247262,1,8,0:0:0:0:
256,192,247436,1,0,0:0:0:0:
256,192,247611,5,0,0:0:0:0:
256,192,247669,5,0,0:0:0:0:
256,192,247727,5,0,0:0:0:0:
256,192,247785,5,8,0:0:0:0:
256,192,247960,1,8,0:0:0:0:
256,192,248134,1,0,0:0:0:0:
256,192,248309,1,0,0:0:0:0:
256,192,248483,1,8,0:0:0:0:
256,192,248657,1,8,0:0:0:0:
256,192,248832,1,0,0:0:0:0:
256,192,249006,1,8,0:0:0:0:
256,192,249181,5,0,0:0:0:0:
256,192,249268,1,0,0:0:0:0:
256,192,249355,1,8,0:0:0:0:
256,192,249442,1,8,0:0:0:0:
256,192,249529,1,0,0:0:0:0:
256,192,249617,1,8,0:0:0:0:
256,192,249704,1,0,0:0:0:0:
256,192,249791,1,0,0:0:0:0:
256,192,249878,1,8,0:0:0:0:
256,192,249966,1,8,0:0:0:0:
256,192,250053,1,8,0:0:0:0:
256,192,250140,1,8,0:0:0:0:
256,192,250227,1,0,0:0:0:0:
256,192,250314,1,8,0:0:0:0:
256,192,250402,1,0,0:0:0:0:
256,192,250489,1,8,0:0:0:0:
256,192,250576,1,0,0:0:0:0:
256,192,250663,1,0,0:0:0:0:
256,192,250750,1,8,0:0:0:0:
256,192,250838,1,8,0:0:0:0:
256,192,250925,1,0,0:0:0:0:
256,192,251012,1,8,0:0:0:0:
256,192,251099,1,0,0:0:0:0:
256,192,251186,1,0,0:0:0:0:
256,192,251274,1,8,0:0:0:0:
256,192,251361,1,8,0:0:0:0:
256,192,251448,1,8,0:0:0:0:
256,192,251535,1,8,0:0:0:0:
256,192,251623,1,0,0:0:0:0:
256,192,251710,1,0,0:0:0:0:
256,192,251797,1,8,0:0:0:0:
256,192,251884,1,8,0:0:0:0:
256,192,251971,1,0,0:0:0:0:
256,192,252146,1,0,0:0:0:0:
256,192,252320,1,8,0:0:0:0:
256,192,252407,1,0,0:0:0:0:
256,192,252495,1,0,0:0:0:0:
256,192,252582,1,0,0:0:0:0:
256,192,252669,1,8,0:0:0:0:
256,192,252756,1,0,0:0:0:0:
256,192,252843,1,0,0:0:0:0:
256,192,252931,1,0,0:0:0:0:
256,192,253018,1,8,0:0:0:0:
256,192,253105,1,0,0:0:0:0:
256,192,253192,1,0,0:0:0:0:
256,192,253279,1,0,0:0:0:0:
256,192,253367,1,8,0:0:0:0:
256,192,253454,1,0,0:0:0:0:
256,192,253541,1,0,0:0:0:0:
256,192,253628,1,0,0:0:0:0:
256,192,253716,1,8,0:0:0:0:
256,192,253803,1,0,0:0:0:0:
256,192,253890,1,0,0:0:0:0:
256,192,253977,1,0,0:0:0:0:
256,192,254064,1,8,0:0:0:0:
256,192,254152,1,0,0:0:0:0:
256,192,254239,1,0,0:0:0:0:
256,192,254326,1,0,0:0:0:0:
256,192,254413,1,8,0:0:0:0:
256,192,254500,1,0,0:0:0:0:
256,192,254588,1,0,0:0:0:0:
256,192,254675,1,0,0:0:0:0:
256,192,254762,1,8,0:0:0:0:
256,192,254849,1,0,0:0:0:0:
256,192,254936,1,0,0:0:0:0:
256,192,255024,1,0,0:0:0:0:
256,192,255111,1,8,0:0:0:0:
256,192,255198,1,0,0:0:0:0:
256,192,255285,1,0,0:0:0:0:
256,192,255373,1,0,0:0:0:0:
256,192,255460,1,8,0:0:0:0:
256,192,255547,1,0,0:0:0:0:
256,192,255634,1,0,0:0:0:0:
256,192,255721,1,0,0:0:0:0:
256,192,255809,1,8,0:0:0:0:
256,192,255896,1,0,0:0:0:0:
256,192,255983,1,0,0:0:0:0:
256,192,256070,1,0,0:0:0:0:
256,192,256157,1,8,0:0:0:0:
256,192,256419,1,8,0:0:0:0:
256,192,256506,1,0,0:0:0:0:
256,192,256855,1,8,0:0:0:0:
256,192,257029,1,0,0:0:0:0:
256,192,257116,1,8,0:0:0:0:
256,192,257204,1,0,0:0:0:0:
256,192,257291,1,8,0:0:0:0:
256,192,257378,1,0,0:0:0:0:
256,192,257465,1,8,0:0:0:0:
256,192,257552,1,0,0:0:0:0:
256,192,257611,1,0,0:0:0:0:
256,192,257669,1,0,0:0:0:0:
256,192,257727,1,8,0:0:0:0:
256,192,257901,1,8,0:0:0:0:
256,192,257959,1,8,0:0:0:0:
256,192,258018,1,8,0:0:0:0:
256,192,258076,1,0,0:0:0:0:
256,192,258250,1,4,0:0:0:0:
256,192,258425,1,0,0:0:0:0:
256,192,258512,1,8,0:0:0:0:
256,192,258686,1,0,0:0:0:0:
256,192,258774,1,8,0:0:0:0:
256,192,258948,1,0,0:0:0:0:
256,192,259123,1,0,0:0:0:0:
256,192,259297,1,8,0:0:0:0:
256,192,259471,1,0,0:0:0:0:
256,192,259646,1,8,0:0:0:0:
256,192,259733,1,8,0:0:0:0:
256,192,259820,1,0,0:0:0:0:
256,192,259907,1,8,0:0:0:0:
256,192,260082,1,8,0:0:0:0:
256,192,260169,1,0,0:0:0:0:
256,192,260343,1,8,0:0:0:0:
256,192,260518,1,8,0:0:0:0:
256,192,260692,1,0,0:0:0:0:
256,192,261041,1,8,0:0:0:0:
256,192,261216,1,0,0:0:0:0:
256,192,261274,1,0,0:0:0:0:
256,192,261332,1,0,0:0:0:0:
256,192,261390,1,8,0:0:0:0:
256,192,261564,1,0,0:0:0:0:
256,192,261739,1,8,0:0:0:0:
256,192,262000,1,0,0:0:0:0:
256,192,262088,1,8,0:0:0:0:
256,192,262262,1,0,0:0:0:0:
256,192,262436,1,8,0:0:0:0:
256,192,262785,1,0,0:0:0:0:
256,192,263134,1,12,0:0:0:0:
256,192,263483,1,12,0:0:0:0:
256,192,263832,1,0,0:0:0:0:
256,192,264006,1,0,0:0:0:0:
256,192,264093,1,8,0:0:0:0:
256,192,264268,1,0,0:0:0:0:
256,192,264355,1,8,0:0:0:0:
256,192,264529,1,0,0:0:0:0:
256,192,264704,1,0,0:0:0:0:
256,192,264878,1,8,0:0:0:0:
256,192,265053,1,0,0:0:0:0:
256,192,265227,1,8,0:0:0:0:
256,192,265314,1,8,0:0:0:0:
256,192,265402,1,0,0:0:0:0:
256,192,265489,1,8,0:0:0:0:
256,192,265663,1,8,0:0:0:0:
256,192,265750,1,0,0:0:0:0:
256,192,265925,1,8,0:0:0:0:
256,192,266099,1,0,0:0:0:0:
256,192,266186,1,8,0:0:0:0:
256,192,266273,1,0,0:0:0:0:
256,192,266361,1,0,0:0:0:0:
256,192,266448,1,8,0:0:0:0:
256,192,266535,1,8,0:0:0:0:
256,192,266622,1,0,0:0:0:0:
256,192,266709,1,8,0:0:0:0:
256,192,266797,1,0,0:0:0:0:
256,192,266884,1,0,0:0:0:0:
256,192,266971,1,0,0:0:0:0:
256,192,267058,1,8,0:0:0:0:
256,192,267145,1,0,0:0:0:0:
256,192,267233,1,8,0:0:0:0:
256,192,267320,1,0,0:0:0:0:
256,192,267407,1,0,0:0:0:0:
256,192,267494,1,8,0:0:0:0:
256,192,267582,1,8,0:0:0:0:
256,192,267669,1,0,0:0:0:0:
256,192,267756,1,8,0:0:0:0:
256,192,267843,1,0,0:0:0:0:
256,192,267930,1,0,0:0:0:0:
256,192,268018,1,0,0:0:0:0:
256,192,268105,1,8,0:0:0:0:
256,192,268192,1,0,0:0:0:0:
256,192,268250,1,0,0:0:0:0:
256,192,268308,1,0,0:0:0:0:
256,192,268366,1,8,0:0:0:0:
256,192,268541,1,0,0:0:0:0:
256,192,268716,1,4,0:0:0:0:
256,192,268891,1,8,0:0:0:0:
256,192,268978,1,8,0:0:0:0:
256,192,269065,1,0,0:0:0:0:
256,192,269239,1,8,0:0:0:0:
256,192,269413,1,0,0:0:0:0:
256,192,269501,1,0,0:0:0:0:
256,192,269588,1,0,0:0:0:0:
256,192,269675,1,8,0:0:0:0:
256,192,269762,1,0,0:0:0:0:
256,192,269850,1,0,0:0:0:0:
256,192,269937,1,8,0:0:0:0:
256,192,270024,1,8,0:0:0:0:
256,192,270111,1,0,0:0:0:0:
256,192,270285,1,8,0:0:0:0:
256,192,270372,1,8,0:0:0:0:
256,192,270460,1,0,0:0:0:0:
256,192,270634,1,8,0:0:0:0:
256,192,270809,1,8,0:0:0:0:
256,192,270896,1,8,0:0:0:0:
256,192,270983,1,0,0:0:0:0:
256,192,271070,1,8,0:0:0:0:
256,192,271158,1,0,0:0:0:0:
256,192,271245,1,0,0:0:0:0:
256,192,271332,1,8,0:0:0:0:
256,192,271506,1,0,0:0:0:0:
256,192,271681,1,8,0:0:0:0:
256,192,271768,1,8,0:0:0:0:
256,192,271855,1,0,0:0:0:0:
256,192,272029,1,8,0:0:0:0:
256,192,272204,1,0,0:0:0:0:
256,192,272378,1,0,0:0:0:0:
256,192,272436,1,0,0:0:0:0:
256,192,272494,1,0,0:0:0:0:
256,192,272553,1,8,0:0:0:0:
256,192,272727,1,0,0:0:0:0:
256,192,272901,1,0,0:0:0:0:
256,192,273163,1,0,0:0:0:0:
256,192,273250,1,8,0:0:0:0:
256,192,273425,1,0,0:0:0:0:
256,192,273599,1,0,0:0:0:0:
256,192,273686,1,8,0:0:0:0:
256,192,273774,1,0,0:0:0:0:
256,192,273861,1,0,0:0:0:0:
256,192,273948,1,8,0:0:0:0:
256,192,274122,1,8,0:0:0:0:
256,192,274297,1,4,0:0:0:0:
256,192,274559,1,4,0:0:0:0:
256,192,274821,1,4,0:0:0:0:
256,192,274995,1,8,0:0:0:0:
256,192,275170,1,0,0:0:0:0:
256,192,275344,1,12,0:0:0:0:
256,192,275606,1,12,0:0:0:0:
256,192,275867,1,12,0:0:0:0:
256,192,276042,1,8,0:0:0:0:
256,192,276216,1,0,0:0:0:0:
256,192,276274,1,0,0:0:0:0:
256,192,276332,1,0,0:0:0:0:
256,192,276391,1,8,0:0:0:0:
256,192,276739,1,8,0:0:0:0:
256,192,277088,1,12,0:0:0:0:
256,192,277437,1,0,0:0:0:0:
256,192,277524,1,0,0:0:0:0:
256,192,277612,1,0,0:0:0:0:
256,192,277699,1,0,0:0:0:0:
256,192,277786,1,8,0:0:0:0:
256,192,277960,1,0,0:0:0:0:
256,192,278019,1,0,0:0:0:0:
256,192,278077,1,0,0:0:0:0:
256,192,278135,1,8,0:0:0:0:
256,192,278222,1,0,0:0:0:0:
256,192,278309,1,0,0:0:0:0:
256,192,278396,1,0,0:0:0:0:
256,192,278484,1,8,0:0:0:0:
256,192,278658,12,0,279007,0:0:0:0:
256,192,279181,5,8,0:0:0:0:
256,192,279356,1,8,0:0:0:0:
256,192,279530,1,0,0:0:0:0:
256,192,279705,1,8,0:0:0:0:
256,192,279879,1,4,0:0:0:0:
256,192,280402,1,8,0:0:0:0:
256,192,280577,1,8,0:0:0:0:
256,192,280926,1,0,0:0:0:0:
256,192,281275,1,8,0:0:0:0:
256,192,281798,1,0,0:0:0:0:
256,192,281972,1,8,0:0:0:0:
256,192,282321,1,0,0:0:0:0:
256,192,282670,1,8,0:0:0:0:
256,192,283193,1,8,0:0:0:0:
256,192,283368,1,0,0:0:0:0:
256,192,283716,1,0,0:0:0:0:
256,192,284065,1,8,0:0:0:0:
256,192,284588,1,0,0:0:0:0:
256,192,284763,1,8,0:0:0:0:
256,192,285112,1,8,0:0:0:0:
256,192,285461,1,0,0:0:0:0:
256,192,285809,1,0,0:0:0:0:
256,192,286158,1,8,0:0:0:0:
256,192,286507,1,8,0:0:0:0:
256,192,286856,1,0,0:0:0:0:
256,192,287205,1,8,0:0:0:0:
256,192,287554,1,0,0:0:0:0:
256,192,287902,1,0,0:0:0:0:
256,192,288251,1,8,0:0:0:0:
256,192,288600,1,8,0:0:0:0:
256,192,288949,1,0,0:0:0:0:
256,192,289298,1,0,0:0:0:0:
256,192,289647,1,8,0:0:0:0:
256,192,289995,1,0,0:0:0:0:
256,192,290344,1,8,0:0:0:0:
256,192,290693,1,0,0:0:0:0:
256,192,290868,1,8,0:0:0:0:
256,192,291042,1,0,0:0:0:0:
256,192,291565,1,8,0:0:0:0:
256,192,291740,1,8,0:0:0:0:
256,192,292088,1,0,0:0:0:0:
256,192,292437,1,8,0:0:0:0:
256,192,292961,1,0,0:0:0:0:
256,192,293135,1,8,0:0:0:0:
256,192,293484,1,0,0:0:0:0:
256,192,293833,1,8,0:0:0:0:
256,192,294356,1,8,0:0:0:0:
256,192,294530,1,0,0:0:0:0:
256,192,294879,1,0,0:0:0:0:
256,192,295228,1,8,0:0:0:0:
256,192,295751,1,0,0:0:0:0:
256,192,295926,1,8,0:0:0:0:
256,192,296275,1,0,0:0:0:0:
256,192,296623,1,8,0:0:0:0:
256,192,296972,1,8,0:0:0:0:
256,192,297321,1,0,0:0:0:0:
256,192,297670,1,0,0:0:0:0:
256,192,298019,1,8,0:0:0:0:
256,192,298368,1,0,0:0:0:0:
256,192,298716,1,8,0:0:0:0:
256,192,299065,1,0,0:0:0:0:
256,192,299414,1,8,0:0:0:0:
256,192,299763,1,8,0:0:0:0:
256,192,300112,1,0,0:0:0:0:
256,192,300461,1,0,0:0:0:0:
256,192,300809,1,8,0:0:0:0:
