osu file format v14

[General]
AudioFilename: audio.mp3
AudioLeadIn: 0
PreviewTime: 124990
Countdown: 0
SampleSet: Normal
StackLeniency: 0.7
Mode: 0
LetterboxInBreaks: 0
WidescreenStoryboard: 0

[Editor]
DistanceSpacing: 1.1
BeatDivisor: 4
GridSize: 16
TimelineZoom: 1.9

[Metadata]
Title:Hype feat. Such
TitleUnicode:Hype feat. Such
Artist:PSYQUI
ArtistUnicode:PSYQUI
Creator:Ferdeza
Version:PogU
Source:
Tags:hardcore future bass lapix 2018 megarex mrx-023 fÜgene2
BeatmapID:2043894
BeatmapSetID:976451

[Difficulty]
HPDrainRate:5
CircleSize:4
OverallDifficulty:8.8
ApproachRate:9.3
SliderMultiplier:1.6
SliderTickRate:1

[Events]
//Background and Video events
0,0,"psyquihype.png",0,0
//Break Periods
//Storyboard Layer 0 (Background)
//Storyboard Layer 1 (Fail)
//Storyboard Layer 2 (Pass)
//Storyboard Layer 3 (Foreground)
//Storyboard Sound Samples

[TimingPoints]
2200,348.837209302326,4,1,0,31,1,0
3595,-125,4,1,0,31,0,0
14758,-76.9230769230769,4,1,0,31,0,0
17548,-74.0740740740741,4,1,0,31,0,0
18944,-71.4285714285714,4,1,0,31,0,0
20339,-66.6666666666667,4,1,0,31,0,0
25920,-58.8235294117647,4,1,0,40,0,0
34816,-58.8235294117647,4,1,0,5,0,0
34903,-45.4545454545455,4,1,0,5,0,0
34990,-45.4545454545455,4,1,0,40,0,0
35077,-58.8235294117647,4,1,0,40,0,0
36386,-64.5161290322581,4,1,0,40,0,0
36734,-71.4285714285714,4,1,0,40,0,0
37083,-71.4285714285714,4,1,0,31,0,0
38479,-76.9230769230769,4,1,0,28,0,0
39176,-86.9565217391304,4,1,0,28,0,0
39874,-100,4,1,0,25,0,0
41269,-100,4,1,0,22,0,0
42665,-100,4,1,0,27,0,0
45455,-100,4,1,0,31,0,0
45804,-100,4,1,0,35,0,0
46153,-100,4,1,0,39,0,0
46502,-100,4,1,0,43,0,0
46851,-58.8235294117647,4,1,0,31,0,0
48246,-52.6315789473684,4,1,0,34,0,0
48944,-52.6315789473684,4,1,0,55,0,0
67781,-47.6190476190476,4,1,0,55,0,0
68130,-52.6315789473684,4,1,0,55,0,0
68479,-47.6190476190476,4,1,0,55,0,0
69176,-52.6315789473684,4,1,0,55,0,0
71967,-58.8235294117647,4,1,0,31,0,0
73362,-66.6666666666667,4,1,0,31,0,0
84525,-62.5,4,1,0,31,0,0
87316,-58.8235294117647,4,1,0,31,0,0
92897,-142.857142857143,4,1,0,31,0,0
95688,-142.857142857143,4,1,0,5,0,0
97083,-117.647058823529,4,1,0,17,0,0
99874,-100,4,1,0,21,0,0
102665,-83.3333333333333,4,1,0,25,0,0
104060,-71.4285714285714,4,1,0,31,0,0
109641,-62.5,4,1,0,35,0,0
112432,-58.8235294117647,4,1,0,35,0,0
115048,-55.5555555555556,4,1,0,40,0,0
120455,-45.4545454545455,4,1,0,40,0,0
120804,-55.5555555555556,4,1,0,40,0,0
125688,-45.4545454545455,4,1,0,40,0,0
126734,-52.6315789473684,4,1,0,55,0,1
145920,-66.6666666666667,4,1,0,55,0,1
148101,-58.8235294117647,4,1,0,55,0,1
148711,-52.6315789473684,4,1,0,55,0,1
151502,-57.1428571428571,4,1,0,40,0,0
155862,-60.6060606060606,4,1,0,40,0,0
156037,-54.054054054054,4,1,0,40,0,0
156298,-60.6060606060606,4,1,0,40,0,0
156560,-57.1428571428571,4,1,0,40,0,0
162665,-55.5555555555556,4,1,0,40,0,0
167025,-58.8235294117647,4,1,0,40,0,0
167200,-55.5555555555556,4,1,0,40,0,0
167548,-58.8235294117647,4,1,0,40,0,0
167897,-52.6315789473684,4,1,0,40,0,0
168246,-54.054054054054,4,1,0,40,0,0
172432,-60.6060606060606,4,1,0,31,0,0
173827,-55.5555555555556,4,1,0,31,0,0
174176,-83.3333333333333,4,1,0,31,0,0
174525,-55.5555555555556,4,1,0,31,0,0
174874,-71.4285714285714,4,1,0,31,0,0
175223,-55.5555555555556,4,1,0,31,0,0
176269,-50,4,1,0,31,0,0
176618,-55.5555555555556,4,1,0,31,0,0
177316,-58.8235294117647,4,1,0,31,0,0
177667,-62.5,4,1,0,31,0,0
178013,-52.6315789473684,4,1,0,31,0,0
178362,-58.8235294117647,4,1,0,31,0,0
179060,-55.5555555555556,4,1,0,31,0,0
179409,-55.5555555555556,4,1,0,40,0,0
183769,-50,4,1,0,40,0,0
183944,-55.5555555555556,4,1,0,40,0,0
184118,-52.6315789473684,4,1,0,40,0,0
184380,-50,4,1,0,40,0,0
184729,-45.4545454545455,4,1,0,40,0,0
184990,-123.456790123457,4,1,0,25,0,0
190572,-112.359550561798,4,1,0,5,0,0
191967,-100,4,1,0,17,0,0
194758,-90.9090909090909,4,1,0,17,0,0
197548,-83.3333333333333,4,1,0,17,0,0
203130,-76.9230769230769,4,1,0,25,0,0
207316,-200,4,1,0,31,0,0
218479,-153.846153846154,4,1,0,31,0,0
224060,-125,4,1,0,31,0,0
226851,-111.111111111111,4,1,0,31,0,0
228246,-100,4,1,0,31,0,0
229641,-71.4285714285714,4,1,0,31,0,0
235223,-66.6666666666667,4,1,0,31,0,0
238013,-62.5,4,1,0,31,0,0
240804,-57.1428571428571,4,1,0,31,0,0
251967,-100,4,1,0,31,0,0
252054,-100,4,1,0,20,0,0
253362,-71.4285714285714,4,1,0,23,0,0
254758,-71.4285714285714,4,1,0,27,0,0
255106,-71.4285714285714,4,1,0,31,0,0
255455,-71.4285714285714,4,1,0,35,0,0
255804,-71.4285714285714,4,1,0,38,0,0
256153,-57.1428571428571,4,1,0,40,0,0
265920,-52.6315789473684,4,1,0,40,0,0
268537,-45.4545454545455,4,1,0,40,0,0
268711,-50,4,1,0,55,0,1
277083,-45.4545454545455,4,1,0,55,0,1
277432,-50,4,1,0,55,0,1
277781,-45.4545454545455,4,1,0,55,0,1
278479,-50,4,1,0,55,0,1
279874,-200,4,1,0,31,0,0
279961,-200,4,1,0,25,0,0
291037,-250,4,1,0,17,0,0

[Colours]
Combo1 : 81,253,232
Combo2 : 206,0,0
Combo3 : 2,141,176
Combo4 : 179,39,231

[HitObjects]
256,192,2374,12,0,3420,0:0:0:0:
234,91,3595,6,0,P|240:64|270:24,3,64,4|0|0|0,0:0|0:0|0:0|0:0,0:0:0:0:
146,32,4293,2,0,P|102:41|70:75,1,64,2|0,0:0|0:0,0:0:0:0:
131,176,4641,2,0,P|144:134|130:88,1,64
49,167,4990,6,0,L|38:255,1,64,2|0,0:0|0:0,0:0:0:0:
78,362,5339,2,0,L|87:282,1,64
228,233,5688,2,0,L|218:309,1,64
247,384,6037,2,0,P|272:358|355:342,1,96
461,381,6386,6,0,B|471:372|471:372|471:305,1,64,2|0,0:0|0:0,0:0:0:0:
393,221,6734,2,0,L|394:308,1,64
468,183,7083,2,0,P|448:157|420:142,1,64,2|0,0:0|0:0,0:0:0:0:
396,43,7432,2,0,P|376:68|348:83,1,64,2|0,0:0|0:0,0:0:0:0:
110,76,7781,5,2,0:0:0:0:
174,16,7955,1,0,0:0:0:0:
214,188,8130,1,0,0:0:0:0:
129,162,8304,1,0,0:0:0:0:
258,42,8479,1,0,0:0:0:0:
278,127,8653,1,0,0:0:0:0:
383,238,8827,2,0,B|336:289|336:289|319:328,1,96
220,384,9176,6,0,P|198:342|158:319,1,64,2|0,0:0|0:0,0:0:0:0:
181,202,9525,2,0,P|192:231|214:254,1,64,2|0,0:0|0:0,0:0:0:0:
106,309,9874,2,0,L|106:229,1,64,2|0,0:0|0:0,0:0:0:0:
160,58,10223,2,0,L|160:122,1,64,2|0,0:0|0:0,0:0:0:0:
252,24,10572,6,0,P|297:37|330:67,1,64,2|0,0:0|0:0,0:0:0:0:
378,217,10920,2,0,P|384:170|372:126,1,64
452,32,11269,2,0,L|384:74,1,64,2|0,0:0|0:0,0:0:0:0:
289,138,11618,2,0,B|278:161|278:161|281:198|281:198|266:229,1,96
337,292,11967,6,0,B|344:303|344:303|409:312,1,64,2|0,0:0|0:0,0:0:0:0:
307,374,12316,2,0,L|223:365,1,64
80,378,12665,2,0,L|143:384,1,64,2|0,0:0|0:0,0:0:0:0:
120,282,13013,1,0,0:0:0:0:
190,182,13188,1,0,0:0:0:0:
69,172,13362,6,0,B|97:116|64:121|88:67,1,96,2|0,0:0|0:0,0:0:0:0:
114,26,13711,2,0,L|189:71,1,64
295,89,14060,2,0,L|370:134,1,64,2|0,0:0|0:0,0:0:0:0:
380,248,14409,2,0,P|344:251|311:320,1,96
163,353,14758,5,6,0:0:0:0:
188,197,14932,1,0,0:0:0:0:
28,276,15106,1,8,0:0:0:0:
50,119,15281,1,0,0:0:0:0:
210,40,15455,2,0,P|278:27|323:40,1,103.999995239258,10|0,0:0|0:0,0:0:0:0:
477,114,15804,2,0,P|409:101|364:114,1,103.999995239258,8|0,0:0|0:0,0:0:0:0:
150,372,16153,6,0,L|148:253,1,103.999995239258,6|0,0:0|0:0,0:0:0:0:
245,166,16502,2,0,L|246:269,1,103.999995239258,8|0,0:0|0:0,0:0:0:0:
290,384,16851,2,0,P|337:344|398:333,1,103.999995239258,8|0,0:0|0:0,0:0:0:0:
428,192,17200,2,0,P|390:227|341:242,1,103.999995239258,8|0,0:0|0:0,0:0:0:0:
18,39,17548,6,0,B|68:67|68:67|107:119,1,108.000000411987,6|0,0:0|0:0,0:0:0:0:
261,167,17897,2,0,B|210:138|210:138|171:86,1,108.000000411987,8|0,0:0|0:0,0:0:0:0:
35,222,18246,2,0,P|73:188|127:181,1,108.000000411987,8|0,0:0|0:0,0:0:0:0:
102,369,18595,2,0,P|122:319|111:267,1,108.000000411987,8|0,0:0|0:0,0:0:0:0:
376,377,18944,6,0,L|431:280,1,111.999996582031,6|0,0:0|0:0,0:0:0:0:
211,245,19293,2,0,L|308:300,1,111.999996582031,8|0,0:0|0:0,0:0:0:0:
454,177,19641,2,0,P|396:177|337:225,1,111.999996582031,8|0,0:0|0:0,0:0:0:0:
227,110,19990,2,0,P|285:110|344:62,1,111.999996582031,8|0,0:0|0:0,0:0:0:0:
58,0,20339,6,0,B|59:83|59:83|91:121,1,120.000004577637,6|0,0:0|0:0,0:0:0:0:
22,203,20688,2,0,B|105:202|105:202|143:170,1,120.000004577637,4|0,0:0|0:0,0:0:0:0:
329,181,21037,2,0,B|246:182|246:182|217:205,1,120.000004577637,6|0,0:0|0:0,0:0:0:0:
293,384,21386,2,0,B|292:301|292:301|268:272,1,120.000004577637,4|0,0:0|0:0,0:0:0:0:
450,168,21734,6,0,P|424:242|377:277,1,120.000004577637,6|0,0:0|0:0,0:0:0:0:
275,52,22083,2,0,B|340:35|340:35|405:60,1,120.000004577637,4|0,0:0|0:0,0:0:0:0:
134,39,22432,2,0,L|187:147,1,120.000004577637,6|0,0:0|0:0,0:0:0:0:
1,274,22781,2,0,B|32:231|32:231|56:221|56:221|77:187,1,120.000004577637,4|0,0:0|0:0,0:0:0:0:
278,150,23130,5,6,0:0:0:0:
162,266,23304,1,0,0:0:0:0:
277,383,23479,1,8,0:0:0:0:
394,268,23653,1,0,0:0:0:0:
309,71,23827,5,6,0:0:0:0:
308,235,24002,1,0,0:0:0:0:
472,236,24176,1,8,0:0:0:0:
474,71,24351,1,0,0:0:0:0:
223,14,24525,5,6,0:0:0:0:
214,42,24612,1,0,0:0:0:0:
205,71,24700,1,0,0:0:0:0:
196,100,24787,1,0,0:0:0:0:
188,128,24874,1,8,0:0:0:0:
161,142,24961,1,0,0:0:0:0:
135,156,25048,1,0,0:0:0:0:
99,174,25136,1,0,0:0:0:0:
65,192,25223,5,6,0:0:0:0:
62,231,25310,1,0,0:0:0:0:
72,269,25397,1,0,0:0:0:0:
94,302,25484,1,0,0:0:0:0:
124,327,25572,1,8,0:0:0:0:
154,302,25659,1,0,0:0:0:0:
176,269,25746,1,0,0:0:0:0:
186,231,25833,1,0,0:0:0:0:
183,192,25920,6,0,P|287:171|321:198,1,136.000002593994,6|0,0:0|0:0,0:0:0:0:
304,333,26269,1,0,0:0:0:0:
463,260,26444,2,0,L|512:258,2,45.3333341979981
345,214,26618,1,10,0:0:0:0:
452,86,26793,1,0,0:0:0:0:
426,109,26880,1,0,0:0:0:0:
395,123,26967,1,0,0:0:0:0:
360,128,27054,1,0,0:0:0:0:
327,121,27141,2,0,P|286:99|261:75,1,68.0000012969971,4|0,0:0|0:0,0:0:0:0:
76,4,27316,6,0,L|98:77,1,68.0000012969971,2|0,0:0|0:0,0:0:0:0:
238,255,27490,2,0,L|218:189,1,68.0000012969971,4|0,0:0|0:0,0:0:0:0:
182,50,27665,2,0,P|154:136|97:161,1,136.000002593994,2|0,0:0|0:0,0:0:0:0:
9,194,27926,1,0,0:0:0:0:
9,194,28013,2,0,L|21:268,1,68.0000012969971,8|0,0:0|0:0,0:0:0:0:
38,384,28188,1,0,0:0:0:0:
71,377,28275,1,0,0:0:0:0:
95,341,28362,1,0,0:0:0:0:
128,347,28450,1,0,0:0:0:0:
161,354,28537,6,0,B|231:371|231:371,1,68.0000012969971,6|0,0:0|0:0,0:0:0:0:
344,363,28711,1,0,0:0:0:0:
407,192,28886,2,0,P|430:158|457:139,2,68.0000012969971
461,309,29234,1,4,0:0:0:0:
290,246,29409,2,0,P|253:227|220:223,1,68.0000012969971,10|0,0:0|0:0,0:0:0:0:
168,112,29583,2,0,P|200:100|233:100,1,68.0000012969971,0|0,0:0|0:0,0:0:0:0:
391,30,29758,2,0,P|358:24|329:8,1,68.0000012969971,0|0,0:0|0:0,0:0:0:0:
67,1,29932,6,0,L|70:82,1,68.0000012969971,6|0,0:0|0:0,0:0:0:0:
16,192,30106,1,0,0:0:0:0:
33,225,30194,1,0,0:0:0:0:
4,246,30281,1,0,0:0:0:0:
33,282,30368,1,0,0:0:0:0:
59,311,30455,2,0,L|110:370,1,68.0000012969971
230,328,30630,2,0,P|269:258|253:183,1,136.000002593994,4|0,0:0|0:0,0:0:0:0:
228,84,30891,1,0,0:0:0:0:
228,84,30979,2,0,L|308:84,1,68.0000012969971,4|0,0:0|0:0,0:0:0:0:
438,20,31153,1,10,0:0:0:0:
438,20,31240,2,0,L|398:89,1,68.0000012969971,4|0,0:0|0:0,0:0:0:0:
353,174,31415,1,0,0:0:0:0:
353,174,31502,6,0,L|387:233,1,68.0000012969971,6|0,0:0|0:0,0:0:0:0:
449,345,31676,1,0,0:0:0:0:
438,328,31763,2,0,P|377:322|336:338,1,68.0000012969971
294,352,31938,1,0,0:0:0:0:
283,369,32025,2,0,P|222:375|181:359,1,68.0000012969971
93,363,32200,2,0,P|121:288|189:252,1,136.000002593994,10|0,0:0|0:0,0:0:0:0:
0,116,32461,2,0,P|45:165|54:231,1,136.000002593994,4|0,0:0|0:0,0:0:0:0:
260,158,32723,6,0,P|225:171|182:171,1,68.0000012969971,6|0,0:0|0:0,0:0:0:0:
9,26,32897,1,0,0:0:0:0:
42,24,32984,1,0,0:0:0:0:
76,22,33072,2,0,L|162:38,1,68.0000012969971,4|0,0:0|0:0,0:0:0:0:
362,0,33246,1,2,0:0:0:0:
364,33,33333,1,0,0:0:0:0:
366,67,33420,2,0,L|391:141,1,68.0000012969971,4|0,0:0|0:0,0:0:0:0:
500,285,33595,2,0,P|443:266|411:262,1,68.0000012969971,8|0,0:0|0:0,0:0:0:0:
295,239,33769,1,0,0:0:0:0:
289,279,33856,1,0,0:0:0:0:
270,315,33944,1,0,0:0:0:0:
241,343,34031,1,0,0:0:0:0:
204,360,34118,2,0,B|157:359|157:359|116:344|116:344|51:343,1,136.000002593994,6|0,0:0|0:0,0:0:0:0:
8,232,34467,6,0,P|96:199|1:116,1,272.000005187988,2|0,0:0|0:0,0:0:0:0:
112,10,34903,2,0,P|144:66|202:92,1,88.000002685547,0|10,0:0|0:0,0:0:0:0:
354,28,35077,1,0,0:0:0:0:
354,72,35165,1,0,0:0:0:0:
340,115,35252,1,0,0:0:0:0:
313,151,35339,1,0,0:0:0:0:
293,178,35426,1,0,0:0:0:0:
287,211,35513,6,0,P|346:296|423:290,1,136.000002593994,6|0,0:0|0:0,0:0:0:0:
381,208,35862,1,0,0:0:0:0:
274,373,36037,2,0,B|208:362|208:362|204:356|204:356|131:345,1,136.000002593994,6|0,0:0|0:0,0:0:0:0:
16,276,36386,2,0,B|74:266|74:266|78:260|78:260|143:251,1,124.000000946045,6|0,0:0|0:0,0:0:0:0:
258,182,36734,2,0,B|204:173|204:173|201:168|201:168|141:159,1,111.999996582031,4|0,0:0|0:0,0:0:0:0:
41,106,37083,6,0,P|35:50|57:0,1,111.999996582031,6|0,0:0|0:0,0:0:0:0:
185,3,37432,2,0,P|235:24|291:19,1,111.999996582031,8|0,0:0|0:0,0:0:0:0:
502,103,37781,2,0,B|448:81|448:81|388:90,1,111.999996582031,4|0,0:0|0:0,0:0:0:0:
423,307,38130,2,0,B|445:253|445:253|436:193,1,111.999996582031,8|0,0:0|0:0,0:0:0:0:
308,384,38479,6,0,L|199:378,1,103.999995239258,6|0,0:0|0:0,0:0:0:0:
91,350,38827,2,0,L|194:355,1,103.999995239258,8|0,0:0|0:0,0:0:0:0:
217,244,39176,6,0,L|121:249,1,92.0000017547608,6|0,0:0|0:0,0:0:0:0:
22,276,39525,2,0,L|118:268,1,92.0000017547608,8|0,0:0|0:0,0:0:0:0:
178,126,39874,6,0,P|111:130|73:102,1,80,6|0,0:0|0:0,0:0:0:0:
169,44,40223,2,0,P|236:40|274:68,1,80,8|0,0:0|0:0,0:0:0:0:
404,142,40572,6,0,P|471:146|509:118,1,80,6|0,0:0|0:0,0:0:0:0:
413,60,40921,2,0,P|346:56|308:84,1,80,8|0,0:0|0:0,0:0:0:0:
272,123,41182,1,0,0:0:0:0:
272,123,41269,6,0,L|266:228,1,80,6|0,0:0|0:0,0:0:0:0:
181,312,41618,2,0,L|187:196,1,80,8|0,0:0|0:0,0:0:0:0:
397,210,41967,2,4,L|390:326,1,80,6|4,0:0|0:0,0:0:0:0:
312,383,42316,2,0,L|318:276,1,80,8|0,0:0|0:0,0:0:0:0:
175,154,42665,5,4,0:0:0:0:
68,243,42839,1,8,0:0:0:0:
241,126,43013,5,4,0:0:0:0:
183,282,43187,1,8,0:0:0:0:
281,67,43362,5,4,0:0:0:0:
330,260,43536,1,8,0:0:0:0:
298,0,43711,5,4,0:0:0:0:
493,139,43885,1,8,0:0:0:0:
260,259,44060,5,4,0:0:0:0:
405,11,44234,1,8,0:0:0:0:
456,207,44409,5,4,0:0:0:0:
208,62,44583,1,8,0:0:0:0:
267,330,44758,5,4,0:0:0:0:
92,31,44932,1,8,0:0:0:0:
329,92,45107,5,4,0:0:0:0:
30,267,45281,1,8,0:0:0:0:
267,330,45455,5,4,0:0:0:0:
309,328,45542,1,0,0:0:0:0:
354,328,45629,1,0,0:0:0:0:
398,328,45716,1,0,0:0:0:0:
443,326,45803,5,4,0:0:0:0:
405,295,45892,1,0,0:0:0:0:
367,263,45979,1,0,0:0:0:0:
331,233,46066,1,0,0:0:0:0:
294,203,46153,5,4,0:0:0:0:
347,202,46240,1,0,0:0:0:0:
400,201,46327,1,0,0:0:0:0:
453,202,46414,1,0,0:0:0:0:
506,200,46501,5,4,0:0:0:0:
461,162,46590,1,0,0:0:0:0:
416,123,46677,1,0,0:0:0:0:
372,86,46764,1,0,0:0:0:0:
326,51,46851,6,0,B|204:43|204:43|197:25|197:25|97:37,1,204.000003890991,6|0,0:0|0:0,0:0:0:0:
18,18,47200,2,0,B|76:154|-25:91|35:232,1,204.000003890991,2|0,0:0|0:0,0:0:0:0:
73,293,47548,1,8,0:0:0:0:
148,152,47723,1,0,0:0:0:0:
148,152,47810,1,0,0:0:0:0:
148,152,47897,2,0,L|220:151,1,68.0000012969971,8|0,0:0|0:0,0:0:0:0:
232,287,48072,2,0,L|304:286,1,68.0000012969971,8|0,0:0|0:0,0:0:0:0:
475,268,48246,6,0,P|497:367|398:311,1,227.999993911743,2|0,0:0|0:0,0:0:0:0:
392,274,48595,2,0,B|380:168|452:225|444:123|403:94|403:94|390:104|387:123,1,227.999993911743,2|0,0:0|0:0,0:0:0:0:
333,40,48944,6,0,L|242:30,1,75.9999979705811,4|0,0:0|0:0,0:0:0:0:
99,0,49118,1,0,0:0:0:0:
114,36,49205,1,0,0:0:0:0:
129,72,49293,6,0,L|165:155,1,75.9999979705811,8|0,0:0|0:0,0:0:0:0:
277,160,49467,1,0,0:0:0:0:
84,235,49641,6,0,P|26:268|13:353,1,151.999995941162,6|0,0:0|0:0,0:0:0:0:
202,254,49990,2,0,B|267:374|305:275|380:387,1,227.999993911743,10|0,0:0|0:0,0:0:0:0:
470,375,50339,6,0,L|466:291,1,75.9999979705811,4|0,0:0|0:0,0:0:0:0:
371,110,50513,1,0,0:0:0:0:
372,147,50601,1,0,0:0:0:0:
374,186,50688,6,0,L|377:261,1,75.9999979705811,8|0,0:0|0:0,0:0:0:0:
509,140,50862,1,0,0:0:0:0:
364,0,51037,6,0,B|291:1|291:1|284:7|284:7|197:9,1,151.999995941162,6|0,0:0|0:0,0:0:0:0:
37,15,51386,2,0,P|15:121|146:107,1,227.999993911743,10|0,0:0|0:0,0:0:0:0:
207,101,51734,6,0,P|200:184|221:252,1,151.999995941162,4|0,0:0|0:0,0:0:0:0:
61,246,51996,5,4,0:0:0:0:
61,246,52083,2,0,P|56:307|40:351,1,75.9999979705811,8|0,0:0|0:0,0:0:0:0:
170,371,52258,2,0,P|207:378|245:379,1,75.9999979705811,4|0,0:0|0:0,0:0:0:0:
424,376,52432,6,0,B|417:299|417:299|367:243,1,151.999995941162,6|0,0:0|0:0,0:0:0:0:
376,127,52694,1,4,0:0:0:0:
376,127,52781,6,0,L|432:189,1,75.9999979705811,8|0,0:0|0:0,0:0:0:0:
321,322,52955,2,0,L|264:259,1,75.9999979705811,4|0,0:0|0:0,0:0:0:0:
152,145,53130,6,0,B|131:159|90:175|26:112|56:52|109:4,1,227.999993911743,6|0,0:0|0:0,0:0:0:0:
231,82,53479,2,0,B|236:12|264:-49|354:-37|366:5|367:29,1,227.999993911743,8|0,0:0|0:0,0:0:0:0:
490,45,53827,6,0,B|455:113|455:113|491:178|491:178|443:281,1,227.999993911743,6|0,0:0|0:0,0:0:0:0:
427,352,54176,2,0,B|385:287|385:287|311:286|311:286|246:193,1,227.999993911743,10|0,0:0|0:0,0:0:0:0:
326,124,54525,6,0,L|375:193,1,75.9999979705811,4|0,0:0|0:0,0:0:0:0:
334,383,54700,1,0,0:0:0:0:
296,383,54787,1,0,0:0:0:0:
258,383,54874,6,0,L|164:383,1,75.9999979705811,8|0,0:0|0:0,0:0:0:0:
7,379,55048,1,0,0:0:0:0:
98,229,55223,6,0,P|81:157|-5:129,1,151.999995941162,6|0,0:0|0:0,0:0:0:0:
88,0,55572,2,2,B|201:42|201:42|310:16,1,227.999993911743,10|2,0:0|0:0,0:0:0:0:
343,99,55920,6,0,L|417:79,1,75.9999979705811,4|0,0:0|0:0,0:0:0:0:
512,222,56095,1,0,0:0:0:0:
476,233,56182,1,0,0:0:0:0:
439,243,56269,6,0,L|365:263,1,75.9999979705811,8|0,0:0|0:0,0:0:0:0:
189,312,56444,1,0,0:0:0:0:
235,134,56618,6,0,B|138:45|122:168|17:75,1,227.999993911743,6|0,0:0|0:0,0:0:0:0:
30,183,56967,2,0,P|45:303|153:335,1,227.999993911743,6|0,0:0|0:0,0:0:0:0:
247,358,57316,6,0,L|267:273,1,75.9999979705811,10|0,0:0|0:0,0:0:0:0:
404,353,57490,1,0,0:0:0:0:
404,353,57577,2,0,L|384:268,1,75.9999979705811,4|0,0:0|0:0,0:0:0:0:
323,222,57752,1,0,0:0:0:0:
323,222,57839,2,0,L|343:137,1,75.9999979705811,4|0,0:0|0:0,0:0:0:0:
480,217,58013,6,0,L|460:132,1,75.9999979705811,6|0,0:0|0:0,0:0:0:0:
416,9,58188,1,0,0:0:0:0:
416,9,58275,2,0,L|396:94,1,75.9999979705811,4|0,0:0|0:0,0:0:0:0:
224,0,58450,1,4,0:0:0:0:
216,36,58537,2,0,L|196:121,1,75.9999979705811,4|0,0:0|0:0,0:0:0:0:
71,96,58711,5,10,0:0:0:0:
90,127,58798,1,0,0:0:0:0:
109,160,58886,1,0,0:0:0:0:
100,196,58973,1,0,0:0:0:0:
91,233,59060,2,0,L|71:318,1,75.9999979705811,4|0,0:0|0:0,0:0:0:0:
6,384,59234,1,0,0:0:0:0:
256,384,59409,6,0,P|261:297|375:374,1,227.999993911743,6|0,0:0|0:0,0:0:0:0:
493,290,59758,2,0,P|420:242|543:181,1,227.999993911743,10|0,0:0|0:0,0:0:0:0:
440,78,60106,6,0,L|345:96,1,75.9999979705811,4|0,0:0|0:0,0:0:0:0:
191,220,60281,1,0,0:0:0:0:
228,212,60368,1,0,0:0:0:0:
265,205,60455,6,0,L|339:190,1,75.9999979705811,8|0,0:0|0:0,0:0:0:0:
303,13,60630,1,0,0:0:0:0:
65,40,60804,6,0,P|72:123|49:192,1,151.999995941162,6|0,0:0|0:0,0:0:0:0:
0,371,61153,2,0,B|110:288|95:406|234:321,1,227.999993911743,10|0,0:0|0:0,0:0:0:0:
298,384,61502,6,0,L|391:362,1,75.9999979705811,4|0,0:0|0:0,0:0:0:0:
512,192,61676,1,0,0:0:0:0:
475,183,61763,1,0,0:0:0:0:
438,174,61851,6,0,L|345:152,1,75.9999979705811,8|0,0:0|0:0,0:0:0:0:
457,333,62025,1,0,0:0:0:0:
286,302,62200,6,0,P|232:254|161:272,1,151.999995941162,6|0,0:0|0:0,0:0:0:0:
119,129,62548,2,0,B|208:97|208:97|219:61|219:61|313:27,1,227.999993911743,10|0,0:0|0:0,0:0:0:0:
388,1,62897,6,0,P|456:86|506:81,1,151.999995941162,4|0,0:0|0:0,0:0:0:0:
512,171,63159,5,4,0:0:0:0:
512,171,63246,2,0,B|469:182|469:182|398:177,1,75.9999979705811,8|0,0:0|0:0,0:0:0:0:
307,171,63420,6,0,B|275:166|275:166|231:173,1,75.9999979705811,4|0,0:0|0:0,0:0:0:0:
104,40,63595,6,0,P|63:60|56:192,1,151.999995941162,6|0,0:0|0:0,0:0:0:0:
117,181,63856,1,4,0:0:0:0:
117,181,63944,6,0,P|83:258|55:278,1,75.9999979705811,8|0,0:0|0:0,0:0:0:0:
0,355,64118,2,0,P|83:344|115:360,1,75.9999979705811,4|0,0:0|0:0,0:0:0:0:
210,370,64293,6,0,B|254:316|254:316|414:340,1,227.999993911743,6|0,0:0|0:0,0:0:0:0:
497,280,64641,2,0,B|428:268|428:268|369:118,1,227.999993911743,8|0,0:0|0:0,0:0:0:0:
345,11,64990,6,0,L|250:129,1,151.999995941162,6|0,0:0|0:0,0:0:0:0:
305,23,65252,2,0,L|210:141,1,151.999995941162,4|0,0:0|0:0,0:0:0:0:
265,35,65513,2,0,L|204:110,1,75.9999979705811,4|0,0:0|0:0,0:0:0:0:
138,178,65688,1,0,0:0:0:0:
164,302,65862,1,0,0:0:0:0:
314,332,66037,6,0,P|385:305|414:219,1,151.999995941162,6|0,0:0|0:0,0:0:0:0:
370,329,66298,2,0,P|419:269|401:180,1,151.999995941162,4|0,0:0|0:0,0:0:0:0:
418,299,66560,2,0,P|431:226|410:188,1,75.9999979705811,4|0,0:0|0:0,0:0:0:0:
366,90,66734,1,8,0:0:0:0:
192,2,67083,6,0,P|275:67|226:161,1,227.999993911743,6|0,0:0|0:0,0:0:0:0:
60,193,67432,2,0,P|-19:124|32:33,1,227.999993911743,6|0,0:0|0:0,0:0:0:0:
127,124,67781,6,0,B|193:295|47:201|121:405,1,251.999992309571,6|0,0:0|0:0,0:0:0:0:
185,367,68130,2,0,L|260:362,1,75.9999979705811,0|0,0:0|0:0,0:0:0:0:
208,325,68304,2,0,L|283:320,1,75.9999979705811,0|0,0:0|0:0,0:0:0:0:
463,364,68479,6,0,P|365:325|433:224,1,251.999992309571,6|0,0:0|0:0,0:0:0:0:
493,120,68827,1,4,0:0:0:0:
460,140,68914,1,0,0:0:0:0:
422,145,69001,1,0,0:0:0:0:
387,134,69088,1,0,0:0:0:0:
359,108,69176,6,0,B|174:54|191:221|42:211|-5:64|20:1|127:-61|187:-12|227:62,1,531.999985794068,6|0,0:0|0:0,0:0:0:0:
136,70,69874,1,8,0:0:0:0:
52,200,70048,1,0,0:0:0:0:
110,264,70223,1,8,0:0:0:0:
70,306,70397,1,0,0:0:0:0:
88,334,70572,5,4,0:0:0:0:
415,381,72316,5,2,0:0:0:0:
383,357,72403,1,0,0:0:0:0:
472,294,72578,5,2,0:0:0:0:
511,295,72665,1,0,0:0:0:0:
480,191,72839,5,2,0:0:0:0:
449,168,72926,1,0,0:0:0:0:
417,145,73013,2,0,P|395:105|410:7,1,136.000002593994,0|0,0:0|0:0,0:0:0:0:
403,17,73362,6,0,P|363:39|271:26,1,120.000004577637,6|0,0:0|0:0,0:0:0:0:
145,0,73711,2,0,B|165:55|165:55|146:113,1,120.000004577637,8|0,0:0|0:0,0:0:0:0:
110,180,73973,1,0,0:0:0:0:
110,180,74060,1,2,0:0:0:0:
45,94,74234,1,4,0:0:0:0:
68,280,74409,2,0,L|203:339,1,120.000004577637,8|0,0:0|0:0,0:0:0:0:
246,360,74670,1,4,0:0:0:0:
246,360,74758,5,6,0:0:0:0:
432,349,74932,1,4,0:0:0:0:
330,194,75106,2,0,P|316:109|352:45,1,120.000004577637,8|0,0:0|0:0,0:0:0:0:
398,23,75368,1,0,0:0:0:0:
398,23,75455,1,0,0:0:0:0:
440,131,75630,1,4,0:0:0:0:
281,5,75804,2,0,L|151:5,1,120.000004577637,8|8,0:0|0:0,0:0:0:0:
73,56,76066,1,8,0:0:0:0:
73,56,76153,6,0,B|34:100|34:100|31:177,1,120.000004577637,6|0,0:0|0:0,0:0:0:0:
164,211,76502,2,0,B|203:166|203:166|205:105,1,120.000004577637,8|0,0:0|0:0,0:0:0:0:
119,135,76763,1,0,0:0:0:0:
119,135,76851,1,2,0:0:0:0:
75,244,77025,1,4,0:0:0:0:
238,282,77200,2,0,P|313:286|366:338,1,120.000004577637,8|0,0:0|0:0,0:0:0:0:
452,306,77461,1,4,0:0:0:0:
452,306,77548,6,0,L|458:168,1,120.000004577637,6|0,0:0|0:0,0:0:0:0:
348,61,77897,2,0,L|342:180,1,120.000004577637,8|0,0:0|0:0,0:0:0:0:
215,286,78246,1,0,0:0:0:0:
222,167,78420,1,4,0:0:0:0:
74,236,78595,2,0,B|60:188|60:188|40:168|40:168|24:107,1,120.000004577637,10|0,0:0|0:0,0:0:0:0:
61,38,78856,1,4,0:0:0:0:
61,38,78944,6,0,B|123:64|181:18,1,120.000004577637,4|0,0:0|0:0,0:0:0:0:
249,129,79293,2,0,B|300:88|362:114,1,120.000004577637,10|0,0:0|0:0,0:0:0:0:
403,28,79554,1,0,0:0:0:0:
403,28,79641,1,0,0:0:0:0:
487,87,79816,1,4,0:0:0:0:
319,203,79990,2,0,B|357:250|357:250|426:261,1,120.000004577637,8|0,0:0|0:0,0:0:0:0:
497,209,80252,1,4,0:0:0:0:
497,209,80339,5,6,0:0:0:0:
416,383,80513,1,4,0:0:0:0:
248,303,80688,2,0,P|161:292|105:335,1,120.000004577637,10|0,0:0|0:0,0:0:0:0:
61,369,80950,1,0,0:0:0:0:
61,369,81037,1,0,0:0:0:0:
192,383,81211,1,4,0:0:0:0:
25,226,81386,2,0,B|79:195|79:195|95:134,1,120.000004577637,8|0,0:0|0:0,0:0:0:0:
34,54,81647,1,8,0:0:0:0:
34,54,81734,6,0,B|98:56|98:56|146:11|146:11|226:14,1,180.000006866455,6|0,0:0|0:0,0:0:0:0:
290,28,82083,2,0,P|292:103|328:150,1,120.000004577637,8|0,0:0|0:0,0:0:0:0:
412,197,82345,1,0,0:0:0:0:
412,197,82432,1,2,0:0:0:0:
404,59,82606,1,4,0:0:0:0:
196,128,82781,2,0,P|224:179|221:239,1,120.000004577637,8|0,0:0|0:0,0:0:0:0:
274,326,83043,1,4,0:0:0:0:
274,326,83130,6,0,B|308:356|308:356|426:354,1,120.000004577637,6|0,0:0|0:0,0:0:0:0:
470,246,83479,2,0,B|436:216|436:216|318:218,1,120.000004577637,10|0,0:0|0:0,0:0:0:0:
316,130,83740,1,0,0:0:0:0:
316,130,83827,1,0,0:0:0:0:
455,76,84002,1,4,0:0:0:0:
222,15,84176,2,0,P|122:7|77:32,1,120.000004577637,8|0,0:0|0:0,0:0:0:0:
10,22,84438,1,4,0:0:0:0:
10,22,84525,6,0,B|33:83|33:83|11:160,1,128,6|0,0:0|0:0,0:0:0:0:
163,150,84874,2,0,B|110:188|110:188|87:265,1,128,10|0,0:0|0:0,0:0:0:0:
0,282,85136,1,0,0:0:0:0:
0,282,85223,1,0,0:0:0:0:
59,384,85397,1,6,0:0:0:0:
233,269,85572,2,0,P|276:330|368:350,1,128,8|0,0:0|0:0,0:0:0:0:
419,332,85833,1,4,0:0:0:0:
419,332,85920,5,6,0:0:0:0:
511,152,86095,1,4,0:0:0:0:
309,161,86269,2,0,B|344:128|344:128|347:85|347:85|386:44,1,128,8|0,0:0|0:0,0:0:0:0:
441,6,86531,1,0,0:0:0:0:
441,6,86618,1,0,0:0:0:0:
477,125,86793,1,4,0:0:0:0:
233,69,86967,2,0,B|169:56|169:56|92:90,1,128,10|0,0:0|0:0,0:0:0:0:
30,125,87229,1,8,0:0:0:0:
30,125,87316,6,0,L|48:282,1,136.000002593994,6|8,0:0|0:0,0:0:0:0:
200,347,87665,2,0,L|184:211,1,136.000002593994,8|0,0:0|0:0,0:0:0:0:
290,242,87926,1,0,0:0:0:0:
290,242,88013,2,0,P|364:268|463:246,1,136.000002593994,10|4,0:0|0:0,0:0:0:0:
445,102,88362,2,0,P|371:76|272:97,1,136.000002593994,4|8,0:0|0:0,0:0:0:0:
221,29,88624,1,4,0:0:0:0:
221,29,88711,6,0,B|174:32|174:32|133:65|133:65|79:68,1,136.000002593994,6|8,0:0|0:0,0:0:0:0:
0,160,89060,2,0,B|47:158|47:158|91:186|91:186|145:183,1,136.000002593994,8|8,0:0|0:0,0:0:0:0:
221,180,89322,1,0,0:0:0:0:
221,180,89409,2,0,B|198:287|198:287|229:328,1,136.000002593994,10|4,0:0|0:0,0:0:0:0:
366,366,89758,2,0,B|383:345|383:345|360:238,1,136.000002593994,8|8,0:0|0:0,0:0:0:0:
434,160,90019,1,4,0:0:0:0:
434,160,90106,6,0,L|415:94,3,68.0000012969971,6|0|0|0,0:0|0:0|0:0|0:0,0:0:0:0:
297,8,90455,2,0,L|316:74,3,68.0000012969971,8|0|0|0,0:0|0:0|0:0|0:0,0:0:0:0:
192,148,90804,2,0,B|135:139|135:139|107:147,3,68.0000012969971,10|0|4|0,0:0|0:0|0:0|0:0,0:0:0:0:
27,105,91153,2,0,B|18:162|18:162|26:190,2,68.0000012969971,0|0|0,0:0|0:0|0:0,0:0:0:0:
94,237,91415,1,4,0:0:0:0:
94,237,91502,6,0,P|144:253|181:255,3,68.0000012969971,6|0|4|0,0:0|0:0|0:0|0:0,0:0:0:0:
207,351,91851,2,0,P|228:324|254:303,3,68.0000012969971,8|0|0|0,0:0|0:0|0:0|0:0,0:0:0:0:
314,238,92200,1,10,0:0:0:0:
357,226,92287,1,0,0:0:0:0:
402,232,92374,1,4,0:0:0:0:
436,203,92461,1,0,0:0:0:0:
455,163,92548,1,8,0:0:0:0:
454,118,92635,1,0,0:0:0:0:
435,78,92722,1,0,0:0:0:0:
401,50,92810,1,8,0:0:0:0:
354,45,92897,6,0,B|294:1|222:44|221:110|221:110|156:61|156:61|149:133|63:158|22:104|22:104|0:313|172:137|172:395|145:422|64:430|16:390|18:323|77:314|96:339,1,895.999972656251,4|0,0:0|0:0,0:0:0:0:
440,355,97083,6,0,B|443:321|426:290|426:290|432:244|451:227|451:227|440:166|440:166|457:128|451:81,2,272.000005187988,2|0|0,2:0|2:0|1:0,2:0:0:0:
270,18,99874,6,0,B|276:58|255:103|255:103|268:174|268:174|246:194|239:248|239:248|259:284|255:324,2,320,2|0|0,2:0|2:0|2:0,2:0:0:0:
43,324,102665,6,0,B|164:190|-3:158|86:8,1,335.999989746094,2|0,0:0|0:0,0:0:0:0:
166,35,103362,2,0,P|150:143|286:71,1,335.999989746094,0|0,0:0|0:0,0:0:0:0:
348,0,104060,6,0,L|397:100,1,111.999996582031,6|0,0:0|0:0,0:0:0:0:
337,197,104409,1,4,0:0:0:0:
451,200,104583,1,8,0:0:0:0:
391,296,104758,2,0,L|279:288,1,111.999996582031,6|0,0:0|0:0,0:0:0:0:
168,278,105106,1,4,0:0:0:0:
124,380,105281,1,8,0:0:0:0:
41,307,105455,6,0,P|23:210|41:162,1,111.999996582031,6|0,0:0|0:0,0:0:0:0:
88,106,105804,1,4,0:0:0:0:
144,203,105978,1,8,0:0:0:0:
206,109,106153,2,0,P|209:53|190:1,1,111.999996582031,4|0,0:0|0:0,0:0:0:0:
302,9,106502,1,4,0:0:0:0:
414,14,106676,1,8,0:0:0:0:
353,108,106851,6,0,B|324:157|324:157|321:213,1,111.999996582031,6|0,0:0|0:0,0:0:0:0:
359,317,107200,1,4,0:0:0:0:
400,215,107374,1,8,0:0:0:0:
498,159,107548,2,0,B|495:213|495:213|466:262,1,111.999996582031,4|0,0:0|0:0,0:0:0:0:
359,317,107897,1,4,0:0:0:0:
251,286,108072,1,8,0:0:0:0:
170,364,108246,6,0,B|122:345|122:345|111:334|111:334|53:311,1,111.999996582031,6|0,0:0|0:0,0:0:0:0:
41,209,108595,1,4,0:0:0:0:
153,198,108769,1,8,0:0:0:0:
123,89,108944,2,0,B|164:69|164:69|180:69|180:69|226:47,1,111.999996582031,4|0,0:0|0:0,0:0:0:0:
335,12,109293,1,6,0:0:0:0:
490,96,109467,1,8,0:0:0:0:
339,188,109641,6,0,B|267:255|267:255|277:306,1,128,6|8,0:0|0:0,0:0:0:0:
197,383,109990,2,0,B|174:287|174:287|125:270,1,128,4|8,0:0|0:0,0:0:0:0:
14,229,110339,2,0,P|-1:161|30:79,1,128,6|8,0:0|0:0,0:0:0:0:
147,46,110688,2,0,P|163:108|148:170,1,128,4|8,0:0|0:0,0:0:0:0:
333,45,111037,6,0,B|393:66|393:66|469:54,1,128,6|8,0:0|0:0,0:0:0:0:
508,191,111386,2,0,B|448:170|448:170|372:182,1,128,4|8,0:0|0:0,0:0:0:0:
255,214,111734,2,0,L|279:349,1,128,6|8,0:0|0:0,0:0:0:0:
141,384,112083,2,0,L|118:257,1,128,4|8,0:0|0:0,0:0:0:0:
108,150,112432,6,0,P|112:94|122:72,3,68.0000012969971,6|0|4|0,0:0|0:0|0:0|0:0,0:0:0:0:
221,87,112781,2,0,P|217:31|207:9,3,68.0000012969971,4|0|4|0,0:0|0:0|0:0|0:0,0:0:0:0:
354,34,113130,2,0,B|411:21|411:21|430:32,3,68.0000012969971,6|0|4|0,0:0|0:0|0:0|0:0,0:0:0:0:
512,168,113479,2,0,B|454:155|454:155|435:166,3,68.0000012969971,4|0|4|0,0:0|0:0|0:0|0:0,0:0:0:0:
326,213,113827,5,10,0:0:0:0:
366,320,114002,1,0,0:0:0:0:
253,301,114176,1,8,0:0:0:0:
253,301,114263,1,4,0:0:0:0:
103,211,114525,1,10,0:0:0:0:
30,299,114787,1,2,0:0:0:0:
30,299,114874,1,8,0:0:0:0:
15,138,115048,6,0,B|32:114|32:114|54:97|54:97|74:65,1,71.9999978027344
154,0,115223,2,0,P|217:70|316:-24,1,215.999993408203,4|0,0:0|0:0,0:0:0:0:
418,24,115572,5,4,0:0:0:0:
424,59,115659,1,0,0:0:0:0:
430,94,115746,1,0,0:0:0:0:
436,130,115833,1,0,0:0:0:0:
375,187,115920,5,4,0:0:0:0:
381,222,116007,1,0,0:0:0:0:
387,257,116094,1,0,0:0:0:0:
393,293,116181,1,0,0:0:0:0:
358,372,116270,5,4,0:0:0:0:
324,359,116357,1,0,0:0:0:0:
291,347,116444,1,0,0:0:0:0:
257,334,116531,1,0,0:0:0:0:
235,253,116618,6,0,L|157:283,3,71.9999978027344,6|0|0|0,0:0|0:0|0:0|0:0,0:0:0:0:
54,259,116967,5,4,0:0:0:0:
59,223,117054,1,0,0:0:0:0:
65,188,117141,1,0,0:0:0:0:
71,152,117228,1,0,0:0:0:0:
0,107,117316,5,4,0:0:0:0:
5,71,117403,1,0,0:0:0:0:
11,36,117490,1,0,0:0:0:0:
17,0,117577,1,0,0:0:0:0:
92,13,117665,5,4,0:0:0:0:
128,18,117752,1,0,0:0:0:0:
163,24,117839,1,0,0:0:0:0:
199,30,117926,1,0,0:0:0:0:
228,107,118013,6,0,L|156:95,3,71.9999978027344,6|0|0|0,0:0|0:0|0:0|0:0,0:0:0:0:
115,194,118362,5,4,0:0:0:0:
137,222,118449,1,0,0:0:0:0:
160,249,118536,1,0,0:0:0:0:
183,278,118623,1,0,0:0:0:0:
267,261,118711,5,4,0:0:0:0:
280,227,118798,1,0,0:0:0:0:
292,194,118885,1,0,0:0:0:0:
305,159,118972,1,0,0:0:0:0:
305,73,119060,5,4,0:0:0:0:
340,67,119147,1,0,0:0:0:0:
375,61,119234,1,0,0:0:0:0:
412,54,119321,1,0,0:0:0:0:
491,83,119409,6,0,L|506:164,3,71.9999978027344,6|0|0|0,0:0|0:0|0:0|0:0,0:0:0:0:
441,237,119758,5,4,0:0:0:0:
448,274,119845,1,0,0:0:0:0:
454,309,119932,1,0,0:0:0:0:
460,344,120019,1,0,0:0:0:0:
377,365,120107,5,4,0:0:0:0:
341,372,120194,1,0,0:0:0:0:
306,378,120281,1,0,0:0:0:0:
271,384,120368,1,0,0:0:0:0:
193,345,120455,6,0,B|189:283|189:283|160:254|160:254|182:229|182:229|122:221|137:151|58:150,1,264.000008056641,8|0,0:0|0:0,0:0:0:0:
47,58,120804,5,6,0:0:0:0:
82,52,120891,1,0,0:0:0:0:
117,46,120978,1,0,0:0:0:0:
153,39,121065,1,0,0:0:0:0:
207,108,121153,5,4,0:0:0:0:
242,102,121240,1,0,0:0:0:0:
277,96,121327,1,0,0:0:0:0:
313,89,121414,1,0,0:0:0:0:
376,145,121502,5,4,0:0:0:0:
363,178,121589,1,0,0:0:0:0:
351,211,121676,1,0,0:0:0:0:
339,246,121763,1,0,0:0:0:0:
274,301,121851,5,4,0:0:0:0:
239,295,121938,1,0,0:0:0:0:
204,289,122025,1,0,0:0:0:0:
168,282,122112,1,0,0:0:0:0:
120,351,122200,6,0,L|209:368,3,71.9999978027344,6|0|0|0,0:0|0:0|0:0|0:0,0:0:0:0:
309,384,122548,5,4,0:0:0:0:
345,377,122635,1,0,0:0:0:0:
380,371,122722,1,0,0:0:0:0:
415,365,122809,1,0,0:0:0:0:
471,301,122897,5,4,0:0:0:0:
464,265,122984,1,0,0:0:0:0:
458,230,123071,1,0,0:0:0:0:
452,195,123158,1,0,0:0:0:0:
403,131,123246,5,4,0:0:0:0:
410,95,123333,1,0,0:0:0:0:
416,60,123420,1,0,0:0:0:0:
422,25,123508,1,0,0:0:0:0:
338,13,123595,6,0,L|259:41,3,71.9999978027344,6|0|0|0,0:0|0:0|0:0|0:0,0:0:0:0:
152,58,123944,5,4,0:0:0:0:
144,93,124031,1,0,0:0:0:0:
138,128,124118,1,0,0:0:0:0:
132,164,124205,1,0,0:0:0:0:
55,198,124293,5,4,0:0:0:0:
63,233,124380,1,0,0:0:0:0:
69,268,124467,1,0,0:0:0:0:
75,304,124554,1,0,0:0:0:0:
152,335,124641,5,4,0:0:0:0:
178,310,124728,1,0,0:0:0:0:
205,287,124815,1,0,0:0:0:0:
233,264,124902,1,0,0:0:0:0:
289,200,124990,6,0,P|336:189|382:186,3,71.9999978027344,10|0|0|0,0:0|0:0|0:0|0:0,0:0:0:0:
300,94,125339,2,0,P|253:83|207:80,3,71.9999978027344,8|0|0|0,0:0|0:0|0:0|0:0,0:0:0:0:
140,19,125688,6,0,B|144:68|121:109|102:133|102:133|111:148|111:148|75:181|64:243|74:304,1,264.000008056641,10|0,0:0|0:0,0:0:0:0:
126,342,126037,2,0,B|141:311|141:311|171:280|171:280|202:265|202:265|217:250|217:250|232:265|232:265|263:280|263:280|293:311|293:311|309:342|309:342,1,264.000008056641,8|0,0:0|0:0,0:0:0:0:
398,331,126386,2,0,P|382:216|504:155,1,264.000008056641,8|0,0:0|0:0,0:0:0:0:
425,24,126734,5,10,0:0:0:0:
380,28,126821,1,0,0:0:0:0:
335,32,126909,2,0,L|253:39,1,75.9999979705811
133,144,127083,1,4,0:0:0:0:
178,139,127170,1,0,0:0:0:0:
224,136,127258,2,0,L|306:128,1,75.9999979705811
133,53,127432,1,8,0:0:0:0:
89,63,127519,1,0,0:0:0:0:
57,93,127606,2,0,P|35:135|53:225,1,75.9999979705811
0,323,127781,6,0,P|21:280|3:190,1,75.9999979705811,6|0,0:0|0:0,0:0:0:0:
133,144,127955,2,0,P|111:186|129:276,1,75.9999979705811
122,372,128130,1,8,0:0:0:0:
167,367,128217,1,0,0:0:0:0:
213,364,128305,2,0,L|295:356,1,75.9999979705811
444,220,128479,2,0,L|451:296,1,75.9999979705811,8|0,0:0|0:0,0:0:0:0:
473,384,128653,2,0,L|466:308,1,75.9999979705811
192,203,128827,2,0,P|251:221|278:275,1,75.9999979705811,8|0,0:0|0:0,0:0:0:0:
482,107,129002,2,0,P|426:135|409:193,1,75.9999979705811
371,229,129176,5,6,0:0:0:0:
347,189,129263,1,0,0:0:0:0:
323,150,129351,2,0,L|279:78,1,75.9999979705811
85,4,129525,1,8,0:0:0:0:
130,3,129612,1,0,0:0:0:0:
177,1,129700,2,0,L|259:-1,1,75.9999979705811
429,43,129874,2,0,L|353:44,1,75.9999979705811,4|0,0:0|0:0,0:0:0:0:
137,86,130048,2,0,L|219:84,1,75.9999979705811
339,182,130223,1,8,0:0:0:0:
295,194,130310,1,0,0:0:0:0:
262,226,130398,2,0,L|225:292,1,75.9999979705811
100,384,130572,6,0,P|97:326|110:295,1,75.9999979705811,4|0,0:0|0:0,0:0:0:0:
60,322,130746,2,0,P|86:270|113:249,1,75.9999979705811
181,35,130920,6,0,P|184:93|171:124,1,75.9999979705811,8|0,0:0|0:0,0:0:0:0:
246,136,131094,2,0,P|219:187|192:208,1,75.9999979705811
50,177,131269,6,0,L|48:93,1,75.9999979705811,4|0,0:0|0:0,0:0:0:0:
71,26,131444,2,0,L|72:101,1,75.9999979705811,0|0,0:0|0:0,0:0:0:0:
345,217,131618,6,0,L|343:133,1,75.9999979705811,8|0,0:0|0:0,0:0:0:0:
366,66,131793,2,0,L|367:141,1,75.9999979705811
512,384,131967,5,6,0:0:0:0:
466,373,132054,1,0,0:0:0:0:
421,363,132142,2,0,L|338:344,1,75.9999979705811
146,384,132316,2,0,L|203:321,1,75.9999979705811,8|0,0:0|0:0,0:0:0:0:
265,136,132490,2,0,L|290:216,1,75.9999979705811
84,286,132665,1,4,0:0:0:0:
49,254,132752,1,0,0:0:0:0:
60,208,132839,2,0,L|77:134,1,75.9999979705811
203,60,133013,1,8,0:0:0:0:
192,104,133101,1,0,0:0:0:0:
181,148,133188,2,0,L|163:221,1,75.9999979705811
0,46,133362,5,6,0:0:0:0:
43,33,133449,1,0,0:0:0:0:
87,21,133536,2,0,L|159:0,1,75.9999979705811
358,0,133711,2,0,L|340:73,1,75.9999979705811,8|0,0:0|0:0,0:0:0:0:
247,205,133886,2,0,L|264:131,1,75.9999979705811
430,69,134060,6,0,P|425:114|408:142,1,75.9999979705811,4|0,0:0|0:0,0:0:0:0:
427,309,134234,2,0,P|431:263|448:235,1,75.9999979705811,0|0,0:0|0:0,0:0:0:0:
427,33,134409,6,0,P|434:77|454:105,1,75.9999979705811,8|0,0:0|0:0,0:0:0:0:
429,345,134583,2,0,P|421:300|401:272,1,75.9999979705811
247,205,134758,5,6,0:0:0:0:
203,204,134845,1,0,0:0:0:0:
180,241,134932,2,0,L|130:322,1,75.9999979705811
15,355,135106,2,0,L|54:290,1,75.9999979705811,8|0,0:0|0:0,0:0:0:0:
248,286,135281,2,0,L|198:367,1,75.9999979705811
18,198,135455,1,4,0:0:0:0:
41,161,135542,1,0,0:0:0:0:
64,124,135630,2,0,L|103:59,1,75.9999979705811
224,25,135804,2,0,L|184:89,1,75.9999979705811,8|0,0:0|0:0,0:0:0:0:
187,154,135979,2,0,L|226:89,1,75.9999979705811
331,67,136153,6,0,L|371:131,1,75.9999979705811,4|0,0:0|0:0,0:0:0:0:
368,271,136327,2,0,L|329:206,1,75.9999979705811
410,29,136502,6,0,B|380:74|380:74|369:129,1,75.9999979705811,8|0,0:0|0:0,0:0:0:0:
289,309,136676,2,0,B|319:264|319:264|330:208,1,75.9999979705811,0|0,0:0|0:0,0:0:0:0:
506,206,136851,6,0,P|449:201|398:220,1,75.9999979705811,4|0,0:0|0:0,0:0:0:0:
127,312,137025,2,0,P|183:316|234:297,1,75.9999979705811
446,336,137200,6,0,P|408:341|371:336,1,75.9999979705811,4|0,0:0|0:0,0:0:0:0:
68,229,137374,2,0,P|105:223|142:228,1,75.9999979705811
411,256,137548,5,6,0:0:0:0:
391,217,137635,1,0,0:0:0:0:
371,178,137723,2,0,L|335:111,1,75.9999979705811
474,0,137897,2,0,L|509:66,1,75.9999979705811,8|0,0:0|0:0,0:0:0:0:
473,188,138072,2,0,L|437:121,1,75.9999979705811
181,23,138246,2,0,L|216:89,1,75.9999979705811,4|0,0:0|0:0,0:0:0:0:
284,119,138420,2,0,L|248:52,1,75.9999979705811
17,2,138595,1,8,0:0:0:0:
37,40,138682,1,0,0:0:0:0:
57,78,138769,2,0,L|92:144,1,75.9999979705811
224,248,138944,5,6,0:0:0:0:
181,253,139031,1,0,0:0:0:0:
163,293,139118,2,0,L|123:381,1,75.9999979705811
0,371,139293,2,0,P|30:330|33:288,1,75.9999979705811,8|0,0:0|0:0,0:0:0:0:
112,226,139467,2,0,P|82:267|79:309,1,75.9999979705811
414,359,139641,6,0,P|376:351|340:361,1,75.9999979705811,4|0,0:0|0:0,0:0:0:0:
234,336,139815,2,0,P|271:343|307:333,1,75.9999979705811
495,243,139990,6,0,B|457:232|457:232|423:168,1,75.9999979705811,8|0,0:0|0:0,0:0:0:0:
284,64,140165,2,0,B|322:75|322:75|356:139,1,75.9999979705811
297,256,140339,5,6,0:0:0:0:
326,223,140426,1,0,0:0:0:0:
356,191,140513,2,0,L|418:123,1,75.9999979705811
393,0,140688,2,0,L|341:55,1,75.9999979705811,8|0,0:0|0:0,0:0:0:0:
209,202,140862,2,0,L|260:146,1,75.9999979705811
198,40,141037,1,4,0:0:0:0:
154,31,141124,1,0,0:0:0:0:
112,21,141211,2,0,L|22:0,1,75.9999979705811
40,249,141386,1,8,0:0:0:0:
69,216,141473,1,0,0:0:0:0:
99,184,141560,2,0,L|161:116,1,75.9999979705811
337,311,141734,6,0,P|270:275|232:273,1,75.9999979705811,4|0,0:0|0:0,0:0:0:0:
40,249,141909,2,0,P|106:284|144:286,1,75.9999979705811
208,188,142083,6,0,L|184:267,1,75.9999979705811,8|0,0:0|0:0,0:0:0:0:
168,370,142258,2,0,L|189:297,1,75.9999979705811
278,100,142432,6,0,P|312:147|316:218,1,75.9999979705811,4|0,0:0|0:0,0:0:0:0:
386,232,142606,2,0,P|351:184|347:113,1,75.9999979705811
186,260,142781,6,0,B|189:215|189:215|207:190,1,75.9999979705811,8|0,0:0|0:0,0:0:0:0:
478,72,142955,2,0,B|474:116|474:116|456:141,1,75.9999979705811
164,82,143130,5,6,0:0:0:0:
121,90,143217,1,0,0:0:0:0:
107,132,143304,2,0,L|76:223,1,75.9999979705811
261,323,143479,2,0,L|169:292,1,75.9999979705811,8|0,0:0|0:0,0:0:0:0:
2,332,143653,2,0,L|74:356,1,75.9999979705811
274,178,143827,1,4,0:0:0:0:
303,209,143914,1,0,0:0:0:0:
287,251,144001,2,0,L|253:341,1,75.9999979705811,0|0,0:0|0:0,0:0:0:0:
420,375,144176,1,8,0:0:0:0:
434,335,144263,1,0,0:0:0:0:
448,295,144351,2,0,L|474:223,1,75.9999979705811,0|0,0:0|0:0,0:0:0:0:
455,60,144525,6,0,L|380:72,1,75.9999979705811,6|0,0:0|0:0,0:0:0:0:
274,178,144700,2,0,L|348:165,1,75.9999979705811,0|0,0:0|0:0,0:0:0:0:
276,4,144874,1,8,0:0:0:0:
233,12,144961,1,0,0:0:0:0:
190,20,145048,2,0,L|115:32,1,75.9999979705811,0|0,3:0|3:0,3:0:0:0:
191,279,145223,2,0,B|174:264|174:264|157:189,1,75.9999979705811,4|0,0:0|0:0,0:0:0:0:
49,71,145397,2,0,B|65:85|65:85|82:160,1,75.9999979705811
4,299,145572,2,0,P|26:263|84:242,1,75.9999979705811,8|0,0:0|0:0,0:0:0:0:
311,164,145746,2,0,P|289:200|231:221,1,75.9999979705811
146,369,145920,6,0,B|258:325|258:325|389:378,1,240.000009155274,6|0,3:0|0:0,0:0:0:0:
412,300,146356,2,0,B|419:327|461:338|515:307|490:237|473:208,1,180.000006866455
454,64,146793,2,0,P|395:114|318:99,1,120.000004577637,2|0,0:0|0:0,0:0:0:0:
298,89,147141,2,0,P|356:97|407:68,1,120.000004577637,0|0,0:0|0:0,0:0:0:0:
194,159,147490,2,0,P|180:82|231:23,1,120.000004577637,2|0,0:0|0:0,0:0:0:0:
249,12,147839,2,0,P|227:34|202:77,1,60.0000022888184,0|0,0:0|0:0,0:0:0:0:
33,88,148013,5,2,3:0:0:0:
59,102,148101,2,0,L|65:181,2,68.0000012969971
44,277,148362,1,2,3:0:0:0:
69,261,148450,2,0,L|140:295,2,68.0000012969971
236,368,148711,6,0,P|286:323|389:351,1,151.999995941162,6|0,0:0|0:0,0:0:0:0:
455,287,148973,1,0,0:0:0:0:
459,247,149060,2,0,B|460:191|460:191|441:150|441:150|441:67,1,151.999995941162,8|0,0:0|0:0,0:0:0:0:
369,32,149322,5,0,0:0:0:0:
347,46,149409,1,0,0:0:0:0:
334,68,149496,1,0,0:0:0:0:
313,84,149583,2,0,B|282:112|246:120|246:120|207:100|174:31,1,151.999995941162,8|0,0:0|0:0,0:0:0:0:
95,59,149845,5,0,0:0:0:0:
96,84,149932,1,0,0:0:0:0:
109,107,150019,1,0,0:0:0:0:
112,132,150106,2,0,B|165:239|165:239|126:277,1,151.999995941162,8|0,0:0|0:0,0:0:0:0:
84,334,150368,5,0,0:0:0:0:
109,335,150455,1,0,0:0:0:0:
132,348,150542,1,0,0:0:0:0:
157,351,150630,2,0,B|234:365|225:297|305:311,1,151.999995941162,8|0,0:0|0:0,0:0:0:0:
394,303,150891,5,0,0:0:0:0:
390,277,150979,1,0,0:0:0:0:
378,254,151066,1,0,0:0:0:0:
379,223,151153,2,0,L|365:136,1,75.9999979705811,8|0,0:0|0:0,0:0:0:0:
366,147,151502,6,0,P|426:145|366:38,1,210.000002002716,6|0,0:0|0:0,0:0:0:0:
288,28,151851,2,0,P|254:38|154:-5,1,140.000001335144,10|0,0:0|0:0,0:0:0:0:
60,3,152112,1,4,0:0:0:0:
75,32,152199,1,0,0:0:0:0:
74,67,152286,1,0,0:0:0:0:
117,86,152374,1,4,0:0:0:0:
113,119,152461,1,0,0:0:0:0:
127,151,152548,2,0,P|152:185|191:204,1,70.000000667572,8|0,0:0|0:0,0:0:0:0:
297,244,152723,2,0,P|255:248|219:272,1,70.000000667572,0|0,3:0|0:0,3:0:0:0:
131,344,152897,6,0,B|194:357|194:357|204:366|204:366|286:381,1,140.000001335144,4|0,0:0|0:0,0:0:0:0:
441,384,153246,2,0,B|400:303|481:332|427:203,1,140.000001335144,10|0,0:0|0:0,0:0:0:0:
453,154,153508,1,4,0:0:0:0:
418,157,153595,1,0,0:0:0:0:
387,172,153682,1,0,0:0:0:0:
355,131,153769,1,4,0:0:0:0:
369,99,153856,1,0,0:0:0:0:
372,64,153944,2,0,B|371:44|371:44|374:33|374:33|370:21|370:21|375:4|375:4|373:-10|373:-10,1,70.000000667572,8|0,0:0|0:0,0:0:0:0:
503,34,154118,2,0,B|502:28|504:42|504:42|499:59|499:59|503:71|503:71|500:82|500:82|501:102,1,70.000000667572,0|0,0:0|0:0,0:0:0:0:
304,207,154293,6,0,B|240:180|240:180|230:108,1,140.000001335144,6|0,0:0|0:0,0:0:0:0:
140,26,154554,1,0,0:0:0:0:
145,55,154641,2,0,B|153:123|153:123|96:168,1,140.000001335144,10|0,0:0|0:0,0:0:0:0:
48,292,154903,1,4,0:0:0:0:
75,270,154990,1,0,0:0:0:0:
103,249,155077,1,0,0:0:0:0:
162,244,155165,1,4,0:0:0:0:
194,256,155252,1,0,0:0:0:0:
226,270,155339,2,0,L|315:307,1,70.000000667572,8|0,0:0|0:0,0:0:0:0:
396,366,155513,2,0,B|403:335|403:335|399:318|399:318|410:261,1,70.000000667572,2|0,0:0|0:0,0:0:0:0:
375,133,155688,6,0,L|338:222,1,70.000000667572,6|0,0:0|0:0,0:0:0:0:
500,90,155862,2,0,P|488:61|457:30,1,66.0000006294251
226,76,156037,2,0,B|306:68|273:11|365:2,1,147.999999435425,8|0,0:0|0:0,0:0:0:0:
421,198,156298,2,0,B|365:187|365:187|345:191|345:191|284:181,1,132.00000125885,4|0,0:0|0:0,0:0:0:0:
167,185,156560,2,0,P|191:209|199:243,1,70.000000667572,4|0,0:0|0:0,0:0:0:0:
61,287,156734,6,0,B|90:137|-81:163|-92:31|26:-38|86:-29|161:51|136:114|67:150,1,490.000004673004,8|0,0:0|0:0,0:0:0:0:
197,98,157432,6,0,P|232:62|346:37,1,140.000001335144,10|0,0:0|0:0,0:0:0:0:
418,24,157694,1,4,0:0:0:0:
409,58,157781,1,0,0:0:0:0:
401,92,157868,1,0,0:0:0:0:
431,129,157955,1,4,0:0:0:0:
430,163,158042,1,0,0:0:0:0:
430,198,158130,2,0,L|427:292,1,70.000000667572,8|0,0:0|0:0,0:0:0:0:
511,379,158304,2,0,P|478:351|437:349,1,70.000000667572,0|0,0:0|0:0,0:0:0:0:
313,358,158479,6,0,P|229:365|167:313,1,140.000001335144,6|0,0:0|0:0,0:0:0:0:
19,352,158827,2,0,B|53:268|92:326|126:232,1,140.000001335144,10|0,0:0|0:0,0:0:0:0:
220,174,159089,1,4,0:0:0:0:
196,146,159176,1,0,0:0:0:0:
163,133,159263,1,0,0:0:0:0:
108,157,159351,2,0,P|62:146|23:129,1,70.000000667572,4|0,0:0|0:0,0:0:0:0:
1,5,159525,2,0,L|111:13,1,70.000000667572,8|0,0:0|0:0,0:0:0:0:
220,65,159700,2,0,L|330:57,1,70.000000667572,0|0,0:0|0:0,0:0:0:0:
439,5,159874,6,0,B|447:80|432:105|432:105|456:139|456:139|434:214|457:269,1,210.000002002716,6|0,0:0|0:0,0:0:0:0:
501,289,160223,2,0,B|432:287|432:287|373:345,1,140.000001335144,10|0,0:0|0:0,0:0:0:0:
291,371,160484,2,0,L|282:292,1,70.000000667572,6|0,0:0|0:0,0:0:0:0:
136,169,160659,1,0,0:0:0:0:
136,169,160746,2,0,L|143:238,1,70.000000667572,4|0,0:0|0:0,0:0:0:0:
125,356,160920,2,0,P|163:357|194:348,1,70.000000667572,10|0,0:0|0:0,0:0:0:0:
302,184,161095,2,0,B|264:183|264:183|232:191,1,70.000000667572,0|0,0:0|0:0,0:0:0:0:
37,355,161269,5,6,0:0:0:0:
33,320,161356,1,0,0:0:0:0:
29,285,161444,2,0,B|28:252|28:252|24:225|24:225|25:190,1,70.000000667572,0|0,0:0|0:0,0:0:0:0:
21,34,161618,2,0,P|73:95|163:45,1,140.000001335144,10|0,0:0|0:0,0:0:0:0:
252,6,161880,1,4,0:0:0:0:
267,35,161967,2,0,B|274:78|274:78|272:118,1,70.000000667572,0|0,0:0|0:0,0:0:0:0:
344,313,162141,2,0,B|337:270|337:270|339:230,1,70.000000667572,0|0,0:0|0:0,0:0:0:0:
473,0,162403,2,0,P|419:62|390:15,1,140.000001335144
474,155,162665,6,0,B|433:214|433:214|494:376,1,215.999993408203,6|0,0:0|0:0,0:0:0:0:
399,371,163013,2,0,P|325:355|240:377,1,143.999995605469,10|0,0:0|0:0,0:0:0:0:
173,291,163275,1,4,0:0:0:0:
173,291,163362,2,0,L|156:376,1,71.9999978027344
0,361,163537,1,4,0:0:0:0:
7,326,163624,1,0,0:0:0:0:
15,291,163711,2,0,P|41:242|89:220,1,71.9999978027344,8|0,0:0|0:0,0:0:0:0:
214,189,163886,2,0,P|158:190|115:160,1,71.9999978027344,0|0,0:0|0:0,0:0:0:0:
27,68,164060,6,0,B|65:10|65:10|151:1,1,143.999995605469,6|4,0:0|0:0,0:0:0:0:
289,60,164409,2,0,P|304:121|391:128,1,143.999995605469,10|0,0:0|0:0,0:0:0:0:
437,60,164670,1,4,0:0:0:0:
437,60,164758,2,0,P|467:104|471:138,1,71.9999978027344
479,325,164932,2,0,P|425:328|394:315,1,71.9999978027344,4|0,0:0|0:0,0:0:0:0:
228,228,165106,2,0,L|323:222,1,71.9999978027344,8|0,0:0|0:0,0:0:0:0:
512,198,165281,2,0,B|481:207|481:207|466:218|466:218|430:231,1,71.9999978027344
302,325,165455,6,0,B|245:313|245:313|207:319|207:319|183:296|126:279,1,143.999995605469,6|0,0:0|0:0,0:0:0:0:
46,310,165717,1,0,0:0:0:0:
46,310,165804,2,0,B|84:266|84:266|98:230|98:230|130:221|173:180,1,143.999995605469,10|0,0:0|0:0,0:0:0:0:
199,141,166066,2,0,B|115:89|123:168|33:105,1,143.999995605469,6|0,0:0|0:0,0:0:0:0:
101,38,166327,1,4,0:0:0:0:
133,23,166414,1,0,0:0:0:0:
169,17,166502,2,0,P|210:23|265:48,1,71.9999978027344,8|0,0:0|0:0,0:0:0:0:
431,40,166676,2,0,P|390:45|335:70,1,71.9999978027344,0|0,0:0|0:0,0:0:0:0:
292,172,166851,6,0,B|304:209|304:209|303:257,1,71.9999978027344,6|0,0:0|0:0,0:0:0:0:
399,371,167025,2,0,B|387:336|387:336|388:290,1,68.0000012969971,0|0,0:0|0:0,0:0:0:0:
511,153,167200,2,0,B|458:170|458:170|434:205|434:205|385:222,1,143.999995605469,10|0,0:0|0:0,0:0:0:0:
296,327,167461,1,4,0:0:0:0:
296,327,167548,2,0,P|201:326|169:268,1,136.000002593994,2|4,0:0|0:0,0:0:0:0:
84,285,167810,1,0,0:0:0:0:
84,285,167897,2,0,B|69:309|44:319|44:319|26:297|4:231|77:250|17:109,1,227.999993911743,8|0,0:0|0:0,0:0:0:0:
17,12,168246,6,2,B|91:46|135:18|135:18|172:37|172:37|221:25|247:25,1,221.999999153137,6|0,0:0|0:0,0:0:0:0:
331,8,168595,2,0,P|375:91|445:26,1,147.999999435425,10|0,0:0|0:0,0:0:0:0:
497,173,168856,1,4,0:0:0:0:
497,173,168944,2,0,L|395:181,1,73.9999997177124
234,277,169118,1,4,0:0:0:0:
270,274,169205,1,0,0:0:0:0:
307,271,169293,2,0,B|336:266|336:266|354:269|354:269|380:265,1,73.9999997177124,8|0,0:0|0:0,0:0:0:0:
506,347,169467,2,0,P|462:350|428:345,1,73.9999997177124,0|0,0:0|0:0,0:0:0:0:
304,178,169641,6,0,P|257:112|132:122,1,147.999999435425,6|0,0:0|0:0,0:0:0:0:
29,101,169990,2,0,B|29:130|36:155|36:155|29:207|29:207|37:236|40:266,1,147.999999435425,10|0,0:0|0:0,0:0:0:0:
0,365,170252,1,4,0:0:0:0:
0,365,170339,2,0,B|38:368|38:368|82:364,1,73.9999997177124,0|0,0:0|0:0,0:0:0:0:
316,383,170513,2,0,B|295:353|295:353|278:319,1,73.9999997177124,4|0,0:0|0:0,0:0:0:0:
171,207,170688,2,0,B|171:236|178:261|178:261|171:313|171:313|179:333|180:353,1,147.999999435425,8|0,0:0|0:0,0:0:0:0:
416,306,171037,6,0,B|434:333|435:359|435:359|442:311|474:262|424:175,1,221.999999153137,6|0,0:0|0:0,0:0:0:0:
375,124,171386,2,0,P|455:124|403:15,1,221.999999153137,10|4,0:0|0:0,0:0:0:0:
331,0,171734,1,0,0:0:0:0:
286,0,171821,1,0,0:0:0:0:
245,16,171909,2,0,P|191:105|190:139,1,73.9999997177124,4|0,0:0|0:0,0:0:0:0:
233,196,172083,2,0,B|200:171|200:171|169:162|169:162|131:167|131:167|97:180|97:180|69:203|69:203|51:236|51:236,1,221.999999153137,8|0,0:0|0:0,0:0:0:0:
0,371,172432,6,0,B|65:348|65:348|114:348|114:348|122:322|122:322|178:321|178:321|255:299,1,264.0000025177,6|0,0:0|0:0,0:0:0:0:
294,384,172868,2,0,P|330:320|451:359,1,198.000001888275,2|0,0:0|0:0,0:0:0:0:
512,292,173217,2,0,P|438:292|411:167,1,198.000001888275,2|0,0:0|0:0,0:0:0:0:
323,148,173566,2,0,P|360:209|327:279,1,132.00000125885,2|0,0:0|0:0,0:0:0:0:
471,219,173827,6,0,B|506:116|506:116|472:8,1,215.999993408203,6|0,0:0|0:0,0:0:0:0:
387,24,174176,2,0,P|312:58|240:-3,1,143.999995605469,8|0,0:0|0:0,0:0:0:0:
189,141,174525,2,0,B|196:111|196:111|155:5,1,143.999995605469,4|0,0:0|0:0,0:0:0:0:
25,145,174874,2,0,B|-6:62|-6:62|5:13,1,111.999996582031,8|0,0:0|0:0,0:0:0:0:
104,117,175223,6,0,B|115:187|134:213|134:213|147:203|147:203|167:234|172:297,1,215.999993408203,6|0,0:0|0:0,0:0:0:0:
133,381,175572,1,8,0:0:0:0:
81,306,175746,1,0,0:0:0:0:
304,368,175920,2,0,P|383:341|310:256,1,215.999993408203,4|0,0:0|0:0,0:0:0:0:
392,244,176269,2,0,B|392:173|420:143|420:143|414:116|414:116|443:78|441:7,1,240,8|0,0:0|0:0,0:0:0:0:
354,34,176618,6,0,P|311:110|170:131,1,215.999993408203,6|0,0:0|0:0,0:0:0:0:
121,107,176967,1,8,0:0:0:0:
226,11,177141,1,0,0:0:0:0:
174,238,177316,2,0,P|176:309|226:358,1,136.000002593994,4|0,0:0|0:0,0:0:0:0:
390,288,177665,2,0,P|327:254|259:273,1,136.000002593994,8|0,0:0|0:0,0:0:0:0:
85,351,178013,6,0,B|33:317|33:317|19:152,1,227.999993911743,6|0,0:0|0:0,0:0:0:0:
7,56,178362,2,0,P|92:128|142:104,1,136.000002593994,8|0,0:0|0:0,0:0:0:0:
247,79,178711,1,4,0:0:0:0:
263,210,178886,1,0,0:0:0:0:
351,3,179060,2,0,P|444:12|477:144,1,215.999993408203,8|0,0:0|0:0,0:0:0:0:
434,290,179409,5,6,0:0:0:0:
390,96,179583,2,0,L|411:179,1,71.9999978027344
282,271,179758,1,8,0:0:0:0:
316,119,179932,1,0,0:0:0:0:
27,314,180107,5,6,0:0:0:0:
251,282,180281,2,0,L|153:297,1,71.9999978027344
76,232,180455,1,8,0:0:0:0:
101,378,180629,1,0,0:0:0:0:
126,154,180804,5,6,0:0:0:0:
288,130,180979,1,0,0:0:0:0:
288,130,181066,1,0,0:0:0:0:
288,130,181153,1,8,0:0:0:0:
186,0,181327,1,0,0:0:0:0:
477,4,181503,5,6,0:0:0:0:
295,31,181676,1,0,0:0:0:0:
295,31,181763,1,0,0:0:0:0:
295,31,181850,1,8,0:0:0:0:
409,177,182025,1,0,0:0:0:0:
245,374,182200,6,0,L|326:380,1,71.9999978027344,6|0,0:0|0:0,0:0:0:0:
503,349,182374,2,0,L|431:343,1,71.9999978027344,8|0,0:0|0:0,0:0:0:0:
253,285,182548,2,0,L|334:291,1,71.9999978027344,4|0,0:0|0:0,0:0:0:0:
511,260,182723,2,0,L|439:254,1,71.9999978027344,8|0,0:0|0:0,0:0:0:0:
225,131,182897,6,0,L|220:202,1,71.9999978027344,6|0,0:0|0:0,0:0:0:0:
163,383,183071,2,0,L|167:311,1,71.9999978027344,8|0,0:0|0:0,0:0:0:0:
136,126,183246,2,0,L|131:197,1,71.9999978027344,4|0,0:0|0:0,0:0:0:0:
75,379,183420,2,0,L|79:307,1,71.9999978027344,8|0,0:0|0:0,0:0:0:0:
27,108,183595,6,0,B|37:83|37:83|93:46,1,71.9999978027344,6|0,0:0|0:0,0:0:0:0:
283,11,183769,2,0,B|298:33|298:33|304:104,1,80
253,285,183944,6,0,P|288:280|347:308,1,71.9999978027344
408,384,184118,2,0,B|407:334|407:334|506:281,1,151.999995941162,8|0,0:0|0:0,0:0:0:0:
490,197,184380,6,0,B|504:163|484:94|484:94|510:104|510:104|484:36|498:-4,1,240
408,0,184729,2,0,B|328:59|416:73|321:143,1,176.000005371094
208,177,184990,6,0,B|217:212|267:216|267:216|219:235|190:199|190:199|170:224|172:269|172:269|138:229|164:191|164:191|135:177|92:193|92:193|119:148|164:162|164:162|166:129|139:95|139:95|189:106|190:151|190:151|222:146|288:105|300:42|237:-15|192:-37|136:-45|44:-34|-38:44|-63:180|-64:218|8:313|58:364|130:387|189:390|270:374|357:278|357:278|384:242|421:211|475:177|530:216|550:297|544:360|494:431|426:416|391:384|388:346|430:296|455:286,1,2073.600050625,6|0,0:0|0:0,0:0:0:0:
427,103,191967,6,0,B|456:156|393:214|322:184|289:95|355:16|432:19,2,320,2|0|0,2:0|2:0|2:0,2:0:0:0:
202,61,194758,6,0,B|184:86|155:108|126:115|79:61|51:38|-31:84|-31:189|36:208|78:213|104:187|130:154,2,352.000010742188,2|0|0,2:0|2:0|2:0,2:0:0:0:
226,330,197548,6,0,B|220:340|213:353|197:350|190:341|184:329|187:320|191:306|206:293|224:294|242:303|260:323|260:323|283:352|309:370|345:371|370:361|381:342|387:320|385:295|375:273|350:258|315:260|297:284|293:297|304:314|316:323,2,383.99998828125,2|0|0,2:0|2:0|2:0,2:0:0:0:
390,197,200339,5,2,2:0:0:0:
256,192,200513,12,0,201734,0:0:0:0:
279,87,203130,6,0,B|271:7|271:7|192:-9|192:-9|153:59|153:59|185:95|185:95|206:119|216:153|215:176|192:199|172:213|147:214,2,415.999980957032,2|0|0,2:2|2:2|2:2,2:2:0:0:
341,307,205920,5,2,2:0:0:0:
256,192,206095,12,0,207141,0:0:0:0:
261,229,207316,6,0,P|234:178|205:164,3,80,2|0|0|0,0:0|0:0|0:0|0:0,0:0:0:0:
134,144,208711,2,0,P|185:117|199:88,3,80,2|0|0|0,0:0|0:0|0:0|0:0,0:0:0:0:
219,17,210106,2,0,P|246:68|275:82,3,80,2|0|0|0,0:0|0:0|0:0|0:0,0:0:0:0:
346,102,211502,2,0,P|295:129|281:158,3,80,2|0|0|0,0:0|0:0|0:0|0:0,0:0:0:0:
425,330,212897,6,0,L|329:336,3,80,2|0|0|0,0:0|0:0|0:0|0:0,0:0:0:0:
232,376,214293,6,0,P|238:330|226:280,1,80,2|0,0:0|0:0,0:0:0:0:
87,373,214990,2,0,P|81:333|87:294,1,80,0|0,0:0|0:0,0:0:0:0:
49,99,215688,6,0,B|68:77|68:77|134:72,3,80,2|0|0|0,0:0|0:0|0:0|0:0,0:0:0:0:
291,118,217083,6,0,B|269:83|269:83|279:29,1,80,2|0,0:0|0:0,0:0:0:0:
409,18,217781,2,0,B|430:52|430:52|420:106,1,80,0|0,0:0|0:0,0:0:0:0:
441,308,218479,6,0,B|383:289|394:326|336:309,3,103.999995239258,2|0|0|0,0:0|0:0|0:0|0:0,0:0:0:0:
242,267,219874,2,0,B|300:286|289:249|347:266,3,103.999995239258,2|0|0|0,0:0|0:0|0:0|0:0,0:0:0:0:
321,387,221270,2,0,B|340:329|303:340|318:285,3,103.999995239258,2|0|0|0,0:0|0:0|0:0|0:0,0:0:0:0:
362,188,222665,2,0,B|342:246|379:235|364:289,3,103.999995239258,2|0|0|0,0:0|0:0|0:0|0:0,0:0:0:0:
52,344,224060,6,0,B|53:300|53:300|67:261|67:261|68:216,3,128,2|0|0|0,0:0|0:0|0:0|0:0,0:0:0:0:
14,71,225455,6,0,B|60:74|60:74|141:136,1,128,2|0,0:0|0:0,0:0:0:0:
299,104,226153,2,0,B|253:101|253:101|172:39,1,128,0|0,0:0|0:0,0:0:0:0:
256,192,226851,12,0,228072,0:0:0:0:
400,264,228246,6,0,P|291:214|328:337,1,280,2|0,0:0|0:0,0:0:0:0:
243,380,228944,2,0,B|213:354|196:327|190:292|190:292|168:289|168:289|147:285|147:285|125:283|125:283|118:244|100:215|61:195,1,280,0|0,0:0|0:0,0:0:0:0:
8,90,229641,6,0,P|66:76|142:106,1,111.999996582031,6|0,0:0|0:0,0:0:0:0:
194,184,229990,1,4,0:0:0:0:
212,10,230165,1,8,0:0:0:0:
290,106,230339,2,0,P|344:118|397:104,1,111.999996582031,6|0,0:0|0:0,0:0:0:0:
506,32,230688,1,4,0:0:0:0:
341,3,230862,1,8,0:0:0:0:
346,207,231037,6,0,B|370:291|370:291|360:313,1,111.999996582031,6|0,0:0|0:0,0:0:0:0:
188,344,231386,2,0,B|172:324|172:324|170:237,1,111.999996582031,4|0,0:0|0:0,0:0:0:0:
241,111,231734,5,6,0:0:0:0:
267,285,231909,1,8,0:0:0:0:
53,352,232083,5,4,0:0:0:0:
79,178,232258,1,8,0:0:0:0:
241,111,232432,6,0,P|180:54|144:50,1,111.999996582031,6|0,0:0|0:0,0:0:0:0:
5,49,232781,1,4,0:0:0:0:
79,178,232955,1,8,0:0:0:0:
154,49,233130,2,0,P|195:12|250:4,1,111.999996582031,6|0,0:0|0:0,0:0:0:0:
398,3,233479,1,4,0:0:0:0:
324,132,233653,1,8,0:0:0:0:
469,241,233827,6,0,P|481:187|473:132,1,111.999996582031,6|0,0:0|0:0,0:0:0:0:
272,245,234176,2,0,P|263:299|276:354,1,111.999996582031,4|0,0:0|0:0,0:0:0:0:
419,381,234525,5,6,0:0:0:0:
336,182,234700,1,8,0:0:0:0:
134,339,234874,5,4,0:0:0:0:
217,140,235049,1,8,0:0:0:0:
30,237,235223,6,0,B|7:205|7:205|25:108,1,120.000004577637,6|0,0:0|0:0,0:0:0:0:
73,7,235572,1,4,0:0:0:0:
120,173,235746,1,8,0:0:0:0:
186,14,235920,2,0,B|255:50|255:50|267:90,1,120.000004577637,6|0,0:0|0:0,0:0:0:0:
308,252,236269,1,4,0:0:0:0:
374,92,236444,1,8,0:0:0:0:
421,259,236618,6,0,P|423:321|390:374,1,120.000004577637,6|0,0:0|0:0,0:0:0:0:
204,313,236967,2,0,P|203:250|237:198,1,120.000004577637,4|0,0:0|0:0,0:0:0:0:
348,162,237316,5,6,0:0:0:0:
294,359,237490,1,8,0:0:0:0:
123,174,237665,5,4,0:0:0:0:
300,276,237839,1,8,0:0:0:0:
165,48,238013,6,0,B|246:31|246:31|301:40,1,128,6|0,0:0|0:0,0:0:0:0:
332,207,238362,1,4,0:0:0:0:
422,55,238537,1,8,0:0:0:0:
332,207,238711,2,0,B|287:207|287:207|210:239,1,128,6|0,0:0|0:0,0:0:0:0:
62,331,239060,1,4,0:0:0:0:
77,150,239234,1,8,0:0:0:0:
62,331,239409,6,0,P|141:361|201:345,1,128,6|0,0:0|0:0,0:0:0:0:
356,357,239758,2,0,P|351:294|316:242,1,128,4|0,0:0|0:0,0:0:0:0:
145,210,240106,5,6,0:0:0:0:
384,102,240281,1,8,0:0:0:0:
474,298,240455,5,4,0:0:0:0:
235,190,240630,1,8,0:0:0:0:
488,3,240804,6,0,B|473:104|473:104|509:133,1,140.000001335144,6|0,0:0|0:0,0:0:0:0:
478,262,241153,2,0,B|398:198|398:198|354:215,1,140.000001335144,4|0,0:0|0:0,0:0:0:0:
358,48,241502,2,0,B|352:85|352:85|258:123,1,140.000001335144,6|0,0:0|0:0,0:0:0:0:
116,78,241851,1,4,0:0:0:0:
36,193,242025,1,8,0:0:0:0:
36,218,242112,2,0,L|4:234,1,35.000000333786
36,243,242200,5,6,0:0:0:0:
161,203,242374,1,0,0:0:0:0:
215,384,242548,5,8,0:0:0:0:
117,295,242722,1,0,0:0:0:0:
248,159,242897,5,4,0:0:0:0:
220,287,243071,1,2,0:0:0:0:
345,248,243246,5,4,0:0:0:0:
473,276,243421,1,8,0:0:0:0:
473,251,243508,2,0,L|505:235,1,35.000000333786
473,225,243595,6,0,P|443:130|385:109,1,140.000001335144,6|0,0:0|0:0,0:0:0:0:
317,0,243944,2,0,B|318:56|318:56|297:88|297:88|298:156,1,140.000001335144,4|0,0:0|0:0,0:0:0:0:
252,231,244293,2,0,P|199:187|191:119,1,140.000001335144,6|0,0:0|0:0,0:0:0:0:
218,0,244641,1,4,0:0:0:0:
32,52,244816,1,8,0:0:0:0:
94,266,244990,5,6,0:0:0:0:
86,170,245165,1,8,0:0:0:0:
199,316,245340,5,4,0:0:0:0:
94,266,245514,1,8,0:0:0:0:
314,237,245688,5,4,0:0:0:0:
199,316,245862,1,8,0:0:0:0:
301,71,246037,5,6,0:0:0:0:
314,237,246212,1,8,0:0:0:0:
163,165,246386,5,6,0:0:0:0:
452,143,246561,1,8,0:0:0:0:
176,91,246734,5,4,0:0:0:0:
438,216,246909,1,8,0:0:0:0:
296,10,247083,5,6,0:0:0:0:
318,298,247257,1,8,0:0:0:0:
370,23,247432,5,4,0:0:0:0:
244,284,247605,1,8,0:0:0:0:
28,107,247781,5,6,0:0:0:0:
308,154,247955,1,0,0:0:0:0:
191,0,248130,5,0,0:0:0:0:
144,270,248304,1,8,0:0:0:0:
76,1,248479,5,6,0:0:0:0:
259,259,248653,1,8,0:0:0:0:
296,38,248828,5,4,0:0:0:0:
39,222,249002,1,8,0:0:0:0:
211,364,249176,6,0,P|261:365|289:370,3,70.000000667572,6|0|8|0,0:0|0:0|0:0|0:0,0:0:0:0:
442,325,249525,2,0,P|392:326|364:331,3,70.000000667572,4|0|8|0,0:0|0:0|0:0|0:0,0:0:0:0:
247,281,249874,2,0,B|240:243|240:243|257:197,3,70.000000667572,2|0|8|0,0:0|0:0|0:0|0:0,0:0:0:0:
406,242,250223,2,0,B|413:204|413:204|396:158,3,70.000000667572,2|0|8|0,0:0|0:0|0:0|0:0,0:0:0:0:
344,61,250572,5,6,0:0:0:0:
313,78,250659,1,0,0:0:0:0:
283,96,250746,1,0,0:0:0:0:
253,113,250833,1,0,0:0:0:0:
223,131,250920,5,4,0:0:0:0:
193,113,251008,1,0,0:0:0:0:
163,96,251095,1,0,0:0:0:0:
133,78,251182,1,0,0:0:0:0:
102,61,251269,5,6,0:0:0:0:
74,82,251356,1,0,0:0:0:0:
54,110,251443,1,0,0:0:0:0:
43,143,251530,1,0,0:0:0:0:
42,178,251617,5,4,0:0:0:0:
74,187,251706,1,0,0:0:0:0:
103,206,251793,1,0,0:0:0:0:
125,233,251880,1,0,0:0:0:0:
139,266,251967,6,0,L|149:329,3,40,6|0|0|0,0:0|0:0|0:0|0:0,0:0:0:0:
234,300,252316,2,0,L|240:339,3,40,8|0|0|0,0:0|0:0|0:0|0:0,0:0:0:0:
338,258,252665,2,0,L|331:297,3,40,8|0|0|0,0:0|0:0|0:0|0:0,0:0:0:0:
433,224,253014,2,0,L|426:263,3,40,8|0|0|0,0:0|0:0|0:0|0:0,0:0:0:0:
459,111,253362,6,0,B|426:109|426:109|366:125,3,55.9999982910157,10|0|0|0,0:0|0:0|0:0|0:0,0:0:0:0:
305,38,253711,2,0,B|338:36|338:36|398:52,3,55.9999982910157,8|0|0|0,0:0|0:0|0:0|0:0,0:0:0:0:
280,121,254060,2,0,B|247:119|247:119|187:135,3,55.9999982910157,8|0|0|0,0:0|0:0|0:0|0:0,0:0:0:0:
126,48,254409,2,0,B|159:46|159:46|219:62,3,55.9999982910157,8|0|0|0,0:0|0:0|0:0|0:0,0:0:0:0:
101,131,254758,5,10,0:0:0:0:
69,153,254845,1,0,0:0:0:0:
53,188,254932,1,0,0:0:0:0:
57,227,255019,1,0,0:0:0:0:
80,258,255105,5,8,0:0:0:0:
130,262,255193,1,0,0:0:0:0:
177,279,255280,1,0,0:0:0:0:
218,309,255367,1,0,0:0:0:0:
248,349,255455,5,8,0:0:0:0:
309,348,255542,1,0,0:0:0:0:
361,316,255629,1,0,0:0:0:0:
388,262,255716,1,0,0:0:0:0:
383,202,255803,5,8,0:0:0:0:
441,157,255891,1,0,0:0:0:0:
452,85,255978,1,0,0:0:0:0:
410,24,256065,1,0,0:0:0:0:
339,10,256153,6,0,B|288:20|266:35|250:47|250:47|257:74|257:74|264:145|221:200,1,210.000002002716,6|0,0:0|0:0,0:0:0:0:
299,224,256502,2,0,B|263:241|233:249|233:249|220:271|201:286|191:303|191:303|164:311|118:337,1,210.000002002716,2|0,0:0|0:0,0:0:0:0:
6,307,256851,1,8,0:0:0:0:
142,240,257025,1,0,0:0:0:0:
142,240,257112,1,0,0:0:0:0:
142,240,257200,2,0,L|142:149,1,70.000000667572,8|0,0:0|0:0,0:0:0:0:
15,155,257374,2,0,L|15:64,1,70.000000667572,8|0,0:0|0:0,0:0:0:0:
221,24,257548,6,0,P|194:82|306:66,1,210.000002002716,2|0,0:0|0:0,0:0:0:0:
374,7,257897,2,0,B|367:101|432:49|425:142|388:169|388:169|376:160|373:145,1,210.000002002716,2|0,0:0|0:0,0:0:0:0:
307,201,258246,6,0,P|366:255|444:239,1,140.000001335144,6|0,0:0|0:0,0:0:0:0:
480,190,258508,1,0,0:0:0:0:
480,190,258595,2,0,P|505:254|502:277,1,70.000000667572
478,384,258769,1,0,0:0:0:0:
284,382,258944,6,0,B|195:386|241:342|152:344,1,140.000001335144,6|0,0:0|0:0,0:0:0:0:
0,338,259293,2,0,B|2:263|2:263|39:218|39:218|40:120,1,210.000002002716,10|0,0:0|0:0,0:0:0:0:
34,54,259641,6,0,P|102:75|120:162,1,140.000001335144,6|0,0:0|0:0,0:0:0:0:
128,221,259903,1,0,0:0:0:0:
128,221,259990,2,0,L|220:218,1,70.000000667572,0|0,0:0|0:0,0:0:0:0:
352,217,260165,1,0,0:0:0:0:
271,72,260339,6,0,P|357:48|440:76,1,140.000001335144,6|0,0:0|0:0,0:0:0:0:
495,76,260688,2,0,B|461:138|461:138|463:207|463:207|430:276,1,210.000002002716,8|0,0:0|0:0,0:0:0:0:
385,344,261037,6,0,P|319:367|250:358,1,140.000001335144,6|0,0:0|0:0,0:0:0:0:
167,321,261298,2,0,B|195:260|195:260|194:252|194:252|222:193,1,140.000001335144,0|0,0:0|0:0,0:0:0:0:
337,162,261560,2,0,L|302:236,1,70.000000667572
70,352,261734,6,0,P|52:254|3:202,1,140.000001335144,6|0,0:0|0:0,0:0:0:0:
119,192,261996,2,0,P|137:94|186:42,1,140.000001335144,0|0,0:0|0:0,0:0:0:0:
12,1,262258,2,0,P|51:38|64:73,1,70.000000667572,0|0,3:0|3:0,3:0:0:0:
245,95,262432,6,0,B|384:67|384:67|408:-3,1,210.000002002716,2|0,0:0|0:0,0:0:0:0:
495,27,262781,2,0,B|449:161|449:161|498:217,1,210.000002002716
428,277,263130,6,0,P|325:269|332:374,1,210.000002002716,6|0,0:0|0:0,0:0:0:0:
214,384,263479,2,0,P|169:290|81:349,1,210.000002002716,6|0,0:0|0:0,0:0:0:0:
14,252,263827,6,0,P|70:209|55:137,1,140.000001335144,6|0,0:0|0:0,0:0:0:0:
129,54,264089,1,0,0:0:0:0:
129,54,264176,2,0,P|130:92|154:129,1,70.000000667572,0|0,0:0|0:0,0:0:0:0:
241,229,264351,1,0,0:0:0:0:
337,45,264525,6,0,B|397:12|397:12|477:30,1,140.000001335144,6|0,0:0|0:0,0:0:0:0:
444,156,264874,2,0,B|435:142|418:132|418:132|404:147|385:233|443:203|435:318,1,210.000002002716,10|0,0:0|0:0,0:0:0:0:
504,358,265223,6,0,P|425:384|350:311,1,140.000001335144,6|0,0:0|0:0,0:0:0:0:
352,281,265484,1,0,0:0:0:0:
352,281,265572,2,0,P|298:270|264:279,1,70.000000667572,0|0,0:0|0:0,0:0:0:0:
159,332,265746,1,0,0:0:0:0:
211,139,265920,6,0,P|188:56|112:44,1,151.999995941162,6|0,0:0|0:0,0:0:0:0:
17,46,266182,1,0,0:0:0:0:
41,79,266269,2,0,B|70:120|70:120|70:173|70:173|129:246,1,151.999995941162,10|0,0:0|0:0,0:0:0:0:
101,314,266531,5,0,0:0:0:0:
126,315,266618,1,0,0:0:0:0:
150,308,266705,1,0,0:0:0:0:
176,309,266793,2,0,B|280:292|280:292|329:324,1,151.999995941162,10|0,0:0|0:0,0:0:0:0:
439,319,267054,5,0,0:0:0:0:
427,295,267141,1,0,0:0:0:0:
409,278,267228,1,0,0:0:0:0:
396,256,267316,2,0,P|391:143|467:106,1,151.999995941162,10|0,0:0|0:0,0:0:0:0:
327,46,267577,5,0,0:0:0:0:
312,66,267665,1,2,0:0:0:0:
306,91,267751,1,0,0:0:0:0:
293,112,267839,2,0,P|206:151|185:73,1,151.999995941162,8|2,0:0|0:0,0:0:0:0:
65,151,268101,5,0,0:0:0:0:
75,173,268188,1,0,0:0:0:0:
94,190,268275,1,0,0:0:0:0:
105,213,268362,2,0,B|140:233|140:233|186:287,1,75.9999979705811,8|0,0:0|0:0,0:0:0:0:
260,370,268537,6,0,B|260:342|260:342|268:315|268:315|268:281,1,88.000002685547
319,158,268711,6,0,P|447:196|441:90,1,240,6|0,0:0|0:0,0:0:0:0:
436,36,269060,2,0,B|356:45|356:45|284:11|284:11|182:24,1,240,10|0,0:0|0:0,0:0:0:0:
119,30,269409,6,0,L|125:121,1,80,4|0,0:0|0:0,0:0:0:0:
46,297,269583,1,0,0:0:0:0:
43,257,269670,1,0,0:0:0:0:
40,217,269758,6,0,L|34:126,1,80,8|0,0:0|0:0,0:0:0:0:
27,0,269932,1,0,0:0:0:0:
137,250,270106,6,0,B|179:318|179:318|274:335,1,160,6|0,0:0|0:0,0:0:0:0:
439,334,270455,2,0,B|360:319|360:319|318:251|318:251|214:233,1,240,10|0,0:0|0:0,0:0:0:0:
177,133,270804,6,0,L|255:146,1,80,4|0,0:0|0:0,0:0:0:0:
419,237,270979,1,0,0:0:0:0:
425,197,271066,1,0,0:0:0:0:
432,158,271153,6,0,L|445:79,1,80,8|0,0:0|0:0,0:0:0:0:
263,49,271327,1,0,0:0:0:0:
71,148,271502,6,0,B|65:259|122:193|110:344,1,160,6|0,0:0|0:0,0:0:0:0:
313,325,271851,2,0,P|245:373|254:252,1,240,10|0,0:0|0:0,0:0:0:0:
310,238,272200,6,0,B|396:240|396:240|480:311,1,160,4|0,0:0|0:0,0:0:0:0:
498,369,272461,5,4,0:0:0:0:
498,369,272548,2,0,B|453:374|453:374|418:367,1,80,8|0,0:0|0:0,0:0:0:0:
308,152,272723,6,0,B|353:152|353:152|387:141,1,80,4|0,0:0|0:0,0:0:0:0:
512,72,272897,6,0,P|403:50|369:-6,1,160,6|0,0:0|0:0,0:0:0:0:
277,17,273159,1,4,0:0:0:0:
277,17,273246,6,0,P|240:66|193:82,1,80,10|0,0:0|0:0,0:0:0:0:
0,25,273420,2,0,P|37:74|84:90,1,80,4|0,0:0|0:0,0:0:0:0:
231,270,273595,6,0,P|127:346|74:265,1,240,6|0,0:0|0:0,0:0:0:0:
153,271,273944,2,0,B|162:240|159:202|142:177|142:177|146:161|146:161|146:147|146:147|149:135|149:135|133:99|134:63|138:32,1,240,8|0,0:0|0:0,0:0:0:0:
292,116,274293,6,0,L|454:78,1,160,6|0,0:0|0:0,0:0:0:0:
474,0,274554,2,0,L|425:159,1,160,4|0,0:0|0:0,0:0:0:0:
483,215,274816,2,0,L|411:136,1,80,4|0,0:0|0:0,0:0:0:0:
344,61,274990,1,0,0:0:0:0:
357,260,275165,1,0,0:0:0:0:
224,354,275339,6,0,P|148:335|109:267,1,160,4|0,0:0|0:0,0:0:0:0:
0,375,275601,2,0,P|54:318|131:318,1,160,6|0,0:0|0:0,0:0:0:0:
92,169,275862,2,0,P|112:249|91:298,1,80,4|0,0:0|0:0,0:0:0:0:
0,322,276037,1,8,0:0:0:0:
216,192,276386,6,0,B|182:77|182:77|274:0,1,240,6|0,0:0|0:0,0:0:0:0:
465,60,276734,2,0,B|498:174|498:174|406:252,1,240,6|0,0:0|0:0,0:0:0:0:
334,126,277083,6,0,B|345:312|226:172|252:398,1,264.000008056641,6|0,0:0|0:0,0:0:0:0:
152,359,277432,2,0,L|56:358,1,80,0|0,0:0|0:0,0:0:0:0:
117,318,277606,2,0,L|37:317,1,80,0|0,0:0|0:0,0:0:0:0:
24,214,277781,6,0,P|147:189|144:68,1,264.000008056641,6|0,0:0|0:0,0:0:0:0:
234,20,278130,1,8,0:0:0:0:
272,8,278217,1,0,0:0:0:0:
312,10,278304,1,0,0:0:0:0:
349,24,278391,1,0,0:0:0:0:
380,48,278479,6,0,B|458:230|285:234|318:381|470:414|532:381|583:262|525:206|443:177,1,560,6|0,0:0|0:0,0:0:0:0:
448,271,279176,1,8,0:0:0:0:
293,214,279350,1,0,0:0:0:0:
241,290,279525,1,8,0:0:0:0:
188,258,279699,1,0,0:0:0:0:
162,283,279874,6,0,P|99:295|72:285,3,80,6|0|0|0,0:0|0:0|0:0|0:0,0:0:0:0:
0,210,281269,2,0,P|63:198|90:208,3,80,2|0|0|0,0:0|0:0|0:0|0:0,0:0:0:0:
210,123,282665,2,0,P|147:135|120:125,3,80,2|0|0|0,0:0|0:0|0:0|0:0,0:0:0:0:
48,50,284060,2,0,P|111:38|138:48,3,80,2|0|0|0,0:0|0:0|0:0|0:0,0:0:0:0:
377,35,285455,5,2,0:0:0:0:
381,74,285804,1,0,0:0:0:0:
385,114,286153,1,0,0:0:0:0:
390,154,286502,1,0,0:0:0:0:
512,249,286851,5,2,0:0:0:0:
507,209,287200,1,0,0:0:0:0:
503,169,287549,1,0,0:0:0:0:
499,130,287898,1,0,0:0:0:0:
203,206,288246,5,2,0:0:0:0:
243,202,288595,1,0,0:0:0:0:
283,198,288944,1,0,0:0:0:0:
323,195,289293,1,0,0:0:0:0:
439,297,289642,5,2,0:0:0:0:
399,299,289991,1,0,0:0:0:0:
359,303,290339,1,0,0:0:0:0:
320,307,290689,1,0,0:0:0:0:
71,69,291037,6,0,B|96:51|96:51|141:45,3,64,2|0|0|0,0:0|0:0|0:0|0:0,0:0:0:0:
227,21,292432,2,0,B|245:46|245:46|251:91,3,64,2|0|0|0,0:0|0:0|0:0|0:0,0:0:0:0:
275,177,293827,2,0,B|250:195|250:195|205:201,3,64,2|0|0|0,0:0|0:0|0:0|0:0,0:0:0:0:
119,225,295223,2,0,B|101:200|101:200|95:155,3,64,2|0|0|0,0:0|0:0|0:0|0:0,0:0:0:0:
345,350,296618,5,2,0:0:0:0:
334,321,296967,1,0,0:0:0:0:
314,296,297316,1,0,0:0:0:0:
288,279,297664,1,0,0:0:0:0:
450,165,298013,5,2,0:0:0:0:
430,189,298362,1,0,0:0:0:0:
418,218,298711,1,0,0:0:0:0:
417,249,299059,1,0,0:0:0:0:
237,166,299409,5,2,0:0:0:0:
268,171,299758,1,0,0:0:0:0:
299,167,300107,1,0,0:0:0:0:
326,153,300455,1,0,0:0:0:0:
468,0,300804,5,2,0:0:0:0:
