osu file format v14

[General]
AudioFilename: audio.mp3
AudioLeadIn: 0
PreviewTime: 148618
Countdown: 0
SampleSet: Soft
StackLeniency: 0.7
Mode: 2
LetterboxInBreaks: 0
WidescreenStoryboard: 0

[Editor]
DistanceSpacing: 0.8
BeatDivisor: 16
GridSize: 32
TimelineZoom: 4.699998

[Metadata]
Title:Hype feat. Such
TitleUnicode:Hype feat. Such
Artist:PSYQUI
ArtistUnicode:PSYQUI
Creator:Crowley
Version:Adrenaline
Source:
Tags:ft. Future Bass Complextro Hardcore Drumstep Dubstep lapix FUGENE 02 FÜGENE2 M3-41 MEGAREX electronic japanese mrx-016 future core vocal crossfade NeilPerry
BeatmapID:3544032
BeatmapSetID:1714422

[Difficulty]
HPDrainRate:6
CircleSize:4.3
OverallDifficulty:9.6
ApproachRate:9.6
SliderMultiplier:2.1
SliderTickRate:2

[Events]
//Background and Video events
0,0,"lucylee158.jpg",0,0
//Break Periods
//Storyboard Layer 0 (Background)
//Storyboard Layer 1 (Fail)
//Storyboard Layer 2 (Pass)
//Storyboard Layer 3 (Foreground)
//Storyboard Layer 4 (Overlay)
//Storyboard Sound Samples

[TimingPoints]
799,348.837209302326,4,2,1,15,1,0
799,-50.9708737864078,4,2,1,15,0,0
1496,-50.9708737864078,4,2,1,25,0,0
1845,-50.9708737864078,4,2,1,35,0,0
2194,-50.9708737864078,4,2,1,45,0,0
2892,-50.9708737864078,4,2,1,50,0,0
3415,-50.9708737864078,4,2,1,5,0,0
3589,-60.1719197707736,4,2,1,50,0,0
3764,-60.1719197707736,4,2,1,30,0,0
4897,-60.1719197707736,4,2,1,5,0,0
4985,-60.1719197707736,4,2,1,30,0,0
6293,-60.1719197707736,4,2,1,5,0,0
6380,-60.1719197707736,4,2,1,30,0,0
10479,-60.1719197707736,4,2,1,5,0,0
10566,-60.1719197707736,4,2,1,30,0,0
11874,-60.1719197707736,4,2,1,5,0,0
11961,-60.1719197707736,4,2,1,30,0,0
14752,-50.9708737864078,4,2,1,30,0,0
20333,-50.9708737864078,4,2,1,37,0,0
23124,-50.9708737864078,4,2,1,40,0,0
25915,-24.2606284658041,4,2,1,45,0,0
26438,-50.9708737864078,4,2,1,45,0,0
27136,-29.3952967525196,4,2,1,45,0,0
27659,-50.9708737864078,4,2,1,45,0,0
28531,-29.3952967525196,4,2,1,45,0,0
29403,-45.4152249134948,4,2,1,45,0,0
31671,-29.3952967525196,4,2,1,45,0,0
32019,-50.9708737864078,4,2,1,45,0,0
32455,-45.4152249134948,4,2,1,45,0,0
32717,-27.4581589958159,4,2,1,45,0,0
33240,-50.9708737864078,4,2,1,45,0,0
34112,-23.5743152222721,4,2,1,45,0,0
34461,-20.6530291109363,4,2,1,45,0,0
34985,-50.9708737864078,4,2,1,45,0,0
35508,-39.0334572490707,4,2,1,45,0,0
36031,-40.9516380655226,4,2,1,45,0,0
36380,-29.3952967525196,4,2,1,45,0,0
36729,-40.9516380655226,4,2,1,45,0,0
37078,-50.9708737864078,4,2,1,45,0,0
37339,-50.9708737864078,4,2,1,5,0,0
37426,-50.9708737864078,4,2,1,45,0,0
37688,-50.9708737864078,4,2,1,5,0,0
37775,-50.9708737864078,4,2,1,45,0,0
38037,-50.9708737864078,4,2,1,5,0,0
38124,-50.9708737864078,4,2,1,45,0,0
38386,-50.9708737864078,4,2,1,5,0,0
38473,-50.9708737864078,4,2,1,45,0,0
38735,-50.9708737864078,4,2,1,5,0,0
38822,-50.9708737864078,4,2,1,45,0,0
39083,-50.9708737864078,4,2,1,5,0,0
39171,-50.9708737864078,4,2,1,45,0,0
39432,-50.9708737864078,4,2,1,5,0,0
39519,-50.9708737864078,4,2,1,45,0,0
39781,-50.9708737864078,4,2,1,5,0,0
39868,-50.9708737864078,4,2,1,45,0,0
40130,-50.9708737864078,4,2,1,5,0,0
40217,-50.9708737864078,4,2,1,45,0,0
40479,-50.9708737864078,4,2,1,5,0,0
40566,-50.9708737864078,4,2,1,45,0,0
40828,-50.9708737864078,4,2,1,5,0,0
40915,-50.9708737864078,4,2,1,45,0,0
41525,-50.9708737864078,4,2,1,5,0,0
41612,-50.9708737864078,4,2,1,45,0,0
41874,-50.9708737864078,4,2,1,5,0,0
41961,-50.9708737864078,4,2,1,45,0,0
42223,-50.9708737864078,4,2,1,5,0,0
42310,-50.9708737864078,4,2,1,45,0,0
42572,-50.9708737864078,4,2,1,5,0,0
42659,-50.9708737864078,4,2,1,50,0,0
46845,-22.9257641921397,4,2,1,50,0,0
47717,-50.9708737864078,4,2,1,40,0,0
48240,-35.6900067980965,4,2,1,40,0,0
48415,-21.1778943122227,4,2,1,40,0,0
48589,-50.9708737864078,4,2,1,50,0,0
48938,-45.4152249134948,4,2,1,60,0,1
49985,-40.9516380655226,4,2,1,60,0,1
50334,-45.4152249134948,4,2,1,60,0,1
51380,-32.874139010645,4,2,1,60,0,1
51729,-45.4152249134948,4,2,1,60,0,1
53124,-35.6900067980965,4,2,1,60,0,1
53473,-27.4581589958159,4,2,1,60,0,1
53822,-24.9881009043313,4,2,1,60,0,1
54519,-45.4152249134948,4,2,1,60,0,1
55566,-40.9516380655226,4,2,1,60,0,1
55915,-45.4152249134948,4,2,1,60,0,1
56961,-40.9516380655226,4,2,1,60,0,1
57310,-45.4152249134948,4,2,1,60,0,1
59403,-17.9794520547945,4,2,1,60,0,1
60101,-45.4152249134948,4,2,1,60,0,1
61147,-40.9516380655226,4,2,1,60,0,1
61496,-45.4152249134948,4,2,1,60,0,1
62543,-34.2242503259453,4,2,1,60,0,1
62892,-45.4152249134948,4,2,1,60,0,1
64287,-35.6900067980965,4,2,1,60,0,1
64636,-27.4581589958159,4,2,1,60,0,1
67078,-28.3937263385614,4,2,1,60,0,1
69171,-24.9881009043313,4,2,1,60,0,1
70566,-50.9708737864078,4,2,1,50,0,0
70653,-50.9708737864078,4,2,1,30,0,0
71525,-50.9708737864078,4,2,1,5,0,0
71612,-50.9708737864078,4,2,1,30,0,0
71874,-50.9708737864078,4,2,1,5,0,0
71961,-50.9708737864078,4,2,1,40,0,0
73008,-50.9708737864078,4,2,1,60,0,0
73357,-50.9708737864078,4,2,1,45,0,0
92194,-50.9708737864078,4,2,1,50,0,0
92892,-67.4807197943445,4,2,1,60,0,0
92979,-67.4807197943445,4,2,1,20,0,0
96990,-67.4807197943445,4,2,1,5,0,0
97078,-58.0752212389381,4,2,1,20,0,0
97688,-58.0752212389381,4,2,1,5,0,0
97775,-54.2916235780765,4,2,1,20,0,0
98386,-54.2916235780765,4,2,1,5,0,0
98473,-48.0329368709973,4,2,1,20,0,0
99781,-48.0329368709973,4,2,1,5,0,0
99868,-45.4152249134948,4,2,1,20,0,0
100479,-45.4152249134948,4,2,1,5,0,0
100566,-43.0680885972108,4,2,1,20,0,0
101176,-43.0680885972108,4,2,1,5,0,0
101264,-39.0334572490707,4,2,1,20,0,0
102572,-39.0334572490707,4,2,1,5,0,0
102659,-22.9257641921397,4,2,1,25,0,0
103269,-22.9257641921397,4,2,1,5,0,0
103357,-22.9257641921397,4,2,1,35,0,0
104054,-50.9708737864078,4,2,1,40,0,0
109636,-50.9708737864078,4,2,1,45,0,0
114868,-20.6530291109363,4,2,1,45,0,0
115217,-50.9708737864078,4,2,1,45,0,0
115566,-50.9708737864078,4,3,2,45,0,0
115740,-45.4152249134948,4,3,2,45,0,0
115915,-50.9708737864078,4,3,2,45,0,0
116089,-45.4152249134948,4,3,2,45,0,0
116264,-50.9708737864078,4,3,2,45,0,0
116438,-45.4152249134948,4,3,2,45,0,0
116612,-50.9708737864078,4,3,2,45,0,0
116786,-45.4152249134948,4,3,2,45,0,0
116961,-50.9708737864078,4,3,2,45,0,0
117135,-45.4152249134948,4,3,2,45,0,0
117310,-50.9708737864078,4,3,2,45,0,0
117484,-45.4152249134948,4,3,2,45,0,0
117659,-50.9708737864078,4,3,2,45,0,0
117833,-45.4152249134948,4,3,2,45,0,0
118008,-50.9708737864078,4,3,2,45,0,0
118182,-45.4152249134948,4,3,2,45,0,0
118357,-50.9708737864078,4,3,2,45,0,0
118531,-45.4152249134948,4,3,2,45,0,0
118705,-50.9708737864078,4,3,2,45,0,0
118879,-45.4152249134948,4,3,2,45,0,0
119054,-50.9708737864078,4,3,2,45,0,0
119228,-45.4152249134948,4,3,2,45,0,0
119403,-50.9708737864078,4,3,2,45,0,0
119577,-45.4152249134948,4,3,2,45,0,0
119752,-50.9708737864078,4,3,2,45,0,0
119926,-45.4152249134948,4,3,2,45,0,0
120101,-50.9708737864078,4,3,2,45,0,0
120275,-45.4152249134948,4,3,2,45,0,0
120450,-21.7301324503311,4,2,1,45,0,0
120799,-50.9708737864078,4,3,2,45,0,0
120973,-45.4152249134948,4,3,2,45,0,0
121148,-50.9708737864078,4,3,2,45,0,0
121322,-45.4152249134948,4,3,2,45,0,0
121497,-50.9708737864078,4,3,2,45,0,0
121671,-45.4152249134948,4,3,2,45,0,0
121845,-50.9708737864078,4,3,2,45,0,0
122019,-45.4152249134948,4,3,2,45,0,0
122194,-50.9708737864078,4,3,2,45,0,0
122368,-45.4152249134948,4,3,2,45,0,0
122543,-50.9708737864078,4,3,2,45,0,0
122717,-45.4152249134948,4,3,2,45,0,0
122892,-50.9708737864078,4,3,2,45,0,0
123066,-45.4152249134948,4,3,2,45,0,0
123241,-50.9708737864078,4,3,2,45,0,0
123415,-45.4152249134948,4,3,2,45,0,0
123590,-50.9708737864078,4,3,2,45,0,0
123764,-45.4152249134948,4,3,2,45,0,0
123938,-50.9708737864078,4,3,2,45,0,0
124112,-45.4152249134948,4,3,2,45,0,0
124287,-50.9708737864078,4,3,2,45,0,0
124461,-45.4152249134948,4,3,2,45,0,0
124636,-50.9708737864078,4,3,2,45,0,0
124810,-45.4152249134948,4,3,2,45,0,0
124985,-50.9708737864078,4,3,2,45,0,0
125159,-45.4152249134948,4,3,2,45,0,0
125333,-50.9708737864078,4,3,2,45,0,0
125508,-45.4152249134948,4,3,2,45,0,0
125682,-29.3952967525196,4,2,1,45,0,0
126031,-26.5822784810127,4,2,1,45,0,0
126380,-45.4152249134948,4,2,1,45,0,0
126729,-45.4152249134948,4,2,1,50,0,1
128822,-29.3952967525196,4,2,1,50,0,1
129171,-45.4152249134948,4,2,1,50,0,1
130915,-29.3952967525196,4,2,1,50,0,1
131264,-45.4152249134948,4,2,1,50,0,1
134403,-29.3952967525196,4,2,1,50,0,1
134752,-50.9708737864078,4,2,1,50,0,1
135101,-45.4152249134948,4,2,1,50,0,1
135799,-29.3952967525196,4,2,1,50,0,1
136147,-45.4152249134948,4,2,1,50,0,1
136496,-29.3952967525196,4,2,1,50,0,1
136844,-45.4152249134948,4,2,1,50,0,1
137543,-29.3952967525196,4,2,1,50,0,1
138240,-45.4152249134948,4,2,1,50,0,1
139985,-29.3952967525196,4,2,1,50,0,1
140334,-45.4152249134948,4,2,1,50,0,1
142078,-29.3952967525196,4,2,1,50,0,1
142426,-45.4152249134948,4,2,1,50,0,1
144868,-29.3952967525196,4,2,1,50,0,1
145217,-45.4152249134948,4,2,1,50,0,1
145566,-22.3119422014449,4,2,1,50,0,1
145915,-45.4152249134948,4,2,1,60,0,0
146002,-45.4152249134948,4,2,1,40,0,0
148008,-45.4152249134948,4,2,1,50,0,0
149054,-22.9257641921397,4,2,1,50,0,0
149403,-45.4152249134948,4,2,1,50,0,0
149578,-26.5822784810127,4,2,1,50,0,0
150014,-34.2242503259453,4,2,1,50,0,0
150624,-43.0680885972108,4,2,1,50,0,0
151496,-39.0334572490707,4,2,1,50,0,1
151845,-48.0329368709973,4,2,1,50,0,0
152543,-35.6900067980965,4,2,1,50,0,0
152717,-28.3937263385614,4,2,1,50,0,0
153240,-45.4152249134948,4,2,1,50,0,0
154287,-37.2869318181818,4,2,1,50,0,0
154549,-45.4152249134948,4,2,1,50,0,0
155333,-35.6900067980965,4,2,1,50,0,0
155508,-28.3937263385614,4,2,1,50,0,0
155682,-45.4152249134948,4,2,1,50,0,0
156729,-17.9794520547945,4,2,1,50,0,1
157426,-24.2606284658041,4,2,1,50,0,0
157775,-45.4152249134948,4,2,1,50,0,0
158822,-39.0334572490707,4,2,1,50,0,0
159171,-45.4152249134948,4,2,1,50,0,0
159519,-35.6900067980965,4,2,1,50,0,0
159693,-28.3937263385614,4,2,1,50,0,0
160217,-45.4152249134948,4,2,1,50,0,0
161874,-29.3952967525196,4,2,1,50,0,0
162136,-17.9794520547945,4,2,1,50,0,0
162397,-28.3937263385614,4,2,1,50,0,0
162659,-26.5822784810127,4,2,1,60,0,1
163357,-35.6900067980965,4,2,1,60,0,1
163531,-28.3937263385614,4,2,1,60,0,1
164054,-45.4152249134948,4,2,1,60,0,1
165799,-34.2242503259453,4,2,1,60,0,1
166147,-45.4152249134948,4,2,1,60,0,1
167543,-37.2869318181818,4,2,1,60,0,1
167892,-35.6900067980965,4,2,1,60,0,1
168066,-28.3937263385614,4,2,1,60,0,1
168240,-24.9881009043313,4,2,1,60,0,1
168938,-45.4152249134948,4,2,1,60,0,1
170682,-28.3937263385614,4,2,1,60,0,1
171031,-22.9257641921397,4,2,1,60,0,1
171205,-37.2869318181818,4,2,1,60,0,1
172078,-45.4152249134948,4,2,1,60,0,1
173909,-45.4152249134948,4,2,1,50,0,1
183589,-45.4152249134948,4,2,1,40,0,1
183764,-28.3937263385614,4,2,1,40,0,1
183938,-50.9708737864078,4,2,1,40,0,1
184112,-21.7301324503311,4,2,1,40,0,1
184374,-45.4152249134948,4,2,1,40,0,1
184636,-45.4152249134948,4,2,1,50,0,1
184985,-45.4152249134948,4,2,1,60,0,0
185072,-45.4152249134948,4,2,1,10,0,0
187775,-60.1719197707736,4,2,1,10,0,0
190479,-60.1719197707736,4,2,1,5,0,0
190566,-73.4265734265734,4,2,1,10,0,0
191874,-73.4265734265734,4,2,1,5,0,0
191961,-45.4152249134948,4,2,1,10,0,0
192572,-45.4152249134948,4,2,1,5,0,0
192659,-45.4152249134948,4,2,1,10,0,0
193269,-45.4152249134948,4,2,1,5,0,0
193357,-73.4265734265734,4,2,1,10,0,0
194665,-73.4265734265734,4,2,1,5,0,0
194752,-43.0680885972108,4,2,1,10,0,0
195362,-43.0680885972108,4,2,1,5,0,0
195450,-43.0680885972108,4,2,1,10,0,0
196060,-43.0680885972108,4,2,1,5,0,0
196147,-73.4265734265734,4,2,1,10,0,0
197455,-73.4265734265734,4,2,1,5,0,0
197542,-50.9708737864078,4,2,1,15,0,0
198153,-50.9708737864078,4,2,1,5,0,0
198240,-50.9708737864078,4,2,1,15,0,0
198851,-50.9708737864078,4,2,1,5,0,0
198938,-73.4265734265734,4,2,1,15,0,0
200246,-73.4265734265734,4,2,1,5,0,0
200333,-73.4265734265734,4,2,1,15,0,0
201642,-73.4265734265734,4,2,1,5,0,0
201729,-50.9708737864078,4,2,1,20,0,0
203037,-50.9708737864078,4,2,1,5,0,0
203124,-40.9516380655226,4,2,1,20,0,0
203735,-40.9516380655226,4,2,1,5,0,0
203822,-40.9516380655226,4,2,1,20,0,0
204432,-40.9516380655226,4,2,1,5,0,0
204519,-45.4152249134948,4,2,1,25,0,0
205828,-45.4152249134948,4,2,1,5,0,0
205914,-39.0334572490707,4,2,1,25,0,0
207223,-39.0334572490707,4,2,1,5,0,0
207310,-54.2916235780765,4,2,1,30,0,0
224054,-50.9708737864078,4,2,1,40,0,0
225450,-50.9708737864078,4,2,1,50,0,0
226845,-50.9708737864078,4,2,1,60,0,0
228240,-50.9708737864078,4,2,1,70,0,0
229461,-50.9708737864078,4,2,1,5,0,0
229636,-50.9708737864078,4,2,1,40,0,0
240799,-50.9708737864078,4,2,1,50,0,0
246380,-50.9708737864078,4,2,1,45,0,0
250566,-50.9708737864078,4,2,1,50,0,0
251438,-50.9708737864078,4,2,1,55,0,0
251961,-50.9708737864078,4,2,1,60,0,0
252049,-50.9708737864078,4,2,1,30,0,0
253357,-50.9708737864078,4,2,1,35,0,0
254054,-50.9708737864078,4,2,1,40,0,0
255450,-50.9708737864078,4,2,1,45,0,0
256147,-22.9257641921397,4,2,1,50,0,0
257019,-50.9708737864078,4,2,1,40,0,0
257543,-35.6900067980965,4,2,1,40,0,0
257718,-21.1778943122227,4,2,1,40,0,0
257892,-50.9708737864078,4,2,1,50,0,0
258241,-45.4152249134948,4,2,1,50,0,0
262775,-39.0334572490707,4,2,1,50,0,0
263124,-27.4581589958159,4,2,1,50,0,0
263822,-45.4152249134948,4,2,1,50,0,0
266264,-22.9257641921397,4,2,1,50,0,0
266613,-45.4152249134948,4,2,1,50,0,0
266787,-26.5822784810127,4,2,1,50,0,0
267224,-34.2242503259453,4,2,1,50,0,0
267833,-43.0680885972108,4,2,1,50,0,0
268357,-31.6265060240964,4,2,1,50,0,0
268509,-21.1778943122227,4,2,1,50,0,0
268705,-17.9794520547945,4,2,1,60,0,1
269403,-45.4152249134948,4,2,1,60,0,1
271845,-34.2242503259453,4,2,1,60,0,1
272194,-45.4152249134948,4,2,1,60,0,1
273589,-35.6900067980965,4,2,1,60,0,1
273938,-27.4581589958159,4,2,1,60,0,1
276380,-28.3937263385614,4,2,1,60,0,1
277426,-50.9708737864078,4,2,1,60,0,1
277775,-28.3937263385614,4,2,1,60,0,1
278124,-50.9708737864078,4,2,1,60,0,1
278473,-24.9881009043313,4,2,1,60,0,1
279868,-60.1719197707736,4,2,1,60,0,0
279955,-60.1719197707736,4,2,1,25,0,0
291031,-60.1719197707736,4,2,1,20,0,0
301147,-60.1719197707736,4,2,2,5,0,0

[Colours]
Combo1 : 255,128,255
Combo2 : 128,128,128
Combo3 : 128,255,128

[HitObjects]
256,192,1496,12,0,3415,0:0:0:0:
387,360,3589,6,0,L|400:274|400:274|392:187|392:187|405:119|405:119|396:14|396:14,1,349.000013313293,2|2,3:2|0:0,0:0:0:0:
191,199,4287,2,0,L|189:286|189:286|186:373|186:373|189:304|189:304|182:199|182:199,1,349.000013313293,2|0,0:0|0:0,0:0:0:0:
280,27,4810,1,0,0:0:0:0:
473,125,4985,6,0,L|441:206|441:206|395:280|395:280|369:344|369:344|318:252|318:252,1,349.000013313293,2|2,0:0|0:0,0:0:0:0:
149,272,5682,2,0,L|192:348|192:348|227:268|227:268|254:204|254:204|304:111|304:111,1,349.000013313293,2|0,0:0|0:0,0:0:0:0:
28,188,6380,6,0,L|36:275|36:275|21:361|21:361|33:293|33:293|15:189|15:189,1,349.000013313293,2|2,0:0|0:0,0:0:0:0:
254,217,7078,2,0,B|241:303|241:303|208:384|208:384|171:305|171:305,1,261.750009984969,2|0,0:0|0:0,0:0:0:0:
97,284,7426,1,2,0:0:0:0:
200,285,7601,1,2,0:0:0:0:
366,150,7775,6,0,L|386:235|386:235|370:321|370:321|368:234|368:234|366:147|366:147|355:79|355:79|370:183|370:183,3,174.500006656647,2|2|2|2,0:0|0:0|0:0|0:0,0:0:0:0:
273,58,8473,1,2,0:0:0:0:
223,143,8647,1,2,0:0:0:0:
262,234,8822,1,2,0:0:0:0:
356,257,8996,1,2,0:0:0:0:
190,370,9171,6,0,L|188:283|188:283|182:196|182:196|187:127|187:127|174:23|174:23,1,349.000013313293,2|2,0:0|0:0,0:0:0:0:
363,205,9868,2,0,L|377:291|377:291|371:378|371:378|356:310|356:310|379:207|379:207,1,349.000013313293,2|0,0:0|0:0,0:0:0:0:
85,26,10566,2,0,L|114:108|114:108|164:180|164:180|219:248|219:248|242:332|242:332|208:252|208:252|164:177|164:177|121:123|121:123|85:24|85:24,2,349.000013313293,2|2|2,0:0|0:0|0:0,0:0:0:0:
375,29,11612,2,0,L|387:115|387:115|374:201|374:201|374:288|374:288,1,261.750009984969
292,162,11961,6,0,B|274:247|274:247|239:327|239:327|261:261|261:261|288:159|288:159,1,349.000013313293,2|2,0:0|0:0,0:0:0:0:
370,260,12485,1,2,0:0:0:0:
247,357,12659,2,0,L|202:282|202:282|168:202|168:202|186:135|186:135|247:49|247:49,2,174.500006656647,2|2|2,0:0|0:0|0:0,0:0:0:0:
247,357,13182,1,2,0:0:0:0:
87,360,13357,6,0,L|96:291|96:291|88:186|88:186,1,174.500006656647,2|2,0:0|0:0,0:0:0:0:
234,220,13705,2,0,L|201:301|201:301|155:375|155:375|116:297|116:297,1,261.750009984969,2|0,0:0|0:0,0:0:0:0:
212,201,14054,2,0,L|242:283|242:283|291:355|291:355|253:297|253:297|212:200|212:200,2,174.500006656647,2|2|2,0:0|0:0|0:0,0:0:0:0:
212,201,14578,1,2,0:0:0:0:
461,34,14752,6,0,L|465:137|465:137|468:240|468:240|475:321|475:321|474:197|474:197,1,412,2|2,3:2|0:0,0:0:0:0:
210,337,15450,2,0,L|268:252|268:252|315:160|315:160|361:92|361:92|420:201|420:201,1,412,2|2,0:0|0:0,0:0:0:0:
319,314,15973,1,0,0:0:0:0:
72,302,16147,6,0,L|64:383|64:383|52:259|52:259,1,206,2|0,3:2|0:0,0:0:0:0:
181,195,16496,2,0,L|171:276|171:276|194:154|194:154,1,206,2|0,0:0|0:0,0:0:0:0:
107,113,16845,1,2,0:0:0:0:
63,190,17019,1,0,0:0:0:0:
87,276,17194,1,2,0:0:0:0:
166,319,17368,1,0,0:0:0:0:
429,329,17543,6,0,L|392:233|392:233|325:155|325:155|272:66|272:66,1,309,2|0,3:2|0:0,0:0:0:0:
340,322,17892,1,2,0:0:0:0:
201,325,18066,2,0,L|190:244|190:244|182:120|182:120,1,206,0|2,0:0|0:0,0:0:0:0:
311,325,18415,2,0,L|322:244|322:244|330:120|330:120,1,206,0|2,0:0|0:0,0:0:0:0:
170,204,18764,1,0,0:0:0:0:
400,130,18938,6,0,L|340:213|340:213|295:306|295:306|337:376|337:376|400:269|400:269,2,206,2|0|2,3:2|0:0|0:0,0:0:0:0:
495,131,19461,1,0,0:0:0:0:
359,284,19636,2,0,L|344:364|344:364|359:241|359:241,1,206,2|0,0:0|0:0,0:0:0:0:
484,173,19985,2,0,L|443:267|443:267|379:348|379:348|327:259|327:259,1,309,2|0,0:0|0:0,0:0:0:0:
86,370,20333,6,0,L|81:288|81:288|57:166|57:166,1,206,0|0,3:0|0:0,0:0:0:0:
188,246,20682,2,0,L|200:327|200:327|177:205|177:205,1,206,0|0,3:0|0:0,0:0:0:0:
324,246,21031,2,0,L|332:327|332:327|335:203|335:203,1,206,0|0,3:0|0:0,0:0:0:0:
426,370,21380,2,0,L|432:289|432:289|455:167|455:167,1,206,0|0,3:0|0:0,0:0:0:0:
188,246,21729,6,0,L|182:328|182:328|177:204|177:204,1,206,0|0,3:0|0:0,0:0:0:0:
426,370,22078,2,0,L|438:289|438:289|455:166|455:166,1,206,0|0,3:0|0:0,0:0:0:0:
324,246,22426,2,0,L|313:327|313:327|335:205|335:205,1,206,0|0,3:0|0:0,0:0:0:0:
86,370,22775,2,0,L|77:289|77:289|57:166|57:166,1,206,0|0,3:0|0:0,0:0:0:0:
383,230,23124,5,0,3:0:0:0:
255,198,23299,1,0,3:0:0:0:
493,118,23473,1,0,3:0:0:0:
365,86,23648,1,0,3:0:0:0:
111,192,23822,1,0,3:0:0:0:
256,191,23996,1,0,3:0:0:0:
402,190,24171,1,0,3:0:0:0:
111,192,24345,1,0,3:0:0:0:
402,190,24519,5,0,3:0:0:0:
430,147,24606,1,0,3:0:0:0:
269,83,24693,1,0,3:0:0:0:
219,83,24781,1,0,3:0:0:0:
407,80,24868,2,0,L|459:169|459:169,1,103,0|0,1:0|1:0,1:0:0:0:
264,197,25043,2,0,L|212:286|212:286,1,103,0|0,3:0|3:0,0:0:0:0:
388,322,25217,1,0,1:0:0:0:
340,322,25304,2,0,L|340:219|340:219,1,103,0|0,1:0|1:0,0:0:0:0:
144,236,25479,1,0,1:0:0:0:
192,236,25566,2,0,L|192:339|192:339,1,103,0|0,1:0|1:0,0:0:0:0:
385,233,25740,2,0,L|333:322|333:322,1,103,0|0,1:0|1:0,0:0:0:0:
85,218,25915,6,0,L|188:356|188:356|379:178|379:178,1,432.799986791992,12|0,0:0|0:0,0:0:0:0:
250,201,26264,1,0,3:0:0:0:
349,203,26438,1,0,0:0:0:0:
354,169,26496,1,0,0:0:0:0:
361,139,26554,1,0,0:0:0:0:
210,129,26612,6,0,L|158:218|158:218,1,103,0|0,1:0|0:0,0:0:0:0:
320,67,26787,1,0,3:0:0:0:
167,65,26874,2,0,L|220:154|220:154,1,103,0|0,1:0|1:0,0:0:0:0:
219,45,27019,1,0,0:0:0:0:
219,45,27078,1,0,0:0:0:0:
49,211,27136,6,0,L|176:336|176:336|280:191|280:191|188:83|188:83|49:248|49:248,2,357.20001090088,0|0|0,3:0|0:0|0:0,0:0:0:0:
230,313,27659,2,0,B|268:385|268:385|232:266|232:266,1,206,2|0,0:0|0:0,0:0:0:0:
150,227,27921,1,0,0:0:0:0:
318,188,28008,1,8,0:0:0:0:
426,183,28182,2,0,L|477:273|477:273,1,103,0|0,3:0|1:0,0:0:0:0:
317,147,28357,2,0,L|317:250|317:250,1,103,0|0,3:0|0:0,0:0:0:0:
487,31,28531,6,0,L|392:136|392:136|256:303|256:303,1,357.20001090088,8|2,0:3|0:0,0:0:0:0:
256,31,28880,1,2,0:0:0:0:
407,33,28967,1,0,0:0:0:0:
256,31,29054,1,2,0:0:0:0:
256,31,29229,1,0,3:0:0:0:
257,42,29403,2,0,L|320:139|320:139,1,115.599996472168,0|0,1:0|0:0,0:0:0:0:
248,156,29578,2,0,L|185:253|185:253,1,115.599996472168,0|0,3:0|0:0,0:0:0:0:
390,295,29752,2,0,L|390:179|390:179,1,115.599996472168,0|0,3:0|0:0,0:0:0:0:
136,212,29926,1,12,0:0:0:0:
292,211,30014,1,0,0:0:0:0:
443,212,30101,6,0,L|506:309|506:309|443:212|443:212|506:115|506:115,3,115.599996472168,2|2|2|2,0:0|0:0|0:0|0:0,0:0:0:0:
323,119,30450,2,0,L|386:216|386:216,1,115.599996472168,2|0,0:0|0:0,0:0:0:0:
169,311,30624,2,0,L|106:214|106:214|169:117|169:117,2,115.599996472168,4|0|0,3:1|0:0|0:0,0:0:0:0:
169,311,30886,1,0,0:0:0:0:
346,262,30973,2,0,L|409:359|409:359,1,115.599996472168,4|0,3:2|0:0,0:0:0:0:
255,190,31147,1,0,1:0:0:0:
422,183,31235,2,0,L|359:280|359:280|422:377|422:377,2,115.599996472168,0|0|0,3:0|3:0|0:0,0:0:0:0:
223,363,31496,5,0,3:0:0:0:
98,351,31671,2,0,L|180:235|180:235|329:79|329:79,1,357.20001090088,0|2,3:0|0:0,0:0:0:0:
328,351,31932,1,0,0:0:0:0:
407,351,32019,2,0,L|442:292|442:292|407:233|407:233,2,68.6666666666667,2|0|0,0:0|0:0|0:0,0:0:0:0:
224,272,32194,2,0,L|223:375|223:375,1,103,0|0,1:0|0:0,0:0:0:0:
296,202,32368,1,0,0:0:0:0:
130,269,32455,2,0,B|137:360|137:360|197:234|197:234,1,231.199992944336,0|0,3:0|1:0,0:0:0:0:
419,199,32717,6,0,L|312:357|312:357|167:232|167:232|263:114|263:114|419:284|419:284,2,382.399988330079,12|0|0,0:0|0:0|3:0,0:0:0:0:
419,199,33153,1,0,0:0:0:0:
248,323,33240,2,0,L|300:234|300:234,1,103,2|0,0:0|0:0,0:0:0:0:
366,277,33415,2,0,L|314:366|314:366,1,103
121,276,33589,1,8,0:0:0:0:
248,266,33764,2,0,L|196:355|196:355,1,103,0|0,3:0|1:0,0:0:0:0:
374,191,33938,2,0,L|426:280|426:280,1,103,0|0,1:0|0:0,0:0:0:0:
181,0,34112,6,0,B|176:223|176:223|180:0|180:0|287:103|287:103|435:293|435:293,1,835.125025485993,4|0,3:2|0:0,0:0:0:0:
435,298,34461,2,0,B|274:101|274:101|80:265|80:265|68:11|68:11|66:265|66:265|208:-89|208:-89,1,1398.10002666664
246,97,34985,2,0,L|251:148|251:148,1,51.5,2|0,0:0|0:0,0:0:0:0:
286,150,35072,2,0,L|290:201|290:201,1,51.5
336,123,35159,2,0,L|337:174|337:174,1,51.5,2|0,3:2|0:0,0:0:0:0:
379,94,35246,2,0,L|379:146|379:146,1,51.5
418,63,35333,2,0,L|413:114|413:114,1,51.5,0|0,1:0|0:0,0:0:0:0:
450,29,35421,2,0,L|442:80|442:80,1,51.5,0|0,3:0|0:0,0:0:0:0:
154,104,35508,6,0,L|217:223|217:223|311:319|311:319|380:238|380:238|469:102|469:102,1,538.000020523072,4|0,3:1|0:0,0:0:0:0:
468,103,35944,1,0,0:0:0:0:
317,196,36031,2,0,L|393:263|393:263|464:126|464:126,1,256.399992175293,4|0,3:1|0:0,0:0:0:0:
464,196,36293,1,0,0:0:0:0:
234,304,36380,2,0,L|343:213|343:213|465:35|465:35,1,357.20001090088,4|0,3:1|0:0,0:0:0:0:
465,304,36642,1,0,0:0:0:0:
317,196,36729,2,0,L|361:288|361:288|464:173|464:173,1,256.399992175293,4|0,3:1|0:0,0:0:0:0:
464,196,36991,1,0,0:0:0:0:
199,306,37078,6,0,L|194:224|194:224|188:100|188:100,1,206,4|0,1:2|0:0,0:0:0:0:
311,202,37426,2,0,L|303:283|303:283|300:159|300:159,1,206,0|0,3:0|0:0,0:0:0:0:
179,300,37775,6,0,L|180:382|180:382|177:258|177:258,1,206,0|0,3:0|0:0,0:0:0:0:
298,206,38124,2,0,L|309:287|309:287|296:163|296:163,1,206,0|0,3:0|0:0,0:0:0:0:
175,284,38473,6,0,L|181:365|181:365|191:241|191:241,1,206,0|0,3:0|0:0,0:0:0:0:
312,213,38821,2,0,L|308:295|308:295|328:172|328:172,1,206,0|0,3:0|0:0,0:0:0:0:
206,283,39171,6,0,L|229:361|229:361|222:237|222:237,1,206,0|0,3:0|0:0,0:0:0:0:
343,212,39519,2,0,L|352:293|352:293|359:169|359:169,1,206,0|0,3:0|0:0,0:0:0:0:
237,295,39868,6,0,L|252:375|252:375|235:252|235:252,1,206,0|0,3:0|0:0,0:0:0:0:
356,201,40217,2,0,L|344:282|344:282|354:158|354:158,1,206,0|0,3:0|0:0,0:0:0:0:
231,293,40566,6,0,L|245:374|245:374|220:252|220:252,1,206,0|0,3:0|0:0,0:0:0:0:
343,189,40914,2,0,L|322:268|322:268|332:144|332:144,1,206,0|2,3:0|0:2,0:0:0:0:
262,87,41176,1,2,0:0:0:0:
332,84,41264,6,0,L|327:166|327:166|343:289|343:289,1,206,2|0,3:2|0:0,0:0:0:0:
220,188,41612,2,0,L|224:270|224:270|231:146|231:146,1,206,2|0,3:2|0:0,0:0:0:0:
351,164,41961,6,0,L|333:244|333:244|307:365|307:365,1,206,2|0,3:2|0:0,0:0:0:0:
188,201,42310,2,0,L|158:277|158:277|144:154|144:154,1,206,2|0,3:2|0:0,0:0:0:0:
393,200,42659,5,0,3:0:0:0:
256,201,42833,1,2,0:0:0:0:
118,200,43008,5,0,3:0:0:0:
256,201,43182,1,2,1:2:0:0:
418,198,43357,5,0,3:0:0:0:
256,201,43531,1,2,0:0:0:0:
91,198,43706,5,0,3:0:0:0:
256,201,43880,1,2,0:0:0:0:
432,198,44054,5,0,3:0:0:0:
256,201,44228,1,0,1:0:0:0:
77,198,44403,5,0,3:0:0:0:
256,201,44577,1,0,1:0:0:0:
487,197,44752,5,0,3:0:0:0:
256,202,44926,1,0,1:0:0:0:
17,197,45101,5,0,3:0:0:0:
256,202,45275,1,0,1:0:0:0:
487,197,45450,5,0,3:0:0:0:
421,198,45537,1,0,1:0:0:0:
354,196,45624,1,0,3:0:0:0:
421,198,45711,1,0,1:0:0:0:
487,197,45799,1,0,3:0:0:0:
418,198,45886,1,0,1:0:0:0:
348,196,45973,1,0,3:0:0:0:
276,194,46060,1,0,1:0:0:0:
348,196,46147,1,0,3:0:0:0:
266,194,46235,1,0,1:0:0:0:
179,194,46322,1,0,3:0:0:0:
266,194,46409,1,0,1:0:0:0:
179,194,46496,1,0,3:0:0:0:
96,195,46583,1,0,1:0:0:0:
14,194,46671,1,0,3:0:0:0:
96,195,46758,1,0,1:0:0:0:
398,71,46845,6,0,B|437:297|437:297|401:71|401:71|452:294|452:294|412:69|412:69|444:296|444:296|353:86|353:86|246:233|246:233|38:51|38:51,1,1832.00006988526,4|8,3:2|0:3,0:0:0:0:
38,259,47564,1,0,0:3:0:0:
160,338,47717,2,0,L|108:249|108:249,1,103,0|0,1:0|3:0,0:0:0:0:
292,291,47892,2,0,L|344:380|344:380,1,103,0|0,1:0|3:0,0:0:0:0:
141,219,48066,2,0,L|194:308|194:308,1,103,0|0,1:0|3:0,0:0:0:0:
338,335,48240,6,0,L|276:258|276:258|182:130|182:130,1,257.425004909992,2|0,0:0|0:0,0:0:0:0:
182,334,48415,2,0,L|302:219|302:219|485:23|485:23,1,433.825004137277
485,334,48589,1,2,0:0:0:0:
444,315,48610,1,0,0:0:0:0:
444,315,48633,1,0,0:0:0:0:
413,283,48654,1,0,0:0:0:0:
413,283,48676,1,0,0:0:0:0:
397,242,48698,1,0,0:0:0:0:
397,242,48720,1,0,0:0:0:0:
397,197,48741,1,0,0:0:0:0:
397,197,48764,1,0,0:0:0:0:
409,158,48785,1,0,0:0:0:0:
409,158,48807,1,0,0:0:0:0:
445,124,48828,1,0,0:0:0:0:
445,124,48851,1,0,0:0:0:0:
486,106,48872,1,0,0:0:0:0:
486,106,48894,1,0,0:0:0:0:
296,110,48938,5,4,3:2:0:0:
159,113,49112,1,2,0:0:0:0:
305,198,49200,2,0,L|368:295|368:295,1,115.599996472168,2|8,0:0|3:0,0:0:0:0:
305,198,49374,1,0,0:0:0:0:
124,307,49461,2,0,L|187:210|187:210,1,115.599996472168,2|0,0:0|0:0,0:0:0:0:
340,307,49636,2,0,L|340:191|340:191,1,115.599996472168,0|0,3:0|0:0,0:0:0:0:
197,233,49810,2,0,L|197:349|197:349,1,115.599996472168,2|0,0:0|0:0,0:0:0:0:
43,143,49985,2,0,L|6:196|6:196|43:248|43:248|6:301|6:301|43:353|43:353|6:300|6:300|43:248|43:248,6,64.0999980438232,2|0|0|0|0|0|0,3:1|0:0|0:0|0:0|0:0|0:0|0:1,0:0:0:0:
224,116,50333,5,2,3:2:0:0:
367,116,50508,1,0,0:0:0:0:
196,189,50595,2,0,L|133:286|133:286,1,115.599996472168,2|0,0:0|3:0,0:0:0:0:
196,189,50769,1,0,0:0:0:0:
385,256,50857,2,0,L|322:353|322:353,1,115.599996472168,2|0,0:0|0:0,0:0:0:0:
180,362,51031,2,0,L|180:246|180:246,1,115.599996472168,0|0,3:0|0:0,0:0:0:0:
18,242,51205,2,0,L|81:339|81:339,1,115.599996472168,2|0,0:0|0:0,0:0:0:0:
298,266,51380,2,0,L|237:377|237:377|98:243|98:243,1,319.399991471099,8|0,3:0|0:0,0:0:0:0:
98,266,51642,1,0,0:0:0:0:
242,331,51729,6,0,L|305:234|305:234,1,115.599996472168,2|0,3:1|0:0,0:0:0:0:
136,271,51903,1,0,0:1:0:0:
281,256,51990,2,0,L|218:353|218:353,1,115.599996472168,0|8,3:0|0:3,0:0:0:0:
218,256,52165,1,0,0:0:0:0:
374,260,52252,2,0,L|374:87|374:87,1,173.399994708252,2|0,3:1|0:0,0:0:0:0:
221,358,52426,6,0,L|285:292|285:292|347:167|347:167,1,231.199992944336,6|4,3:1|0:1,0:0:0:0:
490,361,52688,1,0,3:0:0:0:
345,260,52775,2,0,L|250:115|250:115,1,173.399994708252,8|0,0:3|0:0,0:0:0:0:
394,176,52950,2,0,L|488:321|488:321,1,173.399994708252,2|0,0:0|0:0,0:0:0:0:
321,88,53124,6,0,L|226:200|226:200|143:321|143:321|53:204|53:204,1,441.30000841713,2|0,3:1|0:1,0:0:0:0:
53,88,53473,2,0,L|158:198|158:198|305:376|305:376,1,382.399988330079,2|0,3:1|0:0,0:0:0:0:
305,88,53735,1,0,0:1:0:0:
90,197,53822,6,0,B|244:340|244:340|374:175|374:175|280:363|280:363,1,630.300002404404,4|0,3:1|0:0,0:0:0:0:
90,197,54171,2,0,B|237:347|237:347|374:187|374:187|279:374|279:374,1,630.300002404404,0|0,3:0|0:0,0:0:0:0:
61,196,54519,5,2,3:2:0:0:
221,275,54694,1,0,0:0:0:0:
65,274,54781,2,0,L|66:158|66:158,1,115.599996472168,2|0,0:0|3:0,0:0:0:0:
139,202,54955,1,0,0:0:0:0:
300,206,55043,2,0,L|237:303|237:303,1,115.599996472168,2|0,0:0|0:0,0:0:0:0:
425,95,55217,2,0,L|425:211|425:211,1,115.599996472168,2|0,3:2|0:0,0:0:0:0:
281,231,55392,2,0,L|281:347|281:347,1,115.599996472168,2|0,0:0|0:0,0:0:0:0:
130,307,55566,2,0,L|93:360|93:360|130:308|130:308|93:255|93:255|130:203|130:203|93:150|93:150|130:98|130:98,6,64.0999980438232,2|0|0|0|0|0|0,3:1|0:0|0:0|0:0|0:0|0:0|0:1,0:0:0:0:
364,338,55914,5,2,3:2:0:0:
210,338,56089,1,0,0:0:0:0:
364,338,56176,2,0,L|364:222|364:222,1,115.599996472168,2|0,0:0|3:0,0:0:0:0:
281,269,56351,1,0,0:0:0:0:
139,261,56438,2,0,L|202:358|202:358,1,115.599996472168,2|0,0:1|0:0,0:0:0:0:
397,260,56612,5,8,0:3:0:0:
265,217,56787,1,0,0:0:0:0:
234,216,56809,1,0,0:0:0:0:
397,260,56961,2,0,B|437:354|437:354|399:204|399:204,1,256.399992175293,0|0,3:0|1:0,0:0:0:0:
324,150,57223,1,0,1:0:0:0:
177,339,57310,6,0,L|240:242|240:242|177:145|177:145,2,115.599996472168,8|0|0,0:0|0:0|1:0,0:0:0:0:
105,337,57572,1,0,3:0:0:0:
249,259,57659,2,0,L|186:356|186:356,1,115.599996472168,0|0,0:0|1:0,0:0:0:0:
105,337,57833,2,0,L|42:240|42:240,1,115.599996472168,0|0,3:0|0:0,0:0:0:0:
249,361,58008,6,0,L|312:294|312:294|375:170|375:170,1,231.199992944336,2|0,3:2|0:0,0:0:0:0:
221,291,58269,1,0,3:0:0:0:
394,289,58357,2,0,L|457:386|457:386,1,115.599996472168,0|0,0:0|3:0,0:0:0:0:
365,210,58531,2,0,L|302:307|302:307,1,115.599996472168,0|0,2:0|2:0,0:0:0:0:
465,128,58705,1,8,0:0:0:0:
505,173,58792,1,0,0:0:0:0:
463,216,58879,1,0,0:0:0:0:
302,209,58966,1,0,0:0:0:0:
477,287,59054,1,0,3:0:0:0:
480,224,59141,1,0,0:0:0:0:
483,161,59228,1,0,0:0:0:0:
182,362,59403,6,0,B|181:70|181:70|182:362|182:362|385:152|385:152,1,876,4|0,3:1|0:0,0:0:0:0:
182,362,59752,2,0,B|192:70|192:70|182:362|182:362|385:152|385:152,1,876,0|0,3:0|0:0,0:0:0:0:
182,362,60101,5,2,3:2:0:0:
30,362,60275,1,0,0:0:0:0:
182,362,60362,2,0,L|245:265|245:265,1,115.599996472168,2|0,0:0|3:0,0:0:0:0:
182,362,60537,1,0,0:0:0:0:
336,304,60624,2,0,L|399:207|399:207,1,115.599996472168,2|0,0:0|0:0,0:0:0:0:
183,134,60799,2,0,L|183:250|183:250,1,115.599996472168,0|0,3:0|0:0,0:0:0:0:
327,270,60974,2,0,L|327:386|327:386,1,115.599996472168,2|0,0:0|0:0,0:0:0:0:
471,346,61147,2,0,L|508:293|508:293|471:241|471:241|508:188|508:188|471:136|471:136|508:83|508:83|471:31|471:31,6,64.0999980438232,2|0|0|0|0|0|0,3:1|0:0|0:0|0:0|0:0|0:0|0:1,0:0:0:0:
261,278,61496,5,2,3:2:0:0:
421,279,61671,1,0,0:0:0:0:
261,278,61758,2,0,L|198:375|198:375,1,115.599996472168,2|0,0:0|3:0,0:0:0:0:
261,278,61932,1,0,0:0:0:0:
117,211,62019,2,0,L|54:308|54:308,1,115.599996472168,2|0,2:0|2:0,0:0:0:0:
207,148,62194,2,0,L|207:264|207:264,1,115.599996472168,2|0,3:2|0:0,0:0:0:0:
372,69,62368,2,0,L|435:166|435:166,1,115.599996472168,2|0,0:0|0:0,0:0:0:0:
241,224,62543,2,0,L|149:304|149:304|52:146|52:146,1,306.799990637208,2|0,3:1|0:0,0:0:0:0:
52,224,62804,1,0,0:1:0:0:
221,306,62892,6,0,L|158:209|158:209,1,115.599996472168,2|0,3:1|0:0,0:0:0:0:
308,241,63066,1,0,0:1:0:0:
158,217,63153,2,0,L|221:314|221:314,1,115.599996472168,0|8,3:0|0:3,0:0:0:0:
221,217,63328,1,0,0:0:0:0:
39,217,63415,2,0,L|38:44|38:44,1,173.399994708252,2|0,3:1|0:0,0:0:0:0:
208,357,63589,2,0,L|176:271|176:271|82:168|82:168,1,231.199992944336,2|0,3:1|0:1,0:0:0:0:
229,359,63851,1,0,3:0:0:0:
60,272,63938,2,0,L|154:127|154:127,1,173.399994708252,8|0,0:3|0:0,0:0:0:0:
307,359,64112,2,0,L|212:214|212:214,1,173.399994708252,2|0,3:2|0:0,0:0:0:0:
62,360,64287,6,0,L|128:229|128:229|224:118|224:118|305:241|305:241,1,441.30000841713,2|0,3:1|0:1,0:0:0:0:
305,248,64636,2,0,L|221:374|221:374|53:216|53:216,1,382.399988330079,2|0,3:1|0:0,0:0:0:0:
53,248,64897,1,0,0:1:0:0:
274,277,64985,5,2,3:2:0:0:
418,278,65072,1,0,0:0:0:0:
271,175,65246,5,2,3:2:0:0:
127,176,65333,1,0,0:0:0:0:
271,77,65508,5,2,3:2:0:0:
415,78,65595,1,0,0:0:0:0:
271,77,65682,2,0,L|286:228|286:228|272:-2|272:-2,1,382.399988330079,2|2,0:1|0:1,0:0:0:0:
422,333,66031,5,2,3:2:0:0:
271,328,66118,1,0,0:0:0:0:
120,333,66293,5,2,3:2:0:0:
271,328,66380,1,0,0:0:0:0:
422,333,66554,5,2,3:2:0:0:
271,328,66641,1,0,0:0:0:0:
422,333,66729,1,8,0:0:0:0:
461,311,66772,1,0,0:0:0:0:
491,278,66816,1,0,0:0:0:0:
507,236,66859,1,0,0:0:0:0:
508,191,66903,1,0,0:0:0:0:
494,149,66947,1,0,0:0:0:0:
466,114,66990,1,0,0:0:0:0:
428,90,67034,1,0,0:0:0:0:
261,82,67078,6,0,B|370:232|370:232|502:361|502:361|503:176|503:176,1,554.700010580064,6|0,3:1|0:1,0:0:0:0:
261,82,67426,2,0,B|367:234|367:234|502:360|502:360|503:175|503:175,1,554.700010580064,2|0,3:1|0:1,0:0:0:0:
322,350,67775,6,0,B|214:200|214:200|80:72|80:72|154:199|154:199|313:355|313:355,1,739.600014106751,0|2,3:0|0:0,0:0:0:0:
395,351,68211,1,0,0:0:0:0:
322,350,68299,1,2,0:0:0:0:
395,351,68386,1,0,0:0:0:0:
322,350,68473,6,0,B|201:210|201:210|80:70|80:70|173:183|173:183|313:357|313:357,1,739.600014106751,2|8,3:1|0:0,0:0:0:0:
252,349,68909,1,0,0:0:0:0:
322,350,68996,1,0,0:0:0:0:
252,349,69083,1,0,0:0:0:0:
322,350,69171,2,0,B|306:140|306:140|323:349|323:349|329:139|329:139|309:348|309:348|182:180|182:180|74:361|74:361|203:255|203:255|358:54|358:54,1,1680.80000641175,2|2,3:1|0:0,0:0:0:0:
243,257,70043,1,2,0:0:0:0:
129,257,70217,1,0,1:0:0:0:
16,258,70392,1,0,3:0:0:0:
255,95,70566,6,0,L|261:198|261:198|246:300|246:300|261:198|261:198|255:95|255:95|258:13|258:13|246:137|246:137,3,206,2|2|2|2,3:2|0:0|0:0|0:0,0:0:0:0:
351,230,71264,2,0,L|354:333|354:333|360:230|360:230|366:127|366:127|351:25|351:25|338:106|338:106|360:228|360:228,3,206,2|0|2|0,0:0|0:0|0:0|0:0,0:0:0:0:
228,106,71961,1,2,0:0:0:0:
466,286,72310,2,0,L|477:184|477:184,1,103,0|0,1:0|1:0,0:0:0:0:
296,196,72572,2,0,L|288:299|288:299,1,103,0|0,1:0|1:0,0:0:0:0:
87,143,72833,2,0,L|37:233|37:233,1,103,0|0,1:0|1:0,0:0:0:0:
196,121,73008,1,2,0:0:0:0:
309,123,73051,1,0,0:0:0:0:
309,123,73357,6,0,L|352:217|352:217|413:300|413:300|381:375|381:375|309:274|309:274,2,206,0|0|8,0:0|0:0|0:0,0:0:0:0:
135,116,73880,2,0,L|187:205|187:205,1,103,2|0,0:0|0:0,0:0:0:0:
284,165,74054,2,0,L|227:224|227:224|179:339|179:339,1,206,0|0,0:0|3:0,0:0:0:0:
410,105,74403,1,8,0:0:0:0:
158,298,74578,2,0,L|210:209|210:209,1,103,0|0,1:0|3:0,0:0:0:0:
30,241,74752,5,2,3:2:0:0:
157,242,74926,1,2,3:2:0:0:
30,241,75101,1,10,0:0:0:0:
186,175,75275,2,0,L|187:278|187:278,1,103,2|0,0:0|0:0,0:0:0:0:
176,298,75450,1,2,0:0:0:0:
124,309,75537,1,0,0:0:0:0:
73,321,75624,1,0,3:0:0:0:
320,354,75799,2,0,L|369:289|369:289|424:178|424:178,1,206,8|0,0:0|1:0,0:0:0:0:
320,354,76060,1,0,1:0:0:0:
485,240,76147,6,0,L|443:334|443:334|381:252|381:252|434:190|434:190|485:77|485:77,2,206,2|0|8,3:2|0:0|0:0,0:0:0:0:
326,185,76671,2,0,L|274:274|274:274|326:363|326:363,2,103,2|0|0,0:0|0:0|0:0,0:0:0:0:
428,188,77019,1,0,3:0:0:0:
181,337,77194,2,0,B|157:259|157:259|176:136|176:136,1,206,8|0,0:0|1:0,0:0:0:0:
267,270,77455,1,0,3:0:0:0:
46,232,77543,6,0,B|37:335|37:335|60:235|60:235|75:155|75:155|155:60|155:60,1,412,2|8,3:2|0:0,0:0:0:0:
301,120,78066,2,0,L|249:209|249:209,1,103
156,171,78240,2,0,L|191:245|191:245|259:349|259:349,1,206,2|0,0:0|3:0,0:0:0:0:
491,215,78589,1,8,0:0:0:0:
208,338,78764,2,0,L|260:249|260:249,1,103,0|0,1:0|3:0,0:0:0:0:
70,286,78938,6,0,B|9:369|9:369|4:266|4:266|30:189|30:189|66:70|66:70,1,412,0|8,3:0|0:0,0:0:0:0:
244,143,79461,2,0,L|250:246|250:246,1,103,2|0,0:0|0:0,0:0:0:0:
186,73,79636,2,0,L|150:169|150:169|82:246|82:246|111:322|111:322|186:223|186:223,2,206,0|0|8,0:0|3:0|0:0,0:0:0:0:
358,81,80159,2,0,L|307:171|307:171,1,103,0|0,1:0|3:0,0:0:0:0:
497,198,80333,5,2,3:2:0:0:
364,197,80508,1,0,0:0:0:0:
497,198,80682,2,0,L|502:301|502:301|497:198|497:198,2,103,8|0|0,0:0|0:0|0:0,0:0:0:0:
258,334,81031,2,0,L|252:231|252:231,1,103,2|0,0:0|0:0,0:0:0:0:
324,256,81205,1,0,0:0:0:0:
79,258,81380,1,8,0:0:0:0:
238,262,81554,1,0,1:0:0:0:
79,258,81642,1,0,1:0:0:0:
238,262,81729,6,0,B|280:356|280:356|320:261|320:261|325:179|325:179|309:56|309:56,1,412,0|10,3:0|0:0,0:0:0:0:
163,104,82252,2,0,L|214:193|214:193,1,103,2|0,0:0|0:0,0:0:0:0:
372,185,82426,2,0,L|412:256|412:256|475:363|475:363,1,206,2|0,0:0|3:0,0:0:0:0:
345,115,82775,1,8,0:0:0:0:
477,103,82950,2,0,L|425:192|425:192,1,103,0|0,1:0|3:0,0:0:0:0:
266,318,83124,6,0,L|310:225|310:225|370:141|370:141|343:64|343:64|266:162|266:162,2,206,2|0|8,3:2|0:0|0:0,0:0:0:0:
418,347,83647,2,0,L|414:244|414:244,1,103,2|0,0:0|0:0,0:0:0:0:
400,212,83822,2,0,L|362:285|362:285|298:179|298:179,1,206,2|0,0:0|3:0,0:0:0:0:
110,311,84171,2,0,L|151:382|151:382|213:274|213:274,1,206,8|0,0:0|1:0,0:0:0:0:
114,282,84432,1,0,3:0:0:0:
283,259,84519,6,0,L|279:362|279:362|290:260|290:260|293:157|293:157,1,309,2|0,3:2|0:0,0:0:0:0:
228,90,84868,1,8,0:0:0:0:
373,91,85043,1,2,0:0:0:0:
363,141,85130,1,0,0:0:0:0:
320,168,85217,1,0,0:0:0:0:
205,171,85392,1,0,3:0:0:0:
437,221,85566,2,0,L|388:287|388:287|332:176|332:176,1,206,8|0,0:0|1:0,0:0:0:0:
260,217,85828,1,0,3:0:0:0:
74,344,85915,5,0,3:0:0:0:
209,344,86089,1,0,3:0:0:0:
209,344,86264,1,8,0:0:0:0:
352,348,86438,2,0,L|404:259|404:259,1,103,2|0,0:0|0:0,0:0:0:0:
310,276,86612,2,0,L|258:365|258:365|310:276|310:276,2,103,2|0|0,0:0|0:0|3:0,0:0:0:0:
77,180,86961,2,0,L|120:250|120:250|182:358|182:358,1,206,8|0,0:0|1:0,0:0:0:0:
357,183,87223,1,0,1:0:0:0:
184,314,87310,6,0,L|132:225|132:225|79:137|79:137|127:71|127:71|184:181|184:181,2,206,2|0|8,3:2|0:0|0:0,0:0:0:0:
307,357,87833,2,0,L|255:268|255:268,1,103
441,280,88008,2,0,L|446:362|446:362|452:238|452:238,1,206,2|0,0:0|3:0,0:0:0:0:
299,160,88357,2,0,L|326:237|326:237|404:334|404:334,1,206,8|0,0:0|1:0,0:0:0:0:
337,151,88618,1,0,3:0:0:0:
160,235,88705,6,0,L|90:311|90:311|55:214|55:214|112:155|112:155|160:40|160:40,2,206,6|0|8,3:2|0:0|0:0,0:0:0:0:
308,235,89229,2,0,L|315:338|315:338,1,103
277,108,89403,2,0,L|253:186|253:186|173:281|173:281,1,206,2|0,0:0|3:0,0:0:0:0:
307,19,89752,2,0,L|336:95|336:95|411:194|411:194,1,206,8|0,0:0|1:0,0:0:0:0:
306,32,90014,1,0,3:0:0:0:
477,78,90101,5,0,3:0:0:0:
500,123,90188,1,0,0:0:0:0:
483,171,90275,1,0,1:0:0:0:
436,193,90362,1,0,0:0:0:0:
263,261,90450,2,0,L|315:350|315:350,1,103,8|0,0:0|0:0,0:0:0:0:
393,336,90624,2,0,L|342:246|342:246,1,103,0|0,1:0|0:0,0:0:0:0:
157,367,90799,6,0,L|145:265|145:265,1,103,0|0,1:0|0:0,0:0:0:0:
244,299,90973,2,0,L|240:196|240:196,1,103,0|0,3:0|0:0,0:0:0:0:
340,218,91147,2,0,L|346:321|346:321,1,103,8|0,0:0|0:0,0:0:0:0:
174,140,91322,2,0,L|226:229|226:229,1,103,0|0,1:0|3:0,0:0:0:0:
385,221,91496,6,0,L|437:310|437:310,1,103,0|0,3:0|0:0,0:0:0:0:
353,250,91671,2,0,L|353:353|353:353,1,103,0|0,3:0|0:0,0:0:0:0:
159,150,91845,1,8,0:0:0:0:
190,211,91932,1,0,0:0:0:0:
247,250,92019,1,0,1:0:0:0:
316,255,92106,1,0,0:0:0:0:
149,356,92194,2,0,L|201:267|201:267,1,103,0|0,3:0|0:0,0:0:0:0:
363,356,92368,2,0,L|311:267|311:267,1,103,0|0,3:0|0:0,0:0:0:0:
135,244,92543,2,0,L|83:333|83:333,1,103,8|0,0:0|0:0,0:0:0:0:
377,244,92717,2,0,L|429:333|429:333,1,103,0|0,1:0|1:0,0:0:0:0:
255,82,92892,6,0,B|218:150|218:150|198:225|198:225|177:300|177:300|163:376|163:376|176:299|176:299|161:223|161:223|172:146|172:146|194:71|194:71|209:147|209:147|250:213|250:213|273:287|273:287|301:360|301:360|301:282|301:282|283:206|283:206|253:134|253:134,1,1167.00001780701,4|0,3:1|0:0,0:0:0:0:
188,380,94287,2,0,L|206:304|206:304|188:228|188:228|185:150|185:150|188:72|188:72|178:149|178:149|188:226|188:226|188:304|188:304,1,544.599983380127
259,287,94985,2,0,L|261:365|261:365|259:287|259:287|257:209|257:209|259:131|259:131|248:54|248:54|259:131|259:131|259:209|259:209,1,544.599983380127
179,57,95682,6,0,B|160:132|160:132|116:196|116:196|146:268|146:268|179:338|179:338|154:264|154:264|116:196|116:196|156:130|156:130|179:56|179:56|160:131|160:131|116:195|116:195|134:271|134:271|179:334|179:334|163:274|163:274|116:193|116:193,1,1089.19996676025
261,135,97078,2,0,B|297:218|297:218|341:297|341:297|317:384|317:384|265:310|265:310|293:244|293:244|349:150|349:150,1,542.4
181,210,97775,2,0,B|118:283|118:283|88:375|88:375|144:296|144:296|182:207|182:207|162:133|162:133|88:43|88:43,1,580.199982293702
291,319,98473,6,0,B|361:235|361:235|406:135|406:135|340:48|340:48|292:146|292:146|350:239|350:239|405:334|405:334|332:253|332:253|293:151|293:151|350:58|350:58|404:153|404:153|329:232|329:232|288:333|288:333|326:255|326:255|403:148|403:148,1,1530.200046698
245,378,99868,2,0,B|295:274|295:274|371:187|371:187|303:94|303:94|245:194|245:194|311:258|311:258|371:384|371:384,1,693.599978833009
205,252,100566,2,0,B|119:338|119:338|70:227|70:227|148:133|148:133|204:25|204:25|157:109|157:109|68:226|68:226,1,731.399966519167
356,77,101264,6,0,B|267:178|267:178|198:294|198:294|292:198|292:198|355:79|355:79|294:199|294:199|200:295|200:295|293:198|293:198|354:78|354:78|297:200|297:200|200:294|200:294|278:185|278:185|353:73|353:73|304:168|304:168|195:289|195:289,1,1883.00007183075
478,75,102659,2,0,B|460:303|460:303|475:74|475:74|446:301|446:301|436:72|436:72|373:292|373:292|271:87|271:87|171:203|171:203|30:-1|30:-1,1,1774.75006770134,2|0,0:1|0:0,0:0:0:0:
29,349,103357,2,0,B|172:170|172:170|299:361|299:361|407:159|407:159|448:384|448:384|470:156|470:156|474:385|474:385|477:156|477:156,1,1603.0000611496,2|0,0:0|0:0,0:0:0:0:
252,89,104054,6,0,L|222:165|222:165|150:266|150:266,1,206,2|0,3:2|0:0,0:0:0:0:
323,203,104403,2,0,L|268:263|268:263|221:378|221:378,1,206,0|0,3:0|0:0,0:0:0:0:
484,357,104752,2,0,L|485:254|485:254|494:151|494:151|498:48|498:48,1,309,0|0,3:0|0:0,0:0:0:0:
435,186,105101,1,0,3:0:0:0:
201,163,105275,1,0,1:0:0:0:
443,144,105450,6,0,L|432:225|432:225|448:348|448:348,1,206,0|0,3:0|0:0,0:0:0:0:
313,319,105799,2,0,L|362:384|362:384|417:272|417:272,1,206,0|0,3:0|0:0,0:0:0:0:
161,369,106147,2,0,L|146:289|146:289|152:165|152:165,1,206,0|0,3:0|0:0,0:0:0:0:
322,253,106496,2,0,L|333:334|333:334|333:210|333:210,1,206,0|0,3:0|1:0,0:0:0:0:
57,37,106845,5,0,3:0:0:0:
18,103,107019,1,0,0:0:0:0:
44,175,107194,1,0,3:0:0:0:
115,202,107368,1,0,0:0:0:0:
276,203,107543,1,0,3:0:0:0:
149,200,107717,1,0,0:0:0:0:
276,203,107892,1,0,3:0:0:0:
149,200,108066,1,0,1:0:0:0:
330,324,108240,5,0,3:0:0:0:
369,258,108414,1,0,0:0:0:0:
343,186,108589,1,0,3:0:0:0:
272,159,108763,1,0,0:0:0:0:
111,158,108938,1,0,3:0:0:0:
238,161,109112,1,0,0:0:0:0:
111,158,109287,1,2,3:2:0:0:
103,46,109461,1,0,0:0:0:0:
374,49,109636,6,0,L|339:123|339:123|271:227|271:227,1,206,4|0,3:1|0:0,0:0:0:0:
435,98,109985,2,0,L|417:178|417:178|411:302|411:302,1,206,2|0,3:2|0:0,0:0:0:0:
172,314,110333,2,0,L|217:382|217:382|277:273|277:273,1,206,2|0,3:2|0:0,0:0:0:0:
151,242,110682,1,2,3:2:0:0:
423,239,110857,1,0,0:0:0:0:
154,364,111031,6,0,L|96:306|96:306|49:191|49:191,1,206,2|0,3:2|0:0,0:0:0:0:
299,244,111380,2,0,L|271:321|271:321|198:221|198:221,1,206,2|0,3:2|0:0,0:0:0:0:
474,137,111729,2,0,L|450:215|450:215|419:335|419:335,1,206,2|0,3:2|0:0,0:0:0:0:
263,45,112078,2,0,L|286:124|286:124|368:217|368:217,1,206,2|0,3:2|0:0,0:0:0:0:
122,322,112426,5,0,3:0:0:0:
101,275,112513,1,0,0:0:0:0:
125,231,112600,1,0,3:0:0:0:
176,226,112687,1,0,0:0:0:0:
29,127,112775,2,0,L|81:216|81:216,1,103,0|0,3:0|0:0,0:0:0:0:
268,228,112950,2,0,L|320:317|320:317,1,103,0|0,3:0|0:0,0:0:0:0:
169,363,113124,2,0,L|116:274|116:274,1,103,0|0,3:0|0:0,0:0:0:0:
314,300,113299,2,0,L|366:211|366:211,1,103,0|0,3:0|0:0,0:0:0:0:
196,177,113473,2,0,L|248:266|248:266,1,103,0|0,3:0|0:0,0:0:0:0:
75,102,113647,2,0,L|23:191|23:191,1,103,0|0,3:0|0:0,0:0:0:0:
254,21,113822,5,8,0:1:0:0:
297,20,113844,1,0,0:0:0:0:
159,108,114171,5,8,0:1:0:0:
203,107,114193,1,0,0:0:0:0:
23,193,114519,5,8,0:1:0:0:
66,192,114541,1,0,0:0:0:0:
235,221,114868,6,0,B|71:26|71:26|2:271|2:271|41:73|41:73|235:311|235:311,2,508.400009696961,8|0|2,0:1|0:0|3:1,0:0:0:0:
247,224,115240,1,0,0:0:0:0:
242,231,115260,1,0,0:0:0:0:
266,239,115284,1,0,0:0:0:0:
255,251,115304,1,0,0:0:0:0:
281,260,115327,1,0,0:0:0:0:
262,275,115347,1,0,0:0:0:0:
292,281,115370,1,0,0:0:0:0:
263,300,115391,1,0,0:0:0:0:
298,306,115413,1,0,0:0:0:0:
259,325,115435,1,0,0:0:0:0:
297,331,115458,1,0,0:0:0:0:
248,347,115478,1,0,0:0:0:0:
291,360,115501,1,0,0:0:0:0:
232,366,115522,1,0,0:0:0:0:
67,362,115566,6,0,L|14:273|14:273,1,103,4|0,0:1|0:0,0:0:0:0:
109,295,115740,2,0,L|172:198|172:198,1,115.599996472168
92,237,115915,2,0,L|40:326|40:326,1,103,2|0,0:0|0:0,0:0:0:0:
134,170,116089,2,0,L|197:267|197:267,1,115.599996472168
118,347,116264,6,0,L|66:258|66:258,1,103,2|0,0:0|0:0,0:0:0:0:
160,280,116438,2,0,L|223:377|223:377,1,115.599996472168
143,222,116613,2,0,L|90:311|90:311,1,103,2|0,0:0|0:0,0:0:0:0:
185,155,116787,2,0,L|248:252|248:252,1,115.599996472168
170,347,116961,6,0,L|118:258|118:258,1,103,2|0,0:0|0:0,0:0:0:0:
212,280,117135,2,0,L|275:377|275:377,1,115.599996472168
195,222,117310,2,0,L|142:311|142:311,1,103,2|0,0:0|0:0,0:0:0:0:
237,155,117484,2,0,L|300:252|300:252,1,115.599996472168
221,332,117659,6,0,L|168:243|168:243,1,103,2|0,0:0|0:0,0:0:0:0:
263,265,117833,2,0,L|326:362|326:362,1,115.599996472168
246,207,118008,2,0,L|194:296|194:296,1,103,2|0,0:0|0:0,0:0:0:0:
288,140,118182,2,0,L|351:237|351:237,1,115.599996472168
272,368,118357,6,0,L|220:279|220:279,1,103,2|0,0:0|0:0,0:0:0:0:
314,301,118531,2,0,L|377:204|377:204,1,115.599996472168
297,243,118706,2,0,L|244:332|244:332,1,103,2|0,0:0|0:0,0:0:0:0:
339,176,118880,2,0,L|402:273|402:273,1,115.599996472168
323,353,119055,6,0,L|270:264|270:264,1,103,2|0,0:0|0:0,0:0:0:0:
365,286,119229,2,0,L|428:383|428:383,1,115.599996472168
348,228,119404,2,0,L|296:317|296:317,1,103,2|0,0:0|0:0,0:0:0:0:
390,161,119578,2,0,L|453:258|453:258,1,115.599996472168
375,353,119752,6,0,L|322:264|322:264,1,103,2|0,0:0|0:0,0:0:0:0:
417,286,119926,2,0,L|480:383|480:383,1,115.599996472168
400,228,120101,2,0,L|348:317|348:317,1,103,2|0,0:0|0:0,0:0:0:0:
442,161,120275,2,0,L|505:258|505:258,1,115.599996472168
407,321,120450,2,0,B|255:133|255:133|154:353|154:353|250:131|250:131,1,724.8,2|0,0:1|0:1,0:0:0:0:
445,362,120799,6,0,L|498:273|498:273,1,103,2|0,0:0|0:0,0:0:0:0:
403,295,120973,2,0,L|340:198|340:198,1,115.599996472168
420,237,121148,2,0,L|472:326|472:326,1,103,2|0,0:0|0:0,0:0:0:0:
378,170,121322,2,0,L|315:267|315:267,1,115.599996472168
394,347,121497,6,0,L|446:258|446:258,1,103,2|0,0:0|0:0,0:0:0:0:
352,280,121671,2,0,L|289:377|289:377,1,115.599996472168
369,222,121846,2,0,L|422:311|422:311,1,103,2|0,0:0|0:0,0:0:0:0:
327,155,122020,2,0,L|264:252|264:252,1,115.599996472168
342,347,122194,6,0,L|394:258|394:258,1,103,2|0,0:0|0:0,0:0:0:0:
300,280,122368,2,0,L|237:377|237:377,1,115.599996472168
317,222,122543,2,0,L|370:311|370:311,1,103,2|0,0:0|0:0,0:0:0:0:
275,155,122717,2,0,L|212:252|212:252,1,115.599996472168
291,332,122892,6,0,L|344:243|344:243,1,103,2|0,0:0|0:0,0:0:0:0:
249,265,123066,2,0,L|186:362|186:362,1,115.599996472168
266,207,123241,2,0,L|318:296|318:296,1,103,2|0,0:0|0:0,0:0:0:0:
224,140,123415,2,0,L|161:237|161:237,1,115.599996472168
240,368,123590,6,0,L|292:279|292:279,1,103,2|0,0:0|0:0,0:0:0:0:
198,301,123764,2,0,L|135:204|135:204,1,115.599996472168
215,243,123939,2,0,L|268:332|268:332,1,103,2|0,0:0|0:0,0:0:0:0:
173,176,124113,2,0,L|110:273|110:273,1,115.599996472168
189,353,124288,6,0,L|242:264|242:264,1,103,2|0,0:0|0:0,0:0:0:0:
147,286,124462,2,0,L|84:383|84:383,1,115.599996472168
164,228,124637,2,0,L|216:317|216:317,1,103,2|0,0:0|0:0,0:0:0:0:
122,161,124811,2,0,L|59:258|59:258,1,115.599996472168
238,358,124985,6,0,L|290:269|290:269,1,103,8|0,1:1|0:0,0:0:0:0:
208,286,125159,2,0,L|145:383|145:383,1,115.599996472168
308,217,125333,2,0,L|371:314|371:314,1,102.9999979793,8|0,1:1|0:0,0:0:0:0:
278,145,125508,2,0,L|215:242|215:242,1,115.599996472168
414,64,125682,6,0,L|314:165|314:165|183:336|183:336,1,357.20001090088,10|0,1:0|0:0,0:0:0:0:
95,67,125944,1,0,0:0:0:0:
304,189,126031,2,0,L|192:351|192:351|42:223|42:223|160:119|160:119|304:309|304:309,2,395,10|0|10,1:1|0:0|1:1,0:0:0:0:
279,176,126402,1,0,0:0:0:0:
276,186,126424,1,0,0:0:0:0:
265,154,126446,1,0,0:0:0:0:
248,167,126467,1,0,0:0:0:0:
257,129,126489,1,0,0:0:0:0:
229,138,126511,1,0,0:0:0:0:
255,103,126533,1,0,0:0:0:0:
223,104,126554,1,0,0:0:0:0:
259,77,126577,1,0,0:0:0:0:
232,70,126598,1,0,0:0:0:0:
269,53,126620,1,0,0:0:0:0:
253,42,126642,1,0,0:1:0:0:
285,32,126664,1,0,0:0:0:0:
306,28,126685,1,0,0:0:0:0:
485,29,126729,5,4,3:0:0:0:
353,114,126903,2,0,L|416:211|416:211,1,115.599996472168
269,283,127078,2,0,L|206:380|206:380,1,115.599996472168,0|0,3:0|0:0,0:0:0:0:
303,216,127252,2,0,L|303:332|303:332,1,115.599996472168
145,145,127426,1,0,3:0:0:0:
298,147,127514,1,0,0:0:0:0:
268,201,127601,1,0,0:0:0:0:
210,223,127688,1,0,0:0:0:0:
359,318,127775,6,0,L|422:221|422:221,1,115.599996472168,0|0,3:0|0:0,0:0:0:0:
333,242,127950,2,0,L|270:339|270:339,1,115.599996472168
412,178,128124,1,0,3:0:0:0:
253,329,128211,2,0,L|190:232|190:232|253:135|253:135,2,115.599996472168
79,368,128473,6,0,L|16:271|16:271,1,115.599996472168,0|0,3:0|0:0,0:0:0:0:
192,269,128647,2,0,L|255:366|255:366,1,115.599996472168
59,176,128822,2,0,L|148:287|148:287|290:125|290:125,1,357.20001090088,2|0,3:1|0:0,0:0:0:0:
457,176,129083,1,0,0:0:0:0:
267,352,129171,5,0,3:0:0:0:
234,293,129258,1,0,0:0:0:0:
263,232,129345,1,0,0:0:0:0:
330,221,129432,1,0,0:0:0:0:
155,207,129519,2,0,L|92:304|92:304|155:207|155:207,2,115.599996472168,0|0|0,3:0|0:0|0:0,0:0:0:0:
300,209,129781,1,0,0:0:0:0:
134,362,129868,6,0,L|134:246|134:246,1,115.599996472168,0|0,3:0|0:0,0:0:0:0:
213,298,130043,2,0,L|276:201|276:201,1,115.599996472168
110,233,130217,1,0,3:0:0:0:
254,226,130304,1,0,0:0:0:0:
221,177,130391,1,0,0:0:0:0:
159,158,130478,1,0,0:0:0:0:
322,103,130566,6,0,L|385:200|385:200,1,115.599996472168,0|0,3:0|0:0,0:0:0:0:
219,46,130740,2,0,L|188:94|188:94,1,57.799998236084
406,187,130915,6,0,L|302:284|302:284|175:110|175:110,1,357.20001090088,0|2,3:2|0:0,0:0:0:0:
14,184,131176,1,0,0:0:0:0:
207,309,131264,2,0,L|219:194|219:194|207:79|207:79,2,115.599996472168,2|0|0,3:1|0:0|0:0,0:0:0:0:
62,308,131525,1,0,0:1:0:0:
232,351,131612,2,0,L|290:251|290:251|232:151|232:151,2,115.599996472168,2|0|0,3:1|0:0|0:0,0:0:0:0:
69,349,131874,1,0,0:1:0:0:
293,357,131961,5,0,3:0:0:0:
314,348,131983,1,0,0:0:0:0:
311,337,132004,1,0,0:0:0:0:
338,328,132026,1,0,0:0:0:0:
325,314,132048,1,0,0:0:0:0:
354,301,132070,1,0,0:0:0:0:
333,288,132091,1,0,0:0:0:0:
361,271,132113,1,0,0:0:0:0:
333,261,132135,1,0,0:0:0:0:
357,239,132157,1,0,0:0:0:0:
327,235,132179,1,0,0:0:0:0:
343,211,132201,1,0,0:0:0:0:
314,211,132222,1,0,0:0:0:0:
320,199,132244,1,0,0:0:0:0:
296,192,132266,1,0,0:0:0:0:
165,178,132310,6,0,L|165:294|165:294,1,115.599996472168,0|0,3:0|0:0,0:0:0:0:
252,100,132485,2,0,L|315:197|315:197,1,115.599996472168
172,30,132659,1,0,3:0:0:0:
339,32,132746,2,0,L|402:129|402:129|339:226|339:226,2,115.599996472168
195,163,133008,1,0,3:0:0:0:
169,217,133095,1,0,0:0:0:0:
199,269,133182,1,0,0:0:0:0:
260,274,133269,1,0,0:0:0:0:
97,350,133357,6,0,L|160:253|160:253,1,115.599996472168,0|0,3:0|0:0,0:0:0:0:
320,295,133531,2,0,L|257:198|257:198,1,115.599996472168
94,291,133705,1,0,3:0:0:0:
115,233,133792,1,0,0:0:0:0:
171,208,133879,1,0,0:0:0:0:
26,207,133967,1,0,0:0:0:0:
214,181,134054,2,0,L|277:278|277:278,1,115.599996472168,2|0,3:2|0:0,0:0:0:0:
184,118,134229,2,0,L|184:234|184:234,1,115.599996472168,2|0,0:0|0:0,0:0:0:0:
395,201,134403,2,0,L|293:300|293:300|164:127|164:127,1,357.20001090088,2|2,3:2|0:0,0:0:0:0:
15,198,134665,1,0,0:0:0:0:
188,334,134752,5,0,3:0:0:0:
208,287,134839,1,0,0:0:0:0:
190,239,134926,1,0,0:0:0:0:
143,219,135013,1,0,0:0:0:0:
301,222,135101,2,0,L|364:319|364:319,1,115.599996472168,0|0,3:0|0:0,0:0:0:0:
301,222,135275,1,0,0:0:0:0:
143,219,135362,1,0,0:0:0:0:
301,315,135450,2,0,L|238:218|238:218,1,115.599996472168,0|0,3:0|0:0,0:0:0:0:
326,251,135624,2,0,L|389:348|389:348,1,115.599996472168
227,343,135799,6,0,L|313:230|313:230|458:71|458:71,1,357.20001090088,0|0,3:0|0:0,0:0:0:0:
380,334,136060,1,0,0:0:0:0:
179,309,136147,2,0,L|179:193|179:193,1,115.599996472168,0|0,3:0|0:0,0:0:0:0:
329,232,136322,2,0,L|360:280|360:280,1,57.799998236084
120,159,136496,6,0,L|216:264|216:264|351:96|351:96,1,357.20001090088,0|0,3:0|0:0,0:0:0:0:
494,161,136757,1,0,0:0:0:0:
346,86,136845,6,0,L|283:183|283:183,1,115.599996472168,2|0,3:1|0:0,0:0:0:0:
468,222,137019,2,0,L|405:319|405:319,1,115.599996472168,2|0,0:1|0:0,0:0:0:0:
249,341,137194,2,0,L|312:244|312:244,1,115.599996472168,2|0,3:1|0:0,0:0:0:0:
160,338,137368,1,0,0:0:0:0:
9,338,137455,1,0,0:1:0:0:
239,279,137543,6,0,L|155:165|155:165|8:7|8:7,1,357.20001090088,4|0,3:1|0:0,0:0:0:0:
83,273,137804,1,0,0:0:0:0:
274,211,137892,1,0,3:0:0:0:
287,218,137913,1,0,0:0:0:0:
282,225,137935,1,0,0:0:0:0:
306,233,137957,1,0,0:0:0:0:
295,245,137979,1,0,0:0:0:0:
321,254,138000,1,0,0:0:0:0:
302,269,138022,1,0,0:0:0:0:
332,275,138044,1,0,0:0:0:0:
303,294,138066,1,0,0:0:0:0:
338,300,138088,1,0,0:0:0:0:
299,319,138110,1,0,0:0:0:0:
337,325,138131,1,0,0:0:0:0:
288,341,138153,1,0,0:0:0:0:
331,354,138174,1,0,0:0:0:0:
272,360,138197,1,0,0:0:0:0:
112,364,138240,6,0,L|112:248|112:248,1,115.599996472168,0|0,3:0|0:0,0:0:0:0:
194,288,138415,2,0,L|257:385|257:385,1,115.599996472168
83,143,138589,1,0,3:0:0:0:
55,196,138676,1,0,0:0:0:0:
83,250,138763,1,0,0:0:0:0:
143,257,138850,1,0,0:0:0:0:
297,251,138938,6,0,L|234:348|234:348,1,115.599996472168,0|0,3:0|0:0,0:0:0:0:
163,178,139112,2,0,L|226:275|226:275,1,115.599996472168
61,82,139287,2,0,L|54:197|54:197,1,115.599996472168,0|0,3:0|0:0,0:0:0:0:
123,4,139461,1,0,0:0:0:0:
274,3,139549,1,0,0:0:0:0:
113,177,139636,6,0,L|176:274|176:274,1,115.599996472168,2|0,3:2|0:0,0:0:0:0:
336,252,139810,2,0,L|273:349|273:349,1,115.599996472168,2|0,0:0|0:0,0:0:0:0:
66,302,139985,2,0,L|144:183|144:183|297:31|297:31,1,357.20001090088,0|0,3:0|0:0,0:0:0:0:
440,305,140246,1,0,0:0:0:0:
254,368,140333,5,0,3:0:0:0:
234,315,140420,1,0,0:0:0:0:
259,264,140507,1,0,0:0:0:0:
316,248,140594,1,0,0:0:0:0:
172,223,140682,2,0,L|109:320|109:320|172:223|172:223,2,115.599996472168,0|0|0,3:0|0:0|0:0,0:0:0:0:
348,223,140944,1,0,0:0:0:0:
181,355,141031,2,0,L|183:239|183:239,1,115.599996472168,0|0,3:0|0:0,0:0:0:0:
268,267,141205,2,0,L|205:364|205:364,1,115.599996472168
47,262,141380,1,0,3:0:0:0:
198,262,141467,1,0,0:0:0:0:
169,207,141554,1,0,0:0:0:0:
111,185,141641,1,0,0:0:0:0:
270,179,141729,6,0,L|333:276|333:276,1,115.599996472168,2|0,3:2|0:0,0:0:0:0:
190,98,141903,2,0,L|158:146|158:146,1,57.799998236084,2|0,0:0|0:0,0:0:0:0:
399,38,142078,2,0,L|304:143|304:143|168:310|168:310,1,357.20001090088,2|2,3:2|0:0,0:0:0:0:
21,36,142339,1,0,0:0:0:0:
194,286,142426,6,0,L|194:170|194:170,1,115.599996472168,2|0,3:1|0:0,0:0:0:0:
117,218,142601,1,0,0:0:0:0:
273,218,142688,1,0,0:1:0:0:
121,344,142775,2,0,L|58:247|58:247|121:150|121:150,2,115.599996472168,2|0|0,3:1|0:0|0:0,0:0:0:0:
274,338,143037,1,0,0:1:0:0:
102,365,143124,5,0,3:0:0:0:
81,356,143146,1,0,0:0:0:0:
84,345,143167,1,0,0:0:0:0:
57,336,143189,1,0,0:0:0:0:
70,322,143211,1,0,0:0:0:0:
41,309,143233,1,0,0:0:0:0:
62,296,143254,1,0,0:0:0:0:
34,279,143276,1,0,0:0:0:0:
62,269,143298,1,0,0:0:0:0:
38,247,143320,1,0,0:0:0:0:
68,243,143342,1,0,0:0:0:0:
52,219,143364,1,0,0:0:0:0:
81,219,143385,1,0,0:0:0:0:
75,207,143407,1,0,0:0:0:0:
99,200,143429,1,0,0:0:0:0:
269,206,143473,6,0,L|269:322|269:322,1,115.599996472168,0|0,3:0|0:0,0:0:0:0:
180,142,143647,2,0,L|117:239|117:239,1,115.599996472168
271,75,143822,1,0,3:0:0:0:
120,77,143909,1,0,0:0:0:0:
149,23,143996,1,0,0:0:0:0:
208,4,144083,1,0,0:0:0:0:
48,324,144171,2,0,L|111:227|111:227,1,115.599996472168,0|0,3:0|0:0,0:0:0:0:
186,322,144345,1,0,0:0:0:0:
43,240,144432,1,0,0:0:0:0:
186,242,144519,6,0,L|123:339|123:339,1,115.599996472168,0|0,3:0|0:0,0:0:0:0:
321,341,144694,2,0,L|352:293|352:293,1,57.799998236084
119,271,144868,2,0,L|193:150|193:150|350:2|350:2,1,357.20001090088,0|0,3:0|0:0,0:0:0:0:
498,273,145130,1,0,0:0:0:0:
321,193,145217,2,0,L|258:290|258:290,1,115.599996472168,0|0,3:0|1:0,0:0:0:0:
446,82,145392,2,0,L|383:179|383:179,1,115.599996472168,0|0,1:0|1:0,0:0:0:0:
149,268,145566,2,0,L|307:93|307:93|474:258|474:258|351:117|351:117|149:316|149:316,2,470.600003590393,2|0|14,3:1|0:0|0:0,0:0:0:0:
255,268,146089,5,2,0:0:0:0:
149,268,146133,1,0,0:0:0:0:
149,268,146438,5,2,0:0:0:0:
255,270,146482,1,0,0:0:0:0:
255,270,146787,5,2,0:0:0:0:
377,270,146831,1,0,0:0:0:0:
377,270,147136,5,2,0:0:0:0:
255,271,147180,1,0,0:0:0:0:
255,271,147485,5,2,0:0:0:0:
96,271,147529,1,0,0:0:0:0:
96,271,147834,5,2,0:0:0:0:
255,272,147878,1,0,0:0:0:0:
255,272,148008,2,0,L|318:369|318:369|255:272|255:272,2,115.599996472168,0|0|0,1:0|1:0|1:0,0:0:0:0:
186,271,148269,1,0,3:0:0:0:
356,202,148357,2,0,L|293:299|293:299,1,115.599996472168,0|0,1:0|1:0,0:0:0:0:
356,202,148531,2,0,L|419:299|419:299,1,115.599996472168,0|0,1:0|3:0,0:0:0:0:
255,48,148705,5,4,3:1:0:0:
401,129,148881,1,0,0:0:0:0:
258,127,148968,1,0,0:0:0:0:
401,129,149055,6,0,B|226:277|226:277|86:96|86:96|134:271|134:271|221:9|221:9,1,916.000034942629,8|0,0:0|0:0,0:0:0:0:
373,383,149490,1,2,0:3:0:0:
221,383,149578,6,0,B|336:223|336:223|483:92|483:92|450:245|450:245|358:25|358:25,1,790,8|0,0:0|0:0,0:0:0:0:
272,163,150014,1,2,0:3:0:0:
358,164,150101,6,0,B|252:274|252:274|169:145|169:145|180:24|180:24|240:199|240:199,1,613.599981274415,8|0,0:0|0:0,0:0:0:0:
305,337,150537,1,2,0:3:0:0:
240,337,150624,6,0,B|296:229|296:229|376:137|376:137|345:45|345:45|320:190|320:190,1,487.599977679444,8|0,0:0|0:0,0:0:0:0:
251,200,151060,1,2,0:3:0:0:
421,199,151147,1,8,0:3:0:0:
461,199,151191,1,0,0:0:0:0:
86,358,151496,6,0,B|46:230|46:230|101:107|101:107|176:219|176:219,1,403.500015392305,4|0,3:0|0:0,0:0:0:0:
28,97,151845,2,0,L|28:206|28:206,1,109.300003335571,8|0,0:0|0:0,0:0:0:0:
108,190,152019,2,0,L|50:283|50:283,1,109.300003335571
213,122,152194,2,0,L|271:215|271:215|213:308|213:308,2,109.300003335571,2|0|0,0:0|0:0|0:0,0:0:0:0:
374,192,152455,1,2,0:0:0:0:
444,192,152543,2,0,L|374:261|374:261|288:127|288:127,1,257.425004909992,8|0,0:0|0:0,0:0:0:0:
287,192,152717,2,0,L|368:286|368:286|498:134|498:134,1,323.575006171703,2|0,0:0|0:0,0:0:0:0:
498,192,152892,1,2,3:1:0:0:
455,198,152913,1,0,0:0:0:0:
455,198,152935,1,0,0:0:0:0:
420,222,152957,1,0,0:0:0:0:
420,222,152979,1,0,0:0:0:0:
399,259,153000,1,0,0:0:0:0:
399,259,153022,1,0,0:0:0:0:
399,302,153044,1,0,0:0:0:0:
399,302,153066,1,0,0:0:0:0:
417,340,153088,1,0,0:0:0:0:
417,340,153110,1,0,0:0:0:0:
451,366,153131,1,0,0:0:0:0:
451,366,153153,1,0,0:1:0:0:
493,373,153175,1,0,0:0:0:0:
493,373,153197,1,0,0:0:0:0:
297,164,153240,6,0,L|234:261|234:261,1,115.599996472168,8|0,0:0|0:0,0:0:0:0:
333,127,153415,2,0,L|332:243|332:243,1,115.599996472168
155,324,153589,1,2,0:0:0:0:
182,269,153676,1,0,0:0:0:0:
241,249,153763,1,0,0:0:0:0:
92,242,153851,1,2,0:0:0:0:
260,226,153938,2,0,L|292:274|292:274,1,57.799998236084,10|0,0:2|0:0,0:0:0:0:
158,126,154112,2,0,L|190:174|190:174,1,57.799998236084,2|0,0:0|0:0,0:0:0:0:
319,123,154287,6,0,L|268:223|268:223|151:346|151:346,1,281.6,2|0,3:2|0:0,0:0:0:0:
218,117,154549,1,0,0:0:0:0:
65,108,154636,2,0,L|2:205|2:205|65:302|65:302,2,115.599996472168,8|0|0,0:0|0:0|0:0,0:0:0:0:
246,198,154897,1,0,3:0:0:0:
174,198,154985,2,0,L|175:314|175:314,1,115.599996472168
102,131,155159,1,0,3:0:0:0:
174,135,155246,1,0,0:0:0:0:
330,135,155333,2,0,L|268:212|268:212|174:340|174:340,1,257.425004909992,8|0,0:3|0:0,0:0:0:0:
174,135,155508,2,0,L|259:225|259:225|385:380|385:380,1,323.575006171703,2|0,0:0|0:0,0:0:0:0:
385,135,155682,6,0,L|322:232|322:232,1,115.599996472168,0|0,3:0|0:0,0:0:0:0:
479,53,155857,2,0,L|478:226|478:226,1,173.399994708252,2|0,0:1|0:0,0:0:0:0:
339,204,156031,2,0,L|402:271|402:271|465:147|465:147,1,231.199992944336,10|0,0:0|0:0,0:0:0:0:
397,200,156293,1,0,3:0:0:0:
169,189,156380,2,0,L|232:286|232:286,1,115.599996472168
401,321,156554,2,0,L|338:224|338:224,1,115.599996472168,0|0,3:0|0:0,0:0:0:0:
162,333,156729,6,0,B|297:74|297:74|406:345|406:345|323:65|323:65|283:354|283:354|336:67|336:67|410:350|410:350|280:204|280:204|42:412|42:412,1,2263,10|0,0:0|0:0,0:0:0:0:
35,328,157426,6,0,B|167:157|167:157|329:14|329:14|232:208|232:208,1,649.19998018799,12|0,0:0|3:0,0:0:0:0:
59,207,157775,6,0,L|122:304|122:304|59:207|59:207,2,115.599996472168,2|0|0,0:0|0:0|3:0,0:0:0:0:
239,124,158037,1,2,0:0:0:0:
310,124,158124,1,8,0:0:0:0:
213,58,158211,2,0,L|166:131|166:131,1,86.6999973541261
155,57,158299,1,2,0:0:0:0:
213,58,158386,1,0,0:0:0:0:
379,55,158473,5,0,3:0:0:0:
485,52,158647,1,2,0:1:0:0:
460,51,158669,1,0,0:0:0:0:
171,219,158822,2,0,L|222:293|222:293|309:176|309:176,1,235.375008978844,8|0,0:3|0:0,0:0:0:0:
332,218,158996,1,0,0:0:0:0:
255,203,159083,1,0,3:0:0:0:
412,197,159171,2,0,L|475:294|475:294|412:197|412:197,2,115.599996472168,2|0|2,0:0|0:0|3:2,0:0:0:0:
270,330,159432,1,0,0:0:0:0:
200,329,159519,2,0,L|251:245|251:245|356:126|356:126,1,257.425004909992,8|0,0:0|0:0,0:0:0:0:
356,329,159694,2,0,L|276:235|276:235|145:84|145:84,1,323.575006171703
117,329,159868,5,2,3:2:0:0:
144,329,159890,1,0,0:0:0:0:
117,329,159912,1,0,0:0:0:0:
144,329,159934,1,0,0:0:0:0:
117,329,159955,1,0,0:0:0:0:
144,329,159977,1,0,0:0:0:0:
117,329,159999,1,0,0:0:0:0:
144,329,160021,1,0,0:0:0:0:
117,329,160043,1,0,0:0:0:0:
144,329,160065,1,0,0:0:0:0:
117,329,160086,1,0,0:0:0:0:
144,329,160108,1,0,0:0:0:0:
117,329,160130,1,0,0:0:0:0:
144,329,160152,1,0,0:0:0:0:
117,329,160174,1,0,0:0:0:0:
286,231,160217,6,0,L|350:297|350:297|412:172|412:172,1,231.199992944336,10|0,0:0|0:0,0:0:0:0:
267,157,160479,1,0,3:0:0:0:
438,160,160566,2,0,L|449:275|449:275,1,115.599996472168
362,88,160740,2,0,L|373:203|373:203,1,115.599996472168,0|0,3:0|0:0,0:0:0:0:
175,289,160915,2,0,L|175:173|175:173,1,115.599996472168,10|0,0:0|0:0,0:0:0:0:
321,213,161089,6,0,L|227:358|227:358,1,173.399994708252,2|0,0:0|0:0,0:0:0:0:
226,212,161264,1,0,3:0:0:0:
298,213,161351,1,0,0:0:0:0:
143,210,161438,2,0,L|144:383|144:383,1,173.399994708252
299,72,161612,1,8,0:0:0:0:
318,81,161634,1,0,0:0:0:0:
312,90,161656,1,0,0:0:0:0:
343,100,161678,1,0,0:0:0:0:
328,116,161700,1,0,0:0:0:0:
362,127,161721,1,0,0:0:0:0:
338,147,161743,1,0,0:0:0:0:
377,155,161765,1,0,0:0:0:0:
339,179,161787,1,0,0:0:0:0:
384,187,161809,1,0,0:0:0:0:
334,212,161830,1,0,0:0:0:0:
157,366,161874,6,0,B|94:239|94:239|16:38|16:38,1,357.20001090088,2|0,3:1|0:1,0:0:0:0:
23,220,162136,2,0,B|197:373|197:373|301:36|301:36,1,584,2|0,0:1|0:1,0:0:0:0:
300,24,162397,2,0,B|218:146|218:146|160:361|160:361,1,369.800007053375,2|0,0:1|0:1,0:0:0:0:
432,221,162659,6,0,B|306:373|306:373|173:227|173:227|248:44|248:44,1,592.5,14|0,0:0|0:0,0:0:0:0:
432,221,163008,2,0,L|335:344|335:344|170:173|170:173,1,395,8|0,0:3|0:0,0:0:0:0:
258,213,163269,1,0,3:0:0:0:
73,140,163357,2,0,L|114:230|114:230|229:340|229:340,1,257.425004909992,2|0,0:0|0:0,0:0:0:0:
229,140,163531,2,0,L|153:238|153:238|18:385|18:385,1,323.575006171703,0|0,3:0|0:0,0:0:0:0:
16,125,163705,5,8,0:0:0:0:
14,102,163727,1,0,0:0:0:0:
12,79,163748,1,0,0:0:0:0:
9,49,163771,1,0,0:0:0:0:
7,19,163792,1,0,0:0:0:0:
225,260,163880,1,2,0:0:0:0:
245,246,163902,1,0,0:0:0:0:
260,225,163924,1,0,0:0:0:0:
265,201,163945,1,0,0:0:0:0:
262,176,163967,1,0,0:0:0:0:
249,155,163989,1,0,0:0:0:0:
229,140,164011,1,0,0:0:0:0:
101,149,164054,6,0,L|38:246|38:246,1,115.599996472168,2|0,3:2|0:0,0:0:0:0:
196,118,164229,2,0,L|196:234|196:234,1,115.599996472168,2|0,0:0|0:0,0:0:0:0:
373,255,164403,1,10,3:2:0:0:
297,255,164490,2,0,L|349:331|349:331|423:213|423:213,1,231.199992944336,0|0,0:0|3:1,0:0:0:0:
254,342,164752,6,0,L|317:245|317:245,1,115.599996472168,2|0,0:0|0:0,0:0:0:0:
254,342,164926,1,0,3:0:0:0:
108,343,165014,2,0,L|124:367|124:367,1,28.8999991180421,2|0,0:0|0:0,0:0:0:0:
254,342,165101,1,8,0:0:0:0:
111,229,165275,2,0,L|142:277|142:277,1,57.799998236084,2|0,0:0|0:0,0:0:0:0:
350,226,165450,6,0,L|287:323|287:323|350:226|350:226,2,115.599996472168,2|0|2,3:2|0:0|0:0,0:0:0:0:
422,228,165711,1,0,0:0:0:0:
214,325,165799,2,0,L|274:219|274:219|403:86|403:86,1,306.799990637208,8|0,0:0|0:0,0:0:0:0:
402,324,166060,1,0,3:0:0:0:
186,226,166147,5,2,0:1:0:0:
172,226,166169,1,0,0:0:0:0:
186,226,166191,1,0,0:0:0:0:
210,226,166213,1,0,0:0:0:0:
230,226,166235,1,0,0:0:0:0:
246,226,166257,1,0,0:0:0:0:
230,226,166279,1,0,0:0:0:0:
186,226,166322,1,0,0:0:0:0:
334,141,166409,2,0,L|397:238|397:238|334:335|334:335,2,115.599996472168,2|8|2,0:1|0:0|0:1,0:0:0:0:
495,75,166671,2,0,L|494:248|494:248,1,173.399994708252,2|0,0:1|0:0,0:0:0:0:
345,229,166845,5,0,3:0:0:0:
379,177,166932,1,0,0:0:0:0:
438,162,167019,2,0,L|375:259|375:259,1,115.599996472168,0|2,0:0|0:1,0:0:0:0:
222,163,167194,2,0,L|221:192|221:192|222:221|222:221|221:250|221:250|222:279|222:279|221:308|221:308|222:337|222:337,6,28.8999991180421,8|0|0|0|2|0|0,0:0|0:0|0:0|0:0|0:1|0:0|0:0,0:0:0:0:
95,281,167368,2,0,L|32:378|32:378,1,115.599996472168
234,352,167543,6,0,L|161:267|161:267|66:126|66:126,1,281.6,2|0,0:1|0:0,0:0:0:0:
257,290,167804,1,0,0:1:0:0:
184,289,167892,2,0,L|228:377|228:377|340:264|340:264,1,257.425004909992,10|0,0:0|0:0,0:0:0:0:
340,289,168066,2,0,L|244:367|244:367|129:204|129:204,1,323.575006171703
128,289,168240,6,0,B|275:139|275:139|412:299|412:299|279:137|279:137,1,630.300002404404,6|0,3:2|0:0,0:0:0:0:
128,289,168589,2,0,B|227:155|227:155|412:329|412:329,1,420.200001602936,8|0,0:3|0:0,0:0:0:0:
311,283,168851,1,0,3:0:0:0:
129,272,168938,6,0,L|130:156|130:156,1,115.599996472168,2|0,0:0|0:0,0:0:0:0:
201,200,169112,1,0,3:0:0:0:
48,195,169200,1,2,0:0:0:0:
216,183,169287,2,0,L|279:280|279:280,1,115.599996472168,8|0,0:0|0:0,0:0:0:0:
186,103,169461,2,0,L|123:200|123:200,1,115.599996472168,2|0,0:0|0:0,0:0:0:0:
306,39,169636,6,0,L|243:136|243:136|306:233|306:233,2,115.599996472168,2|0|2,3:2|0:0|0:0,0:0:0:0:
74,318,169984,1,10,0:0:0:0:
44,304,170006,1,0,0:0:0:0:
44,304,170027,1,0,0:0:0:0:
24,280,170050,1,0,0:0:0:0:
24,280,170071,1,0,0:0:0:0:
14,251,170093,1,0,0:0:0:0:
14,251,170114,1,0,0:0:0:0:
17,220,170137,1,0,0:0:0:0:
17,220,170158,1,0,0:0:0:0:
31,192,170181,1,0,0:0:0:0:
31,192,170202,1,0,0:0:0:0:
56,173,170224,1,0,0:0:0:0:
56,173,170245,1,0,0:1:0:0:
86,165,170268,1,0,0:0:0:0:
98,165,170290,1,0,0:0:0:0:
241,169,170333,6,0,L|178:266|178:266,1,115.599996472168,2|0,0:1|0:0,0:0:0:0:
360,100,170508,2,0,L|423:197|423:197,1,115.599996472168,0|0,0:1|0:0,0:0:0:0:
252,14,170682,2,0,L|362:111|362:111|494:291|494:291,1,369.800007053375,8|2,0:0|0:1,0:0:0:0:
406,37,170944,1,0,0:0:0:0:
200,366,171031,6,0,B|210:137|210:137|196:366|196:366|350:197|350:197,1,687.000026206971,6|0,3:1|0:1,0:0:0:0:
190,186,171380,2,0,B|112:303|112:303|110:162|110:162|186:44|186:44,1,422.399987109376,10|0,0:0|3:0,0:0:0:0:
361,269,171729,1,0,0:0:0:0:
281,269,171816,1,0,0:0:0:0:
361,269,171903,1,0,3:0:0:0:
361,269,171990,1,0,0:0:0:0:
197,346,172078,2,0,L|260:249|260:249,1,115.599996472168,8|0,0:0|0:0,0:0:0:0:
431,218,172252,2,0,L|368:315|368:315,1,115.599996472168
163,215,172426,5,10,0:0:0:0:
125,215,172470,1,0,0:0:0:0:
163,215,172514,5,0,0:0:0:0:
125,215,172558,1,0,0:0:0:0:
163,215,172601,5,0,0:0:0:0:
125,215,172645,1,0,0:0:0:0:
163,215,172688,5,0,0:1:0:0:
125,215,172732,1,0,0:0:0:0:
163,215,172775,5,2,0:1:0:0:
230,217,172862,5,0,0:0:0:0:
283,217,172906,1,0,0:0:0:0:
230,217,172950,5,0,0:0:0:0:
283,217,172994,1,0,0:0:0:0:
230,217,173037,5,0,0:0:0:0:
283,217,173081,1,0,0:0:0:0:
230,217,173124,5,2,0:1:0:0:
284,277,173211,5,0,0:0:0:0:
230,277,173255,1,0,0:0:0:0:
284,277,173299,5,0,0:0:0:0:
230,277,173343,1,0,0:0:0:0:
284,277,173386,5,0,0:1:0:0:
230,277,173430,1,0,0:0:0:0:
284,277,173473,5,2,0:1:0:0:
356,276,173560,5,0,0:0:0:0:
394,276,173604,1,0,0:0:0:0:
356,276,173648,5,0,0:0:0:0:
394,276,173692,1,0,0:0:0:0:
356,276,173735,5,0,0:1:0:0:
394,276,173779,1,0,0:0:0:0:
218,366,173822,6,0,L|222:250|222:250|218:134|218:134|218:18|218:18,1,346.799989416504,12|0,0:0|0:0,0:0:0:0:
383,171,174171,2,0,L|414:219|414:219,1,57.799998236084,0|0,3:0|0:0,0:0:0:0:
47,262,174519,2,0,L|29:376|29:376|32:260|32:260|24:145|24:145,1,346.799989416504,0|0,3:0|0:0,0:0:0:0:
225,60,174868,1,0,3:0:0:0:
246,82,174911,1,0,0:0:0:0:
256,112,174955,1,0,0:0:0:0:
253,143,174998,1,0,0:0:0:0:
238,170,175042,1,0,0:0:0:0:
213,189,175086,1,0,0:0:0:0:
182,195,175129,1,0,0:0:0:0:
152,189,175173,1,0,0:0:0:0:
323,340,175217,5,12,0:0:0:0:
450,341,175392,1,0,0:0:0:0:
204,269,175566,2,0,L|267:366|267:366,1,115.599996472168,0|0,3:0|0:0,0:0:0:0:
325,196,175740,2,0,L|262:293|262:293,1,115.599996472168,0|0,1:0|0:0,0:0:0:0:
55,194,175915,5,4,3:2:0:0:
182,195,176090,1,0,0:0:0:0:
430,197,176264,1,2,3:1:0:0:
425,166,176285,1,0,0:0:0:0:
437,166,176307,1,0,0:0:0:0:
420,134,176329,1,0,0:0:0:0:
442,135,176351,1,0,0:0:0:0:
418,103,176372,1,0,0:0:0:0:
443,103,176394,1,0,0:0:0:0:
419,71,176416,1,0,0:0:0:0:
442,72,176438,1,0,0:0:0:0:
423,40,176460,1,0,0:0:0:0:
438,41,176482,1,0,0:0:0:0:
432,10,176503,1,0,0:0:0:0:
428,10,176525,1,0,0:1:0:0:
240,329,176612,6,0,L|200:246|200:246|114:136|114:136,1,231.199992944336,2|0,3:2|0:0,0:0:0:0:
268,253,176874,1,0,1:0:0:0:
95,247,176961,2,0,L|158:344|158:344,1,115.599996472168,0|0,3:0|0:0,0:0:0:0:
158,247,177136,2,0,L|95:344|95:344,1,115.599996472168,0|0,1:0|0:0,0:0:0:0:
290,182,177310,1,0,3:0:0:0:
439,182,177485,1,0,0:0:0:0:
190,368,177659,1,0,3:0:0:0:
168,345,177702,1,0,0:0:0:0:
157,316,177746,1,0,0:0:0:0:
157,284,177789,1,0,0:0:0:0:
169,255,177833,1,0,0:0:0:0:
190,233,177877,1,0,0:0:0:0:
219,220,177920,1,0,0:0:0:0:
250,219,177964,1,0,0:0:0:0:
410,235,178008,6,0,L|350:304|350:304|284:181|284:181,1,231.199992944336,4|0,3:2|0:0,0:0:0:0:
433,162,178269,1,0,0:0:0:0:
261,166,178357,1,0,3:0:0:0:
238,150,178400,1,0,0:0:0:0:
226,125,178444,1,0,0:0:0:0:
229,97,178487,1,0,0:0:0:0:
247,75,178531,1,0,0:0:0:0:
274,67,178575,1,0,0:0:0:0:
301,74,178618,1,0,0:0:0:0:
472,36,178705,6,0,L|409:133|409:133,1,115.599996472168,4|0,3:1|0:0,0:0:0:0:
321,120,178880,2,0,L|258:217|258:217,1,115.599996472168
450,202,179054,5,2,3:1:0:0:
468,176,179076,1,0,0:0:0:0:
473,145,179098,1,0,0:0:0:0:
465,115,179120,1,0,0:0:0:0:
445,91,179142,1,0,0:0:0:0:
416,79,179163,1,0,0:0:0:0:
385,77,179185,1,0,0:0:0:0:
351,77,179207,1,0,0:0:0:0:
324,76,179229,1,0,0:0:0:0:
339,75,179251,1,0,0:0:0:0:
355,75,179272,1,0,0:0:0:0:
371,75,179294,1,0,0:0:0:0:
386,75,179316,1,0,0:1:0:0:
402,75,179338,1,0,0:0:0:0:
418,75,179360,1,0,0:0:0:0:
302,246,179403,5,0,3:0:0:0:
430,304,179578,2,0,L|393:195|393:195,1,115.599996472168,0|0,1:0|1:0,0:0:0:0:
192,252,179752,1,4,3:1:0:0:
54,249,179926,1,0,1:0:0:0:
290,124,180101,5,0,3:0:0:0:
162,182,180276,2,0,L|199:291|199:291,1,115.599996472168,0|0,1:0|1:0,0:0:0:0:
371,128,180450,1,4,3:1:0:0:
509,125,180624,1,0,1:0:0:0:
261,51,180799,5,0,3:0:0:0:
405,147,180973,2,0,L|342:244|342:244,1,115.599996472168,0|0,1:0|1:0,0:0:0:0:
167,233,181147,1,4,3:1:0:0:
337,232,181322,1,0,1:0:0:0:
39,350,181496,1,4,3:1:0:0:
202,348,181671,2,0,L|265:251|265:251,1,115.599996472168,0|0,1:0|1:0,0:0:0:0:
97,263,181845,1,0,3:0:0:0:
246,254,182019,2,0,L|183:351|183:351,1,115.599996472168,0|0,1:0|0:0,0:0:0:0:
348,187,182194,6,0,L|359:302|359:302,1,115.599996472168,4|0,3:1|0:0,0:0:0:0:
255,91,182368,2,0,L|255:207|255:207,1,115.599996472168,0|0,3:0|0:0,0:0:0:0:
149,191,182543,2,0,L|137:306|137:306,1,115.599996472168,0|0,3:0|0:0,0:0:0:0:
363,191,182717,2,0,L|375:306|375:306,1,115.599996472168,0|0,3:0|0:0,0:0:0:0:
117,198,182892,2,0,L|75:306|75:306,1,115.599996472168,4|0,3:1|0:0,0:0:0:0:
255,91,183066,2,0,L|255:207|255:207,1,115.599996472168,0|0,3:0|0:0,0:0:0:0:
436,202,183240,2,0,L|478:310|478:310,1,115.599996472168,0|0,3:0|0:0,0:0:0:0:
76,202,183415,2,0,L|34:310|34:310,1,115.599996472168,0|0,3:0|0:0,0:0:0:0:
356,335,183589,6,0,L|381:262|381:262|466:171|466:171,1,202.299993826294,2|0,3:2|0:0,0:0:0:0:
466,335,183764,2,0,L|377:249|377:249|255:91|255:91,1,323.575006171703,2|0,0:0|0:0,0:0:0:0:
254,334,183938,2,0,L|271:267|271:267|346:185|346:185,1,180.25,2|0,0:1|0:0,0:0:0:0:
346,334,184112,2,0,L|227:184|227:184|10:379|10:379,1,483.2,2|2,0:1|0:1,0:0:0:0:
155,262,184374,2,0,L|218:359|218:359|155:262|155:262,2,115.599996472168,0|0|0,0:0|0:0|0:1,0:0:0:0:
86,262,184636,1,2,0:1:0:0:
285,167,184723,2,0,L|348:264|348:264,1,115.599996472168
187,94,184897,1,0,0:1:0:0:
426,95,184985,5,4,3:0:0:0:
256,192,185072,12,0,190392,0:0:0:0:
176,369,190566,6,0,L|158:300|158:300|176:230|176:230|169:158|169:158|176:86|176:86|171:15|171:15|176:86|176:86|176:158|176:158|177:230|177:230|194:301|194:301|177:370|177:370|170:299|170:299|177:227|177:227|190:156|190:156|177:85|177:85|177:14|177:14,1,1072.49998129708
256,118,191961,2,0,B|332:205|332:205|382:309|382:309|326:208|326:208|256:116|256:116|285:29|285:29|378:133|378:133,1,693.599978833009
200,207,192659,2,0,B|122:292|122:292|74:187|74:187|124:83|124:83|200:170|200:170|163:254|163:254|78:365|78:365,1,693.599978833009
276,0,193357,6,0,L|260:70|260:70|276:140|276:140|283:211|283:211|276:282|276:282|290:352|290:352|276:282|276:282|288:212|288:212|276:142|276:142|295:73|295:73|276:4|276:4|274:75|274:75|276:146|276:146|276:217|276:217|276:289|276:289|276:361|276:361,1,1072.5
176,362,194752,6,0,B|245:262|245:262|312:160|312:160|252:54|252:54|177:150|177:150|233:229|233:229|313:352|313:352,1,731.399966519167
453,256,195450,2,0,B|388:359|388:359|317:260|317:260|396:167|396:167|450:58|450:58|403:143|403:143|314:260|314:260,1,731.399966519167
129,264,196147,6,0,B|104:331|104:331|78:264|78:264|58:195|58:195|37:127|37:127|22:57|22:57|12:128|12:128|-12:195|-12:195|8:264|8:264|22:334|22:334|26:263|26:263|50:196|50:196|62:126|62:126|68:55|68:55|111:112|111:112|137:179|137:179,1,1072.5
208,105,197543,2,0,B|250:199|250:199|313:280|313:280|264:370|264:370|214:280|214:280|266:217|266:217|315:103|315:103,1,618
156,189,198240,2,0,B|86:265|86:265|51:362|51:362|82:264|82:264|148:185|148:185|126:106|126:106|49:8|49:8,1,618
256,362,198938,6,0,B|285:297|285:297|307:229|307:229|314:158|314:158|348:95|348:95|370:27|370:27|373:98|373:98|385:168|385:168|377:239|377:239|354:307|354:307|359:378|359:378|331:312|331:312|323:241|323:241|316:170|316:170|274:112|274:112|248:45|248:45,1,1072.5
163,117,200333,2,0,B|144:186|144:186|112:250|112:250|79:314|79:314|68:385|68:385|35:321|35:321|40:250|40:250|34:179|34:179|32:108|32:108|21:37|21:37|47:104|47:104|46:175|46:175|80:238|80:238|103:306|103:306|128:373|128:373|154:306|154:306,1,1072.5
235,99,201729,2,0,B|298:181|298:181|338:276|338:276|306:374|306:374|243:292|243:292|272:193|272:193|327:106|327:106|309:5|309:5|247:87|247:87|262:189|262:189|322:273|322:273|277:366|277:366|243:269|243:269|246:187|246:187|327:93|327:93,1,1442
42,296,203124,6,0,B|98:180|98:180|189:90|189:90|108:189|108:189|44:300|44:300|96:213|96:213|183:85|183:85,1,769.199976525881
337,192,203822,2,0,B|266:299|266:299|190:196|190:196|244:80|244:80|335:170|335:170|283:257|283:257|196:385|196:385,1,769.199976525881
439,63,204519,6,0,B|367:153|367:153|313:255|313:255|375:353|375:353|437:255|437:255|372:159|372:159|315:58|315:58|359:165|359:165|434:253|434:253|372:351|372:351|320:248|320:248|376:147|376:147|437:49|437:49|369:110|369:110|311:237|311:237,1,1618.39995061035
60,164,205915,6,0,B|133:277|133:277|217:382|217:382|153:264|153:264|65:162|65:162|149:57|149:57|217:173|217:173|155:292|155:292|61:196|61:196|123:76|123:76|218:171|218:171|126:269|126:269|67:148|67:148|121:56|121:56|224:181|224:181,1,1883.00007183075
461,236,207310,6,0,B|492:328|492:328|486:232|486:232|463:159|463:159|409:55|409:55,1,386.799988195801,6|2,0:2|0:0,0:0:0:0:
226,199,208008,2,0,L|292:269|292:269|320:361|320:361|376:309|376:309|415:199|415:199,1,386.799988195801,2|2,0:0|0:0,0:0:0:0:
170,87,208705,2,0,L|206:177|206:177|264:254|264:254|314:337|314:337|359:251|359:251|304:172|304:172|264:84|264:84|223:19|223:19|170:123|170:123,2,386.799988195801,2|2|2,0:0|0:0|0:0,0:0:0:0:
172,90,209752,1,2,0:0:0:0:
380,366,210101,6,0,L|370:270|370:270|395:176|395:176|413:101|413:101|409:218|409:218,1,386.799988195801,2|2,0:0|0:0,0:0:0:0:
170,87,210799,2,0,L|204:177|204:177|264:252|264:252|288:325|288:325|359:232|359:232,1,386.799988195801,2|2,0:0|0:0,0:0:0:0:
154,366,211496,6,0,L|137:271|137:271|140:174|140:174|121:100|121:100|126:217|126:217,1,386.799988195801,2|2,0:0|0:0,0:0:0:0:
364,87,212194,2,0,L|317:171|317:171|270:255|270:255|220:313|220:313|175:205|175:205,1,386.799988195801,2|2,0:0|0:0,0:0:0:0:
392,362,212892,5,2,0:0:0:0:
474,302,213066,1,0,0:0:0:0:
492,202,213240,1,2,0:0:0:0:
437,117,213415,1,2,0:0:0:0:
338,95,213589,2,0,L|317:189|317:189|326:285|326:285|335:381|335:381|338:284|338:284|326:208|326:208|326:91|326:91,3,193.399994097901,2|2|2|0,0:0|0:0|0:0|0:0,0:0:0:0:
197,284,214287,6,0,L|232:374|232:374|291:297|291:297|338:237|338:237|385:130|385:130,1,386.799988195801,2|2,0:0|0:0,0:0:0:0:
209,197,214985,2,0,L|167:284|167:284|115:365|115:365|86:294|86:294|21:197|21:197,1,386.799988195801,2|2,0:0|0:0,0:0:0:0:
251,25,215682,1,2,0:0:0:0:
340,74,215856,1,2,0:0:0:0:
364,171,216030,1,2,0:0:0:0:
310,256,216205,1,0,0:0:0:0:
210,274,216380,2,0,L|197:370|197:370|201:273|201:273|207:176|207:176|210:79|210:79|207:2|207:2|201:119|201:119,3,193.399994097901,2|0|2|0,0:0|0:0|0:0|0:0,0:0:0:0:
45,250,217078,6,0,L|109:322|109:322|139:230|139:230|166:158|166:158|233:63|233:63,1,386.799988195801,2|2,0:0|0:0,0:0:0:0:
466,250,217775,2,0,L|431:340|431:340|372:263|372:263|317:210|317:210|278:100|278:100,1,386.799988195801,2|2,0:0|0:0,0:0:0:0:
34,221,218473,6,0,L|38:318|38:318|23:223|23:223|43:128|43:128|34:32|34:32|20:107|20:107|23:224|23:224,3,193.399994097901,2|2|2|0,0:0|0:0|0:0|0:0,0:0:0:0:
164,67,219171,2,0,B|187:161|187:161|182:258|182:258|159:331|159:331|100:231|100:231,1,386.799988195801,2|2,0:0|0:0,0:0:0:0:
197,203,219694,1,0,0:0:0:0:
331,208,219868,2,0,L|283:292|283:292|236:377|236:377|199:310|199:310|142:208|142:208,1,386.799988195801,2|2,0:0|0:0,0:0:0:0:
376,95,220566,2,0,B|429:176|429:176|438:272|438:272|422:347|422:347|376:240|376:240,1,386.799988195801,2|2,0:0|0:0,0:0:0:0:
110,360,221264,5,2,0:0:0:0:
33,315,221438,1,0,0:0:0:0:
12,229,221612,1,0,0:0:0:0:
59,155,221787,1,2,0:0:0:0:
148,138,221961,2,0,L|198:221|198:221|241:308|241:308|196:223|196:223|148:139|148:139|202:84|202:84|241:194|241:194,3,193.399994097901,2|0|0|0,0:0|0:0|0:0|0:0,0:0:0:0:
100,54,222659,2,0,L|144:140|144:140|193:223|193:223|214:297|214:297|287:206|287:206,1,386.799988195801,2|0,0:0|0:0,0:0:0:0:
74,288,223357,2,0,L|88:384|88:384|64:290|64:290|77:214|77:214|54:100|54:100,1,386.799988195801,2|0,0:0|0:0,0:0:0:0:
469,49,224054,5,0,0:0:0:0:
256,192,224229,12,0,229461,0:0:0:0:
135,336,229636,6,0,B|89:244|89:244|101:142|101:142|126:64|126:64|186:173|186:173,1,412,6|0,3:2|3:0,0:0:0:0:
313,202,230159,1,0,0:0:0:0:
54,117,230333,1,0,3:0:0:0:
194,115,230508,2,0,L|205:165|205:165,1,51.5
44,44,230682,1,0,3:0:0:0:
176,38,230857,2,0,L|167:89|167:89,1,51.5,0|0,1:0|0:0,0:0:0:0:
387,171,231031,6,0,L|332:258|332:258|282:348|282:348|224:290|224:290|177:175|177:175,1,412,2|0,3:2|3:0,0:0:0:0:
67,170,231554,1,0,0:0:0:0:
332,275,231729,1,0,3:0:0:0:
94,344,231903,2,0,L|118:299|118:299,1,51.5,2|0,1:2|0:0,0:0:0:0:
256,288,232078,1,0,3:0:0:0:
14,242,232252,2,0,L|38:287|38:287,1,51.5,2|0,1:2|0:0,0:0:0:0:
320,194,232426,6,0,B|339:295|339:295|355:193|355:193|335:114|335:114|272:7|272:7,1,412,2|0,3:2|3:0,0:0:0:0:
134,50,232950,1,0,0:0:0:0:
387,20,233124,1,0,3:0:0:0:
267,97,233299,2,0,L|260:148|260:148,1,51.5
125,20,233473,1,0,3:0:0:0:
245,97,233648,2,0,L|252:148|252:148,1,51.5,0|0,1:0|0:0,0:0:0:0:
22,209,233822,6,0,L|56:306|56:306|127:381|127:381|170:311|170:311|232:203|232:203,1,412,2|0,3:2|3:0,0:0:0:0:
361,206,234345,1,0,0:0:0:0:
126,329,234519,1,0,3:0:0:0:
369,302,234694,2,0,L|343:347|343:347,1,51.5,2|0,1:2|0:0,0:0:0:0:
202,273,234868,1,0,3:0:0:0:
441,234,235043,2,0,L|467:279|467:279,1,51.5,2|0,1:2|0:0,0:0:0:0:
219,75,235217,6,0,L|274:162|274:162|323:252|323:252|363:323|363:323|428:217|428:217,1,412,2|0,3:2|3:0,0:0:0:0:
321,118,235740,1,0,0:0:0:0:
69,209,235915,1,0,3:0:0:0:
181,215,236089,2,0,L|186:266|186:266,1,51.5,0|0,3:0|0:0,0:0:0:0:
38,116,236264,1,0,3:0:0:0:
150,122,236438,2,0,L|155:173|155:173,1,51.5,0|0,1:0|0:0,0:0:0:0:
422,44,236612,6,0,B|459:140|459:140|444:242|444:242|415:318|415:318|353:210|353:210,1,412,2|0,3:2|3:0,0:0:0:0:
210,168,237136,1,0,0:0:0:0:
446,286,237310,1,0,3:0:0:0:
197,325,237485,2,0,L|221:370|221:370,1,51.5,2|0,1:2|0:0,0:0:0:0:
358,265,237659,1,0,3:0:0:0:
112,252,237833,2,0,L|136:297|136:297,1,51.5,2|0,1:2|0:0,0:0:0:0:
379,170,238008,6,0,L|320:254|320:254|274:346|274:346|218:286|218:286|169:172|169:172,1,412,2|0,3:2|3:0,0:0:0:0:
286,147,238531,1,0,0:0:0:0:
55,148,238705,1,0,3:0:0:0:
175,153,238880,2,0,L|177:204|177:204,1,51.5
295,75,239054,1,0,3:0:0:0:
175,80,239229,2,0,L|173:131|173:131,1,51.5,0|0,1:0|0:0,0:0:0:0:
450,49,239403,6,0,L|391:133|391:133|345:225|345:225|302:295|302:295|240:187|240:187,1,412,2|0,3:2|3:0,0:0:0:0:
357,26,239926,1,0,0:0:0:0:
102,176,240101,1,0,3:0:0:0:
346,268,240275,2,0,L|320:313|320:313,1,51.5,2|0,1:2|0:0,0:0:0:0:
199,233,240450,1,0,3:0:0:0:
448,201,240624,2,0,L|422:246|422:246,1,51.5,2|0,1:2|0:0,0:0:0:0:
124,355,240799,5,4,3:1:0:0:
124,356,241147,2,0,L|78:288|78:288|19:179|19:179,1,206,0|0,3:0|0:0,0:0:0:0:
305,191,241496,2,0,L|236:267|236:267|200:364|200:364|148:275|148:275,1,309,0|0,3:0|0:0,0:0:0:0:
78,190,241845,2,0,L|26:279|26:279,1,103,0|0,3:0|0:0,0:0:0:0:
217,100,242019,1,0,1:0:0:0:
294,104,242107,1,0,0:0:0:0:
262,104,242150,1,0,0:0:0:0:
122,143,242194,6,0,L|170:209|170:209|227:319|227:319,1,206,0|0,3:0|1:0,0:0:0:0:
371,146,242543,2,0,L|394:225|394:225|476:318|476:318,1,206,0|2,3:0|0:0,0:0:0:0:
206,357,242892,1,0,3:0:0:0:
366,360,243066,2,0,L|391:282|391:282|471:187|471:187,1,206,2|0,0:0|3:0,0:0:0:0:
410,351,243328,1,0,0:0:0:0:
468,352,243415,1,2,0:0:0:0:
234,230,243589,6,0,L|181:293|181:293|129:180|129:180,1,206,0|0,3:0|0:0,0:0:0:0:
288,133,243938,2,0,L|258:209|258:209|183:308|183:308,1,206,0|0,3:0|0:0,0:0:0:0:
470,37,244287,2,0,L|404:116|404:116|365:211|365:211|309:271|309:271|260:385|260:385,1,412,0|0,3:0|3:0,0:0:0:0:
362,24,244810,1,2,0:0:0:0:
96,162,244985,6,0,L|138:232|138:232|201:339|201:339,1,206,2|0,3:2|0:0,0:0:0:0:
350,273,245333,2,0,L|393:343|393:343|455:235|455:235,1,206,2|0,3:2|0:0,0:0:0:0:
268,382,245682,2,0,L|305:309|305:309|373:205|373:205,1,206,2|0,3:2|0:0,0:0:0:0:
41,170,246031,2,0,L|86:238|86:238|146:347|146:347,1,206,2|0,3:2|0:0,0:0:0:0:
470,176,246380,6,0,L|416:263|416:263|365:352|365:352|325:281|325:281|260:175|260:175,1,412,6|0,3:2|3:0,0:0:0:0:
361,150,246903,1,0,0:0:0:0:
130,354,247078,2,0,L|90:283|90:283|25:177|25:177,1,206,2|0,3:2|0:0,0:0:0:0:
87,346,247339,1,0,0:0:0:0:
234,316,247426,2,0,L|182:227|182:227,1,103,0|0,3:0|0:0,0:0:0:0:
28,311,247601,6,0,L|25:229|25:229|28:105|28:105,1,206,0|6,1:0|3:2,0:0:0:0:
279,171,247950,2,0,L|236:264|236:264|174:346|174:346|219:278|219:278|279:169|279:169,2,206,0|0|0,0:0|3:0|0:0,0:0:0:0:
333,172,248386,1,0,0:0:0:0:
181,306,248473,2,0,L|128:217|128:217,1,103,2|0,3:2|0:0,0:0:0:0:
336,245,248647,1,0,0:0:0:0:
93,211,248822,2,0,L|107:291|107:291|94:167|94:167,1,206,0|0,3:0|1:0,0:0:0:0:
377,62,249171,6,0,L|430:151|430:151,1,103,0|0,3:0|0:0,0:0:0:0:
356,135,249345,2,0,L|408:224|408:224,1,103,0|0,3:0|0:0,0:0:0:0:
221,252,249519,2,0,L|274:341|274:341,1,103,0|0,3:0|0:0,0:0:0:0:
168,191,249694,2,0,L|116:280|116:280,1,103,0|0,3:0|0:0,0:0:0:0:
309,60,249868,2,0,L|256:149|256:149,1,103,0|0,3:0|0:0,0:0:0:0:
180,117,250043,2,0,L|232:206|232:206,1,103,0|0,3:0|0:0,0:0:0:0:
465,178,250217,2,0,L|412:267|412:267,1,103,0|0,3:0|0:0,0:0:0:0:
249,300,250392,2,0,L|197:211|197:211,1,103,0|0,3:0|0:0,0:0:0:0:
364,203,250566,6,0,L|312:292|312:292,1,103,4|0,3:1|0:0,0:0:0:0:
118,194,250740,2,0,L|170:283|170:283,1,103,0|0,3:0|0:0,0:0:0:0:
327,98,250915,1,0,3:0:0:0:
483,100,251002,1,0,0:0:0:0:
243,36,251089,2,0,L|243:139|243:139,1,103,0|0,3:0|0:0,0:0:0:0:
388,164,251264,2,0,L|440:253|440:253,1,103,0|0,3:0|1:0,0:0:0:0:
184,320,251438,2,0,L|132:231|132:231,1,103,0|0,1:0|1:0,0:0:0:0:
318,249,251612,1,0,3:0:0:0:
471,251,251700,1,0,1:0:0:0:
196,150,251787,1,0,1:0:0:0:
39,150,251875,1,0,1:0:0:0:
256,194,251961,5,0,0:0:0:0:
256,194,252049,1,0,0:0:0:0:
256,194,252136,1,0,0:0:0:0:
256,194,252223,1,0,0:0:0:0:
256,194,252310,1,0,0:0:0:0:
215,194,252397,1,0,0:0:0:0:
256,194,252485,1,0,0:0:0:0:
296,194,252572,1,0,0:0:0:0:
256,194,252659,1,0,0:0:0:0:
210,194,252746,1,0,0:0:0:0:
256,194,252834,1,0,0:0:0:0:
300,194,252921,1,0,0:0:0:0:
256,194,253008,1,0,0:0:0:0:
205,194,253095,1,0,0:0:0:0:
256,194,253183,1,0,0:0:0:0:
304,194,253270,1,0,0:0:0:0:
256,194,253357,1,0,0:0:0:0:
199,194,253444,1,0,0:0:0:0:
256,194,253532,1,0,0:0:0:0:
310,194,253619,1,0,0:0:0:0:
256,194,253706,1,0,0:0:0:0:
192,195,253793,1,0,0:0:0:0:
256,195,253881,1,0,0:0:0:0:
317,195,253968,1,0,0:0:0:0:
256,195,254055,1,0,0:0:0:0:
183,195,254142,1,0,0:0:0:0:
256,195,254230,1,0,0:0:0:0:
326,195,254317,1,0,0:0:0:0:
256,195,254404,1,0,0:0:0:0:
173,196,254490,1,0,0:0:0:0:
256,196,254578,1,0,0:0:0:0:
336,196,254665,1,0,0:0:0:0:
256,196,254752,1,0,0:0:0:0:
164,196,254839,1,0,0:0:0:0:
256,196,254927,1,0,0:0:0:0:
344,196,255014,1,0,0:0:0:0:
256,196,255101,1,0,0:0:0:0:
155,196,255188,1,0,0:0:0:0:
256,196,255276,1,0,0:0:0:0:
352,196,255363,1,0,0:0:0:0:
256,196,255450,5,0,0:0:0:0:
93,197,255537,1,0,0:0:0:0:
256,197,255625,1,0,0:0:0:0:
408,197,255712,1,0,0:0:0:0:
256,197,255799,1,0,0:0:0:0:
73,195,255886,1,0,0:0:0:0:
256,195,255974,1,0,0:0:0:0:
425,195,256061,1,0,0:0:0:0:
121,70,256147,6,0,B|75:294|75:294|118:69|118:69|63:291|63:291|107:66|107:66|96:295|96:295|166:77|166:77|278:220|278:220|481:33|481:33,1,1832.00006988526,6|0,3:2|3:0,0:0:0:0:
480,258,256867,1,0,0:0:0:0:
345,357,257019,2,0,L|398:268|398:268,1,103,0|0,1:0|3:0,0:0:0:0:
186,279,257194,2,0,L|238:368|238:368,1,103,0|0,1:0|3:0,0:0:0:0:
452,189,257368,2,0,L|400:278|400:278,1,103,0|0,1:0|3:0,0:0:0:0:
172,333,257543,6,0,L|230:253|230:253|328:128|328:128,1,257.425004909992,2|0,0:0|0:0,0:0:0:0:
330,334,257718,2,0,L|212:217|212:217|27:23|27:23,1,433.825004137277
27,334,257892,1,2,0:0:0:0:
68,315,257913,1,0,0:0:0:0:
68,315,257936,1,0,0:0:0:0:
99,283,257957,1,0,0:0:0:0:
99,283,257979,1,0,0:0:0:0:
115,242,258001,1,0,0:0:0:0:
115,242,258023,1,0,0:0:0:0:
115,197,258044,1,0,0:0:0:0:
115,197,258067,1,0,0:0:0:0:
103,158,258088,1,0,0:0:0:0:
103,158,258110,1,0,0:0:0:0:
67,124,258131,1,0,0:0:0:0:
67,124,258154,1,0,0:0:0:0:
26,106,258175,1,0,0:0:0:0:
26,106,258197,1,0,0:0:0:0:
216,110,258241,5,4,3:1:0:0:
105,107,258415,2,0,L|92:222|92:222,1,115.599996472168,2|2,0:0|0:0,0:0:0:0:
382,220,258676,2,0,L|395:335|395:335,1,115.599996472168,0|2,0:0|0:0,0:0:0:0:
207,138,258938,2,0,L|270:235|270:235,1,115.599996472168,2|0,3:2|0:0,0:0:0:0:
184,54,259112,2,0,L|121:151|121:151,1,115.599996472168,2|0,0:0|0:0,0:0:0:0:
307,22,259287,2,0,L|323:136|323:136|308:251|308:251|308:367|308:367,1,346.799989416504,2|0,0:1|0:1,0:0:0:0:
485,222,259636,5,2,3:2:0:0:
354,338,259810,2,0,L|417:241|417:241,1,115.599996472168,2|2,0:0|0:0,0:0:0:0:
357,331,259985,1,0,0:0:0:0:
206,271,260072,2,0,L|269:368|269:368,1,115.599996472168,0|2,0:0|0:0,0:0:0:0:
40,371,260333,2,0,L|48:256|48:256|40:141|40:141|40:25|40:25,1,346.799989416504,2|0,3:2|0:0,0:0:0:0:
245,172,260682,2,0,L|175:264|175:264|119:365|119:365|56:268|56:268,1,346.799989416504,2|0,0:1|0:1,0:0:0:0:
259,69,261031,5,2,3:1:0:0:
264,64,261205,2,0,L|327:161|327:161,1,115.599996472168,0|2,0:1|0:1,0:0:0:0:
138,194,261467,2,0,L|201:291|201:291,1,115.599996472168,0|2,0:1|0:1,0:0:0:0:
474,200,261729,5,2,3:1:0:0:
342,237,261903,2,0,L|405:334|405:334,1,115.599996472168,0|2,0:1|0:1,0:0:0:0:
172,335,262165,2,0,L|109:238|109:238,1,115.599996472168,0|2,0:1|0:1,0:0:0:0:
374,379,262426,2,0,B|414:271|414:271|388:158|388:158|332:57|332:57,1,346.799989416504,2|0,3:1|0:1,0:0:0:0:
124,198,262775,2,0,L|201:308|201:308|282:200|282:200|360:91|360:91,1,403.500015392305,2|0,1:1|0:1,0:0:0:0:
108,356,263124,6,0,B|222:203|222:203|360:71|360:71|365:262|365:262,1,573.599982495118,2|0,3:1|0:0,0:0:0:0:
277,232,263473,2,0,B|168:75|168:75|25:202|25:202|22:11|22:11,1,573.599982495118,4|0,3:2|0:0,0:0:0:0:
193,106,263822,5,2,3:2:0:0:
371,161,263996,1,2,0:0:0:0:
289,163,264083,2,0,L|289:279|289:279,1,115.599996472168,2|0,0:0|0:0,0:0:0:0:
112,76,264258,2,0,L|175:173|175:173,1,115.599996472168,0|2,0:0|0:0,0:0:0:0:
460,191,264519,2,0,L|452:306|452:306|461:191|461:191|461:75|461:75,1,346.799989416504,2|0,3:2|0:0,0:0:0:0:
269,346,264868,2,0,L|318:241|318:241|395:155|395:155|458:58|458:58,1,346.799989416504,2|0,0:1|0:1,0:0:0:0:
308,268,265217,5,2,3:2:0:0:
188,267,265392,1,2,0:0:0:0:
188,267,265479,2,0,L|251:364|251:364,1,115.599996472168,2|0,0:0|0:0,0:0:0:0:
434,188,265653,2,0,L|497:285|497:285,1,115.599996472168,0|2,0:0|0:0,0:0:0:0:
257,48,265915,5,6,3:1:0:0:
111,129,266089,1,0,0:1:0:0:
254,127,266176,1,0,0:0:0:0:
111,129,266264,6,0,B|268:295|268:295|426:129|426:129|408:310|408:310|291:60|291:60,1,916.000034942629,8|0,0:0|0:0,0:0:0:0:
139,383,266700,1,2,0:3:0:0:
291,383,266787,6,0,B|147:248|147:248|29:90|29:90|72:241|72:241|154:17|154:17,1,790,8|0,0:0|0:0,0:0:0:0:
240,163,267223,1,2,0:3:0:0:
154,164,267310,6,0,B|264:271|264:271|343:140|343:140|320:21|320:21|272:200|272:200,1,613.599981274415,8|0,0:0|0:0,0:0:0:0:
207,337,267746,1,2,0:3:0:0:
272,337,267833,6,0,B|220:227|220:227|136:139|136:139|174:50|174:50|192:196|192:196,1,487.599977679444,8|0,0:0|0:0,0:0:0:0:
261,200,268269,1,2,0:3:0:0:
334,217,268357,2,0,L|282:315|282:315|151:193|151:193,1,290.5,8|0,3:0|0:0,0:0:0:0:
150,204,268531,2,0,L|268:320|268:320|452:125|452:125,1,433.825004137277
454,376,268705,6,0,B|453:84|453:84|454:376|454:376|245:172|245:172,1,876,4|0,3:1|0:0,0:0:0:0:
454,376,269054,2,0,B|460:84|460:84|454:376|454:376|245:172|245:172,1,876,0|0,3:0|0:0,0:0:0:0:
454,376,269403,1,2,3:2:0:0:
321,376,269578,1,0,0:0:0:0:
465,289,269665,2,0,L|402:386|402:386,1,115.599996472168,2|0,0:0|3:0,0:0:0:0:
211,288,269839,1,0,0:0:0:0:
376,205,269926,2,0,L|313:302|313:302,1,115.599996472168,2|0,0:0|0:0,0:0:0:0:
101,204,270101,6,0,L|101:320|101:320,1,115.599996472168,2|0,3:2|0:0,0:0:0:0:
249,122,270275,2,0,L|249:238|249:238,1,115.599996472168,2|0,0:0|0:0,0:0:0:0:
417,21,270450,1,0,3:0:0:0:
455,36,270493,1,0,0:0:0:0:
481,68,270537,1,0,0:0:0:0:
488,109,270580,1,0,0:0:0:0:
475,148,270624,1,0,0:0:0:0:
443,175,270668,1,0,0:0:0:0:
402,183,270711,1,0,0:0:0:0:
177,186,270799,5,2,3:2:0:0:
340,191,270973,1,0,0:0:0:0:
154,292,271060,2,0,L|217:195|217:195,1,115.599996472168,2|0,0:0|3:0,0:0:0:0:
414,293,271235,1,0,0:0:0:0:
240,367,271322,2,0,L|177:270|177:270,1,115.599996472168,2|0,0:1|0:0,0:0:0:0:
375,291,271496,2,0,L|375:175|375:175,1,115.599996472168,2|0,3:2|0:0,0:0:0:0:
199,201,271671,2,0,L|262:298|262:298,1,115.599996472168,2|0,0:0|0:0,0:0:0:0:
488,147,271845,2,0,L|418:247|418:247|299:105|299:105,1,306.799990637208,0|0,3:0|0:0,0:0:0:0:
374,129,272107,1,0,0:0:0:0:
181,62,272194,6,0,L|118:159|118:159,1,115.599996472168,2|0,3:1|0:0,0:0:0:0:
291,19,272368,1,0,0:1:0:0:
112,144,272455,2,0,L|175:241|175:241|112:338|112:338,2,115.599996472168,0|8|0,3:0|0:3|0:0,0:0:0:0:
284,104,272717,2,0,L|283:277|283:277,1,173.399994708252,2|0,3:1|0:0,0:0:0:0:
116,238,272892,2,0,L|184:300|184:300|242:173|242:173,1,231.199992944336,2|0,3:1|0:1,0:0:0:0:
408,238,273153,1,0,3:0:0:0:
228,320,273240,2,0,L|134:175|134:175,1,173.399994708252,8|0,0:3|0:0,0:0:0:0:
287,236,273415,2,0,L|381:381|381:381,1,173.399994708252,2|0,3:2|0:0,0:0:0:0:
191,143,273589,6,0,L|255:276|255:276|346:161|346:161|424:36|424:36,1,441.30000841713,2|0,3:1|0:1,0:0:0:0:
423,10,273938,2,0,L|328:128|328:128|171:297|171:297,1,382.399988330079,2|0,3:1|0:0,0:0:0:0:
87,14,274199,1,0,0:1:0:0:
278,278,274287,5,2,3:2:0:0:
422,279,274374,1,0,0:0:0:0:
275,176,274548,5,2,3:2:0:0:
131,177,274635,1,0,0:0:0:0:
275,78,274810,5,2,3:2:0:0:
419,79,274897,1,0,0:0:0:0:
275,78,274984,2,0,L|273:230|273:230|276:-1|276:-1,1,382.399988330079,2|2,0:1|0:1,0:0:0:0:
426,334,275333,5,2,3:2:0:0:
275,329,275420,1,0,0:0:0:0:
124,334,275595,5,2,3:2:0:0:
275,329,275682,1,0,0:0:0:0:
426,334,275856,5,0,3:2:0:0:
275,329,275943,1,0,0:0:0:0:
426,334,276031,1,8,0:0:0:0:
465,312,276074,1,0,0:0:0:0:
495,279,276118,1,0,0:0:0:0:
511,237,276161,1,0,0:0:0:0:
512,192,276205,1,0,0:0:0:0:
498,150,276249,1,0,0:0:0:0:
470,115,276292,1,0,0:0:0:0:
432,91,276336,1,0,0:0:0:0:
261,82,276380,6,0,B|385:219|385:219|502:362|502:362|503:177|503:177,1,554.700010580064,4|0,3:1|0:0,0:0:0:0:
261,82,276728,2,0,B|363:236|363:236|502:357|502:357|503:172|503:172,1,554.700010580064,0|0,3:0|0:0,0:0:0:0:
211,350,277078,6,0,B|82:217|82:217|25:41|25:41|22:226|22:226,1,554.700010580064,2|0,3:1|0:1,0:0:0:0:
180,128,277426,2,0,L|128:217|128:217,1,103,2|0,0:0|0:0,0:0:0:0:
180,128,277601,2,0,L|128:217|128:217,1,103,2|0,0:0|0:0,0:0:0:0:
301,350,277775,6,0,B|425:213|425:213|487:39|487:39|490:224|490:224,1,554.700010580064,2|0,3:1|0:0,0:0:0:0:
332,128,278124,2,0,L|384:217|384:217,1,103,8|0,0:0|0:0,0:0:0:0:
180,128,278299,2,0,L|128:217|128:217,1,103
322,350,278473,2,0,B|305:141|305:141|323:350|323:350|319:140|319:140|309:350|309:350|150:212|150:212|74:16|74:16|204:120|204:120|358:321|358:321,1,1680.80000641175,0|2,3:0|0:0,0:0:0:0:
243,257,279345,1,2,0:0:0:0:
129,257,279519,1,0,1:0:0:0:
16,258,279694,1,0,3:0:0:0:
269,20,279868,6,0,B|317:93|317:93|339:177|339:177|363:261|363:261|341:345|341:345|316:281|316:281|271:186|271:186,1,523.500019969941,6|0,3:2|0:0,0:0:0:0:
160,141,280566,2,0,L|189:223|189:223|239:295|239:295|270:357|270:357|317:263|317:263,1,349.000013313293,2|2,0:0|0:0,0:0:0:0:
55,238,281264,2,0,L|94:316|94:316|134:238|134:238|170:159|170:159|212:83|212:83|252:26|252:26|291:124|291:124,1,523.500019969941,2|0,0:0|0:0,0:0:0:0:
178,228,281961,2,0,B|145:309|145:309|125:224|125:224|127:155|127:155|178:63|178:63,1,349.000013313293,2|2,0:0|0:0,0:0:0:0:
408,69,282659,6,0,L|370:147|370:147|329:224|329:224|300:306|300:306|251:378|251:378|203:328|203:328|172:227|172:227,1,523.500019969941,2|0,0:0|0:0,0:0:0:0:
283,148,283357,2,0,L|306:232|306:232|362:299|362:299|392:361|392:361|440:268|440:268,1,349.000013313293,2|2,0:0|0:0,0:0:0:0:
190,73,284054,6,0,L|242:143|242:143|269:226|269:226|302:307|302:307|347:381|347:381|366:314|366:314|426:228|426:228,1,523.500019969941,2|0,0:0|0:0,0:0:0:0:
315,152,284752,2,0,L|261:220|261:220|236:304|236:304|222:372|222:372|158:289|158:289,1,349.000013313293,2|2,0:0|0:0,0:0:0:0:
456,365,285450,6,0,L|469:279|469:279|469:192|469:192|469:105|469:105|481:19|481:19|475:106|475:106|469:193|469:193|456:279|456:279|456:366|456:366|461:279|461:279|469:192|469:192|478:123|478:123|481:18|481:18,3,349.000013313293,2|2|2|2,0:0|0:0|0:0|0:0,0:0:0:0:
281,189,286845,2,0,L|326:264|326:264|360:344|360:344|382:278|382:278|438:189|438:189,1,349.000013313293,2|2,0:0|0:0,0:0:0:0:
231,189,287543,2,0,L|196:269|196:269|152:344|152:344|117:284|117:284|74:188|74:188,1,349.000013313293,2|2,0:0|0:0,0:0:0:0:
313,45,288240,6,0,L|286:128|286:128|234:198|234:198|193:254|193:254|156:352|156:352,1,349.000013313293,2|2,0:0|0:0,0:0:0:0:
385,16,288938,2,0,L|384:103|384:103|393:190|393:190|413:256|413:256|400:360|400:360,1,349.000013313293,2|2,0:0|0:0,0:0:0:0:
127,16,289636,2,0,L|118:103|118:103|119:190|119:190|126:259|126:259|112:363|112:363,1,349.000013313293,2|2,0:0|0:0,0:0:0:0:
386,335,290333,2,0,B|420:255|420:255|444:171|444:171|441:102|441:102|396:7|396:7,1,349.000013313293,2|2,0:0|0:0,0:0:0:0:
115,246,291031,6,0,L|157:322|157:322|194:243|194:243|243:171|243:171|272:89|272:89|322:41|322:41|351:142|351:142,1,523.500019969941,2|0,0:0|0:0,0:0:0:0:
246,234,291729,2,0,L|237:321|237:321|246:234|246:234|249:165|249:165|246:60|246:60,1,349.000013313293,2|2,0:0|0:0,0:0:0:0:
154,78,292252,1,0,0:0:0:0:
260,71,292426,2,0,B|277:157|277:157|322:232|322:232|326:319|326:319|321:232|321:232|289:171|289:171|258:70|258:70,1,523.500019969941,2|0,0:0|0:0,0:0:0:0:
135,239,293124,2,0,L|121:325|121:325|135:239|135:239|130:170|130:170|135:65|135:65,1,349.000013313293,2|2,0:0|0:0,0:0:0:0:
405,51,293822,6,0,L|358:124|358:124|326:205|326:205|279:278|279:278|248:359|248:359|232:292|232:292|169:208|169:208,1,523.500019969941,2|0,0:0|0:0,0:0:0:0:
332,187,294519,2,0,L|336:274|336:274|332:361|332:361|350:294|350:294|332:190|332:190,1,349.000013313293,2|2,0:0|0:0,0:0:0:0:
107,51,295217,2,0,L|134:134|134:134|186:204|186:204|225:282|225:282|264:360|264:360|292:297|292:297|343:205|343:205,1,523.500019969941,2|0,0:0|0:0,0:0:0:0:
180,187,295914,2,0,L|190:274|190:274|180:361|180:361|161:294|161:294|180:190|180:190,1,349.000013313293,2|2,0:0|0:0,0:0:0:0:
459,30,296612,6,0,L|467:117|467:117|463:204|463:204|467:291|467:291|468:378|468:378|470:291|470:291|463:204|463:204|467:117|467:117|459:30|459:30|462:117|462:117|463:204|463:204|456:273|456:273|468:378|468:378,3,349.000013313293,2|2|2|2,0:0|0:0|0:0|0:0,0:0:0:0:
245,345,298008,2,0,B|201:270|201:270|170:188|170:188|149:103|149:103|126:19|126:19|125:106|125:106|136:192|136:192|154:259|154:259|196:356|196:356,1,698.000026626587,2|2,0:0|0:0,0:0:0:0:
374,108,299054,1,2,0:0:0:0:
146,29,299403,2,0,B|101:104|101:104|95:191|95:191|95:260|95:260|145:353|145:353,1,349.000013313293,2|2,0:0|0:0,0:0:0:0:
332,186,300101,2,0,L|288:261|288:261|253:341|253:341|224:259|224:259|175:187|175:187|214:109|214:109|253:31|253:31|294:86|294:86|332:184|332:184,2,349.000013313293,2|2|0,0:0|0:0|0:0,0:0:0:0:
256,192,300886,12,0,302194,0:0:0:0:
