osu file format v14

[General]
AudioFilename: audio.mp3
AudioLeadIn: 0
PreviewTime: 48164
Countdown: 1
SampleSet: Soft
StackLeniency: 0.5
Mode: 2
LetterboxInBreaks: 0
WidescreenStoryboard: 0

[Editor]
DistanceSpacing: 1.3
BeatDivisor: 4
GridSize: 8
TimelineZoom: 3.5

[Metadata]
Title:Hype feat. Such
TitleUnicode:Hype feat. Such
Artist:PSYQUI
ArtistUnicode:PSYQUI
Creator:[ Azu- ]
Version:Hype!!
Source:
Tags:Future Bass Hardcore FÜGENE2
BeatmapID:1772567
BeatmapSetID:847604

[Difficulty]
HPDrainRate:7
CircleSize:4.2
OverallDifficulty:9.6
ApproachRate:9.6
SliderMultiplier:2
SliderTickRate:2

[Events]
//Background and Video events
0,0,"BG.jpg",0,0
//Break Periods
//Storyboard Layer 0 (Background)
//Storyboard Layer 1 (Fail)
//Storyboard Layer 2 (Pass)
//Storyboard Layer 3 (Foreground)
//Storyboard Sound Samples

[TimingPoints]
810,348.837209302326,4,2,1,40,1,0
3600,-125,4,2,1,70,0,0
3775,-125,4,2,1,40,0,0
14763,-100,4,2,1,40,0,0
25227,-100,4,2,1,45,0,0
25576,-100,4,2,1,50,0,0
25925,-100,4,2,2,60,0,0
25926,-125,4,2,2,60,0,0
37089,-100,4,2,2,60,0,0
48251,-83.3333333333333,4,2,88,60,0,1
48426,-83.3333333333333,4,2,88,60,0,0
48512,-83.3333333333333,4,2,2,30,0,0
48600,-83.3333333333333,4,2,2,30,0,1
48775,-83.3333333333333,4,2,2,30,0,0
48949,-83.3333333333333,4,2,5,80,0,1
65606,-83.3333333333333,4,2,2,80,0,1
68135,-83.3333333333333,4,2,2,30,0,1
68484,-83.3333333333333,4,2,2,80,0,1
68833,-83.3333333333333,4,2,2,40,0,1
69182,-83.3333333333333,4,2,2,80,0,1
69792,-83.3333333333333,4,2,2,5,0,1
69879,-83.3333333333333,4,2,2,40,0,1
70576,-83.3333333333333,4,2,2,60,0,1
70577,-125,4,2,2,60,0,0
71797,-125,4,2,2,5,0,0
71972,-125,4,2,2,30,0,0
72408,-125,4,2,2,40,0,0
72495,-125,4,2,2,5,0,0
72582,-125,4,2,2,40,0,0
72669,-125,4,2,2,50,0,0
73018,-125,4,2,88,60,0,0
73105,-125,4,2,88,5,0,0
73367,-125,4,2,1,60,0,0
73368,-100,4,2,1,60,0,0
92902,-100,4,2,1,45,0,0
92903,-166.666666666667,4,2,1,45,0,0
92945,-166.666666666667,4,2,8,30,0,0
94123,-166.666666666667,4,2,8,5,0,0
94297,-166.666666666667,4,2,8,30,0,0
95519,-166.666666666667,4,2,8,5,0,0
95693,-166.666666666667,4,2,8,30,0,0
96914,-166.666666666667,4,2,8,5,0,0
97088,-166.666666666667,4,2,8,30,0,0
97612,-166.666666666667,4,2,8,5,0,0
97786,-166.666666666667,4,2,8,30,0,0
98310,-166.666666666667,4,2,8,5,0,0
98483,-166.666666666667,4,2,8,30,0,0
99705,-166.666666666667,4,2,8,5,0,0
99879,-166.666666666667,4,2,8,30,0,0
100403,-166.666666666667,4,2,8,5,0,0
100576,-166.666666666667,4,2,8,30,0,0
101100,-166.666666666667,4,2,8,5,0,0
101274,-166.666666666667,4,2,8,30,0,0
102496,-166.666666666667,4,2,8,5,0,0
102669,-166.666666666667,4,2,8,30,0,0
104065,-100,4,2,1,60,0,0
113832,-100,4,2,1,40,0,0
115228,-83.3333333333333,4,2,1,40,0,1
115403,-83.3333333333333,4,2,1,40,0,0
115576,-83.3333333333333,4,2,3,60,0,0
115577,-83.3333333333333,4,2,3,60,0,1
125780,-83.3333333333333,4,2,3,5,0,1
125867,-83.3333333333333,4,2,3,60,0,1
126129,-83.3333333333333,4,2,3,5,0,1
126216,-83.3333333333333,4,2,3,60,0,1
126391,-83.3333333333333,4,2,3,60,0,0
126652,-83.3333333333333,4,2,3,5,0,0
126740,-83.3333333333333,4,2,4,80,0,1
137205,-83.3333333333333,4,2,4,80,0,0
137554,-83.3333333333333,4,2,4,80,0,1
145926,-125,4,2,1,80,0,0
146100,-125,4,2,1,60,0,0
146187,-125,4,2,1,5,0,0
146448,-125,4,2,1,60,0,0
146536,-125,4,2,1,5,0,0
146797,-125,4,2,1,60,0,0
146884,-125,4,2,1,5,0,0
147146,-125,4,2,1,60,0,0
147233,-125,4,2,1,5,0,0
147495,-125,4,2,1,60,0,0
147582,-125,4,2,1,5,0,0
147844,-125,4,2,1,60,0,0
147931,-125,4,2,1,5,0,0
148018,-125,4,2,1,60,0,0
148716,-125,4,2,4,60,0,0
149501,-125,4,2,4,50,0,0
150024,-125,4,2,4,40,0,0
151506,-125,4,2,5,60,0,0
151507,-100,4,2,5,60,0,0
156739,-100,4,2,5,40,0,0
157350,-100,4,2,5,5,0,0
157437,-100,4,2,5,40,0,0
157612,-100,4,2,5,60,0,0
161884,-100,4,2,1,60,0,0
162146,-100,4,2,1,40,0,0
162408,-100,4,2,1,20,0,0
162669,-100,4,2,5,70,0,0
172437,-100,4,2,1,60,0,0
172524,-100,4,2,1,10,0,0
172611,-100,4,2,1,30,0,0
172786,-100,4,2,1,45,0,0
173134,-100,4,2,1,60,0,0
173483,-100,4,2,1,75,0,0
173832,-100,4,2,1,70,0,0
173833,-125,4,2,1,70,0,0
184123,-125,4,2,1,30,0,0
184298,-125,4,2,1,70,0,0
184472,-125,4,2,1,30,0,0
184647,-125,4,2,1,70,0,0
184995,-125,4,2,78,70,0,0
184996,-166.666666666667,4,2,78,70,0,0
185170,-166.666666666667,4,2,78,70,0,0
185693,-166.666666666667,4,2,1,23,0,0
186390,-166.666666666667,4,2,1,15,0,0
187786,-166.666666666667,4,2,1,5,0,0
189181,-166.666666666667,4,2,8,20,0,0
190576,-166.666666666667,4,2,8,30,0,0
191798,-166.666666666667,4,2,8,5,0,0
191972,-166.666666666667,4,2,8,30,0,0
192496,-166.666666666667,4,2,8,5,0,0
192669,-166.666666666667,4,2,8,30,0,0
193193,-166.666666666667,4,2,8,5,0,0
193367,-166.666666666667,4,2,8,30,0,0
194589,-166.666666666667,4,2,8,5,0,0
194762,-166.666666666667,4,2,8,30,0,0
195286,-166.666666666667,4,2,8,5,0,0
195460,-166.666666666667,4,2,8,30,0,0
195984,-166.666666666667,4,2,8,5,0,0
196158,-166.666666666667,4,2,8,30,0,0
197379,-166.666666666667,4,2,8,5,0,0
197553,-166.666666666667,4,2,8,30,0,0
198077,-166.666666666667,4,2,8,5,0,0
198251,-166.666666666667,4,2,8,30,0,0
198775,-166.666666666667,4,2,8,5,0,0
198948,-166.666666666667,4,2,8,30,0,0
200170,-166.666666666667,4,2,8,5,0,0
200344,-166.666666666667,4,2,8,30,0,0
201565,-166.666666666667,4,2,8,5,0,0
201739,-166.666666666667,4,2,8,30,0,0
202961,-166.666666666667,4,2,8,5,0,0
203134,-166.666666666667,4,2,8,30,0,0
203658,-166.666666666667,4,2,8,5,0,0
203832,-166.666666666667,4,2,8,35,0,0
204356,-166.666666666667,4,2,8,5,0,0
204530,-166.666666666667,4,2,8,40,0,0
205751,-166.666666666667,4,2,8,5,0,0
205925,-166.666666666667,4,2,8,40,0,0
207147,-166.666666666667,4,2,8,5,0,0
207320,-166.666666666667,4,2,1,40,0,0
207321,-125,4,2,1,40,0,0
229472,-125,4,2,1,5,0,0
229646,-125,4,2,2,60,0,0
229647,-100,4,2,2,60,0,0
240809,-100,4,2,1,60,0,0
240810,-125,4,2,1,60,0,0
247786,-125,4,2,1,65,0,0
248832,-125,4,2,1,70,0,0
251972,-100,4,2,1,60,0,0
252059,-100,4,2,1,20,0,0
253367,-100,4,2,1,25,0,0
254065,-100,4,2,1,30,0,0
254762,-100,4,2,1,40,0,0
255460,-100,4,2,1,50,0,0
256158,-100,4,2,1,60,0,0
256245,-100,4,2,1,40,0,0
256855,-100,4,2,1,60,0,0
257553,-100,4,2,88,60,0,0
257815,-100,4,2,1,40,0,0
258251,-125,4,2,2,80,0,1
263135,-100,4,2,2,80,0,1
265926,-100,4,2,4,80,0,0
266797,-100,4,2,4,70,0,0
267320,-100,4,2,4,60,0,0
267844,-100,4,2,4,50,0,0
268368,-100,4,2,4,80,0,0
268716,-83.3333333333333,4,2,5,80,0,1
277437,-83.3333333333333,4,2,5,60,0,1
277786,-83.3333333333333,4,2,5,80,0,1
278135,-83.3333333333333,4,2,5,60,0,1
278484,-83.3333333333333,4,2,5,80,0,1
279094,-83.3333333333333,4,2,5,60,0,1
279356,-83.3333333333333,4,2,5,50,0,1
279530,-83.3333333333333,4,2,5,40,0,1
279879,-125,4,2,1,70,0,0
281275,-125,4,2,1,30,0,0
300809,-125,4,2,1,25,0,0
300810,-125,4,2,1,25,0,0
300897,-125,4,2,1,25,0,0
300983,-125,4,2,1,15,0,0
301070,-125,4,2,1,5,0,0

[Colours]
Combo1 : 200,211,219
Combo2 : 153,153,153
Combo3 : 150,156,167
Combo4 : 85,85,85

[HitObjects]
256,192,1507,12,0,3426,0:0:0:0:
88,192,3600,6,0,L|192:208,1,80,2|0,0:0|0:0,0:0:0:0:
256,192,3949,2,0,L|160:208,1,80,0|0,0:0|0:0,0:0:0:0:
288,144,4298,2,0,L|368:128,2,80,0|0|0,0:0|0:0|0:0,0:0:0:0:
184,160,4821,1,0,0:0:0:0:
464,112,4996,6,0,L|480:192,1,80,0|0,0:0|0:0,0:0:0:0:
384,208,5344,2,0,L|304:208,1,80,0|0,0:0|0:0,0:0:0:0:
416,272,5693,2,0,L|504:272,1,80,0|0,0:0|0:0,0:0:0:0:
368,312,6042,2,0,L|336:224,1,80,0|0,0:0|0:0,0:0:0:0:
40,224,6391,6,0,L|128:224,2,80,0|0|0,0:0|0:0|0:0,0:0:0:0:
152,160,6914,1,0,0:0:0:0:
256,112,7089,2,0,L|168:112,2,80,0|0|0,0:0|0:0|0:0,0:0:0:0:
152,160,7612,1,0,0:0:0:0:
400,160,7786,6,0,L|424:248,1,80,0|0,0:0|0:0,0:0:0:0:
304,168,8135,2,0,L|224:168,1,80,0|0,0:0|0:0,0:0:0:0:
352,128,8484,2,0,L|384:48,1,80,0|0,0:0|0:0,0:0:0:0:
200,128,8833,2,0,L|288:128,1,80,0|0,0:0|0:0,0:0:0:0:
8,136,9182,6,0,L|32:224,1,80,0|0,0:0|0:0,0:0:0:0:
136,216,9530,2,0,L|48:216,1,80,0|0,0:0|0:0,0:0:0:0:
200,256,9879,2,0,L|96:256,1,80,0|0,0:0|0:0,0:0:0:0:
264,296,10228,2,0,L|176:296,1,80,0|0,0:0|0:0,0:0:0:0:
472,288,10577,6,0,L|496:208,1,80,0|0,0:0|0:0,0:0:0:0:
376,272,10926,2,0,L|464:272,1,80,0|0,0:0|0:0,0:0:0:0:
312,232,11275,2,0,L|392:232,1,80,0|0,0:0|0:0,0:0:0:0:
248,192,11623,2,0,L|336:192,1,80,0|0,0:0|0:0,0:0:0:0:
32,184,11972,6,0,P|104:136|192:120,1,160,0|0,0:0|0:0,0:0:0:0:
80,88,12496,1,0,0:0:0:0:
200,72,12670,2,0,P|256:120|192:176,1,160,0|0,0:0|0:0,0:0:0:0:
448,176,13193,6,0,L|264:168,1,160,0|0,0:0|0:0,0:0:0:0:
136,192,13716,6,0,L|56:192,1,80
456,176,14065,2,0,L|376:182,1,80
224,112,14414,2,0,L|304:120,1,80
72,216,14763,5,2,0:0:0:0:
184,224,14937,2,0,L|216:128,1,100,0|8,0:0|0:0,0:0:0:0:
104,120,15286,1,0,0:0:0:0:
264,128,15461,2,0,L|296:240,1,100,8|0,0:0|0:0,0:0:0:0:
392,224,15810,1,8,0:0:0:0:
448,128,15984,1,0,0:0:0:0:
112,120,16158,6,0,L|80:232,1,100,2|0,0:0|0:0,0:0:0:0:
200,224,16507,1,8,0:0:0:0:
112,120,16682,1,0,0:0:0:0:
248,120,16856,2,0,L|208:216,1,100,8|0,0:0|0:0,0:0:0:0:
336,216,17205,1,8,0:0:0:0:
248,120,17379,1,0,0:0:0:0:
480,112,17554,6,0,L|440:208,1,100,2|0,0:0|0:0,0:0:0:0:
344,200,17903,1,8,0:0:0:0:
472,208,18077,2,0,L|440:96,1,100,0|8,0:0|0:0,0:0:0:0:
320,112,18426,1,0,0:0:0:0:
208,112,18600,2,0,L|312:112,1,100,8|0,0:0|0:0,0:0:0:0:
24,120,18949,6,0,L|16:240,1,100,2|0,0:0|0:0,0:0:0:0:
112,224,19298,1,8,0:0:0:0:
144,320,19472,1,0,0:0:0:0:
432,224,19647,2,0,L|328:272,1,100,2|0,0:0|0:0,0:0:0:0:
240,296,19996,2,0,L|352:280,1,100,8|0,0:0|0:0,0:0:0:0:
48,288,20344,6,0,P|48:232|136:200,1,150,2|0,0:0|0:0,0:0:0:0:
272,192,20693,2,0,P|339:213|348:283,1,150,2|0,0:0|0:0,0:0:0:0:
124,187,21042,2,0,P|57:166|48:95,1,150,2|0,0:0|0:0,0:0:0:0:
219,191,21391,2,0,P|287:170|295:99,1,150,2|0,0:0|0:0,0:0:0:0:
107,96,21740,6,0,L|107:208,1,100,2|0,0:0|0:0,0:0:0:0:
288,192,22089,2,0,L|288:304,1,100,2|0,0:0|0:0,0:0:0:0:
56,104,22437,2,0,L|80:208,1,100,2|0,0:0|0:0,0:0:0:0:
272,184,22786,2,0,L|352:256,1,100,2|0,0:0|0:0,0:0:0:0:
64,256,23135,5,2,0:0:0:0:
216,256,23310,1,8,0:0:0:0:
216,152,23484,1,2,0:0:0:0:
64,152,23658,1,8,0:0:0:0:
192,152,23833,1,8,0:0:0:0:
344,152,24007,1,2,0:0:0:0:
344,256,24181,1,8,0:0:0:0:
192,256,24356,1,2,0:0:0:0:
432,48,24530,5,2,0:0:0:0:
497,86,24617,1,2,0:0:0:0:
471,157,24704,1,2,0:0:0:0:
396,145,24791,1,2,0:0:0:0:
152,160,24879,1,2,0:0:0:0:
87,198,24966,1,2,0:0:0:0:
113,269,25053,1,2,0:0:0:0:
188,257,25140,1,2,0:0:0:0:
400,248,25228,6,0,L|448:288,1,50,10|10,0:0|0:0,0:0:0:0:
136,312,25403,2,0,L|128:248,1,50,2|10,0:0|0:0,0:0:0:0:
288,240,25577,2,0,L|344:240,1,50,10|2,0:0|0:0,0:0:0:0:
496,192,25751,2,0,L|480:128,1,50,10|2,0:0|0:0,0:0:0:0:
216,136,25926,5,2,0:0:0:0:
144,128,26013,1,0,0:0:0:0:
72,120,26100,2,0,L|160:128,1,80,0|0,0:0|0:0,0:0:0:0:
304,128,26449,2,0,L|352:88,1,40,0|0,0:0|0:0,0:0:0:0:
72,120,26623,6,0,L|40:208,1,80,2|2,0:0|0:0,0:0:0:0:
200,208,26885,2,0,L|112:208,1,80,2|2,0:0|0:0,0:0:0:0:
264,208,27147,2,0,L|312:208,1,40,2|0,0:0|0:0,0:0:0:0:
24,328,27321,6,0,L|128:312,1,80,0|2,0:0|0:0,0:0:0:0:
224,312,27670,2,0,L|216:264,1,40,0|0,0:0|0:0,0:0:0:0:
400,256,27844,2,0,L|448:240,1,40,0|0,0:0|0:0,0:0:0:0:
208,240,28019,6,0,L|168:160,1,80,10|2,0:0|0:0,0:0:0:0:
104,192,28280,1,2,0:0:0:0:
344,56,28368,1,2,0:0:0:0:
409,94,28455,1,2,0:0:0:0:
128,120,28542,1,6,0:0:0:0:
56,144,28716,6,0,L|72:256,1,80,0|0,0:0|0:0,0:0:0:0:
136,232,28978,1,0,0:0:0:0:
320,240,29065,2,0,L|344:288,1,40,0|0,0:0|0:0,0:0:0:0:
136,288,29240,2,0,L|96:288,1,40,2|0,0:0|0:0,0:0:0:0:
360,320,29414,6,0,L|456:320,1,80,8|2,0:0|0:0,0:0:0:0:
496,272,29676,1,0,0:0:0:0:
256,264,29763,2,0,L|192:264,1,40,2|2,0:0|0:0,0:0:0:0:
16,272,29937,2,0,L|48:224,1,40,6|0,0:0|0:0,0:0:0:0:
296,200,30112,5,0,0:0:0:0:
368,176,30199,1,0,0:0:0:0:
376,96,30286,1,2,0:0:0:0:
304,120,30373,1,2,0:0:0:0:
48,144,30461,2,0,L|48:96,1,40,2|2,0:0|0:0,0:0:0:0:
216,144,30635,2,0,L|272:120,1,40,10|0,0:0|0:0,0:0:0:0:
56,200,30810,6,0,L|16:200,1,40,0|0,0:0|0:0,0:0:0:0:
232,208,30984,2,0,L|248:272,1,40,8|0,0:0|0:0,0:0:0:0:
56,312,31158,1,0,0:0:0:0:
0,264,31246,1,8,0:0:0:0:
56,208,31333,1,0,0:0:0:0:
136,208,31420,1,0,0:0:0:0:
288,288,31507,6,0,L|272:184,1,80,6|0,0:0|0:0,0:0:0:0:
456,288,31769,2,0,L|480:208,1,80,0|0,0:0|0:0,0:0:0:0:
312,200,32030,2,0,L|352:200,1,40,0|0,0:0|0:0,0:0:0:0:
96,56,32205,6,0,L|72:144,1,80,2|2,0:0|0:0,0:0:0:0:
224,136,32466,2,0,L|304:136,1,80,2|0,0:0|0:0,0:0:0:0:
136,208,32728,2,0,L|152:248,1,40,6|0,0:0|0:0,0:0:0:0:
384,264,32903,6,0,L|440:208,2,80,0|2|0,0:0|0:0|0:0,0:0:0:0:
312,240,33339,1,0,0:0:0:0:
96,224,33426,2,0,L|88:272,1,40,2|0,0:0|0:0,0:0:0:0:
304,296,33600,6,0,L|408:272,1,80,8|2,0:0|0:0,0:0:0:0:
464,248,33862,1,2,0:0:0:0:
496,168,33949,1,2,0:0:0:0:
440,112,34036,1,2,0:0:0:0:
216,120,34123,2,0,L|184:160,1,40,6|0,0:0|0:0,0:0:0:0:
480,128,34298,6,0,L|416:208,1,80,0|0,0:0|0:0,0:0:0:0:
336,192,34647,2,0,L|336:280,1,80,0|0,0:0|0:0,0:0:0:0:
448,312,34996,1,10,0:0:0:0:
488,288,35054,1,0,0:0:0:0:
504,240,35112,1,0,0:0:0:0:
280,208,35170,2,0,L|224:208,1,40,2|2,0:0|0:0,0:0:0:0:
464,200,35344,2,0,L|416:160,1,40,2|2,0:0|0:0,0:0:0:0:
224,136,35519,6,0,P|149:152|57:201,1,160,2|0,0:0|0:0,0:0:0:0:
112,240,35955,1,0,0:0:0:0:
304,232,36042,2,0,L|400:232,1,80,2|0,0:0|0:0,0:0:0:0:
72,240,36391,2,0,L|48:152,1,80,2|0,0:0|0:0,0:0:0:0:
320,176,36740,2,0,L|368:176,1,40,2|0,0:0|0:0,0:0:0:0:
144,176,36914,2,0,L|144:120,1,40
432,80,37089,5,2,0:0:0:0:
400,200,37263,1,0,0:0:0:0:
448,96,37437,1,2,0:0:0:0:
368,192,37612,1,0,0:0:0:0:
464,112,37786,1,2,0:0:0:0:
336,168,37961,1,0,0:0:0:0:
480,128,38135,1,2,0:0:0:0:
312,128,38310,1,0,0:0:0:0:
80,128,38484,6,0,L|88:240,1,100,2|0,0:0|0:0,0:0:0:0:
208,224,38833,1,2,0:0:0:0:
280,224,39007,1,0,0:0:0:0:
40,224,39182,2,0,L|40:328,1,100,2|0,0:0|0:0,0:0:0:0:
176,328,39530,1,2,0:0:0:0:
104,328,39705,1,0,0:0:0:0:
360,328,39879,6,0,L|360:224,1,100,2|0,0:0|0:0,0:0:0:0:
480,216,40228,2,0,L|376:216,1,100,2|0,0:0|0:0,0:0:0:0:
256,216,40577,2,0,L|256:104,1,100,2|0,0:0|0:0,0:0:0:0:
408,112,40926,2,0,L|296:112,1,100,2|0,0:0|0:0,0:0:0:0:
56,344,41275,6,0,L|40:240,1,100,2|0,0:0|0:0,0:0:0:0:
192,232,41623,1,2,0:0:0:0:
312,224,41798,1,0,0:0:0:0:
144,224,41972,2,0,L|184:112,1,100,2|0,0:0|0:0,0:0:0:0:
344,112,42321,1,2,0:0:0:0:
464,96,42496,1,0,0:0:0:0:
184,136,42670,6,2,L|80:120,1,100
264,192,43019,2,2,L|280:304,1,100
64,232,43368,1,2,0:0:0:0:
176,264,43542,1,2,0:0:0:0:
448,152,43716,1,2,0:0:0:0:
336,120,43890,1,2,0:0:0:0:
113,214,44065,6,2,L|80:120,1,100
320,224,44414,2,2,L|424:184,1,100
168,176,44763,1,2,0:0:0:0:
64,200,44937,1,2,0:0:0:0:
440,136,45112,2,2,L|336:176,1,100
80,64,45461,5,2,0:0:0:0:
16,112,45548,1,2,0:0:0:0:
48,184,45635,1,2,0:0:0:0:
120,208,45722,1,2,0:0:0:0:
384,200,45810,2,0,L|440:216,1,50,2|2,0:0|0:0,0:0:0:0:
224,296,45984,1,2,0:0:0:0:
152,304,46071,1,2,0:0:0:0:
384,272,46158,5,2,0:0:0:0:
456,256,46246,1,2,0:0:0:0:
384,272,46333,1,2,0:0:0:0:
312,288,46420,1,2,0:0:0:0:
80,312,46507,2,0,L|112:264,1,50,2|2,0:0|0:0,0:0:0:0:
296,216,46682,2,0,L|280:160,1,50,2|2,0:0|0:0,0:0:0:0:
48,176,46856,6,0,P|112:176|152:264,1,150,0|0,0:0|0:0,0:0:0:0:
320,224,47205,2,0,L|168:240,1,150,0|0,0:0|0:0,0:0:0:0:
376,216,47554,2,0,L|400:112,1,100,2|2,0:0|0:0,0:0:0:0:
480,112,47815,1,2,0:0:0:0:
208,112,47903,2,0,L|136:96,1,50,2|2,0:0|0:0,0:0:0:0:
368,160,48077,2,0,L|384:216,1,50,2|2,0:0|0:0,0:0:0:0:
104,240,48251,6,0,P|128:184|176:256,1,179.999994506836,4|0,0:0|0:0,0:0:0:0:
16,240,48600,2,0,P|40:176|104:240,1,179.999994506836,0|0,0:0|0:0,0:0:0:0:
320,232,48949,6,0,L|440:176,1,119.999996337891,6|0,0:0|0:0,0:0:0:0:
256,160,49211,2,0,L|152:80,1,119.999996337891,2|0,0:0|0:0,0:0:0:0:
360,64,49472,2,0,L|432:72,1,59.9999981689454,0|0,0:0|0:0,0:0:0:0:
112,96,49647,6,0,L|88:176,1,59.9999981689454,2|0,0:0|0:0,0:0:0:0:
328,160,49821,2,0,L|392:168,1,59.9999981689454,0|0,0:0|0:0,0:0:0:0:
128,208,49996,2,0,L|192:320,1,119.999996337891,10|0,0:0|0:0,0:0:0:0:
120,344,50257,1,0,0:0:0:0:
360,336,50344,6,0,L|424:232,1,119.999996337891,2|0,0:0|0:0,0:0:0:0:
224,248,50606,2,0,L|256:120,1,119.999996337891,0|0,0:0|0:0,0:0:0:0:
456,120,50868,2,0,L|384:112,1,59.9999981689454,0|0,0:0|0:0,0:0:0:0:
144,112,51042,6,0,L|112:176,1,59.9999981689454,2|0,0:0|0:0,0:0:0:0:
320,208,51216,2,0,L|392:208,1,59.9999981689454,0|0,0:0|0:0,0:0:0:0:
136,256,51391,2,0,P|96:336|160:336,1,179.999994506836,10|0,0:0|0:0,0:0:0:0:
344,328,51740,6,0,L|480:304,1,119.999996337891,2|0,0:0|0:0,0:0:0:0:
280,280,52001,2,0,L|160:264,1,119.999996337891,2|0,0:0|0:0,0:0:0:0:
384,216,52263,2,0,L|416:144,1,59.9999981689454,2|0,0:0|0:0,0:0:0:0:
168,184,52437,6,0,L|144:56,1,119.999996337891,2|0,0:0|0:0,0:0:0:0:
312,64,52699,2,0,L|440:56,1,119.999996337891,2|0,0:0|0:0,0:0:0:0:
208,144,52961,2,0,L|152:200,1,59.9999981689454,2|0,0:0|0:0,0:0:0:0:
432,160,53135,6,0,P|416:232|312:272,1,179.999994506836,2|0,0:0|0:0,0:0:0:0:
112,272,53484,2,0,L|160:80,1,179.999994506836,2|0,0:0|0:0,0:0:0:0:
416,104,53833,6,0,P|408:208|312:240,1,179.999994506836,6|0,0:0|0:0,0:0:0:0:
152,232,54182,2,0,L|80:56,1,179.999994506836,6|0,0:0|0:0,0:0:0:0:
296,56,54530,6,0,L|416:96,1,119.999996337891,2|0,0:0|0:0,0:0:0:0:
248,120,54792,2,0,L|232:248,1,119.999996337891,2|0,0:0|0:0,0:0:0:0:
424,240,55054,2,0,L|440:312,1,59.9999981689454,0|0,0:0|0:0,0:0:0:0:
216,336,55228,6,0,L|136:320,1,59.9999981689454,2|0,0:0|0:0,0:0:0:0:
400,272,55403,2,0,L|400:208,1,59.9999981689454,0|0,0:0|0:0,0:0:0:0:
160,224,55577,2,0,L|120:96,1,119.999996337891,10|0,0:0|0:0,0:0:0:0:
200,80,55839,1,0,0:0:0:0:
440,80,55926,6,0,L|464:208,1,119.999996337891,2|0,0:0|0:0,0:0:0:0:
288,208,56187,2,0,L|176:272,1,119.999996337891
392,272,56449,2,0,L|416:336,1,59.9999981689454,0|0,0:0|0:0,0:0:0:0:
160,352,56623,6,0,L|120:224,1,119.999996337891,2|0,0:0|0:0,0:0:0:0:
264,208,56972,1,2,0:0:0:0:
80,184,57147,1,0,0:0:0:0:
64,120,57234,1,0,0:0:0:0:
48,56,57321,2,0,L|120:48,1,59.9999981689454,10|0,0:0|0:0,0:0:0:0:
344,56,57496,2,0,L|424:48,1,59.9999981689454,0|2,0:0|0:0,0:0:0:0:
464,40,57670,2,0,L|392:48,1,59.9999981689454,0|0,0:0|0:0,0:0:0:0:
184,72,57844,2,0,L|152:144,1,59.9999981689454,2|0,0:0|0:0,0:0:0:0:
368,152,58019,5,2,0:0:0:0:
440,192,58106,1,0,0:0:0:0:
472,264,58193,1,0,0:0:0:0:
440,336,58280,1,2,0:0:0:0:
208,328,58368,1,0,0:0:0:0:
176,256,58455,1,2,0:0:0:0:
248,232,58542,1,2,0:0:0:0:
320,208,58629,1,0,0:0:0:0:
72,240,58716,5,8,0:0:0:0:
32,176,58804,1,0,0:0:0:0:
64,104,58891,1,0,0:0:0:0:
136,88,58978,1,0,0:0:0:0:
360,88,59065,1,2,0:0:0:0:
408,144,59153,1,0,0:0:0:0:
312,152,59240,1,0,0:0:0:0:
272,216,59327,1,0,0:0:0:0:
456,208,59414,6,0,L|320:72,1,179.999994506836,6|0,0:0|0:0,0:0:0:0:
64,112,59763,2,0,P|48:176|144:224,1,179.999994506836,6|0,0:0|0:0,0:0:0:0:
408,216,60112,6,0,L|416:88,1,119.999996337891,2|0,0:0|0:0,0:0:0:0:
224,96,60373,2,0,L|104:72,1,119.999996337891,0|0,0:0|0:0,0:0:0:0:
304,152,60635,2,0,L|320:240,1,59.9999981689454,0|0,0:0|0:0,0:0:0:0:
80,224,60810,6,0,L|128:176,1,59.9999981689454,2|0,0:0|0:0,0:0:0:0:
352,128,60984,2,0,L|288:104,1,59.9999981689454,0|0,0:0|0:0,0:0:0:0:
72,104,61158,2,0,L|64:288,1,179.999994506836,10|0,0:0|0:0,0:0:0:0:
224,280,61507,6,0,L|360:248,1,119.999996337891,2|0,0:0|0:0,0:0:0:0:
144,264,61769,2,0,L|128:136,1,119.999996337891,0|0,0:0|0:0,0:0:0:0:
328,128,62030,2,0,L|264:136,1,59.9999981689454,0|0,0:0|0:0,0:0:0:0:
16,152,62205,6,0,L|40:240,1,59.9999981689454,2|0,0:0|0:0,0:0:0:0:
240,248,62379,2,0,L|304:256,1,59.9999981689454,0|0,0:0|0:0,0:0:0:0:
40,320,62554,2,0,P|64:240|176:216,1,179.999994506836,6|0,0:0|0:0,0:0:0:0:
392,224,62903,6,0,L|416:88,1,119.999996337891,2|0,0:0|0:0,0:0:0:0:
224,104,63164,2,0,L|208:240,1,119.999996337891,2|0,0:0|0:0,0:0:0:0:
432,232,63426,2,0,L|352:232,1,59.9999981689454,2|0,0:0|0:0,0:0:0:0:
120,240,63600,6,0,L|168:120,1,119.999996337891,2|0,0:0|0:0,0:0:0:0:
360,144,63862,2,0,L|360:264,1,119.999996337891,2|0,0:0|0:0,0:0:0:0:
168,288,64123,2,0,L|104:264,1,59.9999981689454,0|0,0:0|0:0,0:0:0:0:
432,304,64298,6,0,P|464:208|392:184,1,179.999994506836,6|0,0:0|0:0,0:0:0:0:
192,184,64647,2,0,L|152:376,1,179.999994506836,6|0,0:0|0:0,0:0:0:0:
368,352,64996,6,0,L|424:312,1,59.9999981689454,10|0,0:0|0:0,0:0:0:0:
112,288,65257,2,0,L|48:256,1,59.9999981689454,10|0,0:0|0:0,0:0:0:0:
352,240,65519,2,0,L|416:216,1,59.9999981689454,10|0,0:0|0:0,0:0:0:0:
128,248,65693,2,0,L|120:120,1,119.999996337891,2|2,0:0|0:0,0:0:0:0:
472,128,66042,6,0,L|408:104,1,59.9999981689454,6|0,0:0|0:0,0:0:0:0:
32,128,66304,2,0,L|48:200,1,59.9999981689454,6|0,0:0|0:0,0:0:0:0:
360,192,66565,2,0,L|392:256,1,59.9999981689454,2|0,0:0|0:0,0:0:0:0:
152,296,66740,2,0,P|64:288|104:224,1,179.999994506836,10|0,0:0|0:0,0:0:0:0:
304,224,67089,6,0,L|424:72,1,179.999994506836,6|0,0:0|0:0,0:0:0:0:
240,72,67437,2,0,L|352:224,1,179.999994506836,6|0,0:0|0:0,0:0:0:0:
72,272,67786,6,0,L|104:144,1,119.999996337891,6|0,0:0|0:0,0:0:0:0:
224,168,68135,1,0,0:0:0:0:
296,152,68222,1,0,0:0:0:0:
368,136,68310,1,0,0:0:0:0:
296,152,68397,1,0,0:0:0:0:
480,96,68484,6,0,L|360:128,1,119.999996337891,6|0,0:0|0:0,0:0:0:0:
160,168,68833,2,0,L|144:248,1,59.9999981689454,10|0,0:0|0:0,0:0:0:0:
344,240,69007,2,0,L|352:304,1,59.9999981689454,2|0,0:0|0:0,0:0:0:0:
48,88,69182,6,0,P|64:240|288:160,1,419.999987182618,2|0,0:0|0:0,0:0:0:0:
400,168,69879,1,8,0:0:0:0:
232,168,70054,1,2,0:0:0:0:
288,192,70228,1,2,0:0:0:0:
112,168,70403,1,2,0:0:0:0:
352,216,70577,6,0,L|376:304,1,80,2|0,0:0|0:0,0:0:0:0:
200,288,70926,2,0,L|184:200,1,80,0|0,0:0|0:0,0:0:0:0:
352,192,71275,2,0,L|440:168,1,80,0|0,0:0|0:0,0:0:0:0:
256,176,71623,2,0,L|176:160,1,80,0|0,0:0|0:0,0:0:0:0:
464,184,71972,5,0,0:0:0:0:
488,112,72060,1,0,0:0:0:0:
424,72,72147,1,0,0:0:0:0:
360,112,72234,1,0,0:0:0:0:
120,160,72321,2,0,L|88:192,1,40,8|2,0:0|0:0,0:0:0:0:
296,200,72496,2,0,L|344:200,1,40,0|2,0:0|0:0,0:0:0:0:
88,304,72670,5,2,0:0:0:0:
24,248,72757,1,0,0:0:0:0:
64,176,72844,1,0,0:0:0:0:
136,160,72932,1,0,0:0:0:0:
392,160,73019,2,0,L|400:288,1,120,2|0,0:0|0:0,0:0:0:0:
152,296,73368,6,0,L|48:312,2,100,2|0|8,0:0|0:0|0:0,0:0:0:0:
280,224,73891,1,2,0:0:0:0:
144,176,74065,2,0,L|208:96,2,100,2|2|8,0:0|0:0|0:0,0:0:0:0:
304,200,74589,2,0,L|248:208,1,50,8|2,0:0|0:0,0:0:0:0:
488,192,74763,6,0,L|400:112,1,100,2|0,0:0|0:0,0:0:0:0:
280,120,75112,1,8,0:0:0:0:
144,120,75286,2,0,L|128:224,1,100,2|2,0:0|0:0,0:0:0:0:
392,224,75635,1,2,0:0:0:0:
128,280,75810,2,0,L|184:376,1,100,8|0,0:0|0:0,0:0:0:0:
240,352,76071,1,8,0:0:0:0:
24,272,76158,6,0,L|88:184,1,100,2|2,0:0|0:0,0:0:0:0:
272,216,76507,2,0,L|172:229,1,100,8|2,0:0|0:0,0:0:0:0:
488,216,76856,2,0,L|368:232,1,100,2|2,0:0|0:0,0:0:0:0:
288,240,77205,2,0,L|336:136,1,100,8|0,0:0|0:0,0:0:0:0:
288,96,77466,1,8,0:0:0:0:
56,88,77554,6,0,L|176:80,1,100,2|2,0:0|0:0,0:0:0:0:
312,80,77903,2,0,L|320:192,1,100,8|2,0:0|0:0,0:0:0:0:
104,200,78251,2,0,L|232:192,1,100,2|2,0:0|0:0,0:0:0:0:
352,224,78600,2,0,L|336:328,1,100,8|2,0:0|0:0,0:0:0:0:
400,336,78862,1,2,0:0:0:0:
144,328,78949,6,0,L|160:200,1,100,2|0,0:0|0:0,0:0:0:0:
264,232,79298,2,0,L|376:224,1,100,8|2,0:0|0:0,0:0:0:0:
192,192,79647,2,0,L|184:80,1,100,2|2,0:0|0:0,0:0:0:0:
96,96,79996,2,0,L|0:128,1,100,8|0,0:0|0:0,0:0:0:0:
48,184,80257,1,8,0:0:0:0:
312,184,80344,6,0,L|304:296,1,100,2|2,0:0|0:0,0:0:0:0:
408,280,80693,2,0,L|304:280,1,100,8|8,0:0|0:0,0:0:0:0:
432,200,81042,2,0,L|488:104,1,100,2|2,0:0|0:0,0:0:0:0:
312,96,81391,2,0,L|416:104,1,100,8|0,0:0|0:0,0:0:0:0:
440,160,81653,1,8,0:0:0:0:
128,160,81740,6,0,L|160:272,1,100,2|2,0:0|0:0,0:0:0:0:
288,256,82089,2,0,L|168:264,1,100,8|2,0:0|0:0,0:0:0:0:
312,184,82437,1,2,0:0:0:0:
408,176,82612,1,2,0:0:0:0:
504,168,82786,1,8,0:0:0:0:
408,264,82961,2,0,L|344:264,1,50,8|2,0:0|0:0,0:0:0:0:
96,272,83135,6,0,L|128:168,1,100,2|2,0:0|0:0,0:0:0:0:
240,168,83484,1,8,0:0:0:0:
360,160,83658,1,2,0:0:0:0:
232,168,83833,2,0,L|184:48,1,100,2|2,0:0|0:0,0:0:0:0:
72,88,84182,2,0,L|104:192,1,100,8|8,0:0|0:0,0:0:0:0:
168,184,84443,1,2,0:0:0:0:
440,120,84530,6,0,L|488:216,1,100,2|2,0:0|0:0,0:0:0:0:
376,240,84879,2,0,L|264:232,1,100,8|2,0:0|0:0,0:0:0:0:
400,240,85228,1,2,0:0:0:0:
488,184,85403,1,2,0:0:0:0:
368,176,85577,2,0,L|320:280,1,100,8|2,0:0|0:0,0:0:0:0:
272,272,85839,1,2,0:0:0:0:
48,160,85926,6,0,L|56:272,1,100,2|2,0:0|0:0,0:0:0:0:
200,272,86275,2,0,L|96:256,1,100,8|2,0:0|0:0,0:0:0:0:
224,240,86623,2,0,L|304:176,1,100,2|2,0:0|0:0,0:0:0:0:
160,152,86972,2,0,L|288:136,1,100,8|2,0:0|0:0,0:0:0:0:
264,80,87234,1,10,0:0:0:0:
480,80,87321,6,2,L|472:200,1,100,2|10,0:0|0:0,0:0:0:0:
360,192,87670,2,2,L|376:312,1,100,2|10,0:0|0:0,0:0:0:0:
240,304,88019,2,2,L|208:200,1,100,2|10,0:0|0:0,0:0:0:0:
344,192,88368,2,2,L|400:88,1,100,2|10,0:0|0:0,0:0:0:0:
448,88,88629,1,2,0:0:0:0:
224,88,88716,6,2,L|248:192,1,100,2|10,0:0|0:0,0:0:0:0:
104,192,89065,2,2,L|80:296,1,100,2|10,0:0|0:0,0:0:0:0:
256,304,89414,2,2,L|232:200,1,100,2|10,0:0|0:0,0:0:0:0:
392,304,89763,2,2,L|432:200,1,100,2|10,0:0|0:0,0:0:0:0:
368,184,90025,1,2,0:0:0:0:
152,328,90112,5,2,0:0:0:0:
104,272,90199,1,2,0:0:0:0:
144,208,90286,1,2,0:0:0:0:
216,224,90373,1,2,0:0:0:0:
424,224,90461,2,0,L|488:208,1,50,2|2,0:0|0:0,0:0:0:0:
272,200,90635,2,0,L|232:168,1,50,2|2,0:0|0:0,0:0:0:0:
440,120,90810,5,2,0:0:0:0:
408,40,90897,1,2,0:0:0:0:
328,32,90984,1,2,0:0:0:0:
272,88,91071,1,2,0:0:0:0:
464,168,91158,2,0,L|480:240,1,50,2|2,0:0|0:0,0:0:0:0:
288,264,91333,2,0,L|232:248,1,50,2|2,0:0|0:0,0:0:0:0:
32,240,91507,5,2,0:0:0:0:
112,232,91594,1,2,0:0:0:0:
192,224,91682,1,2,0:0:0:0:
112,232,91769,1,2,0:0:0:0:
312,216,91856,1,2,0:0:0:0:
384,240,91943,1,2,0:0:0:0:
432,304,92030,1,2,0:0:0:0:
400,376,92118,1,2,0:0:0:0:
184,352,92205,6,0,L|128:352,1,50,2|2,0:0|0:0,0:0:0:0:
352,320,92379,2,0,L|352:264,1,50,2|2,0:0|0:0,0:0:0:0:
152,280,92554,2,0,L|88:280,1,50,2|2,0:0|0:0,0:0:0:0:
304,224,92728,2,0,L|264:192,1,50,2|2,0:0|0:0,0:0:0:0:
56,176,92903,6,0,B|48:216|184:224|184:224|208:304|312:328|384:288|384:288|360:232,1,419.999987182618,4|0,0:0|0:0,0:0:0:0:
280,224,94298,2,0,P|312:160|288:256,1,419.999987182618,0|0,0:0|0:0,0:0:0:0:
32,288,95693,6,0,P|112:192|392:144,1,419.999987182618,0|0,0:0|0:0,0:0:0:0:
280,184,97089,2,0,P|296:256|320:184,1,179.999994506836,0|0,0:0|0:0,0:0:0:0:
408,152,97786,2,0,P|472:216|416:280,1,179.999994506836,0|0,0:0|0:0,0:0:0:0:
152,296,98484,6,0,P|176:240|88:320,1,419.999987182618,0|0,0:0|0:0,0:0:0:0:
176,336,99879,2,0,P|184:256|224:312,1,179.999994506836,0|0,0:0|0:0,0:0:0:0:
312,320,100577,2,0,P|192:280|176:240,1,179.999994506836,0|0,0:0|0:0,0:0:0:0:
472,232,101275,6,0,B|352:240|352:240|352:288|280:352|208:272|264:104,1,419.999987182618,0|0,0:0|0:0,0:0:0:0:
376,96,102670,2,0,P|272:120|200:168,1,179.999994506836,0|0,0:0|0:0,0:0:0:0:
304,216,103368,2,0,P|360:200|344:96,1,179.999994506836
48,104,104065,6,0,L|48:208,1,100,2|0,0:0|0:0,0:0:0:0:
184,200,104414,1,2,0:0:0:0:
280,288,104589,1,8,0:0:0:0:
32,320,104763,2,0,L|72:224,1,100,2|0,0:0|0:0,0:0:0:0:
200,216,105112,1,2,0:0:0:0:
96,152,105286,1,10,0:0:0:0:
376,136,105461,6,0,L|392:264,1,100,2|0,0:0|0:0,0:0:0:0:
272,264,105810,1,2,0:0:0:0:
152,280,105984,1,8,0:0:0:0:
416,320,106158,2,0,L|440:208,1,100,2|0,0:0|0:0,0:0:0:0:
312,208,106507,1,2,0:0:0:0:
376,104,106682,1,10,0:0:0:0:
96,88,106856,6,0,L|64:192,1,100,2|0,0:0|0:0,0:0:0:0:
192,192,107205,2,0,L|272:256,1,100,2|8,0:0|0:0,0:0:0:0:
8,192,107554,2,0,L|120:192,1,100,2|0,0:0|0:0,0:0:0:0:
200,208,107903,2,0,L|152:328,1,100,2|8,0:0|0:0,0:0:0:0:
456,240,108251,6,0,L|344:224,1,100,2|0,0:0|0:0,0:0:0:0:
264,216,108600,2,0,L|192:144,1,100,2|10,0:0|0:0,0:0:0:0:
464,128,108949,2,0,L|448:232,1,100,2|0,0:0|0:0,0:0:0:0:
312,224,109298,2,0,L|344:320,1,100,2|10,0:0|0:0,0:0:0:0:
24,304,109647,5,2,0:0:0:0:
128,248,109821,1,0,0:0:0:0:
32,296,109996,1,2,0:0:0:0:
152,272,110170,1,0,0:0:0:0:
40,288,110344,1,2,0:0:0:0:
160,304,110519,1,0,0:0:0:0:
48,280,110693,1,2,0:0:0:0:
152,344,110868,1,10,0:0:0:0:
408,336,111042,5,2,0:0:0:0:
472,232,111216,1,0,0:0:0:0:
392,336,111391,1,2,0:0:0:0:
480,256,111565,1,0,0:0:0:0:
376,328,111740,1,2,0:0:0:0:
480,288,111914,1,0,0:0:0:0:
368,312,112089,1,2,0:0:0:0:
472,312,112263,1,0,0:0:0:0:
208,328,112437,6,0,L|144:320,1,50,2|2,0:0|0:0,0:0:0:0:
352,296,112612,1,2,0:0:0:0:
400,240,112699,1,2,0:0:0:0:
440,176,112786,1,2,0:0:0:0:
368,168,112873,1,2,0:0:0:0:
176,160,112961,2,0,L|120:168,1,50,2|2,0:0|0:0,0:0:0:0:
336,184,113135,6,0,L|344:248,1,50,2|2,0:0|0:0,0:0:0:0:
160,272,113310,2,0,L|88:264,1,50,2|2,0:0|0:0,0:0:0:0:
328,328,113484,1,2,0:0:0:0:
408,296,113571,1,2,0:0:0:0:
456,224,113658,1,2,0:0:0:0:
112,152,113833,5,8,0:0:0:0:
216,152,114007,1,0,0:0:0:0:
368,128,114182,1,8,0:0:0:0:
376,152,114269,1,0,0:0:0:0:
216,144,114443,1,0,0:0:0:0:
208,168,114530,1,8,0:0:0:0:
392,144,114705,1,0,0:0:0:0:
368,168,114792,1,0,0:0:0:0:
184,152,114966,1,0,0:0:0:0:
200,176,115054,1,0,0:0:0:0:
480,208,115228,6,0,P|416:312|352:344,1,179.999994506836,0|0,0:0|0:0,0:0:0:0:
152,336,115577,2,0,L|80:320,1,59.9999981689454
248,272,115751,2,0,L|288:224,1,59.9999981689454,0|0,0:0|0:0,0:0:0:0:
40,208,115926,5,0,0:0:0:0:
64,128,116013,1,0,0:0:0:0:
136,88,116100,1,0,0:0:0:0:
216,112,116187,1,0,0:0:0:0:
32,144,116275,2,0,L|16:72,1,59.9999981689454,0|0,0:0|0:0,0:0:0:0:
216,128,116449,2,0,L|280:168,1,59.9999981689454,0|0,0:0|0:0,0:0:0:0:
472,184,116623,6,0,L|496:264,1,59.9999981689454,0|0,0:0|0:0,0:0:0:0:
312,264,116798,2,0,L|248:264,1,59.9999981689454,0|0,0:0|0:0,0:0:0:0:
448,344,116972,1,0,0:0:0:0:
496,280,117060,1,0,0:0:0:0:
432,232,117147,1,0,0:0:0:0:
376,288,117234,1,0,0:0:0:0:
152,312,117321,6,0,L|136:248,1,59.9999981689454,0|0,0:0|0:0,0:0:0:0:
344,248,117496,2,0,L|408:208,1,59.9999981689454,0|0,0:0|0:0,0:0:0:0:
176,216,117670,1,0,0:0:0:0:
120,160,117757,1,0,0:0:0:0:
160,88,117844,1,0,0:0:0:0:
240,80,117932,1,0,0:0:0:0:
72,80,118019,5,0,0:0:0:0:
0,120,118106,1,0,0:0:0:0:
72,152,118193,1,0,0:0:0:0:
144,184,118280,1,0,0:0:0:0:
360,208,118368,2,0,L|384:272,1,59.9999981689454,0|0,0:0|0:0,0:0:0:0:
184,272,118542,2,0,L|128:320,1,59.9999981689454,0|0,0:0|0:0,0:0:0:0:
384,328,118716,5,0,0:0:0:0:
456,312,118804,1,0,0:0:0:0:
488,240,118891,1,0,0:0:0:0:
416,208,118978,1,0,0:0:0:0:
184,208,119065,2,0,L|184:280,1,59.9999981689454
368,232,119240,2,0,L|368:168,1,59.9999981689454,0|0,0:0|0:0,0:0:0:0:
128,192,119414,5,0,0:0:0:0:
56,152,119501,1,0,0:0:0:0:
8,80,119589,1,0,0:0:0:0:
56,152,119676,1,0,0:0:0:0:
128,192,119763,1,0,0:0:0:0:
344,200,119850,1,0,0:0:0:0:
416,248,119937,1,0,0:0:0:0:
344,288,120025,1,0,0:0:0:0:
112,296,120112,5,0,0:0:0:0:
88,216,120199,1,0,0:0:0:0:
168,192,120286,1,0,0:0:0:0:
240,248,120373,1,0,0:0:0:0:
48,280,120461,2,0,P|88:224|208:200,1,179.999994506836,2|0,0:0|0:0,0:0:0:0:
464,200,120810,6,0,L|464:120,1,59.9999981689454,0|0,0:0|0:0,0:0:0:0:
224,136,120984,2,0,L|168:64,1,59.9999981689454,0|0,0:0|0:0,0:0:0:0:
400,160,121158,2,0,L|400:80,1,59.9999981689454,0|0,0:0|0:0,0:0:0:0:
184,192,121333,2,0,L|200:264,1,59.9999981689454,0|0,0:0|0:0,0:0:0:0:
424,256,121507,5,0,0:0:0:0:
352,248,121594,1,0,0:0:0:0:
280,240,121682,1,0,0:0:0:0:
352,248,121769,1,0,0:0:0:0:
144,240,121856,1,0,0:0:0:0:
72,216,121943,1,0,0:0:0:0:
72,144,122030,1,0,0:0:0:0:
144,128,122118,1,0,0:0:0:0:
392,128,122205,5,0,0:0:0:0:
456,176,122292,1,0,0:0:0:0:
488,248,122379,1,0,0:0:0:0:
456,176,122466,1,0,0:0:0:0:
264,112,122554,1,0,0:0:0:0:
184,112,122641,1,0,0:0:0:0:
120,152,122728,1,0,0:0:0:0:
136,224,122815,1,0,0:0:0:0:
384,232,122903,6,0,L|400:304,1,59.9999981689454,0|0,0:0|0:0,0:0:0:0:
192,296,123077,2,0,L|120:288,1,59.9999981689454,0|0,0:0|0:0,0:0:0:0:
408,352,123251,1,0,0:0:0:0:
480,312,123339,1,0,0:0:0:0:
480,248,123426,1,0,0:0:0:0:
400,216,123513,1,0,0:0:0:0:
192,208,123600,5,0,0:0:0:0:
152,144,123687,1,0,0:0:0:0:
240,144,123775,1,0,0:0:0:0:
272,80,123862,1,0,0:0:0:0:
112,80,123949,1,0,0:0:0:0:
48,136,124036,1,0,0:0:0:0:
48,208,124123,1,0,0:0:0:0:
112,248,124211,1,0,0:0:0:0:
336,240,124298,6,0,L|408:240,1,59.9999981689454,0|0,0:0|0:0,0:0:0:0:
208,288,124472,2,0,L|184:360,1,59.9999981689454,0|0,0:0|0:0,0:0:0:0:
424,304,124647,2,0,L|448:240,1,59.9999981689454,0|0,0:0|0:0,0:0:0:0:
152,344,124821,2,0,L|128:288,1,59.9999981689454,0|0,0:0|0:0,0:0:0:0:
368,104,124996,5,8,0:0:0:0:
376,168,125083,1,0,0:0:0:0:
384,232,125170,1,0,0:0:0:0:
320,248,125257,1,0,0:0:0:0:
88,256,125344,1,8,0:0:0:0:
72,192,125432,1,0,0:0:0:0:
56,128,125519,1,0,0:0:0:0:
120,112,125606,1,0,0:0:0:0:
360,104,125693,6,0,L|432:104,1,59.9999981689454,8|0,0:0|0:0,0:0:0:0:
216,160,125868,2,0,L|144:160,1,59.9999981689454,0|0,0:0|0:0,0:0:0:0:
368,232,126042,2,0,L|392:304,1,59.9999981689454,8|0,0:0|0:0,0:0:0:0:
160,264,126216,2,0,L|136:336,1,59.9999981689454,0|0,0:0|0:0,0:0:0:0:
320,352,126391,5,8,0:0:0:0:
384,320,126478,1,0,0:0:0:0:
432,256,126565,1,0,0:0:0:0:
384,184,126653,1,0,0:0:0:0:
152,184,126740,2,0,L|56:88,1,119.999996337891,4|0,0:0|0:0,0:0:0:0:
136,64,127001,1,0,0:0:0:0:
328,64,127089,6,0,L|336:136,1,59.9999981689454,0|0,0:0|0:0,0:0:0:0:
168,160,127263,2,0,L|104:144,1,59.9999981689454,0|0,0:0|0:0,0:0:0:0:
328,184,127437,2,0,L|360:304,1,119.999996337891,8|0,0:0|0:0,0:0:0:0:
424,304,127699,1,0,0:0:0:0:
184,336,127786,5,0,0:0:0:0:
136,280,127873,1,0,0:0:0:0:
208,264,127961,1,0,0:0:0:0:
280,248,128048,1,0,0:0:0:0:
64,296,128135,2,0,L|128:192,1,119.999996337891,8|0,0:0|0:0,0:0:0:0:
200,176,128397,1,0,0:0:0:0:
440,160,128484,6,0,L|376:128,1,59.9999981689454,0|0,0:0|0:0,0:0:0:0:
176,136,128658,2,0,L|184:72,1,59.9999981689454,0|0,0:0|0:0,0:0:0:0:
400,80,128833,2,0,L|416:208,1,119.999996337891,8|0,0:0|0:0,0:0:0:0:
344,200,129094,1,0,0:0:0:0:
88,200,129182,5,0,0:0:0:0:
32,264,129269,1,0,0:0:0:0:
80,344,129356,1,0,0:0:0:0:
160,344,129443,1,0,0:0:0:0:
8,264,129530,2,0,L|136:232,1,119.999996337891,8|0,0:0|0:0,0:0:0:0:
80,176,129792,1,0,0:0:0:0:
256,192,129879,5,0,0:0:0:0:
256,120,129966,1,0,0:0:0:0:
328,104,130054,1,0,0:0:0:0:
368,40,130141,1,0,0:0:0:0:
192,40,130228,2,0,L|128:160,1,119.999996337891,8|0,0:0|0:0,0:0:0:0:
192,200,130490,1,0,0:0:0:0:
408,192,130577,5,0,0:0:0:0:
448,272,130664,1,0,0:0:0:0:
368,296,130751,1,0,0:0:0:0:
288,312,130839,1,0,0:0:0:0:
48,312,130926,2,0,L|176:304,1,119.999996337891,8|0,0:0|0:0,0:0:0:0:
224,240,131187,1,0,0:0:0:0:
48,232,131275,5,0,0:0:0:0:
72,152,131362,1,0,0:0:0:0:
152,120,131449,1,0,0:0:0:0:
224,160,131536,1,0,0:0:0:0:
456,160,131623,2,0,L|464:288,1,119.999996337891,8|0,0:0|0:0,0:0:0:0:
384,272,131885,1,0,0:0:0:0:
176,272,131972,6,0,L|144:344,1,59.9999981689454,0|0,0:0|0:0,0:0:0:0:
408,264,132147,2,0,L|344:264,1,59.9999981689454,0|0,0:0|0:0,0:0:0:0:
88,256,132321,2,0,P|112:152|136:136,1,119.999996337891,8|0,0:0|0:0,0:0:0:0:
192,144,132583,1,0,0:0:0:0:
24,144,132670,6,0,L|16:80,1,59.9999981689454,0|0,0:0|0:0,0:0:0:0:
240,128,132844,2,0,L|264:192,1,59.9999981689454,0|0,0:0|0:0,0:0:0:0:
472,136,133019,2,0,L|408:256,1,119.999996337891,8|0,0:0|0:0,0:0:0:0:
344,232,133280,1,0,0:0:0:0:
112,232,133368,6,0,L|112:296,1,59.9999981689454,0|0,0:0|0:0,0:0:0:0:
280,304,133542,2,0,L|344:312,1,59.9999981689454,0|0,0:0|0:0,0:0:0:0:
96,320,133716,2,0,P|136:256|184:232,1,119.999996337891,8|0,0:0|0:0,0:0:0:0:
256,240,133978,1,0,0:0:0:0:
472,248,134065,6,0,L|456:176,1,59.9999981689454,0|0,0:0|0:0,0:0:0:0:
240,200,134240,2,0,L|176:176,1,59.9999981689454,0|0,0:0|0:0,0:0:0:0:
392,152,134414,2,0,P|368:80|312:80,1,119.999996337891,8|0,0:0|0:0,0:0:0:0:
264,96,134676,1,0,0:0:0:0:
464,160,134763,5,0,0:0:0:0:
504,80,134850,1,0,0:0:0:0:
416,64,134937,1,0,0:0:0:0:
360,128,135025,1,0,0:0:0:0:
128,168,135112,2,0,L|232:280,1,119.999996337891,8|0,0:0|0:0,0:0:0:0:
288,248,135373,1,0,0:0:0:0:
48,224,135461,6,0,L|144:160,1,59.9999981689454,0|0,0:0|0:0,0:0:0:0:
304,144,135635,2,0,L|368:120,1,59.9999981689454,0|0,0:0|0:0,0:0:0:0:
88,152,135810,2,0,L|208:120,1,119.999996337891,8|0,0:0|0:0,0:0:0:0:
144,64,136071,1,0,0:0:0:0:
384,96,136158,5,0,0:0:0:0:
400,176,136246,1,0,0:0:0:0:
416,256,136333,1,0,0:0:0:0:
344,280,136420,1,0,0:0:0:0:
112,304,136507,2,0,P|88:240|96:152,1,119.999996337891,8|0,0:0|0:0,0:0:0:0:
160,176,136769,1,0,0:0:0:0:
368,160,136856,6,0,L|448:152,1,59.9999981689454,0|0,0:0|0:0,0:0:0:0:
144,184,137030,2,0,L|216:176,1,59.9999981689454,0|0,0:0|0:0,0:0:0:0:
456,136,137205,2,0,L|424:80,1,59.9999981689454,8|0,0:0|0:0,0:0:0:0:
184,104,137379,2,0,L|168:184,1,59.9999981689454,0|0,0:0|0:0,0:0:0:0:
384,192,137554,5,4,0:0:0:0:
456,232,137641,1,0,0:0:0:0:
472,312,137728,1,0,0:0:0:0:
400,352,137815,1,0,0:0:0:0:
152,328,137903,2,0,L|112:208,1,119.999996337891,8|0,0:0|0:0,0:0:0:0:
192,200,138164,1,0,0:0:0:0:
16,192,138251,5,0,0:0:0:0:
0,112,138339,1,0,0:0:0:0:
64,56,138426,1,0,0:0:0:0:
136,80,138513,1,0,0:0:0:0:
336,96,138600,2,0,L|352:216,1,119.999996337891,8|0,0:0|0:0,0:0:0:0:
424,208,138862,1,0,0:0:0:0:
192,248,138949,5,0,0:0:0:0:
216,168,139036,1,0,0:0:0:0:
232,88,139123,1,0,0:0:0:0:
304,96,139211,1,0,0:0:0:0:
112,80,139298,2,0,L|168:200,1,119.999996337891,8|0,0:0|0:0,0:0:0:0:
96,224,139560,1,0,0:0:0:0:
288,232,139647,5,0,0:0:0:0:
368,216,139734,1,0,0:0:0:0:
448,200,139821,1,0,0:0:0:0:
368,216,139908,1,0,0:0:0:0:
136,240,139996,2,0,L|256:304,1,119.999996337891,8|0,0:0|0:0,0:0:0:0:
288,352,140257,1,0,0:0:0:0:
464,352,140344,6,0,L|448:288,1,59.9999981689454,0|0,0:0|0:0,0:0:0:0:
264,288,140519,2,0,L|200:280,1,59.9999981689454,0|0,0:0|0:0,0:0:0:0:
24,272,140693,2,0,L|160:280,1,119.999996337891,8|0,0:0|0:0,0:0:0:0:
192,344,140955,1,0,0:0:0:0:
8,280,141042,6,0,L|48:336,1,59.9999981689454,0|0,0:0|0:0,0:0:0:0:
240,280,141216,2,0,L|232:216,1,59.9999981689454,0|0,0:0|0:0,0:0:0:0:
56,200,141391,2,0,P|88:160|160:168,1,119.999996337891,8|0,0:0|0:0,0:0:0:0:
184,232,141653,1,0,0:0:0:0:
432,176,141740,6,0,L|416:104,1,59.9999981689454,0|0,0:0|0:0,0:0:0:0:
232,112,141914,2,0,L|176:144,1,59.9999981689454,0|0,0:0|0:0,0:0:0:0:
440,216,142089,2,0,P|400:288|360:296,1,119.999996337891,8|0,0:0|0:0,0:0:0:0:
304,264,142350,1,0,0:0:0:0:
504,208,142437,6,0,L|496:136,1,59.9999981689454,0|0,0:0|0:0,0:0:0:0:
272,160,142612,2,0,L|192:144,1,59.9999981689454,0|0,0:0|0:0,0:0:0:0:
440,200,142786,2,0,L|464:320,1,119.999996337891,12|0,0:0|0:0,0:0:0:0:
384,336,143048,1,0,0:0:0:0:
160,344,143135,5,0,0:0:0:0:
136,272,143222,1,0,0:0:0:0:
112,192,143310,1,0,0:0:0:0:
184,168,143397,1,0,0:0:0:0:
16,232,143484,2,0,L|40:112,1,119.999996337891,8|0,0:0|0:0,0:0:0:0:
112,112,143746,1,0,0:0:0:0:
360,112,143833,6,0,L|384:192,1,59.9999981689454,0|0,0:0|0:0,0:0:0:0:
192,192,144007,2,0,L|184:264,1,59.9999981689454,0|0,0:0|0:0,0:0:0:0:
368,248,144182,2,0,L|472:184,1,119.999996337891,8|0,0:0|0:0,0:0:0:0:
392,160,144443,1,0,0:0:0:0:
120,168,144530,6,0,L|48:168,1,59.9999981689454,0|0,0:0|0:0,0:0:0:0:
160,232,144705,2,0,L|232:232,1,59.9999981689454,0|0,0:0|0:0,0:0:0:0:
32,264,144879,2,0,L|144:312,1,119.999996337891,8|0,0:0|0:0,0:0:0:0:
200,256,145141,1,0,0:0:0:0:
448,248,145228,6,0,L|376:248,1,59.9999981689454,0|0,0:0|0:0,0:0:0:0:
200,240,145403,2,0,L|160:192,1,59.9999981689454,0|0,0:0|0:0,0:0:0:0:
392,184,145577,2,0,L|320:80,1,119.999996337891,8|0,0:0|0:0,0:0:0:0:
384,40,145839,1,0,0:0:0:0:
96,56,145926,6,0,L|104:144,1,80,6|0,0:0|0:0,0:0:0:0:
208,128,146275,1,0,0:0:0:0:
336,128,146449,2,0,L|352:264,1,120,0|0,0:0|0:0,0:0:0:0:
144,256,146798,6,0,L|128:136,1,120,0|0,0:0|0:0,0:0:0:0:
328,160,147147,2,0,L|368:296,1,120,0|0,0:0|0:0,0:0:0:0:
136,296,147496,2,0,L|192:160,1,120,0|0,0:0|0:0,0:0:0:0:
336,184,147844,2,0,L|392:168,1,40,0|0,0:0|0:0,0:0:0:0:
120,208,148019,5,2,0:0:0:0:
56,160,148106,1,2,0:0:0:0:
112,96,148193,1,2,0:0:0:0:
192,112,148280,1,0,0:0:0:0:
16,88,148368,1,2,0:0:0:0:
96,96,148455,1,2,0:0:0:0:
176,104,148542,1,2,0:0:0:0:
96,96,148629,1,0,0:0:0:0:
336,128,148716,6,0,L|392:240,1,120,4|0,0:0|0:0,0:0:0:0:
48,240,149065,2,0,P|112:184|184:192,1,160,8|0,0:0|0:0,0:0:0:0:
160,256,149501,1,0,0:0:0:0:
448,208,149589,2,0,P|400:160|400:224,1,160,8|0,0:0|0:0,0:0:0:0:
384,280,150025,1,0,0:0:0:0:
72,264,150112,6,0,L|224:184,1,160,8|0,0:0|0:0,0:0:0:0:
272,224,150548,1,0,0:0:0:0:
8,192,150635,2,0,P|56:168|88:256,1,160,8|0,0:0|0:0,0:0:0:0:
64,304,151071,1,0,0:0:0:0:
352,264,151158,2,0,P|344:304|408:336,1,120,8|0,0:0|0:0,0:0:0:0:
152,288,151507,6,0,L|144:168,1,100,6|0,0:0|0:0,0:0:0:0:
80,128,151769,1,0,0:0:0:0:
312,120,151856,2,0,L|344:176,1,50,8|0,0:0|0:0,0:0:0:0:
144,192,152030,2,0,L|80:184,1,50,0|2,0:0|0:0,0:0:0:0:
320,224,152205,6,0,L|344:336,1,100,0|2,0:0|0:0,0:0:0:0:
168,232,152466,2,0,L|160:344,1,100,0|0,0:0|0:0,0:0:0:0:
368,352,152728,2,0,L|424:344,1,50,0|0,0:0|0:0,0:0:0:0:
192,352,152903,6,0,L|136:352,1,50,2|0,0:0|0:0,0:0:0:0:
312,344,153077,2,0,L|312:288,1,50,0|0,0:0|0:0,0:0:0:0:
160,256,153251,1,8,0:0:0:0:
224,240,153339,1,0,0:0:0:0:
288,224,153426,1,2,0:0:0:0:
352,208,153513,1,2,0:0:0:0:
112,88,153600,6,0,L|96:200,1,100,0|2,0:0|0:0,0:0:0:0:
168,208,153862,1,0,0:0:0:0:
392,208,153949,2,0,L|456:208,1,50,8|0,0:0|0:0,0:0:0:0:
256,280,154123,2,0,L|200:264,1,50,0|0,0:0|0:0,0:0:0:0:
448,296,154298,6,0,L|480:248,1,50,2|0,0:0|0:0,0:0:0:0:
240,224,154472,2,0,L|280:176,1,50,2|0,0:0|0:0,0:0:0:0:
496,160,154647,1,8,0:0:0:0:
472,80,154734,1,0,0:0:0:0:
400,64,154821,1,0,0:0:0:0:
344,104,154908,1,2,0:0:0:0:
88,96,154996,6,0,L|48:200,1,100,0|2,0:0|0:0,0:0:0:0:
208,200,155257,2,0,L|272:280,1,100,0|0,0:0|0:0,0:0:0:0:
72,288,155519,2,0,L|32:320,1,50,2|0,0:0|0:0,0:0:0:0:
224,320,155693,6,0,L|288:232,1,100,2|0,0:0|0:0,0:0:0:0:
112,232,155955,2,0,L|80:128,1,100,0|0,0:0|0:0,0:0:0:0:
248,136,156216,2,0,L|328:112,1,50,0|2,0:0|0:0,0:0:0:0:
40,96,156391,5,0,0:0:0:0:
8,176,156478,1,0,0:0:0:0:
64,240,156565,1,2,0:0:0:0:
152,240,156653,1,0,0:0:0:0:
360,240,156740,2,0,P|424:192|256:88,1,350,8|0,0:0|0:0,0:0:0:0:
40,56,157437,6,0,L|56:160,1,100,12|0,0:0|0:0,0:0:0:0:
128,168,157699,1,2,0:0:0:0:
376,184,157786,2,0,L|440:288,1,100,0|2,0:0|0:0,0:0:0:0:
248,296,158048,2,0,L|296:176,1,100,0|0,0:0|0:0,0:0:0:0:
464,192,158310,2,0,L|400:192,1,50,2|0,0:0|0:0,0:0:0:0:
144,192,158484,6,0,L|152:256,1,50,2|0,0:0|0:0,0:0:0:0:
232,256,158658,2,0,L|240:328,1,50,2|0,0:0|0:0,0:0:0:0:
64,256,158833,2,0,L|72:328,1,50,8|0,0:0|0:0,0:0:0:0:
144,192,159007,2,0,L|152:248,1,50,0|2,0:0|0:0,0:0:0:0:
408,216,159182,6,0,L|432:104,1,100,0|2,0:0|0:0,0:0:0:0:
232,136,159443,2,0,L|208:32,1,100,0|0,0:0|0:0,0:0:0:0:
392,144,159705,2,0,L|384:64,1,50,0|0,0:0|0:0,0:0:0:0:
136,112,159879,6,0,L|128:240,1,100,2|0,0:0|0:0,0:0:0:0:
208,232,160141,1,0,0:0:0:0:
416,240,160228,2,0,L|432:304,1,50,8|0,0:0|0:0,0:0:0:0:
328,208,160403,2,0,L|336:264,1,50,2|2,0:0|0:0,0:0:0:0:
488,200,160577,5,0,0:0:0:0:
464,120,160664,1,2,0:0:0:0:
392,96,160751,1,2,0:0:0:0:
320,120,160839,1,0,0:0:0:0:
80,144,160926,2,0,L|88:208,1,50,8|0,0:0|0:0,0:0:0:0:
272,200,161100,2,0,L|208:208,1,50,2|0,0:0|0:0,0:0:0:0:
456,184,161275,6,0,L|464:240,1,50,2|0,0:0|0:0,0:0:0:0:
392,240,161449,2,0,L|400:312,1,50,0|0,0:0|0:0,0:0:0:0:
160,256,161623,2,0,L|136:328,1,50,8|0,0:0|0:0,0:0:0:0:
120,176,161798,2,0,L|104:224,1,50,0|6,0:0|0:0,0:0:0:0:
320,184,161972,6,0,L|376:184,1,50,0|4,0:0|0:0,0:0:0:0:
200,176,162147,2,0,L|80:176,1,100,8|0,0:0|0:0,0:0:0:0:
312,112,162408,2,0,L|432:112,1,100,2|0,0:0|0:0,0:0:0:0:
96,208,162670,6,0,L|72:320,1,100,6|0,0:0|0:0,0:0:0:0:
144,328,162932,1,0,0:0:0:0:
376,320,163019,1,8,0:0:0:0:
424,256,163106,1,0,0:0:0:0:
368,176,163193,1,0,0:0:0:0:
288,200,163280,1,2,0:0:0:0:
64,200,163368,6,0,L|40:312,1,100,0|2,0:0|0:0,0:0:0:0:
216,312,163629,2,0,L|192:192,1,100,0|0,0:0|0:0,0:0:0:0:
368,216,163891,2,0,L|400:168,1,50,0|0,0:0|0:0,0:0:0:0:
120,88,164065,6,0,L|120:152,1,50,2|0,0:0|0:0,0:0:0:0:
208,152,164240,2,0,L|216:224,1,50,0|0,0:0|0:0,0:0:0:0:
24,208,164414,2,0,P|72:136|144:136,1,150,8|2,0:0|0:0,0:0:0:0:
368,120,164763,6,0,L|456:208,1,100,0|2,0:0|0:0,0:0:0:0:
384,240,165025,1,0,0:0:0:0:
160,256,165112,2,0,L|104:256,1,50,8|0,0:0|0:0,0:0:0:0:
328,304,165286,2,0,L|360:360,1,50,0|0,0:0|0:0,0:0:0:0:
96,312,165461,6,0,L|128:240,1,50,2|0,0:0|0:0,0:0:0:0:
368,224,165635,2,0,L|408:160,1,50,0|0,0:0|0:0,0:0:0:0:
136,144,165810,2,0,L|112:248,1,100,8|0,0:0|0:0,0:0:0:0:
192,264,166071,1,2,0:0:0:0:
8,136,166158,6,0,L|112:128,1,100,0|2,0:0|0:0,0:0:0:0:
320,144,166420,2,0,L|320:256,1,100,0|0,0:0|0:0,0:0:0:0:
104,256,166682,2,0,L|40:240,1,50,2|0,0:0|0:0,0:0:0:0:
272,288,166856,6,0,L|384:272,1,100,2|0,0:0|0:0,0:0:0:0:
160,248,167118,2,0,L|144:144,1,100,0|0,0:0|0:0,0:0:0:0:
320,128,167379,2,0,L|400:128,1,50,0|2,0:0|0:0,0:0:0:0:
136,112,167554,6,0,L|104:248,1,100,0|0,0:0|0:0,0:0:0:0:
176,224,167815,1,0,0:0:0:0:
400,224,167903,2,0,P|440:280|392:344,1,150,8|0,0:0|0:0,0:0:0:0:
152,328,168251,6,0,L|136:168,1,150,6|0,0:0|0:0,0:0:0:0:
344,168,168600,2,0,L|384:272,1,100,8|0,0:0|0:0,0:0:0:0:
448,248,168862,1,2,0:0:0:0:
160,280,168949,6,0,L|128:152,1,100,0|2,0:0|0:0,0:0:0:0:
336,160,169211,2,0,L|376:64,1,100,0|0,0:0|0:0,0:0:0:0:
192,96,169472,2,0,L|128:80,1,50,0|0,0:0|0:0,0:0:0:0:
371,236,169647,6,0,L|336:272,1,50,2|0,0:0|0:0,0:0:0:0:
126,320,169821,2,0,L|176:320,1,50,2|0,0:0|0:0,0:0:0:0:
432,336,169996,1,8,0:0:0:0:
480,256,170083,1,0,0:0:0:0:
448,184,170170,1,0,0:0:0:0:
376,144,170257,1,2,0:0:0:0:
88,256,170344,6,0,L|184:176,1,100,0|2,0:0|0:0,0:0:0:0:
392,176,170606,2,0,L|376:72,1,100,0|0,0:0|0:0,0:0:0:0:
192,88,170868,2,0,L|112:88,1,50,0|0,0:0|0:0,0:0:0:0:
344,136,171042,5,6,0:0:0:0:
424,168,171129,1,0,0:0:0:0:
464,248,171216,1,0,0:0:0:0:
416,312,171304,1,0,0:0:0:0:
168,312,171391,1,8,0:0:0:0:
88,304,171478,1,0,0:0:0:0:
168,312,171565,1,0,0:0:0:0:
248,320,171653,1,2,0:0:0:0:
464,304,171740,6,0,L|448:240,1,50,0|0,0:0|0:0,0:0:0:0:
272,232,171914,2,0,L|216:224,1,50,2|0,0:0|0:0,0:0:0:0:
472,208,172089,2,0,L|488:136,1,50,8|0,0:0|0:0,0:0:0:0:
256,168,172263,2,0,L|240:112,1,50,0|0,0:0|0:0,0:0:0:0:
472,112,172437,6,0,L|352:112,2,100,2|2|0,0:0|0:0|0:0,0:0:0:0:
136,112,172961,1,2,0:0:0:0:
64,168,173135,2,0,L|136:248,1,100,0|2,0:0|0:0,0:0:0:0:
368,264,173484,2,0,L|480:264,1,100,0|0,0:0|0:0,0:0:0:0:
232,296,173833,6,0,L|144:200,1,120,6|8,0:0|0:0,0:0:0:0:
344,264,174182,2,0,L|376:176,1,80,2|0,0:0|0:0,0:0:0:0:
88,136,174530,6,0,L|96:264,1,120,6|8,0:0|0:0,0:0:0:0:
288,256,174879,2,0,L|192:256,1,80,2|8,0:0|0:0,0:0:0:0:
496,224,175228,6,0,L|360:184,1,120,6|8,0:0|0:0,0:0:0:0:
184,176,175577,2,0,L|184:280,1,80,2|0,0:0|0:0,0:0:0:0:
440,256,175926,6,0,P|368:216|320:240,1,120,6|8,0:0|0:0,0:0:0:0:
128,232,176275,2,0,P|136:296|208:312,1,120,6|0,0:0|0:0,0:0:0:0:
408,304,176623,6,0,L|392:168,1,120,6|8,0:0|0:0,0:0:0:0:
224,176,176972,2,0,L|136:192,1,80,2|2,0:0|0:0,0:0:0:0:
480,224,177321,6,0,L|400:112,1,120,6|0,0:0|0:0,0:0:0:0:
200,144,177670,2,0,L|288:240,1,120,2|0,0:0|0:0,0:0:0:0:
0,144,178019,6,0,L|128:192,1,120,6|8,0:0|0:0,0:0:0:0:
280,192,178368,2,0,L|176:192,1,80,10|8,0:0|0:0,0:0:0:0:
472,192,178716,6,0,L|424:64,1,120,6|8,0:0|0:0,0:0:0:0:
272,88,179065,2,0,L|360:88,1,80,10|8,0:0|0:0,0:0:0:0:
112,200,179414,6,0,L|192:192,1,80,6|2,0:0|0:0,0:0:0:0:
312,160,179763,2,0,L|328:264,1,80,6|2,0:0|0:0,0:0:0:0:
440,232,180112,2,0,L|344:240,1,80,6|2,0:0|0:0,0:0:0:0:
200,240,180461,2,0,L|296:240,1,80,6|2,0:0|0:0,0:0:0:0:
16,232,180810,6,0,L|48:152,1,80,6|2,0:0|0:0,0:0:0:0:
168,160,181158,2,0,L|88:160,1,80,6|2,0:0|0:0,0:0:0:0:
376,152,181507,2,0,L|392:240,1,80,6|2,0:0|0:0,0:0:0:0:
480,160,181856,2,0,L|400:208,1,80,6|2,0:0|0:0,0:0:0:0:
72,264,182205,6,0,L|72:216,1,40,6|0,0:0|0:0,0:0:0:0:
320,272,182379,1,6,0:0:0:0:
392,272,182466,1,0,0:0:0:0:
128,216,182554,1,6,0:0:0:0:
72,160,182641,1,0,0:0:0:0:
328,144,182728,2,0,L|344:192,1,40,6|0,0:0|0:0,0:0:0:0:
104,160,182903,6,0,L|56:128,1,40,6|0,0:0|0:0,0:0:0:0:
272,208,183077,2,0,L|296:248,1,40,6|0,0:0|0:0,0:0:0:0:
80,288,183251,1,6,0:0:0:0:
8,272,183339,1,0,0:0:0:0:
256,272,183426,1,6,0:0:0:0:
328,256,183513,1,0,0:0:0:0:
48,208,183600,6,0,L|8:200,1,40,6|0,0:0|0:0,0:0:0:0:
192,208,183775,2,0,P|240:176|304:224,1,120,0|0,0:0|0:0,0:0:0:0:
96,216,184123,2,0,P|128:160|200:168,1,120,4|0,0:0|0:0,0:0:0:0:
400,184,184472,6,0,L|336:128,1,80,4|0,0:0|0:0,0:0:0:0:
72,152,184734,1,0,0:0:0:0:
48,224,184821,1,0,0:0:0:0:
424,280,184996,5,6,0:0:0:0:
256,192,185170,12,0,190403,0:0:0:0:
120,184,190577,6,0,P|136:240|176:112,1,419.999987182618,0|0,0:0|0:0,0:0:0:0:
288,128,191972,2,0,P|328:248|376:272,1,179.999994506836,0|0,0:0|0:0,0:0:0:0:
472,256,192670,2,0,L|272:280,1,179.999994506836,0|0,0:0|0:0,0:0:0:0:
16,280,193368,6,0,P|112:312|32:144,1,419.999987182618,0|0,0:0|0:0,0:0:0:0:
160,176,194763,2,0,P|216:256|176:264,1,179.999994506836,0|0,0:0|0:0,0:0:0:0:
320,248,195461,2,0,P|368:208|360:288,1,179.999994506836,0|0,0:0|0:0,0:0:0:0:
88,280,196158,6,0,P|160:256|488:376,1,419.999987182618,0|0,0:0|0:0,0:0:0:0:
320,352,197554,2,0,P|344:264|272:240,1,179.999994506836,0|0,0:0|0:0,0:0:0:0:
160,248,198251,2,0,P|96:216|104:104,1,179.999994506836,0|0,0:0|0:0,0:0:0:0:
368,112,198949,6,0,P|360:200|408:88,1,419.999987182618,0|0,0:0|0:0,0:0:0:0:
256,96,200344,2,0,P|240:208|176:216,1,179.999994506836,0|0,0:0|0:0,0:0:0:0:
336,200,201042,2,0,P|320:256|432:272,1,179.999994506836,0|0,0:0|0:0,0:0:0:0:
56,216,201740,6,0,B|144:216|280:256|320:360|320:360|288:256,1,419.999987182618,0|0,0:0|0:0,0:0:0:0:
392,240,203135,2,0,P|448:184|376:144,1,179.999994506836,0|0,0:0|0:0,0:0:0:0:
256,152,203833,2,0,L|304:328,1,179.999994506836,0|0,0:0|0:0,0:0:0:0:
24,248,204530,6,0,B|96:216|104:80|104:80|136:184|280:200|280:200|280:208,1,419.999987182618,0|0,0:0|0:0,0:0:0:0:
416,192,205926,2,0,B|400:280|312:200|312:200|328:296|496:288|496:288|432:320,1,419.999987182618,0|0,0:0|0:0,0:0:0:0:
144,312,207321,6,0,L|8:216,2,160,0|0|0,0:0|0:0|0:0,0:0:0:0:
224,288,208193,1,0,0:0:0:0:
184,192,208368,1,0,0:0:0:0:
280,176,208542,1,0,0:0:0:0:
24,192,208716,6,0,P|88:144|168:184,2,160,0|0|0,0:0|0:0|0:0,0:0:0:0:
128,224,209589,1,0,0:0:0:0:
152,312,209763,1,0,0:0:0:0:
64,360,209937,1,0,0:0:0:0:
384,344,210112,6,0,P|344:272|264:232,1,160,0|0,0:0|0:0,0:0:0:0:
400,200,210635,1,0,0:0:0:0:
472,112,210810,2,0,P|392:56|368:104,1,160,0|0,0:0|0:0,0:0:0:0:
296,176,211333,1,0,0:0:0:0:
24,192,211507,6,0,P|112:200|112:256,1,160,0|0,0:0|0:0,0:0:0:0:
192,272,212030,1,0,0:0:0:0:
288,248,212205,1,0,0:0:0:0:
272,128,212379,1,0,0:0:0:0:
160,128,212554,1,0,0:0:0:0:
80,184,212728,1,0,0:0:0:0:
344,208,212903,6,0,L|504:256,2,160,0|0|0,0:0|0:0|0:0,0:0:0:0:
256,272,213775,1,0,0:0:0:0:
336,320,213949,1,0,0:0:0:0:
256,360,214123,1,0,0:0:0:0:
8,336,214298,6,0,P|56:288|144:320,1,160,0|0,0:0|0:0,0:0:0:0:
200,224,214821,1,0,0:0:0:0:
280,152,214996,2,0,L|240:48,1,80,0|0,0:0|0:0,0:0:0:0:
152,80,215344,2,0,L|64:120,1,80,0|0,0:0|0:0,0:0:0:0:
376,136,215693,6,0,L|416:296,1,160,0|0,0:0|0:0,0:0:0:0:
296,288,216216,1,0,0:0:0:0:
224,200,216391,2,0,L|184:104,1,80,0|0,0:0|0:0,0:0:0:0:
328,128,216740,2,0,L|288:56,1,80,0|0,0:0|0:0,0:0:0:0:
16,72,217089,6,0,L|176:136,2,160,0|0|0,0:0|0:0|0:0,0:0:0:0:
72,200,217961,1,0,0:0:0:0:
200,216,218135,2,0,L|192:304,1,80,0|0,0:0|0:0,0:0:0:0:
456,224,218484,6,0,P|384:160|240:184,1,240,0|0,0:0|0:0,0:0:0:0:
304,272,219182,1,0,0:0:0:0:
56,208,219879,6,0,P|152:192|312:224,1,240,0|0,0:0|0:0,0:0:0:0:
208,304,220577,1,0,0:0:0:0:
448,272,221275,6,0,P|408:160|296:144,1,240,0|0,0:0|0:0,0:0:0:0:
240,288,221972,1,0,0:0:0:0:
144,208,222670,6,0,P|168:136|176:232,1,240,0|0,0:0|0:0,0:0:0:0:
96,224,223368,1,0,0:0:0:0:
264,240,223716,1,0,0:0:0:0:
424,256,224065,5,0,0:0:0:0:
256,192,224240,12,0,229472,0:0:0:0:
80,192,229647,6,0,L|192:160,1,100,2|0,0:0|0:0,0:0:0:0:
304,176,229996,2,0,L|336:288,1,100,2|8,0:0|0:0,0:0:0:0:
208,288,230344,2,0,L|88:312,2,100,2|0|2,0:0|0:0|0:0,0:0:0:0:
64,240,230868,1,10,0:0:0:0:
376,208,231042,6,0,L|384:96,1,100,2|0,0:0|0:0,0:0:0:0:
256,112,231391,2,0,L|152:144,1,100,2|0,0:0|0:0,0:0:0:0:
344,192,231740,2,0,L|448:232,1,100,2|10,0:0|0:0,0:0:0:0:
288,232,232089,2,0,L|280:352,1,100,2|10,0:0|0:0,0:0:0:0:
16,192,232437,6,0,L|144:192,1,100,2|0,0:0|0:0,0:0:0:0:
232,216,232786,2,0,L|288:312,1,100,2|8,0:0|0:0,0:0:0:0:
136,304,233135,2,0,L|248:304,1,100,2|0,0:0|0:0,0:0:0:0:
384,320,233484,2,0,L|472:240,1,100,2|10,0:0|0:0,0:0:0:0:
176,224,233833,6,0,L|136:120,1,100,2|0,0:0|0:0,0:0:0:0:
288,128,234182,2,0,L|400:128,1,100,2|0,0:0|0:0,0:0:0:0:
216,240,234530,2,0,L|144:328,1,100,2|10,0:0|0:0,0:0:0:0:
336,312,234879,2,0,L|368:208,1,100,2|10,0:0|0:0,0:0:0:0:
56,192,235228,6,0,L|184:192,1,100,2|0,0:0|0:0,0:0:0:0:
296,200,235577,2,0,L|272:320,1,100,2|8,0:0|0:0,0:0:0:0:
152,296,235926,2,0,L|272:296,1,100,2|0,0:0|0:0,0:0:0:0:
384,272,236275,2,0,L|400:376,1,100,2|10,0:0|0:0,0:0:0:0:
104,336,236623,6,0,L|224:336,1,100,2|0,0:0|0:0,0:0:0:0:
64,320,236972,2,0,L|176:320,1,100,2|0,0:0|0:0,0:0:0:0:
328,304,237321,2,0,L|224:304,1,100,2|10,0:0|0:0,0:0:0:0:
368,280,237670,2,0,L|256:280,1,100,2|10,0:0|0:0,0:0:0:0:
512,280,238019,6,0,L|400:280,1,100,2|0,0:0|0:0,0:0:0:0:
328,256,238368,2,0,L|368:160,1,100,2|8,0:0|0:0,0:0:0:0:
264,160,238716,2,0,L|264:272,1,100,2|0,0:0|0:0,0:0:0:0:
376,288,239065,2,0,L|264:288,1,100,2|10,0:0|0:0,0:0:0:0:
16,296,239414,6,0,L|56:192,1,100,0|0,0:0|0:0,0:0:0:0:
168,192,239763,2,0,L|56:200,1,100,2|0,0:0|0:0,0:0:0:0:
176,240,240112,2,0,L|224:344,1,100,2|10,0:0|0:0,0:0:0:0:
136,336,240461,2,0,L|48:272,1,100,2|10,0:0|0:0,0:0:0:0:
128,232,240722,1,0,0:0:0:0:
336,232,240810,6,0,L|440:232,1,80,2|0,0:0|0:0,0:0:0:0:
280,184,241158,2,0,L|200:184,1,80,2|0,0:0|0:0,0:0:0:0:
360,184,241507,2,0,P|400:160|368:80,1,120,2|0,0:0|0:0,0:0:0:0:
216,80,241856,1,2,0:0:0:0:
152,80,241943,1,0,0:0:0:0:
184,80,242030,1,2,0:0:0:0:
400,80,242205,6,0,L|488:80,1,80,0|2,0:0|0:0,0:0:0:0:
368,144,242554,2,0,L|264:144,1,80,0|2,0:0|0:0,0:0:0:0:
152,200,242903,2,0,L|240:200,1,80,0|2,0:0|0:0,0:0:0:0:
360,208,243251,2,0,L|264:208,1,80,0|2,0:0|0:0,0:0:0:0:
240,256,243513,1,0,0:0:0:0:
448,208,243600,6,0,L|344:208,1,80,2|0,0:0|0:0,0:0:0:0:
272,168,243949,2,0,L|192:168,1,80,2|0,0:0|0:0,0:0:0:0:
32,128,244298,2,0,L|112:128,1,80,2|0,0:0|0:0,0:0:0:0:
232,104,244647,2,0,L|320:104,1,80,2|0,0:0|0:0,0:0:0:0:
96,96,244996,6,0,L|48:168,2,80,2|0|2,0:0|0:0|0:0,0:0:0:0:
224,96,245519,1,0,0:0:0:0:
360,96,245693,2,0,L|312:168,1,80,2|0,0:0|0:0,0:0:0:0:
416,176,246042,2,0,L|440:264,1,80,2|0,0:0|0:0,0:0:0:0:
136,72,246391,6,0,L|112:176,1,80,6|0,0:0|0:0,0:0:0:0:
280,184,246740,2,0,L|368:184,1,80,2|10,0:0|0:0,0:0:0:0:
208,248,247089,2,0,L|112:248,1,80,2|10,0:0|0:0,0:0:0:0:
304,248,247437,2,0,L|344:320,1,80,2|10,0:0|0:0,0:0:0:0:
40,296,247786,6,0,L|136:296,1,80,2|8,0:0|0:0,0:0:0:0:
256,304,248135,2,0,L|232:208,1,80,2|8,0:0|0:0,0:0:0:0:
424,208,248484,2,0,L|328:208,1,80,2|8,0:0|0:0,0:0:0:0:
504,144,248833,2,0,L|424:144,1,80,2|8,0:0|0:0,0:0:0:0:
32,112,249182,5,10,0:0:0:0:
16,184,249269,1,8,0:0:0:0:
80,224,249356,1,10,0:0:0:0:
160,208,249443,1,8,0:0:0:0:
376,208,249530,2,0,L|432:200,1,40,10|8,0:0|0:0,0:0:0:0:
216,264,249705,2,0,L|200:312,1,40,10|8,0:0|0:0,0:0:0:0:
424,280,249879,5,10,0:0:0:0:
464,208,249966,1,8,0:0:0:0:
416,136,250054,1,10,0:0:0:0:
336,144,250141,1,8,0:0:0:0:
104,200,250228,1,10,0:0:0:0:
32,160,250315,1,8,0:0:0:0:
32,80,250403,1,10,0:0:0:0:
104,48,250490,1,8,0:0:0:0:
368,48,250577,6,0,L|408:48,1,40,2|2,0:0|0:0,0:0:0:0:
168,48,250751,2,0,L|112:48,1,40,2|2,0:0|0:0,0:0:0:0:
424,136,250926,2,0,L|464:152,1,40,2|2,0:0|0:0,0:0:0:0:
96,144,251100,2,0,L|48:160,1,40,2|2,0:0|0:0,0:0:0:0:
344,328,251275,5,2,0:0:0:0:
416,288,251362,1,2,0:0:0:0:
456,216,251449,1,2,0:0:0:0:
416,136,251536,1,2,0:0:0:0:
256,144,251623,1,2,0:0:0:0:
336,136,251711,1,2,0:0:0:0:
416,128,251798,1,2,0:0:0:0:
456,208,251885,1,2,0:0:0:0:
208,208,251972,5,10,0:0:0:0:
168,256,252060,1,8,0:0:0:0:
200,304,252147,1,8,0:0:0:0:
264,304,252234,1,8,0:0:0:0:
328,304,252321,1,8,0:0:0:0:
360,256,252408,1,8,0:0:0:0:
328,208,252496,1,8,0:0:0:0:
264,208,252583,1,8,0:0:0:0:
168,216,252670,5,8,0:0:0:0:
112,184,252757,1,8,0:0:0:0:
88,120,252844,1,8,0:0:0:0:
112,56,252932,1,8,0:0:0:0:
168,32,253019,1,8,0:0:0:0:
240,32,253106,1,8,0:0:0:0:
296,72,253193,1,8,0:0:0:0:
240,112,253280,1,8,0:0:0:0:
144,112,253368,5,8,0:0:0:0:
96,168,253455,1,8,0:0:0:0:
128,240,253542,1,8,0:0:0:0:
200,240,253629,1,8,0:0:0:0:
296,240,253716,1,8,0:0:0:0:
360,240,253804,1,8,0:0:0:0:
424,240,253891,1,8,0:0:0:0:
360,240,253978,1,8,0:0:0:0:
256,240,254065,6,0,L|224:200,1,50,8|8,0:0|0:0,0:0:0:0:
304,240,254240,1,8,0:0:0:0:
368,208,254327,1,8,0:0:0:0:
344,136,254414,1,8,0:0:0:0:
272,128,254501,1,8,0:0:0:0:
200,192,254589,2,0,L|168:152,1,50,8|8,0:0|0:0,0:0:0:0:
328,176,254763,6,0,L|392:176,1,50,8|8,0:0|0:0,0:0:0:0:
168,224,254937,2,0,L|104:256,1,50,8|8,0:0|0:0,0:0:0:0:
368,304,255112,1,8,0:0:0:0:
440,272,255199,1,8,0:0:0:0:
480,200,255286,1,8,0:0:0:0:
440,128,255373,1,8,0:0:0:0:
160,128,255461,6,0,L|136:200,1,50,8|8,0:0|0:0,0:0:0:0:
360,184,255635,2,0,L|360:240,1,50,8|8,0:0|0:0,0:0:0:0:
424,264,255810,2,0,L|424:320,1,50,8|8,0:0|0:0,0:0:0:0:
184,320,255984,2,0,L|120:320,1,50,8|8,0:0|0:0,0:0:0:0:
376,320,256158,6,0,P|448:304|440:224,1,150,2|0,0:0|0:0,0:0:0:0:
256,224,256507,2,0,L|144:216,1,100,0|0,0:0|0:0,0:0:0:0:
96,168,256769,1,0,0:0:0:0:
344,136,256856,6,0,L|376:232,1,100,2|2,0:0|0:0,0:0:0:0:
456,232,257118,1,2,0:0:0:0:
208,256,257205,2,0,L|200:328,1,50,2|2,0:0|0:0,0:0:0:0:
376,320,257379,2,0,L|432:320,1,50,2|2,0:0|0:0,0:0:0:0:
136,304,257554,6,0,P|208:224|256:224,1,150,6|0,0:0|0:0,0:0:0:0:
440,224,257903,2,0,L|368:88,1,150,0|0,0:0|0:0,0:0:0:0:
80,80,258251,6,0,L|80:120,1,40,6|0,0:0|0:0,0:0:0:0:
296,136,258426,2,0,L|296:192,1,40,0|0,0:0|0:0,0:0:0:0:
120,264,258600,2,0,L|72:280,1,40,0|0,0:0|0:0,0:0:0:0:
288,256,258775,2,0,L|336:248,1,40,0|0,0:0|0:0,0:0:0:0:
88,208,258949,6,0,L|200:176,1,80,2|0,0:0|0:0,0:0:0:0:
280,160,259298,2,0,L|144:192,1,120,0|0,0:0|0:0,0:0:0:0:
368,216,259647,6,0,L|368:280,1,40,10|0,0:0|0:0,0:0:0:0:
136,280,259821,2,0,L|136:224,1,40,0|0,0:0|0:0,0:0:0:0:
304,184,259996,2,0,L|352:184,1,40,0|0,0:0|0:0,0:0:0:0:
136,160,260170,2,0,L|104:128,1,40,0|0,0:0|0:0,0:0:0:0:
312,128,260344,6,0,L|400:128,1,80,2|0,0:0|0:0,0:0:0:0:
144,120,260693,2,0,L|104:200,1,80
416,232,261042,6,0,L|440:152,1,80,10|0,0:0|0:0,0:0:0:0:
336,152,261304,2,0,L|360:72,1,80,0|0,0:0|0:0,0:0:0:0:
256,72,261565,2,0,L|216:72,1,40,0|0,0:0|0:0,0:0:0:0:
16,104,261740,6,0,L|32:192,1,80,2|0,0:0|0:0,0:0:0:0:
128,184,262001,2,0,L|144:272,1,80,0|0,0:0|0:0,0:0:0:0:
240,272,262263,2,0,L|248:320,1,40,0|0,0:0|0:0,0:0:0:0:
448,328,262437,6,0,P|416:264|368:256,1,120,10|0,0:0|0:0,0:0:0:0:
176,248,262786,2,0,L|104:136,1,120,0|0,0:0|0:0,0:0:0:0:
368,120,263135,6,0,L|432:304,1,150,6|0,0:0|0:0,0:0:0:0:
208,296,263484,2,0,P|152:264|216:240,1,150,6|0,0:0|0:0,0:0:0:0:
424,224,263833,6,0,L|424:160,1,50,10|0,0:0|0:0,0:0:0:0:
232,216,264007,2,0,L|232:160,1,50,0|0,0:0|0:0,0:0:0:0:
448,144,264182,2,0,L|496:104,1,50,0|0,0:0|0:0,0:0:0:0:
280,144,264356,2,0,L|232:128,1,50,0|0,0:0|0:0,0:0:0:0:
432,120,264530,6,0,L|416:232,1,100,2|0,0:0|0:0,0:0:0:0:
264,240,264879,2,0,P|296:288|248:360,1,150,0|0,0:0|0:0,0:0:0:0:
48,344,265228,6,0,L|56:280,1,50,10|0,0:0|0:0,0:0:0:0:
224,304,265403,2,0,L|280:280,1,50,0|0,0:0|0:0,0:0:0:0:
88,264,265577,2,0,L|64:216,1,50,0|0,0:0|0:0,0:0:0:0:
256,208,265751,2,0,L|256:144,1,50,0|0,0:0|0:0,0:0:0:0:
64,152,265926,6,0,P|128:104|216:112,1,150,4|0,0:0|0:0,0:0:0:0:
352,104,266275,2,0,L|384:216,1,100,8|0,0:0|0:0,0:0:0:0:
288,224,266623,2,0,L|176:232,1,100,0|8,0:0|0:0,0:0:0:0:
312,312,266972,2,0,L|408:344,1,100,0|0,0:0|0:0,0:0:0:0:
104,328,267321,6,0,P|144:264|240:264,1,150,8|2,0:0|0:0,0:0:0:0:
408,256,267670,2,0,P|400:184|320:168,1,150,0|0,0:0|0:0,0:0:0:0:
136,160,268019,2,0,P|80:208|104:280,1,150,0|0,0:0|0:0,0:0:0:0:
288,272,268368,2,0,L|448:264,1,150,8|0,0:0|0:0,0:0:0:0:
176,280,268716,6,0,P|240:208|328:216,1,179.999994506836,6|0,0:0|0:0,0:0:0:0:
136,200,269065,2,0,P|72:176|56:56,1,179.999994506836,6|0,0:0|0:0,0:0:0:0:
280,64,269414,6,0,L|288:184,1,119.999996337891,2|0,0:0|0:0,0:0:0:0:
440,176,269676,2,0,L|416:304,1,119.999996337891,0|0,0:0|0:0,0:0:0:0:
272,304,269937,2,0,L|192:320,1,59.9999981689454,0|0,0:0|0:0,0:0:0:0:
48,344,270112,6,0,L|24:280,1,59.9999981689454,2|0,0:0|0:0,0:0:0:0:
224,280,270286,2,0,L|288:256,1,59.9999981689454,0|0,0:0|0:0,0:0:0:0:
64,208,270461,2,0,P|96:120|176:96,1,179.999994506836,10|0,0:0|0:0,0:0:0:0:
392,88,270810,6,0,L|328:208,1,119.999996337891,2|0,0:0|0:0,0:0:0:0:
496,216,271071,2,0,L|400:296,1,119.999996337891,0|0,0:0|0:0,0:0:0:0:
248,296,271333,2,0,L|320:296,1,59.9999981689454,0|0,0:0|0:0,0:0:0:0:
128,336,271507,6,0,L|64:304,1,59.9999981689454,2|0,0:0|0:0,0:0:0:0:
256,280,271682,2,0,L|280:224,1,59.9999981689454,0|0,0:0|0:0,0:0:0:0:
56,224,271856,2,0,P|96:160|200:144,1,179.999994506836,10|0,0:0|0:0,0:0:0:0:
408,152,272205,6,0,L|424:272,1,119.999996337891,2|0,0:0|0:0,0:0:0:0:
352,280,272466,1,0,0:0:0:0:
192,280,272554,2,0,L|312:280,1,119.999996337891,10|2,0:0|0:0,0:0:0:0:
360,280,272815,1,0,0:0:0:0:
184,320,272903,6,0,L|176:192,1,119.999996337891,2|0,0:0|0:0,0:0:0:0:
320,200,273164,2,0,L|440:160,1,119.999996337891,2|0,0:0|0:0,0:0:0:0:
288,136,273426,2,0,L|208:128,1,59.9999981689454,2|0,0:0|0:0,0:0:0:0:
24,80,273600,6,0,P|24:160|112:224,1,179.999994506836,2|0,0:0|0:0,0:0:0:0:
296,224,273949,2,0,P|296:296|200:272,1,179.999994506836,2|0,0:0|0:0,0:0:0:0:
408,288,274298,6,0,L|464:264,1,59.9999981689454,10|0,0:0|0:0,0:0:0:0:
80,256,274560,2,0,L|96:192,1,59.9999981689454,10|0,0:0|0:0,0:0:0:0:
384,192,274821,2,0,L|440:168,1,59.9999981689454,10|0,0:0|0:0,0:0:0:0:
192,192,274996,6,0,L|136:160,1,59.9999981689454,0|0,0:0|0:0,0:0:0:0:
352,120,275170,2,0,L|368:184,1,59.9999981689454,0|0,0:0|0:0,0:0:0:0:
64,264,275344,2,0,L|24:320,1,59.9999981689454,6|0,0:0|0:0,0:0:0:0:
336,272,275606,2,0,L|368:336,1,59.9999981689454,6|0,0:0|0:0,0:0:0:0:
80,304,275868,2,0,L|24:264,1,59.9999981689454,2|0,0:0|0:0,0:0:0:0:
264,304,276042,6,0,P|344:256|376:176,1,179.999994506836,10|0,0:0|0:0,0:0:0:0:
176,184,276391,2,0,P|112:216|168:320,1,179.999994506836,6|0,0:0|0:0,0:0:0:0:
336,312,276740,2,0,P|400:224|368:160,1,179.999994506836,6|0,0:0|0:0,0:0:0:0:
144,152,277089,6,0,L|120:280,1,119.999996337891,6|0,0:0|0:0,0:0:0:0:
424,208,277437,1,0,0:0:0:0:
496,208,277525,1,0,0:0:0:0:
440,144,277612,1,0,0:0:0:0:
384,88,277699,1,0,0:0:0:0:
136,80,277786,6,0,L|264:88,1,119.999996337891,6|0,0:0|0:0,0:0:0:0:
16,176,278135,1,10,0:0:0:0:
64,104,278222,1,0,0:0:0:0:
144,112,278310,1,2,0:0:0:0:
176,192,278397,1,0,0:0:0:0:
456,184,278484,6,0,P|416:264|408:120,1,419.999987182618,2|0,0:0|0:0,0:0:0:0:
240,112,279182,1,2,0:0:0:0:
96,112,279356,1,2,0:0:0:0:
168,112,279530,1,0,0:0:0:0:
24,112,279705,1,0,0:0:0:0:
272,232,279879,6,0,L|440:264,2,160,2|0|0,0:0|0:0|0:0,0:0:0:0:
136,288,280926,1,0,0:0:0:0:
296,232,281275,6,0,L|392:80,2,160,0|0|0,0:0|0:0|0:0,0:0:0:0:
128,232,282321,1,0,0:0:0:0:
264,288,282670,6,0,L|416:336,2,160,0|0|0,0:0|0:0|0:0,0:0:0:0:
384,216,283716,1,0,0:0:0:0:
224,208,284065,6,0,L|48:160,2,160,0|0|0,0:0|0:0|0:0,0:0:0:0:
136,320,285112,1,0,0:0:0:0:
304,328,285461,6,0,L|464:248,1,160,0|0,0:0|0:0,0:0:0:0:
336,240,286158,2,0,L|232:112,1,160,0|0,0:0|0:0,0:0:0:0:
432,96,286856,6,0,L|256:96,1,160,0|0,0:0|0:0,0:0:0:0:
128,104,287554,2,0,L|152:264,1,160,0|0,0:0|0:0,0:0:0:0:
280,256,288251,6,0,L|440:240,1,160,0|0,0:0|0:0,0:0:0:0:
272,312,288949,2,0,L|128:216,1,160,0|0,0:0|0:0,0:0:0:0:
280,216,289647,6,0,L|448:120,1,160,0|0,0:0|0:0,0:0:0:0:
256,120,290344,2,0,L|88:96,1,160,0|0,0:0|0:0,0:0:0:0:
256,136,291042,6,0,P|384:144|232:312,1,480,0|0,0:0|0:0,0:0:0:0:
72,304,292437,2,0,P|120:192|448:144,1,480,0|0,0:0|0:0,0:0:0:0:
248,176,293833,6,0,P|176:192|336:288,1,480,0|0,0:0|0:0,0:0:0:0:
480,256,295228,2,0,P|192:280|128:136,1,480,0|0,0:0|0:0,0:0:0:0:
320,128,296623,6,0,B|360:96|360:96|352:240|480:288|480:288|304:336,1,480,0|0,0:0|0:0,0:0:0:0:
56,256,298019,2,0,B|184:224|184:224|184:96|336:40|392:280,1,480,0|0,0:0|0:0,0:0:0:0:
144,272,299414,5,0,0:0:0:0:
352,248,299763,1,0,0:0:0:0:
200,320,300112,1,0,0:0:0:0:
416,304,300461,1,0,0:0:0:0:
104,272,300810,6,0,L|56:272,1,40,0|0,0:0|0:0,0:0:0:0:
