osu file format v14

[General]
AudioFilename: audio.mp3
AudioLeadIn: 0
PreviewTime: 45171
Countdown: 0
SampleSet: Normal
StackLeniency: 0.7
Mode: 3
LetterboxInBreaks: 0
SpecialStyle: 0
WidescreenStoryboard: 1

[Editor]
Bookmarks: 112371,123342,134314,156257,167228,178199
DistanceSpacing: 1
BeatDivisor: 4
GridSize: 32
TimelineZoom: 2.4

[Metadata]
Title:Endless feat. Mameyudoufu (Mameyudoufu Remix)
TitleUnicode:Endless feat. Mameyudoufu (Mameyudoufu Remix)
Artist:PSYQUI
ArtistUnicode:PSYQUI
Creator:HowToPlayLN
Version:Hard
Source:
Tags:mwc2021 osu mania world cup quarterfinals flashlight 4k tournament qualifiers stage 4 hybrid future core psytrance j-core jcore japanese electronic techcore MEGAREX FUTURE EVANGELIX 01 epoqc2025 MRX-050 MRX-053 mwc21 豆湯豆腐 HTPLN LoliNote Media-Mix Market 2019秋 M3-44 M3 2019 Fall Comic Market 96 C96 Comiket96 コミケ96 コミックマーケット96
BeatmapID:3182325
BeatmapSetID:1557840

[Difficulty]
HPDrainRate:7
CircleSize:4
OverallDifficulty:7
ApproachRate:5
SliderMultiplier:1.4
SliderTickRate:1

[Events]
//Background and Video events
0,0,"white.jpg",0,0
//Break Periods
//Storyboard Layer 0 (Background)
//Storyboard Layer 1 (Fail)
//Storyboard Layer 2 (Pass)
//Storyboard Layer 3 (Foreground)
//Storyboard Layer 4 (Overlay)
//Storyboard Sound Samples

[TimingPoints]
1242,342.857142857143,4,1,1,70,1,0
46499,-100,4,1,1,70,0,1
67070,-100,4,1,1,70,0,0
68442,-100,4,1,1,70,0,1
89013,-100,4,1,1,70,0,0
123299,-100,4,1,1,70,0,1
132899,-100,4,1,1,70,0,0
134270,-100,4,1,1,70,0,1
154842,-100,4,1,1,70,0,0
178156,-100,4,1,1,70,0,1
198727,-100,4,1,1,70,0,0

[HitObjects]
192,192,1584,128,0,2613:0:0:0:0:
64,192,2613,5,0,0:0:0:0:
448,192,2613,1,0,0:0:0:0:
320,192,3470,1,0,0:0:0:0:
192,192,3642,1,0,0:0:0:0:
64,192,3813,1,0,0:0:0:0:
192,192,3984,1,0,0:0:0:0:
320,192,4327,1,0,0:0:0:0:
64,192,4670,1,0,0:0:0:0:
448,192,4842,1,0,0:0:0:0:
192,192,5013,1,0,0:0:0:0:
64,192,6213,1,0,0:0:0:0:
448,192,6556,1,0,0:0:0:0:
320,192,6899,1,0,0:0:0:0:
192,192,7070,1,0,0:0:0:0:
320,192,7242,1,0,0:0:0:0:
64,192,7413,1,0,0:0:0:0:
448,192,7584,1,0,0:0:0:0:
192,192,7756,1,0,0:0:0:0:
64,192,7927,1,0,0:0:0:0:
320,192,8956,1,0,0:0:0:0:
192,192,9127,1,0,0:0:0:0:
64,192,9299,1,0,0:0:0:0:
192,192,9470,1,0,0:0:0:0:
320,192,9813,1,0,0:0:0:0:
64,192,10156,1,0,0:0:0:0:
448,192,10327,1,0,0:0:0:0:
192,192,10499,1,0,0:0:0:0:
64,192,11699,1,0,0:0:0:0:
192,192,12042,1,0,0:0:0:0:
64,192,12384,1,0,0:0:0:0:
320,192,12556,1,0,0:0:0:0:
192,192,12727,1,0,0:0:0:0:
320,192,12899,1,0,0:0:0:0:
64,192,13070,1,0,0:0:0:0:
448,192,13242,1,0,0:0:0:0:
64,192,13584,1,0,0:0:0:0:
192,192,13584,1,0,0:0:0:0:
448,192,13927,1,0,0:0:0:0:
64,192,14270,1,0,0:0:0:0:
64,192,14613,1,0,0:0:0:0:
448,192,14784,1,0,0:0:0:0:
192,192,14956,1,0,0:0:0:0:
320,192,14956,1,0,0:0:0:0:
64,192,15127,1,0,0:0:0:0:
320,192,15299,1,0,0:0:0:0:
64,192,15470,1,0,0:0:0:0:
192,192,15642,1,0,0:0:0:0:
320,192,15813,1,0,0:0:0:0:
64,192,15984,1,0,0:0:0:0:
320,192,16327,1,0,0:0:0:0:
448,192,16327,1,0,0:0:0:0:
192,192,16670,1,0,0:0:0:0:
448,192,17013,1,0,0:0:0:0:
64,192,17356,1,0,0:0:0:0:
192,192,17527,1,0,0:0:0:0:
64,192,17699,1,0,0:0:0:0:
448,192,17699,1,0,0:0:0:0:
320,192,17870,1,0,0:0:0:0:
192,192,18042,1,0,0:0:0:0:
448,192,18213,1,0,0:0:0:0:
64,192,18384,1,0,0:0:0:0:
192,192,18384,1,0,0:0:0:0:
448,192,18556,1,0,0:0:0:0:
64,192,18727,1,0,0:0:0:0:
320,192,19070,1,0,0:0:0:0:
448,192,19070,1,0,0:0:0:0:
64,192,19413,1,0,0:0:0:0:
192,192,19756,1,0,0:0:0:0:
320,192,20099,1,0,0:0:0:0:
64,192,20270,1,0,0:0:0:0:
192,192,20442,1,0,0:0:0:0:
448,192,20442,1,0,0:0:0:0:
320,192,20613,1,0,0:0:0:0:
64,192,20784,1,0,0:0:0:0:
448,192,20956,1,0,0:0:0:0:
192,192,21127,1,0,0:0:0:0:
320,192,21299,1,0,0:0:0:0:
64,192,21470,1,0,0:0:0:0:
192,192,21813,128,2,22156:0:0:0:0:
448,192,21813,1,0,0:0:0:0:
64,192,22327,1,2,0:0:0:0:
320,192,22327,128,0,22670:0:0:0:0:
192,192,22842,1,2,0:0:0:0:
448,192,22842,128,0,23184:0:0:0:0:
64,192,23356,128,2,23699:0:0:0:0:
320,192,23356,1,0,0:0:0:0:
448,192,23870,128,0,24042:0:0:0:0:
64,192,24042,1,0,0:0:0:0:
192,192,24042,1,0,0:0:0:0:
192,192,24213,1,0,0:0:0:0:
320,192,24213,1,0,0:0:0:0:
448,192,24384,1,0,0:0:0:0:
64,192,24556,1,2,0:0:0:0:
192,192,24556,1,4,0:0:0:0:
320,192,24899,1,8,0:0:0:0:
448,192,24899,128,0,25242:0:0:0:0:
64,192,25242,1,8,0:0:0:0:
320,192,25242,128,0,25584:0:0:0:0:
192,192,25584,1,8,0:0:0:0:
64,192,25756,128,0,26099:0:0:0:0:
320,192,25927,1,8,0:0:0:0:
448,192,26099,1,0,0:0:0:0:
64,192,26270,1,8,0:0:0:0:
192,192,26270,128,0,26442:0:0:0:0:
320,192,26613,128,8,26956:0:0:0:0:
448,192,26613,1,0,0:0:0:0:
64,192,26956,1,8,0:0:0:0:
448,192,26956,128,0,27127:0:0:0:0:
192,192,27127,1,8,0:0:0:0:
64,192,27299,128,8,27470:0:0:0:0:
320,192,27299,1,0,0:0:0:0:
192,192,27470,1,0,0:0:0:0:
64,192,27642,1,8,0:0:0:0:
320,192,27642,128,0,27813:0:0:0:0:
448,192,27813,1,0,0:0:0:0:
64,192,27984,128,8,28327:0:0:0:0:
320,192,27984,1,0,0:0:0:0:
192,192,28327,1,8,0:0:0:0:
448,192,28327,1,0,0:0:0:0:
320,192,28499,128,0,28842:0:0:0:0:
192,192,28670,1,8,0:0:0:0:
64,192,28842,1,0,0:0:0:0:
192,192,29013,128,8,29184:0:0:0:0:
448,192,29013,1,0,0:0:0:0:
64,192,29356,1,8,0:0:0:0:
320,192,29356,128,0,29699:0:0:0:0:
192,192,29699,1,8,0:0:0:0:
448,192,29699,128,0,30042:0:0:0:0:
320,192,29870,1,8,0:0:0:0:
64,192,30042,1,8,0:0:0:0:
192,192,30042,1,0,0:0:0:0:
192,192,30384,1,8,0:0:0:0:
448,192,30384,128,0,30727:0:0:0:0:
64,192,30727,1,8,0:0:0:0:
320,192,30727,128,0,31070:0:0:0:0:
192,192,31070,1,8,0:0:0:0:
64,192,31242,128,0,31584:0:0:0:0:
320,192,31413,1,8,0:0:0:0:
448,192,31584,1,0,0:0:0:0:
192,192,31756,1,8,0:0:0:0:
320,192,31756,128,0,31927:0:0:0:0:
64,192,32099,128,8,32270:0:0:0:0:
448,192,32099,1,0,0:0:0:0:
192,192,32270,1,0,0:0:0:0:
64,192,32442,1,8,0:0:0:0:
320,192,32442,128,0,32613:0:0:0:0:
448,192,32613,1,8,0:0:0:0:
192,192,32784,128,8,32956:0:0:0:0:
320,192,32784,1,0,0:0:0:0:
64,192,33127,1,8,0:0:0:0:
320,192,33127,128,0,33299:0:0:0:0:
192,192,33299,1,0,0:0:0:0:
64,192,33470,128,8,33813:0:0:0:0:
448,192,33470,1,0,0:0:0:0:
320,192,33813,1,8,0:0:0:0:
192,192,33984,128,0,34327:0:0:0:0:
320,192,34156,1,8,0:0:0:0:
448,192,34327,1,0,0:0:0:0:
64,192,34499,1,8,0:0:0:0:
320,192,34499,128,0,34670:0:0:0:0:
448,192,34842,128,0,35184:0:0:0:0:
64,192,35184,128,0,35527:0:0:0:0:
192,192,35527,1,2,0:0:0:0:
448,192,35527,1,8,0:0:0:0:
320,192,35699,1,0,0:0:0:0:
64,192,35870,1,2,0:0:0:0:
448,192,35870,128,8,36213:0:0:0:0:
192,192,36042,1,0,0:0:0:0:
64,192,36213,1,2,0:0:0:0:
320,192,36213,128,8,36556:0:0:0:0:
448,192,36384,1,0,0:0:0:0:
192,192,36556,1,10,0:0:0:0:
64,192,36727,128,0,37070:0:0:0:0:
192,192,36899,1,2,0:0:0:0:
320,192,36899,1,8,0:0:0:0:
448,192,37070,1,0,0:0:0:0:
64,192,37242,1,2,0:0:0:0:
192,192,37242,128,8,37413:0:0:0:0:
448,192,37413,1,0,0:0:0:0:
192,192,37584,1,2,0:0:0:0:
320,192,37584,128,8,37927:0:0:0:0:
64,192,37756,1,0,0:0:0:0:
192,192,37927,1,2,0:0:0:0:
448,192,37927,128,8,38099:0:0:0:0:
320,192,38099,1,8,0:0:0:0:
64,192,38270,128,8,38442:0:0:0:0:
448,192,38270,1,2,0:0:0:0:
192,192,38442,1,0,0:0:0:0:
64,192,38613,1,8,0:0:0:0:
320,192,38613,128,2,38784:0:0:0:0:
448,192,38784,1,0,0:0:0:0:
64,192,38956,128,2,39299:0:0:0:0:
320,192,38956,1,8,0:0:0:0:
192,192,39127,1,0,0:0:0:0:
320,192,39299,1,8,0:0:0:0:
448,192,39299,1,2,0:0:0:0:
192,192,39470,128,0,39813:0:0:0:0:
320,192,39642,1,10,0:0:0:0:
64,192,39813,1,0,0:0:0:0:
320,192,39984,128,8,40156:0:0:0:0:
448,192,39984,1,2,0:0:0:0:
64,192,40156,1,0,0:0:0:0:
192,192,40327,128,2,40670:0:0:0:0:
320,192,40327,1,8,0:0:0:0:
64,192,40499,1,0,0:0:0:0:
320,192,40670,1,8,0:0:0:0:
448,192,40670,128,2,41013:0:0:0:0:
192,192,40842,1,8,0:0:0:0:
64,192,41013,1,2,0:0:0:0:
320,192,41013,1,8,0:0:0:0:
320,192,41184,1,8,0:0:0:0:
192,192,41356,1,8,0:0:0:0:
448,192,41356,128,2,41699:0:0:0:0:
192,192,41527,1,8,0:0:0:0:
64,192,41699,1,2,0:0:0:0:
320,192,41699,128,8,42042:0:0:0:0:
64,192,41870,1,8,0:0:0:0:
192,192,42042,1,8,0:0:0:0:
448,192,42042,1,2,0:0:0:0:
192,192,42213,128,8,42556:0:0:0:0:
320,192,42384,1,2,0:0:0:0:
448,192,42384,1,8,0:0:0:0:
448,192,42556,1,8,0:0:0:0:
192,192,42727,1,8,0:0:0:0:
320,192,42727,128,2,42899:0:0:0:0:
192,192,42899,1,8,0:0:0:0:
64,192,43070,128,2,43242:0:0:0:0:
448,192,43070,1,8,0:0:0:0:
448,192,43242,1,8,0:0:0:0:
64,192,43413,1,8,0:0:0:0:
320,192,43413,128,2,43584:0:0:0:0:
64,192,43584,1,8,0:0:0:0:
192,192,43756,128,8,43927:0:0:0:0:
320,192,43756,1,2,0:0:0:0:
448,192,43842,1,8,0:0:0:0:
64,192,43927,1,8,0:0:0:0:
192,192,44013,1,8,0:0:0:0:
320,192,44099,128,8,44270:0:0:0:0:
448,192,44099,1,2,0:0:0:0:
64,192,44184,1,8,0:0:0:0:
192,192,44270,1,8,0:0:0:0:
320,192,44356,1,8,0:0:0:0:
64,192,44442,128,8,44613:0:0:0:0:
448,192,44442,1,2,0:0:0:0:
192,192,44527,1,8,0:0:0:0:
320,192,44613,1,8,0:0:0:0:
448,192,44699,1,8,0:0:0:0:
64,192,44784,1,8,0:0:0:0:
192,192,44784,1,2,0:0:0:0:
320,192,44870,1,8,0:0:0:0:
448,192,44956,1,8,0:0:0:0:
64,192,45042,1,8,0:0:0:0:
192,192,45127,1,4,0:0:0:0:
320,192,45127,1,2,0:0:0:0:
64,192,45299,1,0,0:0:0:0:
448,192,45470,1,0,0:0:0:0:
320,192,45556,1,0,0:0:0:0:
64,192,45642,1,0,0:0:0:0:
448,192,45813,1,0,0:0:0:0:
320,192,45899,1,0,0:0:0:0:
64,192,45984,1,0,0:0:0:0:
192,192,46070,1,0,0:0:0:0:
320,192,46156,1,8,0:0:0:0:
448,192,46156,1,0,0:0:0:0:
64,192,46499,128,2,46756:0:0:0:0:
320,192,46499,1,4,0:0:0:0:
192,192,46842,1,2,0:0:0:0:
448,192,46842,128,8,47099:0:0:0:0:
320,192,47099,1,0,0:0:0:0:
64,192,47184,1,2,0:0:0:0:
192,192,47184,1,0,0:0:0:0:
192,192,47356,1,0,0:0:0:0:
64,192,47442,1,0,0:0:0:0:
320,192,47527,1,2,0:0:0:0:
448,192,47527,1,8,0:0:0:0:
192,192,47613,1,0,0:0:0:0:
320,192,47699,1,0,0:0:0:0:
448,192,47784,1,0,0:0:0:0:
64,192,47870,1,2,0:0:0:0:
192,192,47870,1,0,0:0:0:0:
320,192,47956,1,0,0:0:0:0:
64,192,48127,1,0,0:0:0:0:
320,192,48213,1,2,0:0:0:0:
448,192,48213,1,8,0:0:0:0:
192,192,48299,1,0,0:0:0:0:
448,192,48384,1,0,0:0:0:0:
320,192,48470,1,0,0:0:0:0:
64,192,48556,1,2,0:0:0:0:
192,192,48556,1,0,0:0:0:0:
320,192,48642,1,0,0:0:0:0:
64,192,48727,1,0,0:0:0:0:
192,192,48813,1,0,0:0:0:0:
320,192,48899,1,2,0:0:0:0:
448,192,48899,1,8,0:0:0:0:
64,192,48984,1,0,0:0:0:0:
192,192,49070,128,0,49156:0:0:0:0:
320,192,49242,128,2,49499:0:0:0:0:
448,192,49242,1,0,0:0:0:0:
64,192,49584,128,2,49842:0:0:0:0:
192,192,49584,1,8,0:0:0:0:
448,192,49842,1,0,0:0:0:0:
64,192,49927,1,2,0:0:0:0:
192,192,49927,1,0,0:0:0:0:
320,192,50099,1,0,0:0:0:0:
192,192,50184,1,0,0:0:0:0:
320,192,50270,1,2,0:0:0:0:
448,192,50270,1,8,0:0:0:0:
64,192,50356,1,0,0:0:0:0:
192,192,50442,1,0,0:0:0:0:
448,192,50527,1,0,0:0:0:0:
64,192,50613,1,2,0:0:0:0:
192,192,50613,1,0,0:0:0:0:
320,192,50699,1,0,0:0:0:0:
64,192,50870,1,0,0:0:0:0:
320,192,50956,1,2,0:0:0:0:
448,192,50956,1,8,0:0:0:0:
192,192,51042,1,0,0:0:0:0:
320,192,51127,1,0,0:0:0:0:
448,192,51213,1,0,0:0:0:0:
64,192,51299,1,2,0:0:0:0:
192,192,51299,1,0,0:0:0:0:
320,192,51384,1,0,0:0:0:0:
192,192,51470,1,0,0:0:0:0:
64,192,51556,1,0,0:0:0:0:
320,192,51642,1,2,0:0:0:0:
448,192,51642,1,8,0:0:0:0:
192,192,51727,128,0,51813:0:0:0:0:
320,192,51813,128,0,51899:0:0:0:0:
64,192,51984,1,2,0:0:0:0:
448,192,51984,128,0,52242:0:0:0:0:
192,192,52327,128,2,52584:0:0:0:0:
320,192,52327,1,8,0:0:0:0:
64,192,52584,1,0,0:0:0:0:
320,192,52670,1,2,0:0:0:0:
448,192,52670,1,0,0:0:0:0:
192,192,52842,1,0,0:0:0:0:
320,192,52927,1,0,0:0:0:0:
64,192,53013,1,2,0:0:0:0:
192,192,53013,1,8,0:0:0:0:
448,192,53099,1,0,0:0:0:0:
64,192,53184,1,0,0:0:0:0:
192,192,53270,1,0,0:0:0:0:
320,192,53356,1,2,0:0:0:0:
448,192,53356,1,0,0:0:0:0:
64,192,53442,1,0,0:0:0:0:
448,192,53613,1,0,0:0:0:0:
64,192,53699,1,2,0:0:0:0:
192,192,53699,1,8,0:0:0:0:
320,192,53784,1,0,0:0:0:0:
448,192,53870,1,0,0:0:0:0:
64,192,53956,1,0,0:0:0:0:
320,192,54042,1,2,0:0:0:0:
448,192,54042,1,0,0:0:0:0:
192,192,54127,1,0,0:0:0:0:
320,192,54213,1,0,0:0:0:0:
448,192,54299,1,0,0:0:0:0:
64,192,54384,1,2,0:0:0:0:
192,192,54384,1,8,0:0:0:0:
320,192,54470,128,0,54556:0:0:0:0:
64,192,54556,128,0,54642:0:0:0:0:
192,192,54727,1,2,0:0:0:0:
320,192,54727,128,0,54984:0:0:0:0:
64,192,55070,128,2,55327:0:0:0:0:
448,192,55070,1,8,0:0:0:0:
320,192,55327,1,0,0:0:0:0:
64,192,55413,1,2,0:0:0:0:
192,192,55413,1,0,0:0:0:0:
64,192,55584,1,0,0:0:0:0:
192,192,55670,1,0,0:0:0:0:
320,192,55756,1,2,0:0:0:0:
448,192,55756,1,8,0:0:0:0:
64,192,55842,1,0,0:0:0:0:
320,192,55927,1,0,0:0:0:0:
448,192,56013,1,0,0:0:0:0:
64,192,56099,1,2,0:0:0:0:
192,192,56099,1,0,0:0:0:0:
320,192,56184,1,0,0:0:0:0:
64,192,56356,1,0,0:0:0:0:
320,192,56442,1,2,0:0:0:0:
448,192,56442,1,8,0:0:0:0:
192,192,56527,1,0,0:0:0:0:
448,192,56613,1,0,0:0:0:0:
320,192,56699,1,0,0:0:0:0:
64,192,56784,1,2,0:0:0:0:
192,192,56784,1,0,0:0:0:0:
448,192,56870,1,0,0:0:0:0:
320,192,56956,1,0,0:0:0:0:
64,192,57042,1,0,0:0:0:0:
320,192,57127,1,2,0:0:0:0:
448,192,57127,1,8,0:0:0:0:
192,192,57213,128,0,57299:0:0:0:0:
448,192,57299,128,0,57384:0:0:0:0:
64,192,57470,128,2,57727:0:0:0:0:
320,192,57470,1,4,0:0:0:0:
192,192,57813,1,2,0:0:0:0:
448,192,57813,128,8,58070:0:0:0:0:
320,192,58070,1,0,0:0:0:0:
64,192,58156,1,2,0:0:0:0:
192,192,58156,1,0,0:0:0:0:
192,192,58327,1,0,0:0:0:0:
64,192,58413,1,0,0:0:0:0:
320,192,58499,1,2,0:0:0:0:
448,192,58499,1,8,0:0:0:0:
192,192,58584,1,0,0:0:0:0:
320,192,58670,1,0,0:0:0:0:
448,192,58756,1,0,0:0:0:0:
64,192,58842,1,2,0:0:0:0:
192,192,58842,1,0,0:0:0:0:
320,192,58927,1,0,0:0:0:0:
64,192,59099,1,0,0:0:0:0:
320,192,59184,1,2,0:0:0:0:
448,192,59184,1,8,0:0:0:0:
192,192,59270,1,0,0:0:0:0:
448,192,59356,1,0,0:0:0:0:
320,192,59442,1,0,0:0:0:0:
64,192,59527,1,2,0:0:0:0:
192,192,59527,1,0,0:0:0:0:
320,192,59613,1,0,0:0:0:0:
64,192,59699,1,0,0:0:0:0:
192,192,59784,1,0,0:0:0:0:
320,192,59870,1,2,0:0:0:0:
448,192,59870,1,8,0:0:0:0:
64,192,59956,1,0,0:0:0:0:
192,192,60042,128,0,60127:0:0:0:0:
320,192,60213,128,2,60470:0:0:0:0:
448,192,60213,1,0,0:0:0:0:
64,192,60556,128,2,60813:0:0:0:0:
192,192,60556,1,8,0:0:0:0:
448,192,60813,1,0,0:0:0:0:
64,192,60899,1,2,0:0:0:0:
192,192,60899,1,0,0:0:0:0:
320,192,61070,1,0,0:0:0:0:
192,192,61156,1,0,0:0:0:0:
320,192,61242,1,2,0:0:0:0:
448,192,61242,1,8,0:0:0:0:
64,192,61327,1,0,0:0:0:0:
192,192,61413,1,0,0:0:0:0:
448,192,61499,1,0,0:0:0:0:
64,192,61584,1,2,0:0:0:0:
192,192,61584,1,0,0:0:0:0:
320,192,61670,1,0,0:0:0:0:
64,192,61842,1,0,0:0:0:0:
320,192,61927,1,2,0:0:0:0:
448,192,61927,1,8,0:0:0:0:
192,192,62013,1,0,0:0:0:0:
320,192,62099,1,0,0:0:0:0:
448,192,62184,1,0,0:0:0:0:
64,192,62270,1,2,0:0:0:0:
192,192,62270,1,0,0:0:0:0:
320,192,62356,1,0,0:0:0:0:
192,192,62442,1,0,0:0:0:0:
64,192,62527,1,0,0:0:0:0:
320,192,62613,1,2,0:0:0:0:
448,192,62613,1,8,0:0:0:0:
192,192,62699,128,0,62784:0:0:0:0:
320,192,62784,128,0,62870:0:0:0:0:
64,192,62956,1,2,0:0:0:0:
448,192,62956,128,0,63213:0:0:0:0:
192,192,63299,128,2,63556:0:0:0:0:
320,192,63299,1,8,0:0:0:0:
64,192,63556,1,0,0:0:0:0:
320,192,63642,1,2,0:0:0:0:
448,192,63642,1,0,0:0:0:0:
192,192,63813,1,0,0:0:0:0:
320,192,63899,1,0,0:0:0:0:
64,192,63984,1,2,0:0:0:0:
192,192,63984,1,8,0:0:0:0:
448,192,64070,1,0,0:0:0:0:
64,192,64156,1,0,0:0:0:0:
192,192,64242,1,0,0:0:0:0:
320,192,64327,1,2,0:0:0:0:
448,192,64327,1,0,0:0:0:0:
64,192,64413,1,0,0:0:0:0:
448,192,64584,1,0,0:0:0:0:
64,192,64670,1,2,0:0:0:0:
192,192,64670,1,8,0:0:0:0:
320,192,64756,1,0,0:0:0:0:
448,192,64842,1,0,0:0:0:0:
64,192,64927,1,0,0:0:0:0:
320,192,65013,1,2,0:0:0:0:
448,192,65013,1,0,0:0:0:0:
192,192,65099,128,0,65184:0:0:0:0:
320,192,65184,128,0,65270:0:0:0:0:
64,192,65356,1,2,0:0:0:0:
192,192,65356,1,8,0:0:0:0:
320,192,65442,128,0,65527:0:0:0:0:
64,192,65527,128,0,65613:0:0:0:0:
192,192,65699,1,2,0:0:0:0:
320,192,65699,128,0,65956:0:0:0:0:
64,192,66042,128,2,66299:0:0:0:0:
448,192,66042,1,8,0:0:0:0:
320,192,66299,1,0,0:0:0:0:
64,192,66384,1,2,0:0:0:0:
192,192,66384,1,0,0:0:0:0:
64,192,66556,1,0,0:0:0:0:
192,192,66642,1,0,0:0:0:0:
320,192,66727,1,2,0:0:0:0:
448,192,66727,1,8,0:0:0:0:
64,192,66813,1,0,0:0:0:0:
320,192,66899,1,0,0:0:0:0:
448,192,66984,1,0,0:0:0:0:
64,192,67070,1,2,0:0:0:0:
192,192,67070,1,4,0:0:0:0:
448,192,67242,1,0,0:0:0:0:
64,192,67413,1,0,0:0:0:0:
192,192,67499,1,0,0:0:0:0:
448,192,67584,1,0,0:0:0:0:
64,192,67756,1,0,0:0:0:0:
192,192,67842,1,0,0:0:0:0:
448,192,67927,1,0,0:0:0:0:
320,192,68013,1,0,0:0:0:0:
64,192,68099,1,2,0:0:0:0:
192,192,68099,1,0,0:0:0:0:
448,192,68184,1,0,0:0:0:0:
320,192,68270,1,0,0:0:0:0:
192,192,68356,1,0,0:0:0:0:
64,192,68442,1,2,0:0:0:0:
448,192,68442,128,4,68699:0:0:0:0:
192,192,68784,128,2,69042:0:0:0:0:
320,192,68784,1,8,0:0:0:0:
448,192,69042,1,0,0:0:0:0:
64,192,69127,1,2,0:0:0:0:
192,192,69127,1,0,0:0:0:0:
320,192,69213,1,0,0:0:0:0:
448,192,69299,1,0,0:0:0:0:
64,192,69384,1,0,0:0:0:0:
320,192,69470,1,2,0:0:0:0:
448,192,69470,1,8,0:0:0:0:
192,192,69556,1,0,0:0:0:0:
320,192,69642,1,0,0:0:0:0:
448,192,69727,1,0,0:0:0:0:
64,192,69813,1,2,0:0:0:0:
192,192,69813,1,0,0:0:0:0:
320,192,69899,1,0,0:0:0:0:
64,192,69984,1,0,0:0:0:0:
192,192,70070,1,0,0:0:0:0:
320,192,70156,1,2,0:0:0:0:
448,192,70156,1,8,0:0:0:0:
64,192,70242,1,0,0:0:0:0:
448,192,70327,1,0,0:0:0:0:
320,192,70413,1,0,0:0:0:0:
64,192,70499,1,2,0:0:0:0:
192,192,70499,1,0,0:0:0:0:
448,192,70584,1,0,0:0:0:0:
64,192,70670,1,0,0:0:0:0:
192,192,70756,1,0,0:0:0:0:
320,192,70842,1,2,0:0:0:0:
448,192,70842,1,8,0:0:0:0:
64,192,70927,1,0,0:0:0:0:
320,192,71013,128,0,71099:0:0:0:0:
64,192,71184,1,2,0:0:0:0:
448,192,71184,128,0,71442:0:0:0:0:
192,192,71527,128,2,71784:0:0:0:0:
320,192,71527,1,8,0:0:0:0:
64,192,71784,1,0,0:0:0:0:
320,192,71870,1,2,0:0:0:0:
448,192,71870,1,0,0:0:0:0:
192,192,71956,1,0,0:0:0:0:
448,192,72042,1,0,0:0:0:0:
320,192,72127,1,0,0:0:0:0:
64,192,72213,1,2,0:0:0:0:
192,192,72213,1,8,0:0:0:0:
448,192,72299,1,0,0:0:0:0:
64,192,72384,1,0,0:0:0:0:
192,192,72470,1,0,0:0:0:0:
320,192,72556,1,2,0:0:0:0:
448,192,72556,1,0,0:0:0:0:
64,192,72642,1,0,0:0:0:0:
320,192,72727,1,0,0:0:0:0:
448,192,72813,1,0,0:0:0:0:
64,192,72899,1,2,0:0:0:0:
192,192,72899,1,8,0:0:0:0:
320,192,72984,1,0,0:0:0:0:
64,192,73070,1,0,0:0:0:0:
192,192,73156,1,0,0:0:0:0:
320,192,73242,1,2,0:0:0:0:
448,192,73242,1,0,0:0:0:0:
64,192,73327,1,0,0:0:0:0:
448,192,73413,1,0,0:0:0:0:
320,192,73499,1,0,0:0:0:0:
64,192,73584,1,2,0:0:0:0:
192,192,73584,1,8,0:0:0:0:
320,192,73670,128,0,73756:0:0:0:0:
192,192,73756,128,0,73842:0:0:0:0:
64,192,73927,128,2,74184:0:0:0:0:
448,192,73927,1,0,0:0:0:0:
192,192,74270,1,2,0:0:0:0:
320,192,74270,128,8,74527:0:0:0:0:
448,192,74527,1,0,0:0:0:0:
64,192,74613,1,2,0:0:0:0:
192,192,74613,1,0,0:0:0:0:
320,192,74699,1,0,0:0:0:0:
64,192,74784,1,0,0:0:0:0:
192,192,74870,1,0,0:0:0:0:
320,192,74956,1,2,0:0:0:0:
448,192,74956,1,8,0:0:0:0:
64,192,75042,1,0,0:0:0:0:
320,192,75127,1,0,0:0:0:0:
448,192,75213,1,0,0:0:0:0:
64,192,75299,1,2,0:0:0:0:
192,192,75299,1,0,0:0:0:0:
320,192,75384,1,0,0:0:0:0:
64,192,75470,1,0,0:0:0:0:
192,192,75556,1,0,0:0:0:0:
320,192,75642,1,2,0:0:0:0:
448,192,75642,1,8,0:0:0:0:
64,192,75727,1,0,0:0:0:0:
448,192,75813,1,0,0:0:0:0:
320,192,75899,1,0,0:0:0:0:
64,192,75984,1,2,0:0:0:0:
192,192,75984,1,0,0:0:0:0:
448,192,76070,1,0,0:0:0:0:
64,192,76156,1,0,0:0:0:0:
192,192,76242,1,0,0:0:0:0:
320,192,76327,1,2,0:0:0:0:
448,192,76327,1,8,0:0:0:0:
64,192,76413,128,0,76499:0:0:0:0:
320,192,76499,128,0,76584:0:0:0:0:
192,192,76670,128,2,76927:0:0:0:0:
448,192,76670,1,0,0:0:0:0:
64,192,77013,1,2,0:0:0:0:
320,192,77013,128,8,77270:0:0:0:0:
192,192,77270,1,0,0:0:0:0:
320,192,77356,1,2,0:0:0:0:
448,192,77356,1,0,0:0:0:0:
64,192,77442,1,0,0:0:0:0:
448,192,77527,1,0,0:0:0:0:
320,192,77613,1,0,0:0:0:0:
64,192,77699,1,2,0:0:0:0:
192,192,77699,1,8,0:0:0:0:
448,192,77784,1,0,0:0:0:0:
64,192,77870,1,0,0:0:0:0:
192,192,77956,1,0,0:0:0:0:
320,192,78042,1,2,0:0:0:0:
448,192,78042,1,0,0:0:0:0:
64,192,78127,1,0,0:0:0:0:
448,192,78213,1,0,0:0:0:0:
320,192,78299,1,0,0:0:0:0:
64,192,78384,1,2,0:0:0:0:
192,192,78384,1,8,0:0:0:0:
448,192,78470,1,0,0:0:0:0:
192,192,78556,1,0,0:0:0:0:
64,192,78642,1,0,0:0:0:0:
320,192,78727,1,2,0:0:0:0:
448,192,78727,1,0,0:0:0:0:
192,192,78813,1,0,0:0:0:0:
448,192,78899,1,0,0:0:0:0:
320,192,78984,1,0,0:0:0:0:
64,192,79070,1,2,0:0:0:0:
192,192,79070,1,8,0:0:0:0:
448,192,79156,128,0,79242:0:0:0:0:
192,192,79242,128,0,79327:0:0:0:0:
64,192,79413,1,2,0:0:0:0:
448,192,79413,128,4,79670:0:0:0:0:
192,192,79756,128,2,80013:0:0:0:0:
320,192,79756,1,8,0:0:0:0:
64,192,80013,1,0,0:0:0:0:
320,192,80099,1,2,0:0:0:0:
448,192,80099,1,0,0:0:0:0:
192,192,80184,1,0,0:0:0:0:
64,192,80270,1,0,0:0:0:0:
448,192,80356,1,0,0:0:0:0:
64,192,80442,1,2,0:0:0:0:
192,192,80442,1,8,0:0:0:0:
320,192,80527,1,0,0:0:0:0:
192,192,80613,1,0,0:0:0:0:
64,192,80699,1,0,0:0:0:0:
320,192,80784,1,2,0:0:0:0:
448,192,80784,1,0,0:0:0:0:
192,192,80870,1,0,0:0:0:0:
448,192,80956,1,0,0:0:0:0:
320,192,81042,1,0,0:0:0:0:
64,192,81127,1,2,0:0:0:0:
192,192,81127,1,8,0:0:0:0:
448,192,81213,1,0,0:0:0:0:
64,192,81299,1,0,0:0:0:0:
192,192,81384,1,0,0:0:0:0:
320,192,81470,1,2,0:0:0:0:
448,192,81470,1,0,0:0:0:0:
64,192,81556,1,0,0:0:0:0:
448,192,81642,1,0,0:0:0:0:
320,192,81727,1,0,0:0:0:0:
64,192,81813,1,2,0:0:0:0:
192,192,81813,1,8,0:0:0:0:
448,192,81899,1,0,0:0:0:0:
192,192,81984,128,0,82070:0:0:0:0:
64,192,82156,128,2,82413:0:0:0:0:
448,192,82156,1,0,0:0:0:0:
192,192,82499,1,2,0:0:0:0:
320,192,82499,128,8,82756:0:0:0:0:
448,192,82756,1,0,0:0:0:0:
64,192,82842,1,2,0:0:0:0:
192,192,82842,1,0,0:0:0:0:
320,192,82927,1,0,0:0:0:0:
64,192,83013,1,0,0:0:0:0:
192,192,83099,1,0,0:0:0:0:
320,192,83184,1,2,0:0:0:0:
448,192,83184,1,8,0:0:0:0:
64,192,83270,1,0,0:0:0:0:
448,192,83356,1,0,0:0:0:0:
320,192,83442,1,0,0:0:0:0:
64,192,83527,1,2,0:0:0:0:
192,192,83527,1,0,0:0:0:0:
448,192,83613,1,0,0:0:0:0:
192,192,83699,1,0,0:0:0:0:
64,192,83784,1,0,0:0:0:0:
320,192,83870,1,2,0:0:0:0:
448,192,83870,1,8,0:0:0:0:
192,192,83956,1,0,0:0:0:0:
448,192,84042,1,0,0:0:0:0:
320,192,84127,1,0,0:0:0:0:
64,192,84213,1,2,0:0:0:0:
192,192,84213,1,0,0:0:0:0:
448,192,84299,1,0,0:0:0:0:
64,192,84384,1,0,0:0:0:0:
192,192,84470,1,0,0:0:0:0:
320,192,84556,1,2,0:0:0:0:
448,192,84556,1,8,0:0:0:0:
192,192,84642,128,0,84727:0:0:0:0:
320,192,84727,128,0,84813:0:0:0:0:
64,192,84899,1,2,0:0:0:0:
448,192,84899,128,0,85156:0:0:0:0:
192,192,85242,128,2,85499:0:0:0:0:
320,192,85242,1,8,0:0:0:0:
64,192,85499,1,0,0:0:0:0:
320,192,85584,1,2,0:0:0:0:
448,192,85584,1,0,0:0:0:0:
192,192,85670,1,0,0:0:0:0:
448,192,85756,1,0,0:0:0:0:
320,192,85842,1,0,0:0:0:0:
64,192,85927,1,2,0:0:0:0:
192,192,85927,1,8,0:0:0:0:
448,192,86013,1,0,0:0:0:0:
192,192,86099,1,0,0:0:0:0:
64,192,86184,1,0,0:0:0:0:
320,192,86270,1,2,0:0:0:0:
448,192,86270,1,0,0:0:0:0:
192,192,86356,1,0,0:0:0:0:
448,192,86442,1,0,0:0:0:0:
320,192,86527,1,0,0:0:0:0:
64,192,86613,1,2,0:0:0:0:
192,192,86613,1,8,0:0:0:0:
448,192,86699,1,0,0:0:0:0:
64,192,86784,1,0,0:0:0:0:
192,192,86870,1,0,0:0:0:0:
320,192,86956,1,2,0:0:0:0:
448,192,86956,1,0,0:0:0:0:
64,192,87042,128,0,87127:0:0:0:0:
448,192,87127,128,0,87213:0:0:0:0:
320,192,87213,1,0,0:0:0:0:
64,192,87299,1,2,0:0:0:0:
192,192,87299,1,8,0:0:0:0:
448,192,87384,128,0,87470:0:0:0:0:
192,192,87470,128,0,87556:0:0:0:0:
64,192,87642,1,2,0:0:0:0:
320,192,87642,128,0,87899:0:0:0:0:
192,192,87984,128,2,88242:0:0:0:0:
448,192,87984,1,8,0:0:0:0:
320,192,88242,1,0,0:0:0:0:
64,192,88327,1,2,0:0:0:0:
192,192,88327,1,0,0:0:0:0:
448,192,88413,1,0,0:0:0:0:
64,192,88499,1,0,0:0:0:0:
192,192,88584,1,0,0:0:0:0:
320,192,88670,1,2,0:0:0:0:
448,192,88670,1,8,0:0:0:0:
64,192,88756,1,0,0:0:0:0:
448,192,88842,1,0,0:0:0:0:
320,192,88927,1,0,0:0:0:0:
64,192,89013,1,2,0:0:0:0:
192,192,89013,1,4,0:0:0:0:
448,192,89099,1,0,0:0:0:0:
320,192,89184,1,0,0:0:0:0:
64,192,89270,1,0,0:0:0:0:
448,192,89356,1,0,0:0:0:0:
192,192,89442,1,0,0:0:0:0:
320,192,89527,1,0,0:0:0:0:
64,192,89613,1,0,0:0:0:0:
192,192,89699,1,0,0:0:0:0:
448,192,89784,1,0,0:0:0:0:
320,192,89870,1,0,0:0:0:0:
64,192,89956,1,0,0:0:0:0:
448,192,90042,1,2,0:0:0:0:
192,192,90127,1,2,0:0:0:0:
320,192,90213,1,2,0:0:0:0:
192,192,90299,1,2,0:0:0:0:
64,192,90384,1,2,0:0:0:0:
448,192,90384,128,4,90556:0:0:0:0:
192,192,90470,128,0,90556:0:0:0:0:
320,192,90556,1,0,0:0:0:0:
64,192,90727,1,2,0:0:0:0:
448,192,90727,128,8,90899:0:0:0:0:
192,192,90813,128,0,90899:0:0:0:0:
320,192,90899,1,0,0:0:0:0:
64,192,91070,128,2,91242:0:0:0:0:
448,192,91070,1,0,0:0:0:0:
192,192,91156,128,0,91242:0:0:0:0:
320,192,91242,1,0,0:0:0:0:
64,192,91413,128,2,91584:0:0:0:0:
448,192,91413,1,8,0:0:0:0:
320,192,91499,128,0,91584:0:0:0:0:
192,192,91584,1,0,0:0:0:0:
320,192,91756,1,2,0:0:0:0:
448,192,91756,128,0,91927:0:0:0:0:
192,192,91842,128,0,91927:0:0:0:0:
64,192,91927,1,0,0:0:0:0:
320,192,92013,128,0,92099:0:0:0:0:
192,192,92099,1,2,0:0:0:0:
448,192,92099,1,8,0:0:0:0:
64,192,92270,128,0,92442:0:0:0:0:
192,192,92356,128,0,92442:0:0:0:0:
320,192,92442,1,2,0:0:0:0:
448,192,92442,1,0,0:0:0:0:
64,192,92527,1,0,0:0:0:0:
192,192,92613,1,0,0:0:0:0:
448,192,92699,1,0,0:0:0:0:
64,192,92784,1,2,0:0:0:0:
320,192,92784,1,8,0:0:0:0:
192,192,92870,1,0,0:0:0:0:
448,192,92956,1,0,0:0:0:0:
320,192,93042,1,0,0:0:0:0:
64,192,93127,128,2,93299:0:0:0:0:
448,192,93127,1,0,0:0:0:0:
192,192,93213,128,0,93299:0:0:0:0:
320,192,93299,1,0,0:0:0:0:
64,192,93470,128,2,93642:0:0:0:0:
192,192,93470,1,8,0:0:0:0:
320,192,93556,128,0,93642:0:0:0:0:
448,192,93642,1,0,0:0:0:0:
64,192,93813,1,2,0:0:0:0:
192,192,93813,128,0,93984:0:0:0:0:
320,192,93899,128,0,93984:0:0:0:0:
448,192,93984,1,0,0:0:0:0:
64,192,94156,1,2,0:0:0:0:
192,192,94156,128,8,94327:0:0:0:0:
448,192,94242,128,0,94327:0:0:0:0:
320,192,94327,1,0,0:0:0:0:
192,192,94499,1,2,0:0:0:0:
448,192,94499,128,0,94670:0:0:0:0:
320,192,94584,128,0,94670:0:0:0:0:
64,192,94670,1,0,0:0:0:0:
192,192,94756,128,0,94842:0:0:0:0:
320,192,94842,1,2,0:0:0:0:
448,192,94842,1,8,0:0:0:0:
64,192,94927,1,0,0:0:0:0:
448,192,95013,1,0,0:0:0:0:
320,192,95099,1,0,0:0:0:0:
64,192,95184,1,2,0:0:0:0:
192,192,95184,1,0,0:0:0:0:
448,192,95270,1,0,0:0:0:0:
64,192,95356,1,0,0:0:0:0:
192,192,95442,1,0,0:0:0:0:
320,192,95527,1,2,0:0:0:0:
448,192,95527,1,8,0:0:0:0:
64,192,95613,1,0,0:0:0:0:
192,192,95699,1,0,0:0:0:0:
320,192,95784,1,0,0:0:0:0:
64,192,95870,1,2,0:0:0:0:
448,192,95870,128,0,96042:0:0:0:0:
192,192,95956,128,0,96042:0:0:0:0:
320,192,96042,1,0,0:0:0:0:
64,192,96213,1,2,0:0:0:0:
448,192,96213,128,8,96384:0:0:0:0:
192,192,96299,128,0,96384:0:0:0:0:
320,192,96384,1,0,0:0:0:0:
64,192,96556,128,2,96727:0:0:0:0:
192,192,96556,1,0,0:0:0:0:
448,192,96642,128,0,96727:0:0:0:0:
320,192,96727,1,0,0:0:0:0:
64,192,96899,128,2,97070:0:0:0:0:
192,192,96899,1,8,0:0:0:0:
320,192,96984,128,0,97070:0:0:0:0:
448,192,97070,1,0,0:0:0:0:
64,192,97242,1,2,0:0:0:0:
320,192,97242,128,0,97413:0:0:0:0:
192,192,97327,128,0,97413:0:0:0:0:
448,192,97413,1,0,0:0:0:0:
64,192,97499,128,0,97584:0:0:0:0:
320,192,97584,1,2,0:0:0:0:
448,192,97584,1,8,0:0:0:0:
64,192,97756,128,0,97927:0:0:0:0:
192,192,97842,128,0,97927:0:0:0:0:
320,192,97927,1,2,0:0:0:0:
448,192,97927,1,0,0:0:0:0:
64,192,98013,1,0,0:0:0:0:
448,192,98099,1,0,0:0:0:0:
320,192,98184,1,0,0:0:0:0:
64,192,98270,1,2,0:0:0:0:
192,192,98270,1,8,0:0:0:0:
448,192,98356,1,0,0:0:0:0:
192,192,98442,1,0,0:0:0:0:
320,192,98527,1,0,0:0:0:0:
64,192,98613,128,2,98784:0:0:0:0:
448,192,98613,1,0,0:0:0:0:
192,192,98699,128,0,98784:0:0:0:0:
320,192,98784,1,0,0:0:0:0:
64,192,98956,128,2,99127:0:0:0:0:
448,192,98956,1,8,0:0:0:0:
320,192,99042,128,0,99127:0:0:0:0:
192,192,99127,1,0,0:0:0:0:
192,192,99299,128,4,99470:0:0:0:0:
448,192,99299,1,2,0:0:0:0:
320,192,99384,128,0,99470:0:0:0:0:
64,192,99470,1,0,0:0:0:0:
192,192,99556,128,2,99642:0:0:0:0:
448,192,99556,128,4,99642:0:0:0:0:
64,192,99813,128,4,100670:0:0:0:0:
448,192,99813,1,2,0:0:0:0:
320,192,100327,1,0,0:0:0:0:
192,192,100413,1,0,0:0:0:0:
448,192,100499,1,0,0:0:0:0:
192,192,100584,1,0,0:0:0:0:
320,192,100670,1,0,0:0:0:0:
64,192,100756,1,0,0:0:0:0:
448,192,100842,1,0,0:0:0:0:
320,192,100927,1,0,0:0:0:0:
64,192,101013,1,0,0:0:0:70:snare.wav
192,192,101013,1,0,0:0:0:0:
448,192,101099,128,0,101184:0:0:0:0:
320,192,101184,128,0,101270:0:0:0:0:
192,192,101270,1,0,0:0:0:0:
64,192,101356,1,2,0:0:0:0:
448,192,101356,128,4,101527:0:0:0:0:
192,192,101442,128,0,101527:0:0:0:0:
320,192,101527,1,0,0:0:0:0:
64,192,101699,1,2,0:0:0:0:
448,192,101699,128,8,101870:0:0:0:0:
192,192,101784,128,0,101870:0:0:0:0:
320,192,101870,1,0,0:0:0:0:
64,192,102042,128,2,102213:0:0:0:0:
448,192,102042,1,0,0:0:0:0:
192,192,102127,128,0,102213:0:0:0:0:
320,192,102213,1,0,0:0:0:0:
64,192,102384,128,2,102556:0:0:0:0:
448,192,102384,1,8,0:0:0:0:
320,192,102470,128,0,102556:0:0:0:0:
192,192,102556,1,0,0:0:0:0:
320,192,102727,1,2,0:0:0:0:
448,192,102727,128,0,102899:0:0:0:0:
192,192,102813,128,0,102899:0:0:0:0:
64,192,102899,1,0,0:0:0:0:
320,192,102984,128,0,103070:0:0:0:0:
192,192,103070,1,2,0:0:0:0:
448,192,103070,1,8,0:0:0:0:
64,192,103242,128,0,103413:0:0:0:0:
192,192,103327,128,0,103413:0:0:0:0:
320,192,103413,1,2,0:0:0:0:
448,192,103413,1,0,0:0:0:0:
64,192,103499,1,0,0:0:0:0:
192,192,103584,1,0,0:0:0:0:
448,192,103670,1,0,0:0:0:0:
64,192,103756,1,2,0:0:0:0:
320,192,103756,1,8,0:0:0:0:
192,192,103842,1,0,0:0:0:0:
448,192,103927,1,0,0:0:0:0:
320,192,104013,1,0,0:0:0:0:
64,192,104099,128,2,104270:0:0:0:0:
448,192,104099,1,0,0:0:0:0:
192,192,104184,128,0,104270:0:0:0:0:
320,192,104270,1,0,0:0:0:0:
64,192,104442,128,2,104613:0:0:0:0:
192,192,104442,1,8,0:0:0:0:
320,192,104527,128,0,104613:0:0:0:0:
448,192,104613,1,0,0:0:0:0:
64,192,104784,1,2,0:0:0:0:
192,192,104784,128,0,104956:0:0:0:0:
320,192,104870,128,0,104956:0:0:0:0:
448,192,104956,1,0,0:0:0:0:
64,192,105127,1,2,0:0:0:0:
192,192,105127,128,8,105299:0:0:0:0:
448,192,105213,128,0,105299:0:0:0:0:
320,192,105299,1,0,0:0:0:0:
192,192,105470,1,2,0:0:0:0:
448,192,105470,128,0,105642:0:0:0:0:
320,192,105556,128,0,105642:0:0:0:0:
64,192,105642,1,0,0:0:0:0:
192,192,105727,128,0,105813:0:0:0:0:
320,192,105813,1,2,0:0:0:0:
448,192,105813,1,8,0:0:0:0:
64,192,105899,1,0,0:0:0:0:
448,192,105984,1,0,0:0:0:0:
320,192,106070,1,0,0:0:0:0:
64,192,106156,1,2,0:0:0:0:
192,192,106156,1,0,0:0:0:0:
448,192,106242,1,0,0:0:0:0:
64,192,106327,1,0,0:0:0:0:
192,192,106413,1,0,0:0:0:0:
320,192,106499,1,2,0:0:0:0:
448,192,106499,1,8,0:0:0:0:
64,192,106584,1,0,0:0:0:0:
192,192,106670,1,0,0:0:0:0:
320,192,106756,1,0,0:0:0:0:
64,192,106842,1,2,0:0:0:0:
448,192,106842,128,0,107013:0:0:0:0:
192,192,106927,128,0,107013:0:0:0:0:
320,192,107013,1,0,0:0:0:0:
64,192,107184,1,2,0:0:0:0:
448,192,107184,128,8,107356:0:0:0:0:
192,192,107270,128,0,107356:0:0:0:0:
320,192,107356,1,0,0:0:0:0:
64,192,107527,128,2,107699:0:0:0:0:
192,192,107527,1,0,0:0:0:0:
448,192,107613,128,0,107699:0:0:0:0:
320,192,107699,1,0,0:0:0:0:
64,192,107870,128,2,108042:0:0:0:0:
192,192,107870,1,8,0:0:0:0:
320,192,107956,128,0,108042:0:0:0:0:
448,192,108042,1,0,0:0:0:0:
64,192,108213,1,2,0:0:0:0:
320,192,108213,128,0,108384:0:0:0:0:
192,192,108299,128,0,108384:0:0:0:0:
448,192,108384,1,0,0:0:0:0:
64,192,108470,128,0,108556:0:0:0:0:
320,192,108556,1,2,0:0:0:0:
448,192,108556,1,8,0:0:0:0:
64,192,108727,128,0,108899:0:0:0:0:
192,192,108813,128,0,108899:0:0:0:0:
320,192,108899,1,2,0:0:0:0:
448,192,108899,1,0,0:0:0:0:
64,192,108984,1,0,0:0:0:0:
448,192,109070,1,0,0:0:0:0:
320,192,109156,1,0,0:0:0:0:
64,192,109242,1,2,0:0:0:0:
192,192,109242,1,8,0:0:0:0:
448,192,109327,1,0,0:0:0:0:
192,192,109413,1,0,0:0:0:0:
320,192,109499,1,0,0:0:0:0:
64,192,109584,128,2,109756:0:0:0:0:
448,192,109584,1,0,0:0:0:0:
192,192,109670,128,0,109756:0:0:0:0:
320,192,109756,1,0,0:0:0:0:
64,192,109927,128,2,110099:0:0:0:0:
448,192,109927,1,8,0:0:0:0:
320,192,110013,128,0,110099:0:0:0:0:
192,192,110099,1,0,0:0:0:0:
192,192,110270,128,2,110442:0:0:0:0:
448,192,110270,1,4,0:0:0:0:
320,192,110356,128,0,110442:0:0:0:0:
64,192,110442,1,0,0:0:0:0:
320,192,110527,128,4,110613:0:0:0:0:
448,192,110527,128,2,110613:0:0:0:0:
64,192,110784,128,2,111642:0:0:0:0:
192,192,110784,1,4,0:0:0:0:
320,192,111299,1,0,0:0:0:0:
448,192,111384,1,0,0:0:0:0:
192,192,111470,1,0,0:0:0:0:
448,192,111556,1,0,0:0:0:0:
320,192,111642,1,0,0:0:0:0:
64,192,111727,1,0,0:0:0:0:
192,192,111813,1,0,0:0:0:0:
448,192,111899,1,0,0:0:0:0:
320,192,111984,1,0,0:0:0:0:
64,192,112070,1,0,0:0:0:0:
448,192,112156,1,0,0:0:0:0:
320,192,112242,1,0,0:0:0:0:
64,192,112327,1,2,0:0:0:0:
192,192,112327,1,8,0:0:0:0:
64,192,112670,1,2,0:0:0:0:
192,192,112670,1,8,0:0:0:0:
64,192,113013,1,2,0:0:0:0:
192,192,113013,1,8,0:0:0:0:
64,192,113356,1,2,0:0:0:0:
192,192,113356,1,8,0:0:0:0:
320,192,113699,1,2,0:0:0:0:
448,192,113699,1,8,0:0:0:0:
320,192,114042,1,2,0:0:0:0:
448,192,114042,1,8,0:0:0:0:
320,192,114384,1,8,0:0:0:0:
448,192,114384,1,2,0:0:0:0:
320,192,114727,1,2,0:0:0:0:
448,192,114727,1,8,0:0:0:0:
64,192,114899,1,8,0:0:0:0:
192,192,114899,1,0,0:0:0:0:
64,192,115070,1,2,0:0:0:0:
448,192,115070,1,8,0:0:0:0:
64,192,115413,1,2,0:0:0:0:
448,192,115413,1,8,0:0:0:0:
64,192,115756,1,2,0:0:0:0:
448,192,115756,1,8,0:0:0:0:
64,192,116099,1,2,0:0:0:0:
448,192,116099,1,8,0:0:0:0:
192,192,116442,1,2,0:0:0:0:
320,192,116442,1,8,0:0:0:0:
192,192,116784,1,2,0:0:0:0:
320,192,116784,1,8,0:0:0:0:
192,192,117127,1,2,0:0:0:0:
320,192,117127,1,8,0:0:0:0:
192,192,117470,1,2,0:0:0:0:
320,192,117470,1,8,0:0:0:0:
64,192,117642,1,8,0:0:0:0:
448,192,117642,1,0,0:0:0:0:
192,192,117813,1,2,0:0:0:0:
448,192,117813,1,8,0:0:0:0:
64,192,117984,1,8,0:0:0:0:
192,192,117984,1,0,0:0:0:0:
320,192,118156,1,8,0:0:0:0:
448,192,118156,1,2,0:0:0:0:
192,192,118327,1,8,0:0:0:0:
320,192,118327,1,0,0:0:0:0:
64,192,118499,1,2,0:0:0:0:
192,192,118499,1,8,0:0:0:0:
320,192,118670,1,8,0:0:0:0:
448,192,118670,1,0,0:0:0:0:
64,192,118842,1,8,0:0:0:0:
320,192,118842,1,2,0:0:0:0:
64,192,119013,1,8,0:0:0:0:
448,192,119013,1,0,0:0:0:0:
320,192,119184,1,2,0:0:0:0:
448,192,119184,1,8,0:0:0:0:
192,192,119270,1,8,0:0:0:0:
320,192,119356,1,8,0:0:0:0:
448,192,119442,1,8,0:0:0:0:
64,192,119527,1,8,0:0:0:0:
192,192,119527,1,2,0:0:0:0:
320,192,119613,1,8,0:0:0:0:
192,192,119699,1,8,0:0:0:0:
64,192,119784,1,8,0:0:0:0:
320,192,119870,1,8,0:0:0:0:
448,192,119870,1,2,0:0:0:0:
192,192,119956,1,8,0:0:0:0:
320,192,120042,1,8,0:0:0:0:
448,192,120127,1,8,0:0:0:0:
64,192,120213,1,2,0:0:0:0:
192,192,120213,1,8,0:0:0:0:
320,192,120299,1,8,0:0:0:0:
192,192,120384,1,8,0:0:0:0:
64,192,120470,1,8,0:0:0:0:
320,192,120556,1,2,0:0:0:0:
448,192,120556,128,4,120899:0:0:0:0:
192,192,121070,1,4,0:0:0:0:
320,192,121070,128,2,121413:0:0:0:0:
64,192,121584,128,2,121927:0:0:0:0:
192,192,121584,1,4,0:0:0:0:
320,192,121927,1,4,0:0:0:0:
448,192,121927,1,2,0:0:0:0:
64,192,122099,1,0,0:0:0:0:
448,192,122270,1,0,0:0:0:0:
320,192,122356,1,0,0:0:0:0:
64,192,122442,1,0,0:0:0:0:
448,192,122613,1,0,0:0:0:0:
320,192,122699,1,0,0:0:0:0:
64,192,122784,1,0,0:0:0:0:
192,192,122870,1,0,0:0:0:0:
320,192,122956,1,8,0:0:0:0:
448,192,122956,1,0,0:0:0:0:
448,192,123127,1,0,0:0:0:0:
64,192,123299,128,2,123470:0:0:0:0:
192,192,123299,128,0,123470:0:0:0:0:
320,192,123470,1,0,0:0:0:0:
64,192,123642,1,2,0:0:0:0:
192,192,123642,1,0,0:0:0:0:
320,192,123727,1,0,0:0:0:0:
320,192,123899,1,0,0:0:0:0:
64,192,123984,1,2,0:0:0:0:
192,192,123984,1,0,0:0:0:0:
320,192,124156,1,0,0:0:0:0:
64,192,124327,1,2,0:0:0:0:
192,192,124327,1,0,0:0:0:0:
448,192,124499,1,0,0:0:0:0:
320,192,124584,1,0,0:0:0:0:
64,192,124670,1,2,0:0:0:0:
192,192,124670,1,0,0:0:0:0:
320,192,124842,1,0,0:0:0:0:
64,192,125013,1,2,0:0:0:0:
192,192,125013,1,0,0:0:0:0:
320,192,125099,1,0,0:0:0:0:
320,192,125270,1,0,0:0:0:0:
64,192,125356,1,2,0:0:0:0:
192,192,125356,1,0,0:0:0:0:
320,192,125527,1,0,0:0:0:0:
64,192,125699,1,2,0:0:0:0:
192,192,125699,1,0,0:0:0:0:
448,192,125870,1,0,0:0:0:0:
64,192,126042,1,2,0:0:0:0:
192,192,126042,1,0,0:0:0:0:
320,192,126213,1,0,0:0:0:0:
64,192,126384,1,2,0:0:0:0:
192,192,126384,1,0,0:0:0:0:
320,192,126470,1,0,0:0:0:0:
320,192,126642,1,0,0:0:0:0:
64,192,126727,1,2,0:0:0:0:
192,192,126727,1,0,0:0:0:0:
320,192,126899,1,0,0:0:0:0:
64,192,127070,1,2,0:0:0:0:
192,192,127070,1,0,0:0:0:0:
448,192,127242,1,0,0:0:0:0:
320,192,127327,1,0,0:0:0:0:
64,192,127413,1,2,0:0:0:0:
192,192,127413,1,0,0:0:0:0:
320,192,127584,1,0,0:0:0:0:
64,192,127756,1,2,0:0:0:0:
192,192,127756,1,0,0:0:0:0:
320,192,127842,1,0,0:0:0:0:
320,192,128013,1,0,0:0:0:0:
64,192,128099,1,2,0:0:0:0:
192,192,128099,1,0,0:0:0:0:
320,192,128270,1,0,0:0:0:0:
64,192,128442,1,2,0:0:0:0:
192,192,128442,1,0,0:0:0:0:
448,192,128527,1,0,0:0:0:0:
320,192,128613,1,0,0:0:0:0:
64,192,128699,1,0,0:0:0:0:
320,192,128784,128,2,128956:0:0:0:0:
448,192,128784,128,0,128956:0:0:0:0:
192,192,128956,1,0,0:0:0:0:
320,192,129127,1,2,0:0:0:0:
448,192,129127,1,0,0:0:0:0:
192,192,129213,1,0,0:0:0:0:
192,192,129384,1,0,0:0:0:0:
320,192,129470,1,2,0:0:0:0:
448,192,129470,1,0,0:0:0:0:
192,192,129642,1,0,0:0:0:0:
320,192,129813,1,2,0:0:0:0:
448,192,129813,1,0,0:0:0:0:
64,192,129984,1,0,0:0:0:0:
192,192,130070,1,0,0:0:0:0:
320,192,130156,1,2,0:0:0:0:
448,192,130156,1,0,0:0:0:0:
192,192,130327,1,0,0:0:0:0:
320,192,130499,1,2,0:0:0:0:
448,192,130499,1,0,0:0:0:0:
192,192,130584,1,0,0:0:0:0:
192,192,130756,1,0,0:0:0:0:
320,192,130842,1,2,0:0:0:0:
448,192,130842,1,0,0:0:0:0:
192,192,131013,1,0,0:0:0:0:
320,192,131184,1,2,0:0:0:0:
448,192,131184,1,0,0:0:0:0:
64,192,131356,1,0,0:0:0:0:
320,192,131527,1,2,0:0:0:0:
448,192,131527,1,0,0:0:0:0:
192,192,131699,1,0,0:0:0:0:
320,192,131870,1,2,0:0:0:0:
448,192,131870,1,0,0:0:0:0:
192,192,131956,1,0,0:0:0:0:
192,192,132127,1,0,0:0:0:0:
320,192,132213,1,2,0:0:0:0:
448,192,132213,1,0,0:0:0:0:
192,192,132384,1,0,0:0:0:0:
320,192,132556,1,2,0:0:0:0:
448,192,132556,1,0,0:0:0:0:
64,192,132727,1,0,0:0:0:0:
192,192,132813,1,0,0:0:0:0:
64,192,132899,1,2,0:0:0:0:
448,192,132899,1,4,0:0:0:0:
192,192,133927,1,8,0:0:0:0:
320,192,133927,1,0,0:0:0:0:
64,192,134270,1,2,0:0:0:0:
448,192,134270,128,4,134527:0:0:0:0:
192,192,134442,1,0,0:0:0:0:
64,192,134613,128,2,134870:0:0:0:0:
320,192,134613,1,8,0:0:0:0:
448,192,134784,1,0,0:0:0:0:
192,192,134870,1,0,0:0:0:0:
320,192,134956,1,2,0:0:0:0:
448,192,134956,1,0,0:0:0:0:
320,192,135127,1,0,0:0:0:0:
448,192,135213,1,0,0:0:0:0:
64,192,135299,1,2,0:0:0:0:
192,192,135299,1,8,0:0:0:0:
320,192,135384,1,0,0:0:0:0:
192,192,135470,1,0,0:0:0:0:
64,192,135556,1,0,0:0:0:0:
320,192,135642,1,2,0:0:0:0:
448,192,135642,1,0,0:0:0:0:
192,192,135727,1,0,0:0:0:0:
448,192,135899,1,0,0:0:0:0:
64,192,135984,1,2,0:0:0:0:
192,192,135984,1,8,0:0:0:0:
320,192,136070,1,0,0:0:0:0:
64,192,136156,1,0,0:0:0:0:
192,192,136242,1,0,0:0:0:0:
320,192,136327,1,2,0:0:0:0:
448,192,136327,1,0,0:0:0:0:
192,192,136413,1,0,0:0:0:0:
448,192,136499,1,0,0:0:0:0:
320,192,136584,1,0,0:0:0:0:
64,192,136670,1,2,0:0:0:0:
192,192,136670,1,8,0:0:0:0:
448,192,136756,1,0,0:0:0:0:
320,192,136842,128,0,136927:0:0:0:0:
64,192,137013,1,2,0:0:0:0:
192,192,137013,128,0,137270:0:0:0:0:
448,192,137184,1,0,0:0:0:0:
64,192,137270,1,0,0:0:0:0:
320,192,137356,1,2,0:0:0:0:
448,192,137356,128,8,137613:0:0:0:0:
192,192,137527,1,0,0:0:0:0:
64,192,137613,1,0,0:0:0:0:
320,192,137699,1,2,0:0:0:0:
448,192,137699,1,0,0:0:0:0:
192,192,137870,1,0,0:0:0:0:
320,192,137956,1,0,0:0:0:0:
64,192,138042,1,2,0:0:0:0:
192,192,138042,1,8,0:0:0:0:
448,192,138127,1,0,0:0:0:0:
320,192,138213,1,0,0:0:0:0:
64,192,138299,1,0,0:0:0:0:
320,192,138384,1,2,0:0:0:0:
448,192,138384,1,0,0:0:0:0:
192,192,138470,1,0,0:0:0:0:
448,192,138642,1,0,0:0:0:0:
64,192,138727,1,2,0:0:0:0:
192,192,138727,1,8,0:0:0:0:
320,192,138813,1,0,0:0:0:0:
192,192,138899,1,0,0:0:0:0:
64,192,138984,1,0,0:0:0:0:
320,192,139070,1,2,0:0:0:0:
448,192,139070,1,0,0:0:0:0:
192,192,139156,1,0,0:0:0:0:
320,192,139242,1,0,0:0:0:0:
448,192,139327,1,0,0:0:0:0:
64,192,139413,1,2,0:0:0:0:
192,192,139413,1,8,0:0:0:0:
320,192,139499,128,0,139584:0:0:0:0:
192,192,139584,128,0,139670:0:0:0:0:
64,192,139756,128,2,140013:0:0:0:0:
448,192,139756,1,0,0:0:0:0:
192,192,139927,1,0,0:0:0:0:
64,192,140099,1,2,0:0:0:0:
320,192,140099,128,8,140356:0:0:0:0:
192,192,140270,1,0,0:0:0:0:
448,192,140356,1,0,0:0:0:0:
64,192,140442,1,2,0:0:0:0:
192,192,140442,1,0,0:0:0:0:
320,192,140613,1,0,0:0:0:0:
192,192,140699,1,0,0:0:0:0:
320,192,140784,1,2,0:0:0:0:
448,192,140784,1,8,0:0:0:0:
64,192,140870,1,0,0:0:0:0:
448,192,140956,1,0,0:0:0:0:
320,192,141042,1,0,0:0:0:0:
64,192,141127,1,2,0:0:0:0:
192,192,141127,1,0,0:0:0:0:
448,192,141213,1,0,0:0:0:0:
64,192,141384,1,0,0:0:0:0:
320,192,141470,1,2,0:0:0:0:
448,192,141470,1,8,0:0:0:0:
192,192,141556,1,0,0:0:0:0:
64,192,141642,1,0,0:0:0:0:
448,192,141727,1,0,0:0:0:0:
64,192,141813,1,2,0:0:0:0:
192,192,141813,1,0,0:0:0:0:
320,192,141899,1,0,0:0:0:0:
192,192,141984,1,0,0:0:0:0:
64,192,142070,1,0,0:0:0:0:
320,192,142156,1,2,0:0:0:0:
448,192,142156,1,8,0:0:0:0:
192,192,142242,128,0,142327:0:0:0:0:
448,192,142327,128,0,142413:0:0:0:0:
192,192,142499,128,2,142756:0:0:0:0:
320,192,142499,1,0,0:0:0:0:
448,192,142670,1,0,0:0:0:0:
320,192,142756,1,0,0:0:0:0:
64,192,142842,1,2,0:0:0:0:
448,192,142842,128,8,143099:0:0:0:0:
320,192,143013,1,0,0:0:0:0:
192,192,143099,1,0,0:0:0:0:
320,192,143184,1,2,0:0:0:0:
448,192,143184,1,0,0:0:0:0:
448,192,143356,1,0,0:0:0:0:
320,192,143442,1,0,0:0:0:0:
64,192,143527,1,2,0:0:0:0:
192,192,143527,1,8,0:0:0:0:
448,192,143613,1,0,0:0:0:0:
192,192,143699,1,0,0:0:0:0:
64,192,143784,1,0,0:0:0:0:
320,192,143870,1,2,0:0:0:0:
448,192,143870,1,0,0:0:0:0:
192,192,143956,1,0,0:0:0:0:
448,192,144127,1,0,0:0:0:0:
64,192,144213,1,2,0:0:0:0:
192,192,144213,1,8,0:0:0:0:
320,192,144299,1,0,0:0:0:0:
64,192,144384,1,0,0:0:0:0:
192,192,144470,1,0,0:0:0:0:
320,192,144556,1,2,0:0:0:0:
448,192,144556,1,0,0:0:0:0:
64,192,144642,1,0,0:0:0:0:
192,192,144727,1,0,0:0:0:0:
448,192,144813,1,0,0:0:0:0:
64,192,144899,1,2,0:0:0:0:
192,192,144899,1,8,0:0:0:0:
320,192,144984,128,0,145070:0:0:0:0:
64,192,145070,128,0,145156:0:0:0:0:
192,192,145242,1,2,0:0:0:0:
448,192,145242,128,4,145499:0:0:0:0:
320,192,145413,1,0,0:0:0:0:
64,192,145584,128,2,145842:0:0:0:0:
448,192,145584,1,8,0:0:0:0:
320,192,145756,1,0,0:0:0:0:
192,192,145842,1,0,0:0:0:0:
320,192,145927,1,2,0:0:0:0:
448,192,145927,1,0,0:0:0:0:
64,192,146013,1,0,0:0:0:0:
320,192,146099,1,0,0:0:0:0:
448,192,146184,1,0,0:0:0:0:
64,192,146270,1,2,0:0:0:0:
192,192,146270,1,8,0:0:0:0:
320,192,146356,1,0,0:0:0:0:
192,192,146442,1,0,0:0:0:0:
64,192,146527,1,0,0:0:0:0:
320,192,146613,1,2,0:0:0:0:
448,192,146613,1,0,0:0:0:0:
192,192,146699,1,0,0:0:0:0:
320,192,146784,1,0,0:0:0:0:
448,192,146870,1,0,0:0:0:0:
64,192,146956,1,2,0:0:0:0:
192,192,146956,1,8,0:0:0:0:
320,192,147042,1,0,0:0:0:0:
64,192,147127,1,0,0:0:0:0:
192,192,147213,1,0,0:0:0:0:
320,192,147299,1,2,0:0:0:0:
448,192,147299,1,0,0:0:0:0:
192,192,147384,1,0,0:0:0:0:
448,192,147470,1,0,0:0:0:0:
320,192,147556,1,0,0:0:0:0:
64,192,147642,1,2,0:0:0:0:
192,192,147642,1,8,0:0:0:0:
448,192,147727,1,0,0:0:0:0:
320,192,147813,128,0,147899:0:0:0:0:
64,192,147984,1,2,0:0:0:0:
192,192,147984,128,0,148242:0:0:0:0:
448,192,148156,1,0,0:0:0:0:
320,192,148242,1,0,0:0:0:0:
64,192,148327,1,2,0:0:0:0:
448,192,148327,128,8,148584:0:0:0:0:
192,192,148499,1,0,0:0:0:0:
64,192,148584,1,0,0:0:0:0:
320,192,148670,1,2,0:0:0:0:
448,192,148670,1,0,0:0:0:0:
192,192,148756,1,0,0:0:0:0:
448,192,148842,1,0,0:0:0:0:
320,192,148927,1,0,0:0:0:0:
64,192,149013,1,2,0:0:0:0:
192,192,149013,1,8,0:0:0:0:
448,192,149099,1,0,0:0:0:0:
320,192,149184,1,0,0:0:0:0:
64,192,149270,1,0,0:0:0:0:
320,192,149356,1,2,0:0:0:0:
448,192,149356,1,0,0:0:0:0:
192,192,149442,1,0,0:0:0:0:
320,192,149527,1,0,0:0:0:0:
448,192,149613,1,0,0:0:0:0:
64,192,149699,1,2,0:0:0:0:
192,192,149699,1,8,0:0:0:0:
320,192,149784,1,0,0:0:0:0:
192,192,149870,1,0,0:0:0:0:
64,192,149956,1,0,0:0:0:0:
320,192,150042,1,2,0:0:0:0:
448,192,150042,1,0,0:0:0:0:
192,192,150127,1,0,0:0:0:0:
320,192,150213,1,0,0:0:0:0:
448,192,150299,1,0,0:0:0:0:
64,192,150384,1,2,0:0:0:0:
192,192,150384,1,8,0:0:0:0:
320,192,150470,128,0,150556:0:0:0:0:
192,192,150556,128,0,150642:0:0:0:0:
64,192,150727,128,2,150984:0:0:0:0:
448,192,150727,1,0,0:0:0:0:
192,192,150899,1,0,0:0:0:0:
320,192,151070,128,2,151327:0:0:0:0:
448,192,151070,1,8,0:0:0:0:
192,192,151242,1,0,0:0:0:0:
448,192,151327,1,0,0:0:0:0:
64,192,151413,1,2,0:0:0:0:
192,192,151413,1,0,0:0:0:0:
320,192,151499,1,0,0:0:0:0:
448,192,151584,1,0,0:0:0:0:
192,192,151670,1,0,0:0:0:0:
320,192,151756,1,2,0:0:0:0:
448,192,151756,1,8,0:0:0:0:
64,192,151842,1,0,0:0:0:0:
448,192,151927,1,0,0:0:0:0:
320,192,152013,1,0,0:0:0:0:
64,192,152099,1,2,0:0:0:0:
192,192,152099,1,0,0:0:0:0:
448,192,152184,1,0,0:0:0:0:
320,192,152270,1,0,0:0:0:0:
64,192,152356,1,0,0:0:0:0:
320,192,152442,1,2,0:0:0:0:
448,192,152442,1,8,0:0:0:0:
192,192,152527,1,0,0:0:0:0:
64,192,152613,1,0,0:0:0:0:
448,192,152699,1,0,0:0:0:0:
64,192,152784,1,2,0:0:0:0:
192,192,152784,1,0,0:0:0:0:
320,192,152870,1,0,0:0:0:0:
192,192,152956,1,0,0:0:0:0:
64,192,153042,1,0,0:0:0:0:
320,192,153127,1,2,0:0:0:0:
448,192,153127,1,8,0:0:0:0:
192,192,153213,128,0,153299:0:0:0:0:
448,192,153299,128,0,153384:0:0:0:0:
192,192,153470,128,2,153727:0:0:0:0:
320,192,153470,1,0,0:0:0:0:
448,192,153642,1,0,0:0:0:0:
320,192,153727,1,0,0:0:0:0:
64,192,153813,1,2,0:0:0:0:
448,192,153813,128,8,154070:0:0:0:0:
64,192,153984,1,0,0:0:0:0:
192,192,154070,1,0,0:0:0:0:
320,192,154156,1,2,0:0:0:0:
448,192,154156,1,0,0:0:0:0:
64,192,154242,1,0,0:0:0:0:
448,192,154327,1,0,0:0:0:0:
320,192,154413,1,0,0:0:0:0:
64,192,154499,1,2,0:0:0:0:
192,192,154499,1,8,0:0:0:0:
448,192,154584,1,0,0:0:0:0:
192,192,154670,1,0,0:0:0:0:
64,192,154756,1,0,0:0:0:0:
320,192,154842,1,2,0:0:0:0:
448,192,154842,1,4,0:0:0:0:
192,192,154927,1,0,0:0:0:0:
448,192,155013,1,0,0:0:0:0:
64,192,155184,1,0,0:0:0:0:
192,192,155270,1,0,0:0:0:0:
448,192,155356,1,0,0:0:0:0:
64,192,155527,1,0,0:0:0:0:
192,192,155613,1,0,0:0:0:0:
448,192,155699,1,0,0:0:0:0:
320,192,155784,1,0,0:0:0:0:
64,192,155870,1,8,0:0:0:0:
192,192,155870,1,0,0:0:0:0:
64,192,156213,1,2,0:0:0:0:
320,192,156213,1,0,0:0:0:0:
448,192,156556,128,0,156899:0:0:0:0:
320,192,156899,128,0,157242:0:0:0:0:
192,192,157242,1,0,0:0:0:0:
64,192,157413,128,0,157756:0:0:0:0:
448,192,157756,1,0,0:0:0:0:
192,192,157927,128,0,158099:0:0:0:0:
320,192,158270,128,0,158613:0:0:0:0:
448,192,158613,128,0,158784:0:0:0:0:
64,192,158956,128,0,159127:0:0:0:0:
192,192,159127,1,0,0:0:0:0:
320,192,159299,128,0,159470:0:0:0:0:
448,192,159470,1,0,0:0:0:0:
64,192,159642,128,0,159984:0:0:0:0:
448,192,159984,1,0,0:0:0:0:
320,192,160156,128,0,160499:0:0:0:0:
64,192,160499,1,0,0:0:0:0:
192,192,160670,128,0,160842:0:0:0:0:
320,192,161013,128,0,161356:0:0:0:0:
448,192,161356,128,0,161699:0:0:0:0:
64,192,161699,1,0,0:0:0:0:
448,192,162042,128,0,162384:0:0:0:0:
320,192,162384,128,0,162727:0:0:0:0:
192,192,162727,1,0,0:0:0:0:
64,192,162899,128,0,163242:0:0:0:0:
448,192,163242,1,0,0:0:0:0:
320,192,163413,128,0,163584:0:0:0:0:
64,192,163756,128,0,163927:0:0:0:0:
192,192,163927,1,0,0:0:0:0:
320,192,164099,128,0,164270:0:0:0:0:
448,192,164270,1,0,0:0:0:0:
192,192,164442,128,0,164613:0:0:0:0:
320,192,164784,128,0,164956:0:0:0:0:
192,192,164956,1,0,0:0:0:0:
64,192,165127,128,0,165470:0:0:0:0:
320,192,165470,1,0,0:0:0:0:
192,192,165642,128,0,165984:0:0:0:0:
448,192,165984,1,0,0:0:0:0:
320,192,166156,128,0,166327:0:0:0:0:
448,192,166499,128,0,166842:0:0:0:0:
64,192,166842,128,0,167184:0:0:0:0:
192,192,167184,1,2,0:0:0:0:
448,192,167184,1,8,0:0:0:0:
320,192,167356,1,0,0:0:0:0:
64,192,167527,1,2,0:0:0:0:
448,192,167527,128,8,167870:0:0:0:0:
192,192,167699,1,0,0:0:0:0:
64,192,167870,1,2,0:0:0:0:
320,192,167870,128,8,168213:0:0:0:0:
448,192,168042,1,0,0:0:0:0:
192,192,168213,1,10,0:0:0:0:
64,192,168384,128,0,168727:0:0:0:0:
192,192,168556,1,2,0:0:0:0:
320,192,168556,1,8,0:0:0:0:
448,192,168727,1,0,0:0:0:0:
64,192,168899,1,2,0:0:0:0:
192,192,168899,128,8,169070:0:0:0:0:
448,192,169070,1,0,0:0:0:0:
192,192,169242,1,2,0:0:0:0:
320,192,169242,128,8,169584:0:0:0:0:
64,192,169413,1,0,0:0:0:0:
192,192,169584,1,2,0:0:0:0:
448,192,169584,128,8,169756:0:0:0:0:
320,192,169756,1,8,0:0:0:0:
64,192,169927,128,8,170099:0:0:0:0:
448,192,169927,1,2,0:0:0:0:
192,192,170099,1,0,0:0:0:0:
64,192,170270,1,8,0:0:0:0:
320,192,170270,128,2,170442:0:0:0:0:
448,192,170442,1,0,0:0:0:0:
64,192,170613,128,2,170956:0:0:0:0:
320,192,170613,1,8,0:0:0:0:
192,192,170784,1,0,0:0:0:0:
320,192,170956,1,8,0:0:0:0:
448,192,170956,1,2,0:0:0:0:
192,192,171127,128,0,171470:0:0:0:0:
320,192,171299,1,10,0:0:0:0:
64,192,171470,1,0,0:0:0:0:
320,192,171642,128,8,171813:0:0:0:0:
448,192,171642,1,2,0:0:0:0:
64,192,171813,1,0,0:0:0:0:
192,192,171984,128,2,172327:0:0:0:0:
320,192,171984,1,8,0:0:0:0:
64,192,172156,1,0,0:0:0:0:
320,192,172327,1,8,0:0:0:0:
448,192,172327,128,2,172499:0:0:0:0:
192,192,172499,1,8,0:0:0:0:
64,192,172670,1,2,0:0:0:0:
320,192,172670,1,8,0:0:0:0:
320,192,172842,1,8,0:0:0:0:
192,192,173013,1,8,0:0:0:0:
448,192,173013,128,2,173356:0:0:0:0:
192,192,173184,1,8,0:0:0:0:
64,192,173356,1,2,0:0:0:0:
320,192,173356,128,8,173699:0:0:0:0:
64,192,173527,1,8,0:0:0:0:
192,192,173699,1,8,0:0:0:0:
448,192,173699,1,2,0:0:0:0:
192,192,173870,128,8,174213:0:0:0:0:
320,192,174042,1,2,0:0:0:0:
448,192,174042,1,8,0:0:0:0:
448,192,174213,1,8,0:0:0:0:
192,192,174384,1,8,0:0:0:0:
320,192,174384,128,2,174556:0:0:0:0:
192,192,174556,1,8,0:0:0:0:
64,192,174727,128,2,174899:0:0:0:0:
448,192,174727,1,8,0:0:0:0:
448,192,174899,1,8,0:0:0:0:
64,192,175070,1,8,0:0:0:0:
320,192,175070,128,2,175242:0:0:0:0:
64,192,175242,1,8,0:0:0:0:
192,192,175413,128,8,175584:0:0:0:0:
320,192,175413,1,2,0:0:0:0:
448,192,175499,1,8,0:0:0:0:
64,192,175584,1,8,0:0:0:0:
192,192,175670,1,8,0:0:0:0:
320,192,175756,128,8,175927:0:0:0:0:
448,192,175756,1,2,0:0:0:0:
64,192,175842,1,8,0:0:0:0:
192,192,175927,1,8,0:0:0:0:
320,192,176013,1,8,0:0:0:0:
64,192,176099,128,8,176270:0:0:0:0:
448,192,176099,1,2,0:0:0:0:
192,192,176184,1,8,0:0:0:0:
320,192,176270,1,8,0:0:0:0:
448,192,176356,1,8,0:0:0:0:
64,192,176442,1,8,0:0:0:0:
192,192,176442,1,2,0:0:0:0:
320,192,176527,1,8,0:0:0:0:
448,192,176613,1,8,0:0:0:0:
64,192,176699,1,8,0:0:0:0:
192,192,176784,1,4,0:0:0:0:
320,192,176784,1,2,0:0:0:0:
64,192,176956,1,0,0:0:0:0:
448,192,177127,1,0,0:0:0:0:
320,192,177213,1,0,0:0:0:0:
64,192,177299,1,0,0:0:0:0:
448,192,177470,1,0,0:0:0:0:
320,192,177556,1,0,0:0:0:0:
64,192,177642,1,0,0:0:0:0:
192,192,177727,1,0,0:0:0:0:
320,192,177813,1,8,0:0:0:0:
448,192,177813,1,0,0:0:0:0:
64,192,178156,1,2,0:0:0:0:
448,192,178156,1,4,0:0:0:0:
192,192,178327,1,0,0:0:0:0:
64,192,178499,1,2,0:0:0:0:
448,192,178499,128,8,178842:0:0:0:0:
320,192,178670,128,0,178842:0:0:0:0:
192,192,178842,128,2,179184:0:0:0:0:
64,192,179013,128,0,179184:0:0:0:0:
320,192,179184,1,2,0:0:0:0:
448,192,179184,1,8,0:0:0:0:
64,192,179356,128,0,179699:0:0:0:0:
320,192,179527,1,2,0:0:0:0:
448,192,179527,128,0,179699:0:0:0:0:
192,192,179699,1,0,0:0:0:0:
320,192,179870,128,2,180042:0:0:0:0:
448,192,179870,1,8,0:0:0:0:
64,192,180042,1,0,0:0:0:0:
192,192,180213,1,2,0:0:0:0:
320,192,180213,128,0,180556:0:0:0:0:
448,192,180384,128,0,180556:0:0:0:0:
64,192,180556,1,2,0:0:0:0:
192,192,180556,128,8,180899:0:0:0:0:
320,192,180727,128,0,180899:0:0:0:0:
64,192,180899,128,2,181070:0:0:0:0:
448,192,180899,1,0,0:0:0:0:
192,192,181070,1,0,0:0:0:0:
64,192,181242,1,2,0:0:0:0:
448,192,181242,128,8,181413:0:0:0:0:
320,192,181413,1,0,0:0:0:0:
64,192,181584,1,2,0:0:0:0:
192,192,181584,128,0,181927:0:0:0:0:
320,192,181756,128,0,181927:0:0:0:0:
64,192,181927,1,2,0:0:0:0:
448,192,181927,1,8,0:0:0:0:
320,192,182099,128,0,182442:0:0:0:0:
192,192,182270,128,2,182442:0:0:0:0:
448,192,182270,1,0,0:0:0:0:
64,192,182442,1,0,0:0:0:0:
320,192,182613,1,2,0:0:0:0:
448,192,182613,128,8,182784:0:0:0:0:
64,192,182784,1,0,0:0:0:0:
192,192,182956,1,2,0:0:0:0:
320,192,182956,128,0,183299:0:0:0:0:
448,192,183127,128,0,183299:0:0:0:0:
64,192,183299,1,2,0:0:0:0:
192,192,183299,128,8,183642:0:0:0:0:
320,192,183470,128,0,183642:0:0:0:0:
64,192,183642,1,2,0:0:0:0:
448,192,183642,1,0,0:0:0:0:
192,192,183813,1,0,0:0:0:0:
64,192,183984,1,2,0:0:0:0:
320,192,183984,128,8,184327:0:0:0:0:
448,192,184156,128,0,184327:0:0:0:0:
64,192,184327,1,2,0:0:0:0:
192,192,184327,128,0,184670:0:0:0:0:
320,192,184499,128,0,184670:0:0:0:0:
64,192,184670,1,2,0:0:0:0:
448,192,184670,1,8,0:0:0:0:
320,192,184842,128,0,185184:0:0:0:0:
64,192,185013,128,2,185184:0:0:0:0:
448,192,185013,1,0,0:0:0:0:
192,192,185184,1,0,0:0:0:0:
320,192,185356,128,2,185527:0:0:0:0:
448,192,185356,1,8,0:0:0:0:
192,192,185527,1,0,0:0:0:0:
64,192,185699,128,2,185870:0:0:0:0:
448,192,185699,1,0,0:0:0:0:
192,192,185870,1,0,0:0:0:0:
64,192,186042,1,2,0:0:0:0:
320,192,186042,128,8,186213:0:0:0:0:
448,192,186213,1,0,0:0:0:0:
192,192,186384,128,2,186556:0:0:0:0:
320,192,186384,1,0,0:0:0:0:
64,192,186556,1,0,0:0:0:0:
192,192,186727,1,2,0:0:0:0:
448,192,186727,128,8,186899:0:0:0:0:
320,192,186899,1,0,0:0:0:0:
64,192,187070,128,2,187413:0:0:0:0:
448,192,187070,1,0,0:0:0:0:
192,192,187242,128,0,187413:0:0:0:0:
320,192,187413,1,2,0:0:0:0:
448,192,187413,1,8,0:0:0:0:
192,192,187584,128,0,187927:0:0:0:0:
320,192,187756,128,2,187927:0:0:0:0:
448,192,187756,1,0,0:0:0:0:
64,192,187927,1,0,0:0:0:0:
192,192,188099,128,2,188270:0:0:0:0:
448,192,188099,1,8,0:0:0:0:
320,192,188270,1,0,0:0:0:0:
64,192,188442,1,2,0:0:0:0:
448,192,188442,128,0,188784:0:0:0:0:
192,192,188613,128,0,188784:0:0:0:0:
64,192,188784,128,2,189127:0:0:0:0:
320,192,188784,1,8,0:0:0:0:
448,192,188956,128,0,189127:0:0:0:0:
192,192,189127,1,2,0:0:0:0:
320,192,189127,1,4,0:0:0:0:
448,192,189299,1,0,0:0:0:0:
64,192,189470,128,2,189813:0:0:0:0:
320,192,189470,1,8,0:0:0:0:
192,192,189642,128,0,189813:0:0:0:0:
320,192,189813,128,2,190156:0:0:0:0:
448,192,189984,128,0,190156:0:0:0:0:
64,192,190156,1,2,0:0:0:0:
192,192,190156,1,8,0:0:0:0:
448,192,190327,128,0,190670:0:0:0:0:
64,192,190499,128,2,190670:0:0:0:0:
192,192,190499,1,0,0:0:0:0:
320,192,190670,1,0,0:0:0:0:
64,192,190842,1,2,0:0:0:0:
192,192,190842,128,8,191013:0:0:0:0:
448,192,191013,1,0,0:0:0:0:
192,192,191184,128,2,191527:0:0:0:0:
320,192,191184,1,0,0:0:0:0:
64,192,191356,128,0,191527:0:0:0:0:
320,192,191527,128,2,191870:0:0:0:0:
448,192,191527,1,8,0:0:0:0:
192,192,191699,128,0,191870:0:0:0:0:
64,192,191870,1,2,0:0:0:0:
448,192,191870,128,0,192042:0:0:0:0:
320,192,192042,1,0,0:0:0:0:
64,192,192213,128,2,192384:0:0:0:0:
448,192,192213,1,8,0:0:0:0:
192,192,192384,1,0,0:0:0:0:
320,192,192556,128,2,192899:0:0:0:0:
448,192,192556,1,0,0:0:0:0:
192,192,192727,128,0,192899:0:0:0:0:
64,192,192899,1,2,0:0:0:0:
448,192,192899,1,8,0:0:0:0:
192,192,193070,128,0,193413:0:0:0:0:
64,192,193242,1,2,0:0:0:0:
320,192,193242,128,0,193413:0:0:0:0:
448,192,193413,1,0,0:0:0:0:
64,192,193584,128,2,193756:0:0:0:0:
192,192,193584,1,8,0:0:0:0:
448,192,193756,1,0,0:0:0:0:
192,192,193927,128,2,194270:0:0:0:0:
320,192,193927,1,0,0:0:0:0:
64,192,194099,128,0,194270:0:0:0:0:
320,192,194270,128,2,194613:0:0:0:0:
448,192,194270,1,8,0:0:0:0:
192,192,194442,128,0,194613:0:0:0:0:
64,192,194613,1,2,0:0:0:0:
448,192,194613,1,0,0:0:0:0:
320,192,194784,1,0,0:0:0:0:
192,192,194956,128,2,195299:0:0:0:0:
448,192,194956,1,8,0:0:0:0:
64,192,195127,128,0,195299:0:0:0:0:
320,192,195299,128,2,195642:0:0:0:0:
448,192,195299,1,0,0:0:0:0:
192,192,195470,128,0,195642:0:0:0:0:
64,192,195642,1,2,0:0:0:0:
448,192,195642,1,8,0:0:0:0:
192,192,195813,128,0,196156:0:0:0:0:
64,192,195984,1,2,0:0:0:0:
448,192,195984,128,0,196156:0:0:0:0:
320,192,196156,1,0,0:0:0:0:
64,192,196327,1,2,0:0:0:0:
192,192,196327,128,8,196499:0:0:0:0:
320,192,196499,1,0,0:0:0:0:
64,192,196670,1,2,0:0:0:0:
448,192,196670,128,0,196842:0:0:0:0:
320,192,196842,1,0,0:0:0:0:
192,192,197013,128,2,197184:0:0:0:0:
448,192,197013,1,8,0:0:0:0:
64,192,197184,1,0,0:0:0:0:
192,192,197356,1,2,0:0:0:0:
320,192,197356,128,0,197527:0:0:0:0:
448,192,197527,1,0,0:0:0:0:
64,192,197699,128,8,197870:0:0:0:0:
320,192,197699,1,2,0:0:0:0:
192,192,197870,1,0,0:0:0:0:
64,192,198042,1,2,0:0:0:0:
448,192,198042,128,0,198384:0:0:0:0:
320,192,198213,128,0,198384:0:0:0:0:
64,192,198384,1,8,0:0:0:0:
192,192,198384,1,2,0:0:0:0:
320,192,198556,128,0,198727:0:0:0:0:
64,192,198727,1,2,0:0:0:0:
448,192,198727,1,4,0:0:0:0:
448,192,198899,1,0,0:0:0:0:
64,192,199070,1,0,0:0:0:0:
192,192,199156,1,0,0:0:0:0:
448,192,199242,1,0,0:0:0:0:
64,192,199413,1,0,0:0:0:0:
192,192,199499,1,0,0:0:0:0:
448,192,199584,1,0,0:0:0:0:
320,192,199670,1,0,0:0:0:0:
64,192,199756,1,8,0:0:0:0:
192,192,199756,1,0,0:0:0:0:
64,192,200099,1,4,0:0:0:0:
448,192,200099,1,2,0:0:0:0:
320,192,200270,1,0,0:0:0:0:
192,192,200442,1,2,0:0:0:0:
448,192,200442,1,8,0:0:0:0:
320,192,200613,1,0,0:0:0:0:
448,192,200699,1,0,0:0:0:0:
64,192,200784,1,2,0:0:0:0:
192,192,200784,1,0,0:0:0:0:
320,192,200956,1,0,0:0:0:0:
192,192,201127,1,2,0:0:0:0:
448,192,201127,1,8,0:0:0:0:
320,192,201299,1,0,0:0:0:0:
448,192,201384,1,0,0:0:0:0:
64,192,201470,1,2,0:0:0:0:
192,192,201470,1,0,0:0:0:0:
448,192,201642,1,0,0:0:0:0:
192,192,201813,1,2,0:0:0:0:
320,192,201813,1,8,0:0:0:0:
64,192,201984,1,0,0:0:0:0:
448,192,202070,1,0,0:0:0:0:
64,192,202156,1,2,0:0:0:0:
192,192,202156,1,0,0:0:0:0:
448,192,202327,1,0,0:0:0:0:
192,192,202499,1,2,0:0:0:0:
320,192,202499,1,8,0:0:0:0:
64,192,202670,1,0,0:0:0:0:
192,192,202756,1,0,0:0:0:0:
320,192,202842,1,2,0:0:0:0:
448,192,202842,1,0,0:0:0:0:
64,192,203013,1,0,0:0:0:0:
192,192,203184,1,2,0:0:0:0:
448,192,203184,1,8,0:0:0:0:
64,192,203356,1,0,0:0:0:0:
192,192,203442,1,0,0:0:0:0:
320,192,203527,1,2,0:0:0:0:
448,192,203527,1,0,0:0:0:0:
64,192,203699,1,0,0:0:0:0:
192,192,203870,1,2,0:0:0:0:
448,192,203870,1,8,0:0:0:0:
64,192,204042,1,0,0:0:0:0:
192,192,204127,1,0,0:0:0:0:
320,192,204213,1,2,0:0:0:0:
448,192,204213,1,0,0:0:0:0:
64,192,204384,1,0,0:0:0:0:
192,192,204556,1,2,0:0:0:0:
448,192,204556,1,8,0:0:0:0:
64,192,204727,1,0,0:0:0:0:
192,192,204813,1,0,0:0:0:0:
320,192,204899,1,2,0:0:0:0:
448,192,204899,1,0,0:0:0:0:
64,192,205070,1,0,0:0:0:0:
192,192,205242,1,2,0:0:0:0:
448,192,205242,1,8,0:0:0:0:
64,192,205413,1,0,0:0:0:0:
448,192,205499,1,0,0:0:0:0:
64,192,205584,1,2,0:0:0:0:
192,192,205584,1,0,0:0:0:0:
320,192,205756,1,0,0:0:0:0:
192,192,205927,1,2,0:0:0:0:
448,192,205927,1,8,0:0:0:0:
320,192,206099,1,0,0:0:0:0:
448,192,206184,1,0,0:0:0:0:
64,192,206270,1,2,0:0:0:0:
192,192,206270,1,0,0:0:0:0:
320,192,206442,1,0,0:0:0:0:
192,192,206613,1,2,0:0:0:0:
448,192,206613,1,8,0:0:0:0:
320,192,206784,1,0,0:0:0:0:
448,192,206870,1,0,0:0:0:0:
64,192,206956,1,2,0:0:0:0:
192,192,206956,1,0,0:0:0:0:
448,192,207127,1,0,0:0:0:0:
192,192,207299,1,2,0:0:0:0:
320,192,207299,1,8,0:0:0:0:
64,192,207470,1,0,0:0:0:0:
448,192,207556,1,0,0:0:0:0:
64,192,207642,1,2,0:0:0:0:
192,192,207642,1,0,0:0:0:0:
448,192,207813,1,0,0:0:0:0:
192,192,207984,1,2,0:0:0:0:
320,192,207984,1,8,0:0:0:0:
64,192,208156,1,0,0:0:0:0:
192,192,208242,1,0,0:0:0:0:
320,192,208327,1,2,0:0:0:0:
448,192,208327,1,0,0:0:0:0:
64,192,208499,1,0,0:0:0:0:
192,192,208670,1,2,0:0:0:0:
448,192,208670,1,8,0:0:0:0:
64,192,208842,1,0,0:0:0:0:
192,192,208927,1,0,0:0:0:0:
320,192,209013,1,2,0:0:0:0:
448,192,209013,1,0,0:0:0:0:
64,192,209184,1,0,0:0:0:0:
192,192,209356,1,2,0:0:0:0:
448,192,209356,1,8,0:0:0:0:
64,192,209527,1,0,0:0:0:0:
192,192,209613,1,0,0:0:0:0:
320,192,209699,1,2,0:0:0:0:
448,192,209699,1,4,0:0:0:0:
64,192,209870,1,0,0:0:0:0:
448,192,210042,1,0,0:0:0:0:
320,192,210127,1,0,0:0:0:0:
64,192,210213,1,0,0:0:0:0:
448,192,210384,1,0,0:0:0:0:
320,192,210470,1,0,0:0:0:0:
64,192,210556,1,0,0:0:0:0:
192,192,210642,1,0,0:0:0:0:
320,192,210727,1,2,0:0:0:0:
448,192,210727,1,8,0:0:0:0:
64,192,210813,1,0,0:0:0:0:
192,192,210899,1,0,0:0:0:0:
448,192,210984,1,0,0:0:0:0:
320,192,211070,1,4,0:0:0:0:
64,192,211070,128,2,211413:0:0:0:0:
