osu file format v14

[General]
AudioFilename: audio.mp3
AudioLeadIn: 0
PreviewTime: 45171
Countdown: 0
SampleSet: Normal
StackLeniency: 0.7
Mode: 3
LetterboxInBreaks: 0
SpecialStyle: 0
WidescreenStoryboard: 0

[Editor]
Bookmarks: 112371,123342,134314,156257,167228,178199
DistanceSpacing: 1
BeatDivisor: 4
GridSize: 32
TimelineZoom: 1.9

[Metadata]
Title:Endless feat. Mameyudoufu (Mameyudoufu Remix)
TitleUnicode:Endless feat. Mameyudoufu (Mameyudoufu Remix)
Artist:PSYQUI
ArtistUnicode:PSYQUI
Creator:HowToPlayLN
Version:Divergence
Source:
Tags:mwc2021 osu mania world cup quarterfinals flashlight 4k tournament qualifiers stage 4 hybrid future core psytrance j-core jcore japanese electronic techcore MEGAREX FUTURE EVANGELIX 01 epoqc2025 MRX-050 MRX-053 mwc21 豆湯豆腐 HTPLN LoliNote Media-Mix Market 2019秋 M3-44 M3 2019 Fall Comic Market 96 C96 Comiket96 コミケ96 コミックマーケット96
BeatmapID:3182324
BeatmapSetID:1557840

[Difficulty]
HPDrainRate:8
CircleSize:4
OverallDifficulty:8
ApproachRate:5
SliderMultiplier:1.4
SliderTickRate:1

[Events]
//Background and Video events
0,0,"white.jpg",0,0
//Break Periods
//Storyboard Layer 0 (Background)
//Storyboard Layer 1 (Fail)
//Storyboard Layer 2 (Pass)
//Storyboard Layer 3 (Foreground)
//Storyboard Layer 4 (Overlay)
//Storyboard Sound Samples

[TimingPoints]
1242,342.857142857143,4,1,1,70,1,0
46499,-100,4,1,1,70,0,1
67070,-100,4,1,1,70,0,0
68442,-100,4,1,1,70,0,1
89013,-100,4,1,1,70,0,0
123299,-100,4,1,1,70,0,1
132899,-100,4,1,1,70,0,0
134270,-100,4,1,1,70,0,1
154842,-100,4,1,1,70,0,0
178156,-100,4,1,1,70,0,1
198727,-100,4,1,1,70,0,0

[HitObjects]
192,192,1584,128,0,2613:0:0:0:0:
64,192,2613,5,0,0:0:0:0:
448,192,2613,1,0,0:0:0:0:
320,192,3470,1,0,0:0:0:0:
192,192,3642,1,0,0:0:0:0:
448,192,3813,1,0,0:0:0:0:
64,192,3984,1,0,0:0:0:0:
320,192,4327,1,0,0:0:0:0:
448,192,4670,1,0,0:0:0:0:
192,192,4842,1,0,0:0:0:0:
320,192,5013,1,0,0:0:0:0:
64,192,6213,1,0,0:0:0:0:
448,192,6556,1,0,0:0:0:0:
320,192,6899,1,0,0:0:0:0:
192,192,7070,1,0,0:0:0:0:
448,192,7242,1,0,0:0:0:0:
64,192,7413,1,0,0:0:0:0:
192,192,7584,1,0,0:0:0:0:
320,192,7756,1,0,0:0:0:0:
64,192,7927,1,0,0:0:0:0:
448,192,8956,1,0,0:0:0:0:
192,192,9127,1,0,0:0:0:0:
320,192,9299,1,0,0:0:0:0:
64,192,9470,1,0,0:0:0:0:
192,192,9813,1,0,0:0:0:0:
448,192,10156,1,0,0:0:0:0:
320,192,10327,1,0,0:0:0:0:
64,192,10499,1,0,0:0:0:0:
320,192,11699,1,0,0:0:0:0:
192,192,12042,1,0,0:0:0:0:
64,192,12384,1,0,0:0:0:0:
320,192,12556,1,0,0:0:0:0:
192,192,12727,1,0,0:0:0:0:
448,192,12899,1,0,0:0:0:0:
320,192,13070,1,0,0:0:0:0:
64,192,13242,1,0,0:0:0:0:
192,192,13413,1,0,0:0:0:0:
448,192,13584,1,0,0:0:0:0:
320,192,13584,1,0,0:0:0:0:
448,192,13756,1,0,0:0:0:0:
448,192,13927,1,0,0:0:0:0:
448,192,14099,1,0,0:0:0:0:
448,192,14270,1,0,0:0:0:0:
448,192,14442,1,0,0:0:0:0:
448,192,14613,1,0,0:0:0:0:
448,192,14784,1,0,0:0:0:0:
192,192,14956,1,0,0:0:0:0:
64,192,14956,1,0,0:0:0:0:
64,192,15127,1,0,0:0:0:0:
64,192,15299,1,0,0:0:0:0:
64,192,15470,1,0,0:0:0:0:
64,192,15642,1,0,0:0:0:0:
64,192,15813,1,0,0:0:0:0:
64,192,15984,1,0,0:0:0:0:
64,192,16156,1,0,0:0:0:0:
320,192,16327,1,0,0:0:0:0:
192,192,16327,1,0,0:0:0:0:
320,192,16499,1,0,0:0:0:0:
320,192,16670,1,0,0:0:0:0:
320,192,16842,1,0,0:0:0:0:
320,192,17013,1,0,0:0:0:0:
320,192,17184,1,0,0:0:0:0:
320,192,17356,1,0,0:0:0:0:
320,192,17527,1,0,0:0:0:0:
448,192,17699,1,0,0:0:0:0:
192,192,17699,1,0,0:0:0:0:
192,192,17870,1,0,0:0:0:0:
192,192,18042,1,0,0:0:0:0:
192,192,18213,1,0,0:0:0:0:
320,192,18384,1,0,0:0:0:0:
64,192,18384,1,0,0:0:0:0:
320,192,18556,1,0,0:0:0:0:
320,192,18727,1,0,0:0:0:0:
320,192,18899,1,0,0:0:0:0:
448,192,19070,1,0,0:0:0:0:
64,192,19070,1,0,0:0:0:0:
448,192,19242,1,0,0:0:0:0:
448,192,19413,1,0,0:0:0:0:
448,192,19584,1,0,0:0:0:0:
448,192,19756,1,0,0:0:0:0:
448,192,19927,1,0,0:0:0:0:
448,192,20099,1,0,0:0:0:0:
448,192,20270,1,0,0:0:0:0:
192,192,20442,1,0,0:0:0:0:
64,192,20442,1,0,0:0:0:0:
64,192,20613,1,0,0:0:0:0:
64,192,20784,1,0,0:0:0:0:
64,192,20956,1,0,0:0:0:0:
64,192,21127,1,0,0:0:0:0:
64,192,21299,1,0,0:0:0:0:
64,192,21470,1,0,0:0:0:0:
64,192,21642,1,0,0:0:0:0:
448,192,21813,128,0,21984:0:0:0:0:
320,192,21813,128,0,22156:0:0:0:0:
192,192,21813,128,2,22156:0:0:0:0:
448,192,22156,128,0,22327:0:0:0:0:
320,192,22327,128,0,22670:0:0:0:0:
192,192,22327,128,0,22670:0:0:0:0:
64,192,22327,128,2,22670:0:0:0:0:
448,192,22842,128,0,23184:0:0:0:0:
320,192,22842,128,0,23184:0:0:0:0:
64,192,22842,128,2,23184:0:0:0:0:
448,192,23356,128,0,23699:0:0:0:0:
192,192,23356,128,0,23699:0:0:0:0:
64,192,23356,128,2,23699:0:0:0:0:
448,192,23870,1,0,0:0:0:0:
320,192,23956,1,0,0:0:0:0:
192,192,24042,1,0,0:0:0:0:
64,192,24042,1,0,0:0:0:0:
448,192,24127,1,0,0:0:0:0:
320,192,24213,1,0,0:0:0:0:
192,192,24213,1,0,0:0:0:0:
448,192,24384,1,0,0:0:0:0:
64,192,24384,1,0,0:0:0:0:
448,192,24556,1,0,0:0:0:0:
320,192,24556,1,4,0:0:0:0:
192,192,24556,128,2,24727:0:0:0:0:
64,192,24727,1,0,0:0:0:0:
448,192,24784,1,0,0:0:0:0:
192,192,24842,1,0,0:0:0:0:
320,192,24899,1,0,0:0:0:0:
64,192,24899,1,8,0:0:0:0:
448,192,24942,128,0,25242:0:0:0:0:
320,192,25242,128,0,25584:0:0:0:0:
192,192,25242,1,8,0:0:0:0:
448,192,25584,1,0,0:0:0:0:
192,192,25584,128,8,25670:0:0:0:0:
320,192,25756,1,0,0:0:0:0:
64,192,25799,128,0,26099:0:0:0:0:
448,192,25927,1,0,0:0:0:0:
192,192,25927,1,8,0:0:0:0:
448,192,26099,128,0,26184:0:0:0:0:
192,192,26270,1,0,0:0:0:0:
64,192,26270,1,8,0:0:0:0:
320,192,26313,128,0,26442:0:0:0:0:
448,192,26613,1,0,0:0:0:0:
64,192,26613,128,8,26956:0:0:0:0:
320,192,26956,1,0,0:0:0:0:
192,192,26956,128,8,27127:0:0:0:0:
448,192,27127,1,0,0:0:0:0:
64,192,27127,1,8,0:0:0:0:
448,192,27299,128,0,27470:0:0:0:0:
192,192,27299,1,8,0:0:0:0:
320,192,27470,128,0,27556:0:0:0:0:
448,192,27642,1,0,0:0:0:0:
192,192,27642,128,8,27813:0:0:0:0:
64,192,27813,128,0,27899:0:0:0:0:
320,192,27984,1,0,0:0:0:0:
192,192,27984,1,8,0:0:0:0:
448,192,28027,128,0,28327:0:0:0:0:
320,192,28327,1,0,0:0:0:0:
192,192,28327,128,8,28413:0:0:0:0:
64,192,28499,1,0,0:0:0:0:
320,192,28542,128,0,28842:0:0:0:0:
448,192,28670,1,0,0:0:0:0:
192,192,28670,1,8,0:0:0:0:
64,192,28842,128,0,28927:0:0:0:0:
320,192,29013,1,0,0:0:0:0:
192,192,29013,1,8,0:0:0:0:
448,192,29056,128,0,29184:0:0:0:0:
320,192,29356,128,0,29699:0:0:0:0:
64,192,29356,1,8,0:0:0:0:
448,192,29699,1,0,0:0:0:0:
64,192,29699,128,8,30042:0:0:0:0:
320,192,29870,1,0,0:0:0:0:
192,192,29870,1,8,0:0:0:0:
448,192,30042,1,0,0:0:0:0:
192,192,30042,1,8,0:0:0:0:
320,192,30384,1,0,0:0:0:0:
64,192,30384,1,8,0:0:0:0:
448,192,30427,128,0,30727:0:0:0:0:
320,192,30727,128,0,31070:0:0:0:0:
192,192,30727,1,8,0:0:0:0:
192,192,31070,128,0,31156:0:0:0:0:
64,192,31070,1,8,0:0:0:0:
320,192,31242,1,0,0:0:0:0:
64,192,31284,128,0,31584:0:0:0:0:
448,192,31413,1,0,0:0:0:0:
192,192,31413,1,8,0:0:0:0:
448,192,31584,128,0,31670:0:0:0:0:
192,192,31756,1,0,0:0:0:0:
64,192,31756,1,8,0:0:0:0:
320,192,31799,128,0,31927:0:0:0:0:
448,192,32099,1,0,0:0:0:0:
64,192,32099,128,8,32270:0:0:0:0:
192,192,32270,128,0,32356:0:0:0:0:
320,192,32442,128,0,32613:0:0:0:0:
64,192,32442,1,8,0:0:0:0:
448,192,32613,128,0,32699:0:0:0:0:
192,192,32613,1,8,0:0:0:0:
320,192,32784,1,0,0:0:0:0:
64,192,32784,128,8,33042:0:0:0:0:
448,192,33127,1,0,0:0:0:0:
320,192,33127,128,8,33299:0:0:0:0:
64,192,33299,128,0,33384:0:0:0:0:
320,192,33470,1,0,0:0:0:0:
192,192,33470,1,8,0:0:0:0:
448,192,33513,128,0,33813:0:0:0:0:
320,192,33813,1,0,0:0:0:0:
192,192,33813,128,8,33899:0:0:0:0:
64,192,33984,1,0,0:0:0:0:
320,192,34027,128,0,34327:0:0:0:0:
448,192,34156,1,0,0:0:0:0:
192,192,34156,1,8,0:0:0:0:
64,192,34327,128,0,34413:0:0:0:0:
448,192,34499,1,0,0:0:0:0:
192,192,34499,128,8,34670:0:0:0:0:
448,192,34842,128,0,35099:0:0:0:0:
320,192,34842,128,0,35184:0:0:0:0:
192,192,35184,128,0,35527:0:0:0:0:
64,192,35184,128,0,35442:0:0:0:0:
448,192,35527,1,8,0:0:0:0:
320,192,35527,1,2,0:0:0:0:
64,192,35699,1,0,0:0:0:0:
320,192,35870,1,8,0:0:0:0:
64,192,35870,1,2,0:0:0:0:
448,192,35913,128,0,36213:0:0:0:0:
192,192,36042,1,0,0:0:0:0:
320,192,36213,128,8,36556:0:0:0:0:
64,192,36213,1,2,0:0:0:0:
448,192,36384,1,0,0:0:0:0:
192,192,36556,1,8,0:0:0:0:
64,192,36556,128,2,36642:0:0:0:0:
320,192,36727,1,0,0:0:0:0:
64,192,36770,128,0,36984:0:0:0:0:
448,192,36899,1,8,0:0:0:0:
192,192,36899,1,2,0:0:0:0:
448,192,37070,128,0,37156:0:0:0:0:
192,192,37242,1,8,0:0:0:0:
64,192,37242,1,2,0:0:0:0:
320,192,37284,128,0,37413:0:0:0:0:
448,192,37413,1,0,0:0:0:0:
192,192,37584,1,8,0:0:0:0:
64,192,37584,128,2,37927:0:0:0:0:
448,192,37756,1,0,0:0:0:0:
320,192,37927,1,8,0:0:0:0:
192,192,37927,128,2,38099:0:0:0:0:
448,192,38099,1,0,0:0:0:0:
64,192,38099,1,8,0:0:0:0:
448,192,38270,128,2,38442:0:0:0:0:
192,192,38270,1,8,0:0:0:0:
320,192,38442,128,0,38527:0:0:0:0:
448,192,38613,1,2,0:0:0:0:
192,192,38613,128,8,38784:0:0:0:0:
64,192,38784,128,0,38870:0:0:0:0:
320,192,38956,1,8,0:0:0:0:
192,192,38956,1,2,0:0:0:0:
448,192,38999,128,0,39299:0:0:0:0:
64,192,39127,1,0,0:0:0:0:
320,192,39299,1,2,0:0:0:0:
192,192,39299,128,8,39384:0:0:0:0:
64,192,39470,1,0,0:0:0:0:
320,192,39513,128,0,39813:0:0:0:0:
448,192,39642,1,8,0:0:0:0:
192,192,39642,1,2,0:0:0:0:
64,192,39813,128,0,39899:0:0:0:0:
320,192,39984,1,2,0:0:0:0:
192,192,39984,1,8,0:0:0:0:
448,192,40027,128,0,40156:0:0:0:0:
64,192,40156,1,0,0:0:0:0:
448,192,40327,1,8,0:0:0:0:
320,192,40327,128,2,40670:0:0:0:0:
64,192,40499,1,0,0:0:0:0:
448,192,40670,1,2,0:0:0:0:
192,192,40670,128,8,41013:0:0:0:0:
448,192,40842,1,0,0:0:0:0:
320,192,40842,1,8,0:0:0:0:
320,192,41013,1,8,0:0:0:0:
64,192,41013,1,2,0:0:0:0:
64,192,41184,1,8,0:0:0:0:
320,192,41356,1,2,0:0:0:0:
64,192,41356,1,8,0:0:0:0:
448,192,41399,128,0,41699:0:0:0:0:
64,192,41527,1,8,0:0:0:0:
320,192,41699,128,0,42042:0:0:0:0:
192,192,41699,1,8,0:0:0:0:
64,192,41699,1,2,0:0:0:0:
64,192,41870,1,8,0:0:0:0:
448,192,42042,1,2,0:0:0:0:
64,192,42042,128,8,42127:0:0:0:0:
320,192,42213,1,0,0:0:0:0:
64,192,42213,1,8,0:0:0:0:
192,192,42256,128,0,42556:0:0:0:0:
448,192,42384,1,10,0:0:0:0:
448,192,42556,128,0,42642:0:0:0:0:
320,192,42556,1,8,0:0:0:0:
448,192,42727,1,2,0:0:0:0:
64,192,42727,1,8,0:0:0:0:
320,192,42770,128,0,42899:0:0:0:0:
448,192,42899,1,8,0:0:0:0:
448,192,43070,1,0,0:0:0:0:
192,192,43070,1,8,0:0:0:0:
64,192,43070,128,2,43242:0:0:0:0:
448,192,43242,1,0,0:0:0:0:
192,192,43242,128,8,43327:0:0:0:0:
448,192,43413,1,0,0:0:0:0:
320,192,43413,128,2,43584:0:0:0:0:
64,192,43413,1,8,0:0:0:0:
448,192,43584,128,8,43670:0:0:0:0:
192,192,43756,128,2,44013:0:0:0:0:
64,192,43756,1,8,0:0:0:0:
320,192,43842,1,8,0:0:0:0:
448,192,43927,1,8,0:0:0:0:
64,192,44013,1,8,0:0:0:0:
448,192,44099,1,2,0:0:0:0:
320,192,44099,128,8,44270:0:0:0:0:
192,192,44184,1,8,0:0:0:0:
64,192,44270,128,8,44356:0:0:0:0:
192,192,44356,1,8,0:0:0:0:
320,192,44442,1,2,0:0:0:0:
64,192,44442,1,8,0:0:0:0:
448,192,44484,128,0,44784:0:0:0:0:
192,192,44527,1,8,0:0:0:0:
320,192,44613,1,8,0:0:0:0:
64,192,44699,1,8,0:0:0:0:
320,192,44784,1,2,0:0:0:0:
192,192,44784,128,8,44870:0:0:0:0:
448,192,44870,1,8,0:0:0:0:
64,192,44956,1,8,0:0:0:0:
320,192,44999,128,0,45127:0:0:0:0:
448,192,45042,1,8,0:0:0:0:
192,192,45127,1,2,0:0:0:0:
64,192,45127,1,4,0:0:0:0:
64,192,45299,128,0,45470:0:0:0:0:
448,192,45470,1,0,0:0:0:0:
448,192,45556,1,0,0:0:0:0:
64,192,45642,128,0,45813:0:0:0:0:
448,192,45813,1,0,0:0:0:0:
448,192,45899,1,0,0:0:0:0:
192,192,45984,1,0,0:0:0:0:
192,192,46070,1,0,0:0:0:0:
448,192,46156,1,0,0:0:0:0:
320,192,46156,128,0,46327:0:0:0:0:
64,192,46156,128,8,46413:0:0:0:0:
448,192,46499,128,0,46756:0:0:0:0:
320,192,46499,128,4,46756:0:0:0:0:
64,192,46499,128,2,46756:0:0:0:0:
448,192,46842,128,0,47099:0:0:0:0:
320,192,46842,128,8,47099:0:0:0:0:
64,192,46842,128,2,47099:0:0:0:0:
192,192,47099,128,0,47184:0:0:0:0:
448,192,47184,1,0,0:0:0:0:
320,192,47184,1,2,0:0:0:0:
448,192,47270,1,0,0:0:0:0:
64,192,47356,1,0,0:0:0:0:
192,192,47442,128,0,47527:0:0:0:0:
448,192,47527,1,8,0:0:0:0:
320,192,47527,1,2,0:0:0:0:
320,192,47613,1,0,0:0:0:0:
192,192,47699,128,0,47784:0:0:0:0:
448,192,47784,128,0,47870:0:0:0:0:
192,192,47870,1,0,0:0:0:0:
64,192,47870,1,2,0:0:0:0:
64,192,47956,128,0,48042:0:0:0:0:
320,192,48042,1,0,0:0:0:0:
192,192,48127,1,0,0:0:0:0:
448,192,48213,1,8,0:0:0:0:
320,192,48213,1,2,0:0:0:0:
448,192,48299,1,0,0:0:0:0:
192,192,48384,1,0,0:0:0:0:
320,192,48470,128,0,48556:0:0:0:0:
448,192,48556,1,0,0:0:0:0:
64,192,48556,1,2,0:0:0:0:
64,192,48642,1,0,0:0:0:0:
192,192,48727,128,0,48813:0:0:0:0:
448,192,48813,1,0,0:0:0:0:
320,192,48899,1,8,0:0:0:0:
192,192,48899,1,2,0:0:0:0:
64,192,48984,128,0,49070:0:0:0:0:
448,192,49070,128,0,49156:0:0:0:0:
64,192,49156,128,0,49242:0:0:0:0:
448,192,49242,128,0,49499:0:0:0:0:
320,192,49242,128,0,49499:0:0:0:0:
192,192,49242,128,2,49499:0:0:0:0:
448,192,49584,128,0,49842:0:0:0:0:
320,192,49584,128,8,49842:0:0:0:0:
192,192,49584,128,2,49842:0:0:0:0:
64,192,49842,128,0,49927:0:0:0:0:
448,192,49927,1,0,0:0:0:0:
320,192,49927,1,2,0:0:0:0:
448,192,50013,1,0,0:0:0:0:
192,192,50099,1,0,0:0:0:0:
320,192,50184,128,0,50270:0:0:0:0:
448,192,50270,1,8,0:0:0:0:
64,192,50270,1,2,0:0:0:0:
448,192,50356,1,0,0:0:0:0:
192,192,50442,128,0,50527:0:0:0:0:
320,192,50527,128,0,50613:0:0:0:0:
448,192,50613,1,0,0:0:0:0:
64,192,50613,1,2,0:0:0:0:
64,192,50699,128,0,50784:0:0:0:0:
320,192,50784,1,0,0:0:0:0:
192,192,50870,128,0,50956:0:0:0:0:
448,192,50956,1,8,0:0:0:0:
64,192,50956,1,2,0:0:0:0:
448,192,51042,1,0,0:0:0:0:
320,192,51127,1,0,0:0:0:0:
64,192,51213,128,0,51299:0:0:0:0:
448,192,51299,1,0,0:0:0:0:
192,192,51299,1,2,0:0:0:0:
320,192,51384,128,0,51470:0:0:0:0:
192,192,51470,128,0,51556:0:0:0:0:
64,192,51556,128,0,51642:0:0:0:0:
448,192,51642,1,8,0:0:0:0:
320,192,51642,1,2,0:0:0:0:
448,192,51727,128,0,51813:0:0:0:0:
192,192,51813,128,0,51899:0:0:0:0:
448,192,51984,128,0,52242:0:0:0:0:
192,192,51984,128,0,52242:0:0:0:0:
64,192,51984,128,2,52242:0:0:0:0:
448,192,52327,128,0,52584:0:0:0:0:
192,192,52327,128,8,52584:0:0:0:0:
64,192,52327,128,2,52584:0:0:0:0:
320,192,52584,128,0,52670:0:0:0:0:
192,192,52670,1,0,0:0:0:0:
64,192,52670,1,2,0:0:0:0:
64,192,52756,1,0,0:0:0:0:
448,192,52842,1,0,0:0:0:0:
320,192,52927,128,0,53013:0:0:0:0:
448,192,53013,1,8,0:0:0:0:
192,192,53013,1,2,0:0:0:0:
448,192,53099,1,0,0:0:0:0:
320,192,53184,128,0,53270:0:0:0:0:
192,192,53270,128,0,53356:0:0:0:0:
448,192,53356,1,0,0:0:0:0:
64,192,53356,1,2,0:0:0:0:
64,192,53442,128,0,53527:0:0:0:0:
320,192,53527,1,0,0:0:0:0:
192,192,53613,1,0,0:0:0:0:
448,192,53699,1,8,0:0:0:0:
320,192,53699,1,2,0:0:0:0:
448,192,53784,1,0,0:0:0:0:
192,192,53870,1,0,0:0:0:0:
320,192,53956,128,0,54042:0:0:0:0:
448,192,54042,1,0,0:0:0:0:
64,192,54042,1,2,0:0:0:0:
64,192,54127,1,0,0:0:0:0:
320,192,54213,128,0,54299:0:0:0:0:
192,192,54299,128,0,54384:0:0:0:0:
448,192,54384,1,8,0:0:0:0:
64,192,54384,1,2,0:0:0:0:
192,192,54470,128,0,54642:0:0:0:0:
320,192,54556,128,0,54642:0:0:0:0:
448,192,54642,128,0,54727:0:0:0:0:
320,192,54727,128,0,54984:0:0:0:0:
192,192,54727,128,0,54984:0:0:0:0:
64,192,54727,128,2,54984:0:0:0:0:
320,192,55070,128,0,55327:0:0:0:0:
192,192,55070,128,8,55327:0:0:0:0:
64,192,55070,128,2,55327:0:0:0:0:
448,192,55327,128,0,55413:0:0:0:0:
192,192,55413,1,0,0:0:0:0:
64,192,55413,1,2,0:0:0:0:
64,192,55499,1,0,0:0:0:0:
320,192,55584,1,0,0:0:0:0:
192,192,55670,128,0,55756:0:0:0:0:
448,192,55756,1,8,0:0:0:0:
320,192,55756,1,2,0:0:0:0:
448,192,55842,1,0,0:0:0:0:
192,192,55927,128,0,56013:0:0:0:0:
320,192,56013,128,0,56099:0:0:0:0:
448,192,56099,1,0,0:0:0:0:
64,192,56099,1,2,0:0:0:0:
64,192,56184,128,0,56270:0:0:0:0:
320,192,56270,1,0,0:0:0:0:
192,192,56356,128,0,56442:0:0:0:0:
448,192,56442,1,8,0:0:0:0:
64,192,56442,1,2,0:0:0:0:
448,192,56527,1,0,0:0:0:0:
192,192,56613,1,0,0:0:0:0:
320,192,56699,128,0,56784:0:0:0:0:
192,192,56784,1,0,0:0:0:0:
64,192,56784,1,2,0:0:0:0:
64,192,56870,128,0,56956:0:0:0:0:
320,192,56956,128,0,57042:0:0:0:0:
192,192,57042,128,0,57127:0:0:0:0:
448,192,57127,1,8,0:0:0:0:
320,192,57127,1,2,0:0:0:0:
448,192,57213,1,0,0:0:0:0:
192,192,57299,1,0,0:0:0:0:
192,192,57384,1,0,0:0:0:0:
448,192,57470,128,0,57727:0:0:0:0:
320,192,57470,128,4,57727:0:0:0:0:
64,192,57470,128,2,57727:0:0:0:0:
448,192,57813,128,0,58070:0:0:0:0:
320,192,57813,128,8,58070:0:0:0:0:
64,192,57813,128,2,58070:0:0:0:0:
192,192,58070,128,0,58156:0:0:0:0:
448,192,58156,1,0,0:0:0:0:
320,192,58156,1,2,0:0:0:0:
448,192,58242,1,0,0:0:0:0:
192,192,58327,1,0,0:0:0:0:
320,192,58413,128,0,58499:0:0:0:0:
192,192,58499,1,8,0:0:0:0:
64,192,58499,1,2,0:0:0:0:
64,192,58584,1,0,0:0:0:0:
320,192,58670,128,0,58756:0:0:0:0:
64,192,58756,128,0,58842:0:0:0:0:
448,192,58842,1,0,0:0:0:0:
320,192,58842,1,2,0:0:0:0:
448,192,58927,128,0,59013:0:0:0:0:
192,192,59013,1,0,0:0:0:0:
320,192,59099,1,0,0:0:0:0:
192,192,59184,1,8,0:0:0:0:
64,192,59184,1,2,0:0:0:0:
64,192,59270,1,0,0:0:0:0:
320,192,59356,1,0,0:0:0:0:
192,192,59442,128,0,59527:0:0:0:0:
448,192,59527,1,0,0:0:0:0:
64,192,59527,1,2,0:0:0:0:
448,192,59613,1,0,0:0:0:0:
320,192,59699,128,0,59784:0:0:0:0:
64,192,59784,1,0,0:0:0:0:
320,192,59870,1,8,0:0:0:0:
192,192,59870,1,2,0:0:0:0:
64,192,59956,128,0,60042:0:0:0:0:
448,192,60042,128,0,60127:0:0:0:0:
64,192,60127,128,0,60213:0:0:0:0:
448,192,60213,128,0,60470:0:0:0:0:
320,192,60213,128,0,60470:0:0:0:0:
192,192,60213,128,2,60470:0:0:0:0:
448,192,60556,128,0,60813:0:0:0:0:
320,192,60556,128,8,60813:0:0:0:0:
192,192,60556,128,2,60813:0:0:0:0:
64,192,60813,128,0,60899:0:0:0:0:
448,192,60899,1,0,0:0:0:0:
320,192,60899,1,2,0:0:0:0:
448,192,60984,1,0,0:0:0:0:
320,192,61070,1,0,0:0:0:0:
192,192,61156,128,0,61242:0:0:0:0:
448,192,61242,1,8,0:0:0:0:
64,192,61242,1,2,0:0:0:0:
64,192,61327,1,0,0:0:0:0:
320,192,61413,128,0,61499:0:0:0:0:
192,192,61499,128,0,61584:0:0:0:0:
448,192,61584,1,0,0:0:0:0:
64,192,61584,1,2,0:0:0:0:
448,192,61670,128,0,61756:0:0:0:0:
320,192,61756,1,0,0:0:0:0:
192,192,61842,128,0,61927:0:0:0:0:
448,192,61927,1,8,0:0:0:0:
64,192,61927,1,2,0:0:0:0:
64,192,62013,1,0,0:0:0:0:
320,192,62099,1,0,0:0:0:0:
192,192,62184,128,0,62270:0:0:0:0:
448,192,62270,1,0,0:0:0:0:
64,192,62270,1,2,0:0:0:0:
320,192,62356,128,0,62442:0:0:0:0:
192,192,62442,128,0,62527:0:0:0:0:
64,192,62527,128,0,62613:0:0:0:0:
448,192,62613,1,8,0:0:0:0:
320,192,62613,1,2,0:0:0:0:
448,192,62699,128,0,62784:0:0:0:0:
192,192,62784,128,0,62870:0:0:0:0:
448,192,62956,128,0,63213:0:0:0:0:
192,192,62956,128,0,63213:0:0:0:0:
64,192,62956,128,2,63213:0:0:0:0:
448,192,63299,128,0,63556:0:0:0:0:
192,192,63299,128,8,63556:0:0:0:0:
64,192,63299,128,2,63556:0:0:0:0:
320,192,63556,128,0,63642:0:0:0:0:
448,192,63642,1,0,0:0:0:0:
64,192,63642,1,2,0:0:0:0:
448,192,63727,1,0,0:0:0:0:
64,192,63813,1,0,0:0:0:0:
192,192,63899,128,0,63984:0:0:0:0:
320,192,63984,1,8,0:0:0:0:
64,192,63984,1,2,0:0:0:0:
64,192,64070,1,0,0:0:0:0:
192,192,64156,128,0,64242:0:0:0:0:
320,192,64242,128,0,64327:0:0:0:0:
448,192,64327,1,0,0:0:0:0:
64,192,64327,1,2,0:0:0:0:
448,192,64413,128,0,64499:0:0:0:0:
192,192,64499,1,0,0:0:0:0:
320,192,64584,1,0,0:0:0:0:
192,192,64670,1,8,0:0:0:0:
64,192,64670,1,2,0:0:0:0:
64,192,64756,1,0,0:0:0:0:
320,192,64842,1,0,0:0:0:0:
192,192,64927,128,0,65013:0:0:0:0:
448,192,65013,1,0,0:0:0:0:
64,192,65013,1,2,0:0:0:0:
320,192,65099,128,0,65184:0:0:0:0:
192,192,65184,128,0,65270:0:0:0:0:
448,192,65270,1,0,0:0:0:0:
320,192,65356,1,8,0:0:0:0:
64,192,65356,1,2,0:0:0:0:
192,192,65442,128,0,65613:0:0:0:0:
320,192,65527,128,0,65613:0:0:0:0:
448,192,65613,128,0,65699:0:0:0:0:
320,192,65699,128,0,65956:0:0:0:0:
192,192,65699,128,0,65956:0:0:0:0:
64,192,65699,128,2,65956:0:0:0:0:
320,192,66042,128,0,66299:0:0:0:0:
192,192,66042,128,8,66299:0:0:0:0:
64,192,66042,128,2,66299:0:0:0:0:
448,192,66299,128,0,66384:0:0:0:0:
192,192,66384,1,0,0:0:0:0:
64,192,66384,1,2,0:0:0:0:
64,192,66470,1,0,0:0:0:0:
320,192,66556,1,0,0:0:0:0:
192,192,66642,128,0,66727:0:0:0:0:
448,192,66727,1,8,0:0:0:0:
320,192,66727,1,2,0:0:0:0:
448,192,66813,1,0,0:0:0:0:
192,192,66899,128,0,66984:0:0:0:0:
320,192,66984,128,0,67070:0:0:0:0:
448,192,67070,1,4,0:0:0:0:
64,192,67070,128,2,67242:0:0:0:0:
192,192,67156,128,0,67327:0:0:0:0:
320,192,67242,128,0,67413:0:0:0:0:
64,192,67327,128,0,67413:0:0:0:0:
448,192,67413,128,0,67499:0:0:0:0:
320,192,67499,128,0,67584:0:0:0:0:
192,192,67584,128,0,67670:0:0:0:0:
448,192,67670,128,0,67756:0:0:0:0:
64,192,67756,1,0,0:0:0:0:
64,192,67842,1,0,0:0:0:0:
320,192,67927,1,0,0:0:0:0:
320,192,68013,1,0,0:0:0:0:
448,192,68099,1,0,0:0:0:0:
64,192,68099,1,2,0:0:0:0:
448,192,68184,1,0,0:0:0:0:
192,192,68270,128,0,68356:0:0:0:0:
320,192,68356,128,0,68442:0:0:0:0:
448,192,68442,128,0,68699:0:0:0:0:
192,192,68442,128,4,68699:0:0:0:0:
64,192,68442,128,2,68699:0:0:0:0:
448,192,68784,128,0,69042:0:0:0:0:
192,192,68784,128,8,69042:0:0:0:0:
64,192,68784,128,2,69042:0:0:0:0:
320,192,69042,128,0,69127:0:0:0:0:
192,192,69127,1,0,0:0:0:0:
64,192,69127,1,2,0:0:0:0:
448,192,69170,1,0,0:0:0:0:
320,192,69213,1,0,0:0:0:0:
192,192,69299,1,0,0:0:0:0:
448,192,69384,1,0,0:0:0:0:
320,192,69427,1,0,0:0:0:0:
192,192,69470,1,8,0:0:0:0:
64,192,69470,1,2,0:0:0:0:
64,192,69556,1,0,0:0:0:0:
192,192,69642,1,0,0:0:0:0:
320,192,69684,1,0,0:0:0:0:
448,192,69727,1,0,0:0:0:0:
192,192,69813,1,0,0:0:0:0:
64,192,69813,1,2,0:0:0:0:
64,192,69899,1,0,0:0:0:0:
320,192,69942,1,0,0:0:0:0:
448,192,69984,1,0,0:0:0:0:
192,192,70070,1,0,0:0:0:0:
448,192,70156,1,8,0:0:0:0:
320,192,70156,1,2,0:0:0:0:
448,192,70242,1,0,0:0:0:0:
192,192,70327,1,0,0:0:0:0:
320,192,70413,1,0,0:0:0:0:
448,192,70456,1,0,0:0:0:0:
192,192,70499,1,0,0:0:0:0:
64,192,70499,1,2,0:0:0:0:
64,192,70584,1,0,0:0:0:0:
320,192,70670,1,0,0:0:0:0:
192,192,70713,1,0,0:0:0:0:
448,192,70756,1,0,0:0:0:0:
320,192,70842,1,8,0:0:0:0:
64,192,70842,1,2,0:0:0:0:
192,192,70927,128,0,71013:0:0:0:0:
448,192,71013,128,0,71099:0:0:0:0:
64,192,71099,128,0,71184:0:0:0:0:
448,192,71184,128,0,71442:0:0:0:0:
320,192,71184,128,0,71442:0:0:0:0:
192,192,71184,128,2,71442:0:0:0:0:
448,192,71527,128,0,71784:0:0:0:0:
320,192,71527,128,8,71784:0:0:0:0:
192,192,71527,128,2,71784:0:0:0:0:
64,192,71784,128,0,71870:0:0:0:0:
448,192,71870,1,0,0:0:0:0:
192,192,71870,1,2,0:0:0:0:
320,192,71913,1,0,0:0:0:0:
64,192,71956,1,0,0:0:0:0:
448,192,72042,1,0,0:0:0:0:
320,192,72127,1,0,0:0:0:0:
192,192,72170,1,0,0:0:0:0:
448,192,72213,1,8,0:0:0:0:
64,192,72213,1,2,0:0:0:0:
64,192,72299,1,0,0:0:0:0:
448,192,72384,1,0,0:0:0:0:
192,192,72427,1,0,0:0:0:0:
320,192,72470,1,0,0:0:0:0:
448,192,72556,1,0,0:0:0:0:
64,192,72556,1,2,0:0:0:0:
448,192,72642,1,0,0:0:0:0:
64,192,72684,1,0,0:0:0:0:
192,192,72727,1,0,0:0:0:0:
448,192,72813,1,0,0:0:0:0:
320,192,72856,1,0,0:0:0:0:
192,192,72899,1,8,0:0:0:0:
64,192,72899,1,2,0:0:0:0:
64,192,72984,1,0,0:0:0:0:
448,192,73070,1,0,0:0:0:0:
192,192,73156,1,0,0:0:0:0:
320,192,73199,1,0,0:0:0:0:
448,192,73242,1,0,0:0:0:0:
64,192,73242,1,2,0:0:0:0:
448,192,73327,1,0,0:0:0:0:
64,192,73370,1,0,0:0:0:0:
192,192,73413,1,0,0:0:0:0:
448,192,73499,1,0,0:0:0:0:
320,192,73584,1,8,0:0:0:0:
64,192,73584,1,2,0:0:0:0:
192,192,73670,128,0,73756:0:0:0:0:
448,192,73756,128,0,73842:0:0:0:0:
448,192,73927,128,0,74184:0:0:0:0:
192,192,73927,128,0,74184:0:0:0:0:
64,192,73927,128,2,74184:0:0:0:0:
448,192,74270,128,0,74527:0:0:0:0:
192,192,74270,128,8,74527:0:0:0:0:
64,192,74270,128,2,74527:0:0:0:0:
320,192,74527,128,0,74613:0:0:0:0:
448,192,74613,1,0,0:0:0:0:
64,192,74613,1,2,0:0:0:0:
192,192,74656,1,0,0:0:0:0:
320,192,74699,1,0,0:0:0:0:
64,192,74784,1,0,0:0:0:0:
192,192,74870,1,0,0:0:0:0:
320,192,74913,1,0,0:0:0:0:
448,192,74956,1,8,0:0:0:0:
64,192,74956,1,2,0:0:0:0:
448,192,75042,1,0,0:0:0:0:
320,192,75127,1,0,0:0:0:0:
64,192,75170,1,0,0:0:0:0:
192,192,75213,1,0,0:0:0:0:
448,192,75299,1,0,0:0:0:0:
64,192,75299,1,2,0:0:0:0:
64,192,75384,1,0,0:0:0:0:
448,192,75427,1,0,0:0:0:0:
320,192,75470,1,0,0:0:0:0:
192,192,75556,1,0,0:0:0:0:
320,192,75642,1,8,0:0:0:0:
64,192,75642,1,2,0:0:0:0:
320,192,75727,1,0,0:0:0:0:
192,192,75813,1,0,0:0:0:0:
448,192,75899,1,0,0:0:0:0:
320,192,75942,1,0,0:0:0:0:
192,192,75984,1,0,0:0:0:0:
64,192,75984,1,2,0:0:0:0:
64,192,76070,1,0,0:0:0:0:
192,192,76156,1,0,0:0:0:0:
320,192,76242,1,0,0:0:0:0:
448,192,76327,1,8,0:0:0:0:
64,192,76327,1,2,0:0:0:0:
192,192,76413,128,0,76584:0:0:0:0:
320,192,76499,128,0,76584:0:0:0:0:
448,192,76584,128,0,76670:0:0:0:0:
320,192,76670,128,0,76927:0:0:0:0:
192,192,76670,128,0,76927:0:0:0:0:
64,192,76670,128,2,76927:0:0:0:0:
320,192,77013,128,0,77270:0:0:0:0:
192,192,77013,128,8,77270:0:0:0:0:
64,192,77013,128,2,77270:0:0:0:0:
448,192,77270,128,0,77356:0:0:0:0:
192,192,77356,1,0,0:0:0:0:
64,192,77356,1,2,0:0:0:0:
320,192,77399,1,0,0:0:0:0:
448,192,77442,1,0,0:0:0:0:
64,192,77527,1,0,0:0:0:0:
192,192,77613,1,0,0:0:0:0:
64,192,77656,1,0,0:0:0:0:
448,192,77699,1,8,0:0:0:0:
320,192,77699,1,2,0:0:0:0:
448,192,77784,1,0,0:0:0:0:
192,192,77870,1,0,0:0:0:0:
64,192,77913,1,0,0:0:0:0:
448,192,77956,1,0,0:0:0:0:
192,192,78042,1,0,0:0:0:0:
64,192,78042,1,2,0:0:0:0:
64,192,78127,1,0,0:0:0:0:
448,192,78170,1,0,0:0:0:0:
320,192,78213,1,0,0:0:0:0:
448,192,78299,1,0,0:0:0:0:
192,192,78384,1,8,0:0:0:0:
64,192,78384,1,2,0:0:0:0:
192,192,78470,1,0,0:0:0:0:
320,192,78556,1,0,0:0:0:0:
64,192,78642,1,0,0:0:0:0:
192,192,78684,1,0,0:0:0:0:
448,192,78727,1,0,0:0:0:0:
320,192,78727,1,2,0:0:0:0:
448,192,78813,1,0,0:0:0:0:
64,192,78856,1,0,0:0:0:0:
192,192,78899,1,0,0:0:0:0:
320,192,78984,1,0,0:0:0:0:
448,192,79070,1,8,0:0:0:0:
64,192,79070,1,2,0:0:0:0:
64,192,79156,1,0,0:0:0:0:
192,192,79242,128,0,79327:0:0:0:0:
320,192,79327,1,0,0:0:0:0:
448,192,79413,128,0,79670:0:0:0:0:
192,192,79413,128,4,79670:0:0:0:0:
64,192,79413,128,2,79670:0:0:0:0:
448,192,79756,128,0,80013:0:0:0:0:
192,192,79756,128,8,80013:0:0:0:0:
64,192,79756,128,2,80013:0:0:0:0:
320,192,80013,128,0,80099:0:0:0:0:
192,192,80099,1,0,0:0:0:0:
64,192,80099,1,2,0:0:0:0:
448,192,80142,1,0,0:0:0:0:
320,192,80184,1,0,0:0:0:0:
192,192,80270,1,0,0:0:0:0:
64,192,80356,1,0,0:0:0:0:
192,192,80399,1,0,0:0:0:0:
448,192,80442,1,8,0:0:0:0:
320,192,80442,1,2,0:0:0:0:
448,192,80527,1,0,0:0:0:0:
320,192,80613,1,0,0:0:0:0:
192,192,80656,1,0,0:0:0:0:
64,192,80699,1,0,0:0:0:0:
448,192,80784,1,0,0:0:0:0:
320,192,80784,1,2,0:0:0:0:
192,192,80870,1,0,0:0:0:0:
64,192,80913,1,0,0:0:0:0:
320,192,80956,1,0,0:0:0:0:
448,192,81042,1,0,0:0:0:0:
192,192,81127,1,8,0:0:0:0:
64,192,81127,1,2,0:0:0:0:
64,192,81213,1,0,0:0:0:0:
448,192,81299,1,0,0:0:0:0:
320,192,81342,1,0,0:0:0:0:
192,192,81384,1,0,0:0:0:0:
448,192,81470,1,0,0:0:0:0:
64,192,81470,1,2,0:0:0:0:
448,192,81556,1,0,0:0:0:0:
320,192,81642,1,0,0:0:0:0:
192,192,81684,1,0,0:0:0:0:
64,192,81727,1,0,0:0:0:0:
448,192,81813,1,8,0:0:0:0:
320,192,81813,1,2,0:0:0:0:
192,192,81899,128,0,81984:0:0:0:0:
448,192,81984,128,0,82070:0:0:0:0:
64,192,82070,128,0,82156:0:0:0:0:
448,192,82156,128,0,82413:0:0:0:0:
320,192,82156,128,0,82413:0:0:0:0:
192,192,82156,128,2,82413:0:0:0:0:
448,192,82499,128,0,82756:0:0:0:0:
320,192,82499,128,8,82756:0:0:0:0:
192,192,82499,128,2,82756:0:0:0:0:
64,192,82756,128,0,82842:0:0:0:0:
448,192,82842,1,0,0:0:0:0:
192,192,82842,1,2,0:0:0:0:
320,192,82884,1,0,0:0:0:0:
64,192,82927,1,0,0:0:0:0:
448,192,83013,1,0,0:0:0:0:
192,192,83099,1,0,0:0:0:0:
320,192,83142,1,0,0:0:0:0:
448,192,83184,1,8,0:0:0:0:
64,192,83184,1,2,0:0:0:0:
448,192,83270,1,0,0:0:0:0:
192,192,83356,1,0,0:0:0:0:
320,192,83399,1,0,0:0:0:0:
64,192,83442,1,0,0:0:0:0:
448,192,83527,1,0,0:0:0:0:
192,192,83527,1,2,0:0:0:0:
448,192,83613,1,0,0:0:0:0:
320,192,83656,1,0,0:0:0:0:
64,192,83699,1,0,0:0:0:0:
192,192,83784,1,0,0:0:0:0:
64,192,83827,1,0,0:0:0:0:
448,192,83870,1,8,0:0:0:0:
320,192,83870,1,2,0:0:0:0:
448,192,83956,1,0,0:0:0:0:
64,192,84042,1,0,0:0:0:0:
192,192,84084,1,0,0:0:0:0:
320,192,84127,1,0,0:0:0:0:
448,192,84213,1,0,0:0:0:0:
64,192,84213,1,2,0:0:0:0:
448,192,84299,1,0,0:0:0:0:
192,192,84342,1,0,0:0:0:0:
320,192,84384,1,0,0:0:0:0:
64,192,84470,1,0,0:0:0:0:
448,192,84556,1,8,0:0:0:0:
320,192,84556,1,2,0:0:0:0:
192,192,84642,128,0,84727:0:0:0:0:
64,192,84727,128,0,84813:0:0:0:0:
448,192,84899,128,0,85156:0:0:0:0:
192,192,84899,128,0,85156:0:0:0:0:
64,192,84899,128,2,85156:0:0:0:0:
448,192,85242,128,0,85499:0:0:0:0:
192,192,85242,128,8,85499:0:0:0:0:
64,192,85242,128,2,85499:0:0:0:0:
320,192,85499,128,0,85584:0:0:0:0:
448,192,85584,1,0,0:0:0:0:
64,192,85584,1,2,0:0:0:0:
192,192,85627,1,0,0:0:0:0:
320,192,85670,1,0,0:0:0:0:
448,192,85756,1,0,0:0:0:0:
320,192,85842,1,0,0:0:0:0:
192,192,85884,1,0,0:0:0:0:
448,192,85927,1,8,0:0:0:0:
64,192,85927,1,2,0:0:0:0:
64,192,86013,1,0,0:0:0:0:
192,192,86099,1,0,0:0:0:0:
448,192,86142,1,0,0:0:0:0:
320,192,86184,1,0,0:0:0:0:
448,192,86270,1,0,0:0:0:0:
64,192,86270,1,2,0:0:0:0:
448,192,86356,1,0,0:0:0:0:
64,192,86399,1,0,0:0:0:0:
192,192,86442,1,0,0:0:0:0:
320,192,86527,1,0,0:0:0:0:
448,192,86613,1,8,0:0:0:0:
192,192,86613,1,2,0:0:0:0:
192,192,86699,1,0,0:0:0:0:
320,192,86784,1,0,0:0:0:0:
64,192,86870,1,0,0:0:0:0:
192,192,86913,1,0,0:0:0:0:
448,192,86956,1,0,0:0:0:0:
320,192,86956,1,2,0:0:0:0:
64,192,87042,128,0,87127:0:0:0:0:
192,192,87127,128,0,87213:0:0:0:0:
448,192,87213,1,0,0:0:0:0:
320,192,87299,1,8,0:0:0:0:
64,192,87299,1,2,0:0:0:0:
192,192,87384,128,0,87556:0:0:0:0:
320,192,87470,128,0,87556:0:0:0:0:
448,192,87556,128,0,87642:0:0:0:0:
320,192,87642,128,0,87899:0:0:0:0:
192,192,87642,128,0,87899:0:0:0:0:
64,192,87642,128,2,87899:0:0:0:0:
320,192,87984,128,0,88242:0:0:0:0:
192,192,87984,128,8,88242:0:0:0:0:
64,192,87984,128,2,88242:0:0:0:0:
448,192,88242,128,0,88327:0:0:0:0:
192,192,88327,1,0,0:0:0:0:
64,192,88327,1,2,0:0:0:0:
320,192,88370,1,0,0:0:0:0:
448,192,88413,1,0,0:0:0:0:
64,192,88499,1,0,0:0:0:0:
320,192,88584,1,0,0:0:0:0:
448,192,88627,1,0,0:0:0:0:
192,192,88670,1,8,0:0:0:0:
64,192,88670,1,2,0:0:0:0:
64,192,88756,1,0,0:0:0:0:
320,192,88842,1,0,0:0:0:0:
448,192,88884,1,0,0:0:0:0:
64,192,88927,1,0,0:0:0:0:
448,192,89013,1,4,0:0:0:0:
320,192,89013,1,2,0:0:0:0:
448,192,89099,1,0,0:0:0:0:
192,192,89184,1,0,0:0:0:0:
320,192,89270,1,0,0:0:0:0:
64,192,89356,1,0,0:0:0:0:
64,192,89442,1,0,0:0:0:0:
448,192,89527,1,0,0:0:0:0:
448,192,89613,1,0,0:0:0:0:
320,192,89699,1,0,0:0:0:0:
192,192,89784,1,0,0:0:0:0:
192,192,89870,1,0,0:0:0:0:
448,192,89956,1,0,0:0:0:0:
320,192,90042,1,0,0:0:0:0:
64,192,90042,1,2,0:0:0:0:
64,192,90127,1,2,0:0:0:0:
320,192,90213,1,2,0:0:0:0:
320,192,90299,1,2,0:0:0:0:
192,192,90384,1,4,0:0:0:0:
64,192,90384,1,2,0:0:0:0:
448,192,90427,1,0,0:0:0:0:
320,192,90470,1,0,0:0:0:0:
192,192,90513,1,0,0:0:0:0:
448,192,90556,1,0,0:0:0:0:
320,192,90642,1,0,0:0:0:0:
192,192,90727,1,8,0:0:0:0:
64,192,90727,1,2,0:0:0:0:
448,192,90770,1,0,0:0:0:0:
320,192,90813,1,0,0:0:0:0:
192,192,90856,1,0,0:0:0:0:
64,192,90899,1,0,0:0:0:0:
448,192,90984,1,0,0:0:0:0:
320,192,91070,1,0,0:0:0:0:
192,192,91070,1,2,0:0:0:0:
64,192,91113,1,0,0:0:0:0:
448,192,91156,1,0,0:0:0:0:
320,192,91199,1,0,0:0:0:0:
64,192,91242,1,0,0:0:0:0:
192,192,91327,1,0,0:0:0:0:
448,192,91413,1,8,0:0:0:0:
320,192,91413,1,2,0:0:0:0:
64,192,91456,1,0,0:0:0:0:
192,192,91499,1,0,0:0:0:0:
448,192,91542,1,0,0:0:0:0:
320,192,91584,1,0,0:0:0:0:
192,192,91670,1,0,0:0:0:0:
448,192,91756,1,0,0:0:0:0:
64,192,91756,1,2,0:0:0:0:
320,192,91799,1,0,0:0:0:0:
192,192,91842,1,0,0:0:0:0:
448,192,91884,1,0,0:0:0:0:
64,192,91927,1,0,0:0:0:0:
448,192,92013,1,0,0:0:0:0:
320,192,92056,1,0,0:0:0:0:
192,192,92099,1,8,0:0:0:0:
64,192,92099,1,2,0:0:0:0:
320,192,92184,1,0,0:0:0:0:
448,192,92270,1,0,0:0:0:0:
64,192,92313,1,0,0:0:0:0:
192,192,92356,1,0,0:0:0:0:
320,192,92399,1,0,0:0:0:0:
448,192,92442,1,0,0:0:0:0:
64,192,92442,1,2,0:0:0:0:
64,192,92527,1,0,0:0:0:0:
192,192,92613,128,0,92784:0:0:0:0:
448,192,92699,128,0,92784:0:0:0:0:
320,192,92784,1,8,0:0:0:0:
64,192,92784,1,2,0:0:0:0:
320,192,92870,1,0,0:0:0:0:
448,192,92956,128,0,93042:0:0:0:0:
64,192,93042,128,0,93127:0:0:0:0:
320,192,93127,1,0,0:0:0:0:
192,192,93127,1,2,0:0:0:0:
448,192,93170,1,0,0:0:0:0:
64,192,93213,1,0,0:0:0:0:
192,192,93256,1,0,0:0:0:0:
320,192,93299,1,0,0:0:0:0:
64,192,93384,1,0,0:0:0:0:
448,192,93470,1,8,0:0:0:0:
192,192,93470,1,2,0:0:0:0:
320,192,93513,1,0,0:0:0:0:
64,192,93556,1,0,0:0:0:0:
448,192,93599,1,0,0:0:0:0:
192,192,93642,1,0,0:0:0:0:
64,192,93727,1,0,0:0:0:0:
448,192,93813,1,0,0:0:0:0:
320,192,93813,1,2,0:0:0:0:
192,192,93856,1,0,0:0:0:0:
64,192,93899,1,0,0:0:0:0:
320,192,93942,1,0,0:0:0:0:
448,192,93984,1,0,0:0:0:0:
192,192,94070,1,0,0:0:0:0:
448,192,94156,1,8,0:0:0:0:
64,192,94156,1,2,0:0:0:0:
320,192,94199,1,0,0:0:0:0:
192,192,94242,1,0,0:0:0:0:
448,192,94284,1,0,0:0:0:0:
64,192,94327,1,0,0:0:0:0:
320,192,94413,1,0,0:0:0:0:
192,192,94499,1,0,0:0:0:0:
64,192,94499,1,2,0:0:0:0:
320,192,94542,1,0,0:0:0:0:
448,192,94584,1,0,0:0:0:0:
192,192,94627,1,0,0:0:0:0:
64,192,94670,1,0,0:0:0:0:
448,192,94756,1,0,0:0:0:0:
320,192,94799,1,0,0:0:0:0:
192,192,94842,1,8,0:0:0:0:
64,192,94842,1,2,0:0:0:0:
64,192,94927,1,0,0:0:0:0:
320,192,95013,128,0,95184:0:0:0:0:
192,192,95099,128,0,95184:0:0:0:0:
448,192,95184,1,0,0:0:0:0:
64,192,95184,1,2,0:0:0:0:
448,192,95270,1,0,0:0:0:0:
64,192,95356,128,0,95442:0:0:0:0:
192,192,95442,128,0,95527:0:0:0:0:
448,192,95527,1,8,0:0:0:0:
320,192,95527,1,2,0:0:0:0:
448,192,95613,1,0,0:0:0:0:
192,192,95699,1,0,0:0:0:0:
192,192,95784,1,0,0:0:0:0:
448,192,95870,1,0,0:0:0:0:
320,192,95870,1,2,0:0:0:0:
64,192,95913,1,0,0:0:0:0:
192,192,95956,1,0,0:0:0:0:
448,192,95999,1,0,0:0:0:0:
320,192,96042,1,0,0:0:0:0:
64,192,96127,1,0,0:0:0:0:
448,192,96213,1,8,0:0:0:0:
320,192,96213,1,2,0:0:0:0:
192,192,96256,1,0,0:0:0:0:
64,192,96299,1,0,0:0:0:0:
320,192,96342,1,0,0:0:0:0:
448,192,96384,1,0,0:0:0:0:
192,192,96470,1,0,0:0:0:0:
320,192,96556,1,0,0:0:0:0:
64,192,96556,1,2,0:0:0:0:
448,192,96599,1,0,0:0:0:0:
192,192,96642,1,0,0:0:0:0:
320,192,96684,1,0,0:0:0:0:
448,192,96727,1,0,0:0:0:0:
192,192,96813,1,0,0:0:0:0:
320,192,96899,1,8,0:0:0:0:
64,192,96899,1,2,0:0:0:0:
448,192,96942,1,0,0:0:0:0:
192,192,96984,1,0,0:0:0:0:
64,192,97027,1,0,0:0:0:0:
320,192,97070,1,0,0:0:0:0:
192,192,97156,1,0,0:0:0:0:
448,192,97242,1,0,0:0:0:0:
320,192,97242,1,2,0:0:0:0:
64,192,97284,1,0,0:0:0:0:
192,192,97327,1,0,0:0:0:0:
448,192,97370,1,0,0:0:0:0:
64,192,97413,1,0,0:0:0:0:
192,192,97499,1,0,0:0:0:0:
320,192,97542,1,0,0:0:0:0:
448,192,97584,1,8,0:0:0:0:
64,192,97584,1,2,0:0:0:0:
448,192,97670,1,0,0:0:0:0:
64,192,97756,1,0,0:0:0:0:
320,192,97799,1,0,0:0:0:0:
192,192,97842,1,0,0:0:0:0:
64,192,97884,1,0,0:0:0:0:
448,192,97927,1,0,0:0:0:0:
320,192,97927,1,2,0:0:0:0:
448,192,98013,1,0,0:0:0:0:
192,192,98099,128,0,98270:0:0:0:0:
320,192,98184,128,0,98270:0:0:0:0:
448,192,98270,1,8,0:0:0:0:
64,192,98270,1,2,0:0:0:0:
64,192,98356,1,0,0:0:0:0:
320,192,98442,128,0,98527:0:0:0:0:
448,192,98527,128,0,98613:0:0:0:0:
192,192,98613,1,0,0:0:0:0:
64,192,98613,1,2,0:0:0:0:
320,192,98656,1,0,0:0:0:0:
448,192,98699,1,0,0:0:0:0:
192,192,98742,1,0,0:0:0:0:
320,192,98784,1,0,0:0:0:0:
64,192,98870,1,0,0:0:0:0:
320,192,98956,1,8,0:0:0:0:
192,192,98956,1,2,0:0:0:0:
64,192,98999,1,0,0:0:0:0:
448,192,99042,1,0,0:0:0:0:
320,192,99084,1,0,0:0:0:0:
192,192,99127,1,0,0:0:0:0:
448,192,99213,1,0,0:0:0:0:
192,192,99299,1,2,0:0:0:0:
64,192,99299,1,4,0:0:0:0:
320,192,99342,1,0,0:0:0:0:
448,192,99384,1,0,0:0:0:0:
192,192,99427,1,0,0:0:0:0:
64,192,99470,1,0,0:0:0:0:
448,192,99556,1,4,0:0:0:0:
320,192,99556,1,2,0:0:0:0:
192,192,99599,1,0,0:0:0:0:
64,192,99642,1,0,0:0:0:0:
448,192,99813,1,0,0:0:0:0:
192,192,99813,128,2,100327:0:0:0:0:
64,192,99813,128,4,100670:0:0:0:0:
320,192,100327,1,0,0:0:0:0:
320,192,100413,1,0,0:0:0:0:
192,192,100499,1,0,0:0:0:0:
448,192,100584,1,0,0:0:0:0:
320,192,100670,1,0,0:0:0:0:
320,192,100756,1,0,0:0:0:0:
64,192,100842,1,0,0:0:0:0:
192,192,100927,1,0,0:0:0:0:
448,192,101013,1,0,0:0:0:0:
320,192,101013,1,0,0:0:0:0:
64,192,101013,1,0,0:0:0:70:snare.wav
448,192,101099,128,0,101184:0:0:0:0:
192,192,101184,128,0,101270:0:0:0:0:
64,192,101270,1,0,0:0:0:0:
448,192,101356,1,4,0:0:0:0:
320,192,101356,1,2,0:0:0:0:
64,192,101399,1,0,0:0:0:0:
192,192,101442,1,0,0:0:0:0:
320,192,101484,1,0,0:0:0:0:
64,192,101527,1,0,0:0:0:0:
192,192,101613,1,0,0:0:0:0:
448,192,101699,1,8,0:0:0:0:
64,192,101699,1,2,0:0:0:0:
320,192,101742,1,0,0:0:0:0:
192,192,101784,1,0,0:0:0:0:
448,192,101827,1,0,0:0:0:0:
64,192,101870,1,0,0:0:0:0:
320,192,101956,1,0,0:0:0:0:
448,192,102042,1,0,0:0:0:0:
192,192,102042,1,2,0:0:0:0:
320,192,102084,1,0,0:0:0:0:
64,192,102127,1,0,0:0:0:0:
192,192,102170,1,0,0:0:0:0:
448,192,102213,1,0,0:0:0:0:
320,192,102299,1,0,0:0:0:0:
192,192,102384,1,8,0:0:0:0:
64,192,102384,1,2,0:0:0:0:
448,192,102427,1,0,0:0:0:0:
320,192,102470,1,0,0:0:0:0:
64,192,102513,1,0,0:0:0:0:
192,192,102556,1,0,0:0:0:0:
64,192,102642,1,0,0:0:0:0:
448,192,102727,1,0,0:0:0:0:
320,192,102727,1,2,0:0:0:0:
192,192,102770,1,0,0:0:0:0:
64,192,102813,1,0,0:0:0:0:
320,192,102856,1,0,0:0:0:0:
448,192,102899,1,0,0:0:0:0:
64,192,102984,1,0,0:0:0:0:
192,192,103027,1,0,0:0:0:0:
448,192,103070,1,8,0:0:0:0:
320,192,103070,1,2,0:0:0:0:
192,192,103156,1,0,0:0:0:0:
64,192,103242,1,0,0:0:0:0:
320,192,103284,1,0,0:0:0:0:
192,192,103327,1,0,0:0:0:0:
64,192,103370,1,0,0:0:0:0:
448,192,103413,1,0,0:0:0:0:
320,192,103413,1,2,0:0:0:0:
448,192,103499,1,0,0:0:0:0:
320,192,103584,128,0,103756:0:0:0:0:
64,192,103670,128,0,103756:0:0:0:0:
448,192,103756,1,8,0:0:0:0:
192,192,103756,1,2,0:0:0:0:
192,192,103842,1,0,0:0:0:0:
64,192,103927,128,0,104013:0:0:0:0:
448,192,104013,128,0,104099:0:0:0:0:
320,192,104099,1,0,0:0:0:0:
192,192,104099,1,2,0:0:0:0:
64,192,104142,1,0,0:0:0:0:
448,192,104184,1,0,0:0:0:0:
320,192,104227,1,0,0:0:0:0:
64,192,104270,1,0,0:0:0:0:
448,192,104356,1,0,0:0:0:0:
320,192,104442,1,8,0:0:0:0:
64,192,104442,1,2,0:0:0:0:
192,192,104484,1,0,0:0:0:0:
448,192,104527,1,0,0:0:0:0:
320,192,104570,1,0,0:0:0:0:
64,192,104613,1,0,0:0:0:0:
192,192,104699,1,0,0:0:0:0:
320,192,104784,1,0,0:0:0:0:
64,192,104784,1,2,0:0:0:0:
448,192,104827,1,0,0:0:0:0:
192,192,104870,1,0,0:0:0:0:
64,192,104913,1,0,0:0:0:0:
320,192,104956,1,0,0:0:0:0:
192,192,105042,1,0,0:0:0:0:
448,192,105127,1,8,0:0:0:0:
320,192,105127,1,2,0:0:0:0:
64,192,105170,1,0,0:0:0:0:
192,192,105213,1,0,0:0:0:0:
320,192,105256,1,0,0:0:0:0:
448,192,105299,1,0,0:0:0:0:
64,192,105384,1,0,0:0:0:0:
320,192,105470,1,0,0:0:0:0:
192,192,105470,1,2,0:0:0:0:
448,192,105513,1,0,0:0:0:0:
64,192,105556,1,0,0:0:0:0:
320,192,105599,1,0,0:0:0:0:
192,192,105642,1,0,0:0:0:0:
64,192,105727,1,0,0:0:0:0:
192,192,105770,1,0,0:0:0:0:
448,192,105813,1,8,0:0:0:0:
320,192,105813,1,2,0:0:0:0:
448,192,105899,1,0,0:0:0:0:
192,192,105984,128,0,106156:0:0:0:0:
320,192,106070,128,0,106156:0:0:0:0:
448,192,106156,1,0,0:0:0:0:
64,192,106156,1,2,0:0:0:0:
64,192,106242,1,0,0:0:0:0:
448,192,106327,128,0,106413:0:0:0:0:
320,192,106413,128,0,106499:0:0:0:0:
192,192,106499,1,8,0:0:0:0:
64,192,106499,1,2,0:0:0:0:
64,192,106584,1,0,0:0:0:0:
320,192,106670,1,0,0:0:0:0:
320,192,106756,1,0,0:0:0:0:
192,192,106842,1,0,0:0:0:0:
64,192,106842,1,2,0:0:0:0:
448,192,106884,1,0,0:0:0:0:
320,192,106927,1,0,0:0:0:0:
192,192,106970,1,0,0:0:0:0:
448,192,107013,1,0,0:0:0:0:
320,192,107099,1,0,0:0:0:0:
192,192,107184,1,8,0:0:0:0:
64,192,107184,1,2,0:0:0:0:
448,192,107227,1,0,0:0:0:0:
64,192,107270,1,0,0:0:0:0:
320,192,107313,1,0,0:0:0:0:
192,192,107356,1,0,0:0:0:0:
64,192,107442,1,0,0:0:0:0:
448,192,107527,1,0,0:0:0:0:
320,192,107527,1,2,0:0:0:0:
64,192,107570,1,0,0:0:0:0:
192,192,107613,1,0,0:0:0:0:
448,192,107656,1,0,0:0:0:0:
320,192,107699,1,0,0:0:0:0:
64,192,107784,1,0,0:0:0:0:
448,192,107870,1,8,0:0:0:0:
192,192,107870,1,2,0:0:0:0:
320,192,107913,1,0,0:0:0:0:
64,192,107956,1,0,0:0:0:0:
192,192,107999,1,0,0:0:0:0:
448,192,108042,1,0,0:0:0:0:
320,192,108127,1,0,0:0:0:0:
192,192,108213,1,0,0:0:0:0:
64,192,108213,1,2,0:0:0:0:
448,192,108256,1,0,0:0:0:0:
320,192,108299,1,0,0:0:0:0:
192,192,108342,1,0,0:0:0:0:
448,192,108384,1,0,0:0:0:0:
320,192,108470,1,0,0:0:0:0:
192,192,108513,1,0,0:0:0:0:
448,192,108556,1,8,0:0:0:0:
64,192,108556,1,2,0:0:0:0:
64,192,108642,1,0,0:0:0:0:
320,192,108727,1,0,0:0:0:0:
192,192,108770,1,0,0:0:0:0:
448,192,108813,1,0,0:0:0:0:
320,192,108856,1,0,0:0:0:0:
192,192,108899,1,0,0:0:0:0:
64,192,108899,1,2,0:0:0:0:
64,192,108984,1,0,0:0:0:0:
320,192,109070,128,0,109242:0:0:0:0:
192,192,109156,128,0,109242:0:0:0:0:
448,192,109242,1,8,0:0:0:0:
64,192,109242,1,2,0:0:0:0:
448,192,109327,1,0,0:0:0:0:
192,192,109413,128,0,109499:0:0:0:0:
64,192,109499,128,0,109584:0:0:0:0:
448,192,109584,1,0,0:0:0:0:
320,192,109584,1,2,0:0:0:0:
192,192,109627,1,0,0:0:0:0:
64,192,109670,1,0,0:0:0:0:
448,192,109713,1,0,0:0:0:0:
320,192,109756,1,0,0:0:0:0:
64,192,109842,1,0,0:0:0:0:
320,192,109927,1,8,0:0:0:0:
192,192,109927,1,2,0:0:0:0:
448,192,109970,1,0,0:0:0:0:
64,192,110013,1,0,0:0:0:0:
192,192,110056,1,0,0:0:0:0:
448,192,110099,1,0,0:0:0:0:
320,192,110184,1,0,0:0:0:0:
448,192,110270,1,4,0:0:0:0:
64,192,110270,1,2,0:0:0:0:
192,192,110313,1,0,0:0:0:0:
320,192,110356,1,0,0:0:0:0:
448,192,110442,1,0,0:0:0:0:
320,192,110527,1,2,0:0:0:0:
64,192,110527,1,4,0:0:0:0:
448,192,110570,1,0,0:0:0:0:
192,192,110613,1,0,0:0:0:0:
448,192,110784,128,0,111642:0:0:0:0:
320,192,110784,128,4,111299:0:0:0:0:
64,192,110784,1,2,0:0:0:0:
192,192,111299,1,0,0:0:0:0:
192,192,111384,1,0,0:0:0:0:
320,192,111470,1,0,0:0:0:0:
64,192,111556,1,0,0:0:0:0:
192,192,111642,1,0,0:0:0:0:
192,192,111727,1,0,0:0:0:0:
448,192,111813,1,0,0:0:0:0:
320,192,111899,1,0,0:0:0:0:
64,192,111984,1,0,0:0:0:0:
64,192,112070,1,0,0:0:0:0:
320,192,112156,1,0,0:0:0:0:
448,192,112242,1,0,0:0:0:0:
192,192,112327,1,8,0:0:0:0:
64,192,112327,1,2,0:0:0:0:
192,192,112670,1,8,0:0:0:0:
64,192,112670,1,2,0:0:0:0:
192,192,113013,1,8,0:0:0:0:
64,192,113013,1,2,0:0:0:0:
192,192,113356,1,8,0:0:0:0:
64,192,113356,1,2,0:0:0:0:
448,192,113699,1,8,0:0:0:0:
320,192,113699,1,2,0:0:0:0:
448,192,114042,1,8,0:0:0:0:
320,192,114042,1,2,0:0:0:0:
448,192,114384,1,2,0:0:0:0:
320,192,114384,1,8,0:0:0:0:
448,192,114727,1,8,0:0:0:0:
320,192,114727,1,2,0:0:0:0:
448,192,114899,1,0,0:0:0:0:
320,192,114899,1,8,0:0:0:0:
448,192,115070,1,8,0:0:0:0:
64,192,115070,1,2,0:0:0:0:
448,192,115413,1,8,0:0:0:0:
64,192,115413,1,2,0:0:0:0:
448,192,115756,1,8,0:0:0:0:
64,192,115756,1,2,0:0:0:0:
448,192,116099,1,8,0:0:0:0:
64,192,116099,1,2,0:0:0:0:
320,192,116442,1,8,0:0:0:0:
64,192,116442,1,2,0:0:0:0:
320,192,116784,1,8,0:0:0:0:
64,192,116784,1,2,0:0:0:0:
320,192,117127,1,8,0:0:0:0:
64,192,117127,1,2,0:0:0:0:
320,192,117470,1,8,0:0:0:0:
64,192,117470,1,2,0:0:0:0:
320,192,117642,1,0,0:0:0:0:
64,192,117642,1,8,0:0:0:0:
448,192,117813,1,8,0:0:0:0:
320,192,117813,1,2,0:0:0:0:
448,192,117984,1,0,0:0:0:0:
192,192,117984,1,8,0:0:0:0:
320,192,118156,1,2,0:0:0:0:
64,192,118156,1,8,0:0:0:0:
448,192,118327,1,0,0:0:0:0:
64,192,118327,1,8,0:0:0:0:
448,192,118499,1,8,0:0:0:0:
320,192,118499,1,2,0:0:0:0:
320,192,118670,1,0,0:0:0:0:
192,192,118670,1,8,0:0:0:0:
448,192,118842,1,2,0:0:0:0:
64,192,118842,1,8,0:0:0:0:
448,192,119013,1,0,0:0:0:0:
320,192,119013,1,8,0:0:0:0:
448,192,119184,1,8,0:0:0:0:
192,192,119184,1,2,0:0:0:0:
64,192,119270,1,8,0:0:0:0:
320,192,119356,1,0,0:0:0:0:
192,192,119356,1,8,0:0:0:0:
448,192,119442,1,8,0:0:0:0:
320,192,119527,1,2,0:0:0:0:
64,192,119527,1,8,0:0:0:0:
192,192,119613,1,8,0:0:0:0:
448,192,119699,1,0,0:0:0:0:
64,192,119699,1,8,0:0:0:0:
320,192,119784,1,8,0:0:0:0:
448,192,119870,1,2,0:0:0:0:
192,192,119870,1,8,0:0:0:0:
64,192,119956,1,8,0:0:0:0:
448,192,120042,1,0,0:0:0:0:
320,192,120042,1,8,0:0:0:0:
192,192,120127,1,8,0:0:0:0:
320,192,120213,1,8,0:0:0:0:
64,192,120213,1,2,0:0:0:0:
448,192,120299,1,8,0:0:0:0:
192,192,120384,1,0,0:0:0:0:
64,192,120384,1,8,0:0:0:0:
320,192,120470,1,8,0:0:0:0:
448,192,120556,128,0,120899:0:0:0:0:
192,192,120556,128,4,120899:0:0:0:0:
64,192,120556,128,2,120899:0:0:0:0:
448,192,121070,128,0,121413:0:0:0:0:
320,192,121070,128,2,121413:0:0:0:0:
64,192,121070,128,4,121413:0:0:0:0:
448,192,121584,128,0,121927:0:0:0:0:
320,192,121584,128,4,121756:0:0:0:0:
192,192,121584,128,2,121756:0:0:0:0:
320,192,121927,128,0,122099:0:0:0:0:
192,192,121927,128,2,122099:0:0:0:0:
64,192,121927,128,4,122270:0:0:0:0:
448,192,122099,128,0,122270:0:0:0:0:
320,192,122270,1,0,0:0:0:0:
320,192,122356,1,0,0:0:0:0:
192,192,122442,128,0,122613:0:0:0:0:
448,192,122613,1,0,0:0:0:0:
448,192,122699,1,0,0:0:0:0:
64,192,122784,1,0,0:0:0:0:
64,192,122870,1,0,0:0:0:0:
448,192,122956,1,0,0:0:0:0:
320,192,122956,1,8,0:0:0:0:
192,192,123127,1,0,0:0:0:0:
320,192,123299,128,0,123384:0:0:0:0:
448,192,123299,1,0,0:0:0:0:
64,192,123299,128,2,123470:0:0:0:0:
192,192,123299,128,0,123427:0:0:0:0:
448,192,123470,128,0,123556:0:0:0:0:
448,192,123642,128,0,123813:0:0:0:0:
64,192,123642,1,2,0:0:0:0:
320,192,123727,128,0,123813:0:0:0:0:
320,192,123899,128,0,124070:0:0:0:0:
448,192,123984,128,0,124070:0:0:0:0:
64,192,123984,1,2,0:0:0:0:
320,192,124156,128,0,124327:0:0:0:0:
448,192,124327,128,0,124413:0:0:0:0:
64,192,124327,1,2,0:0:0:0:
320,192,124499,1,0,0:0:0:0:
320,192,124584,128,0,124670:0:0:0:0:
448,192,124670,1,0,0:0:0:0:
64,192,124670,1,2,0:0:0:0:
320,192,124842,128,0,125013:0:0:0:0:
448,192,125013,128,0,125184:0:0:0:0:
64,192,125013,1,2,0:0:0:0:
320,192,125099,128,0,125184:0:0:0:0:
320,192,125270,128,0,125442:0:0:0:0:
448,192,125356,128,0,125442:0:0:0:0:
64,192,125356,1,2,0:0:0:0:
320,192,125527,128,0,125699:0:0:0:0:
448,192,125699,128,0,125784:0:0:0:0:
64,192,125699,1,2,0:0:0:0:
320,192,125870,128,0,125956:0:0:0:0:
448,192,126042,1,0,0:0:0:0:
64,192,126042,1,2,0:0:0:0:
320,192,126213,128,0,126384:0:0:0:0:
448,192,126384,128,0,126556:0:0:0:0:
64,192,126384,1,2,0:0:0:0:
320,192,126470,128,0,126556:0:0:0:0:
320,192,126642,128,0,126813:0:0:0:0:
448,192,126727,128,0,126813:0:0:0:0:
64,192,126727,1,2,0:0:0:0:
320,192,126899,128,0,127070:0:0:0:0:
448,192,127070,128,0,127156:0:0:0:0:
64,192,127070,1,2,0:0:0:0:
320,192,127242,1,0,0:0:0:0:
320,192,127327,128,0,127413:0:0:0:0:
448,192,127413,1,0,0:0:0:0:
64,192,127413,1,2,0:0:0:0:
320,192,127584,128,0,127756:0:0:0:0:
448,192,127756,128,0,127927:0:0:0:0:
64,192,127756,1,2,0:0:0:0:
320,192,127842,128,0,127927:0:0:0:0:
320,192,128013,128,0,128184:0:0:0:0:
448,192,128099,128,0,128184:0:0:0:0:
64,192,128099,1,2,0:0:0:0:
320,192,128270,128,0,128442:0:0:0:0:
448,192,128442,128,0,128527:0:0:0:0:
64,192,128442,1,2,0:0:0:0:
192,192,128527,128,0,128699:0:0:0:0:
320,192,128613,128,0,128699:0:0:0:0:
448,192,128699,1,0,0:0:0:0:
320,192,128784,128,0,128913:0:0:0:0:
448,192,128784,128,0,128956:0:0:0:0:
64,192,128784,1,2,0:0:0:0:
192,192,128784,128,0,128870:0:0:0:0:
64,192,128956,128,0,129042:0:0:0:0:
448,192,129127,1,0,0:0:0:0:
64,192,129127,128,2,129299:0:0:0:0:
192,192,129213,128,0,129299:0:0:0:0:
192,192,129384,128,0,129556:0:0:0:0:
448,192,129470,1,0,0:0:0:0:
64,192,129470,128,2,129556:0:0:0:0:
192,192,129642,128,0,129813:0:0:0:0:
448,192,129813,1,0,0:0:0:0:
64,192,129813,128,2,129899:0:0:0:0:
192,192,129984,1,0,0:0:0:0:
192,192,130070,128,0,130156:0:0:0:0:
448,192,130156,1,0,0:0:0:0:
64,192,130156,1,2,0:0:0:0:
192,192,130327,128,0,130499:0:0:0:0:
448,192,130499,1,0,0:0:0:0:
64,192,130499,128,2,130670:0:0:0:0:
192,192,130584,128,0,130670:0:0:0:0:
192,192,130756,128,0,130927:0:0:0:0:
448,192,130842,1,0,0:0:0:0:
64,192,130842,128,2,130927:0:0:0:0:
192,192,131013,128,0,131184:0:0:0:0:
448,192,131184,1,0,0:0:0:0:
64,192,131184,128,2,131270:0:0:0:0:
192,192,131356,128,0,131442:0:0:0:0:
448,192,131527,1,0,0:0:0:0:
64,192,131527,1,2,0:0:0:0:
192,192,131699,128,0,131870:0:0:0:0:
448,192,131870,1,0,0:0:0:0:
64,192,131870,128,2,132042:0:0:0:0:
192,192,131956,128,0,132042:0:0:0:0:
192,192,132127,128,0,132299:0:0:0:0:
448,192,132213,1,0,0:0:0:0:
64,192,132213,128,2,132299:0:0:0:0:
192,192,132384,128,0,132556:0:0:0:0:
448,192,132556,1,0,0:0:0:0:
64,192,132556,128,2,132642:0:0:0:0:
192,192,132727,1,0,0:0:0:0:
192,192,132813,128,0,132899:0:0:0:0:
448,192,132899,1,0,0:0:0:0:
320,192,132899,1,4,0:0:0:0:
64,192,132899,1,2,0:0:0:0:
192,192,133070,1,0,0:0:0:0:
320,192,133156,128,0,133242:0:0:0:0:
192,192,133327,1,0,0:0:0:0:
320,192,133413,128,0,133584:0:0:0:0:
448,192,133499,128,0,133584:0:0:0:0:
64,192,133584,1,0,0:0:0:0:
448,192,133670,128,0,133756:0:0:0:0:
320,192,133842,1,0,0:0:0:0:
448,192,133927,128,0,134099:0:0:0:0:
192,192,133927,1,0,0:0:0:0:
64,192,133927,128,8,134184:0:0:0:0:
448,192,134270,128,0,134527:0:0:0:0:
320,192,134270,128,4,134527:0:0:0:0:
64,192,134270,1,2,0:0:0:0:
192,192,134442,1,0,0:0:0:0:
448,192,134613,128,0,134870:0:0:0:0:
320,192,134613,128,8,134870:0:0:0:0:
64,192,134613,1,2,0:0:0:0:
192,192,134784,1,0,0:0:0:0:
192,192,134870,128,0,134956:0:0:0:0:
320,192,134956,1,0,0:0:0:0:
64,192,134956,1,2,0:0:0:0:
448,192,134999,1,0,0:0:0:0:
192,192,135042,1,0,0:0:0:0:
320,192,135127,1,0,0:0:0:0:
448,192,135213,1,0,0:0:0:0:
192,192,135256,1,0,0:0:0:0:
320,192,135299,1,8,0:0:0:0:
64,192,135299,1,2,0:0:0:0:
64,192,135384,1,0,0:0:0:0:
320,192,135470,1,0,0:0:0:0:
192,192,135513,1,0,0:0:0:0:
448,192,135556,1,0,0:0:0:0:
320,192,135642,1,0,0:0:0:0:
64,192,135642,1,2,0:0:0:0:
64,192,135727,1,0,0:0:0:0:
448,192,135770,1,0,0:0:0:0:
320,192,135813,1,0,0:0:0:0:
192,192,135899,1,0,0:0:0:0:
448,192,135984,1,8,0:0:0:0:
64,192,135984,1,2,0:0:0:0:
448,192,136070,1,0,0:0:0:0:
320,192,136156,1,0,0:0:0:0:
192,192,136242,1,0,0:0:0:0:
448,192,136327,1,0,0:0:0:0:
64,192,136327,1,2,0:0:0:0:
64,192,136413,1,0,0:0:0:0:
320,192,136499,1,0,0:0:0:0:
192,192,136542,1,0,0:0:0:0:
448,192,136584,1,0,0:0:0:0:
320,192,136670,1,8,0:0:0:0:
64,192,136670,1,2,0:0:0:0:
192,192,136756,128,0,136842:0:0:0:0:
448,192,136842,128,0,136927:0:0:0:0:
64,192,136927,128,0,137013:0:0:0:0:
448,192,137013,128,0,137270:0:0:0:0:
320,192,137013,128,0,137270:0:0:0:0:
192,192,137013,1,2,0:0:0:0:
64,192,137184,1,0,0:0:0:0:
64,192,137270,1,0,0:0:0:0:
448,192,137356,128,0,137613:0:0:0:0:
320,192,137356,128,8,137613:0:0:0:0:
192,192,137356,1,2,0:0:0:0:
64,192,137527,1,0,0:0:0:0:
64,192,137613,128,0,137699:0:0:0:0:
448,192,137699,1,0,0:0:0:0:
320,192,137699,1,2,0:0:0:0:
192,192,137742,1,0,0:0:0:0:
64,192,137784,1,0,0:0:0:0:
448,192,137870,1,0,0:0:0:0:
192,192,137956,1,0,0:0:0:0:
320,192,137999,1,0,0:0:0:0:
448,192,138042,1,8,0:0:0:0:
64,192,138042,1,2,0:0:0:0:
64,192,138127,1,0,0:0:0:0:
192,192,138213,1,0,0:0:0:0:
320,192,138256,1,0,0:0:0:0:
448,192,138299,1,0,0:0:0:0:
192,192,138384,1,0,0:0:0:0:
64,192,138384,1,2,0:0:0:0:
320,192,138470,1,0,0:0:0:0:
64,192,138513,1,0,0:0:0:0:
448,192,138556,1,0,0:0:0:0:
192,192,138642,1,0,0:0:0:0:
448,192,138684,1,0,0:0:0:0:
320,192,138727,1,8,0:0:0:0:
64,192,138727,1,2,0:0:0:0:
320,192,138813,1,0,0:0:0:0:
192,192,138899,1,0,0:0:0:0:
192,192,138984,1,0,0:0:0:0:
448,192,139070,1,0,0:0:0:0:
64,192,139070,1,2,0:0:0:0:
64,192,139156,1,0,0:0:0:0:
192,192,139199,1,0,0:0:0:0:
320,192,139242,1,0,0:0:0:0:
448,192,139327,1,0,0:0:0:0:
192,192,139413,1,8,0:0:0:0:
64,192,139413,1,2,0:0:0:0:
320,192,139499,128,0,139584:0:0:0:0:
192,192,139584,128,0,139670:0:0:0:0:
448,192,139756,128,0,140013:0:0:0:0:
320,192,139756,128,0,140013:0:0:0:0:
64,192,139756,1,2,0:0:0:0:
192,192,139927,1,0,0:0:0:0:
448,192,140099,128,0,140356:0:0:0:0:
320,192,140099,128,8,140356:0:0:0:0:
64,192,140099,1,2,0:0:0:0:
192,192,140270,1,0,0:0:0:0:
192,192,140356,128,0,140442:0:0:0:0:
448,192,140442,1,0,0:0:0:0:
64,192,140442,1,2,0:0:0:0:
320,192,140484,1,0,0:0:0:0:
192,192,140527,1,0,0:0:0:0:
64,192,140613,1,0,0:0:0:0:
320,192,140699,1,0,0:0:0:0:
192,192,140742,1,0,0:0:0:0:
448,192,140784,1,8,0:0:0:0:
64,192,140784,1,2,0:0:0:0:
448,192,140870,1,0,0:0:0:0:
192,192,140956,1,0,0:0:0:0:
64,192,140999,1,0,0:0:0:0:
320,192,141042,1,0,0:0:0:0:
448,192,141127,1,0,0:0:0:0:
64,192,141127,1,2,0:0:0:0:
64,192,141213,1,0,0:0:0:0:
448,192,141256,1,0,0:0:0:0:
192,192,141299,1,0,0:0:0:0:
320,192,141384,1,0,0:0:0:0:
192,192,141470,1,8,0:0:0:0:
64,192,141470,1,2,0:0:0:0:
192,192,141556,1,0,0:0:0:0:
320,192,141642,1,0,0:0:0:0:
448,192,141727,1,0,0:0:0:0:
192,192,141770,1,0,0:0:0:0:
320,192,141813,1,0,0:0:0:0:
64,192,141813,1,2,0:0:0:0:
64,192,141899,1,0,0:0:0:0:
320,192,141984,1,0,0:0:0:0:
192,192,142070,1,0,0:0:0:0:
448,192,142156,1,8,0:0:0:0:
64,192,142156,1,2,0:0:0:0:
320,192,142242,128,0,142413:0:0:0:0:
192,192,142327,128,0,142413:0:0:0:0:
448,192,142413,128,0,142499:0:0:0:0:
320,192,142499,1,0,0:0:0:0:
192,192,142499,128,0,142756:0:0:0:0:
64,192,142499,128,2,142756:0:0:0:0:
448,192,142670,1,0,0:0:0:0:
448,192,142756,1,0,0:0:0:0:
320,192,142842,1,0,0:0:0:0:
192,192,142842,128,8,143099:0:0:0:0:
64,192,142842,128,2,143099:0:0:0:0:
448,192,143013,1,0,0:0:0:0:
448,192,143099,128,0,143184:0:0:0:0:
320,192,143184,1,0,0:0:0:0:
64,192,143184,1,2,0:0:0:0:
192,192,143227,1,0,0:0:0:0:
448,192,143270,1,0,0:0:0:0:
64,192,143356,1,0,0:0:0:0:
320,192,143442,1,0,0:0:0:0:
64,192,143484,1,0,0:0:0:0:
448,192,143527,1,8,0:0:0:0:
192,192,143527,1,2,0:0:0:0:
448,192,143613,1,0,0:0:0:0:
320,192,143699,1,0,0:0:0:0:
64,192,143742,1,0,0:0:0:0:
448,192,143784,1,0,0:0:0:0:
320,192,143870,1,0,0:0:0:0:
64,192,143870,1,2,0:0:0:0:
64,192,143956,1,0,0:0:0:0:
448,192,143999,1,0,0:0:0:0:
192,192,144042,1,0,0:0:0:0:
448,192,144127,1,0,0:0:0:0:
320,192,144213,1,8,0:0:0:0:
64,192,144213,1,2,0:0:0:0:
320,192,144299,1,0,0:0:0:0:
192,192,144384,1,0,0:0:0:0:
64,192,144470,1,0,0:0:0:0:
320,192,144513,1,0,0:0:0:0:
448,192,144556,1,0,0:0:0:0:
192,192,144556,1,2,0:0:0:0:
448,192,144642,1,0,0:0:0:0:
64,192,144684,1,0,0:0:0:0:
320,192,144727,1,0,0:0:0:0:
192,192,144813,1,0,0:0:0:0:
448,192,144899,1,8,0:0:0:0:
64,192,144899,1,2,0:0:0:0:
64,192,144984,1,0,0:0:0:0:
320,192,145070,128,0,145156:0:0:0:0:
192,192,145156,1,0,0:0:0:0:
448,192,145242,128,0,145499:0:0:0:0:
320,192,145242,128,4,145499:0:0:0:0:
64,192,145242,1,2,0:0:0:0:
192,192,145413,1,0,0:0:0:0:
448,192,145584,128,0,145842:0:0:0:0:
320,192,145584,128,8,145842:0:0:0:0:
64,192,145584,1,2,0:0:0:0:
192,192,145756,1,0,0:0:0:0:
192,192,145842,128,0,145927:0:0:0:0:
320,192,145927,1,0,0:0:0:0:
64,192,145927,1,2,0:0:0:0:
448,192,145970,1,0,0:0:0:0:
192,192,146013,1,0,0:0:0:0:
320,192,146099,1,0,0:0:0:0:
64,192,146184,1,0,0:0:0:0:
320,192,146227,1,0,0:0:0:0:
448,192,146270,1,8,0:0:0:0:
192,192,146270,1,2,0:0:0:0:
448,192,146356,1,0,0:0:0:0:
192,192,146442,1,0,0:0:0:0:
320,192,146484,1,0,0:0:0:0:
64,192,146527,1,0,0:0:0:0:
448,192,146613,1,0,0:0:0:0:
192,192,146613,1,2,0:0:0:0:
320,192,146699,1,0,0:0:0:0:
64,192,146742,1,0,0:0:0:0:
192,192,146784,1,0,0:0:0:0:
448,192,146870,1,0,0:0:0:0:
320,192,146956,1,8,0:0:0:0:
64,192,146956,1,2,0:0:0:0:
64,192,147042,1,0,0:0:0:0:
192,192,147127,1,0,0:0:0:0:
320,192,147213,1,0,0:0:0:0:
448,192,147299,1,0,0:0:0:0:
64,192,147299,1,2,0:0:0:0:
448,192,147384,1,0,0:0:0:0:
192,192,147470,1,0,0:0:0:0:
320,192,147513,1,0,0:0:0:0:
64,192,147556,1,0,0:0:0:0:
448,192,147642,1,8,0:0:0:0:
192,192,147642,1,2,0:0:0:0:
320,192,147727,128,0,147813:0:0:0:0:
448,192,147813,128,0,147899:0:0:0:0:
64,192,147899,128,0,147984:0:0:0:0:
448,192,147984,128,0,148242:0:0:0:0:
320,192,147984,128,0,148242:0:0:0:0:
192,192,147984,1,2,0:0:0:0:
64,192,148156,1,0,0:0:0:0:
64,192,148242,1,0,0:0:0:0:
448,192,148327,128,0,148584:0:0:0:0:
320,192,148327,128,8,148584:0:0:0:0:
192,192,148327,1,2,0:0:0:0:
64,192,148499,1,0,0:0:0:0:
64,192,148584,128,0,148670:0:0:0:0:
448,192,148670,1,0,0:0:0:0:
320,192,148670,1,2,0:0:0:0:
192,192,148713,1,0,0:0:0:0:
64,192,148756,1,0,0:0:0:0:
448,192,148842,1,0,0:0:0:0:
320,192,148927,1,0,0:0:0:0:
192,192,148970,1,0,0:0:0:0:
448,192,149013,1,8,0:0:0:0:
64,192,149013,1,2,0:0:0:0:
448,192,149099,1,0,0:0:0:0:
320,192,149184,1,0,0:0:0:0:
192,192,149227,1,0,0:0:0:0:
64,192,149270,1,0,0:0:0:0:
448,192,149356,1,0,0:0:0:0:
320,192,149356,1,2,0:0:0:0:
192,192,149442,1,0,0:0:0:0:
448,192,149484,1,0,0:0:0:0:
64,192,149527,1,0,0:0:0:0:
320,192,149613,1,0,0:0:0:0:
64,192,149656,1,0,0:0:0:0:
448,192,149699,1,8,0:0:0:0:
192,192,149699,1,2,0:0:0:0:
192,192,149784,1,0,0:0:0:0:
320,192,149870,1,0,0:0:0:0:
64,192,149956,1,0,0:0:0:0:
448,192,150042,1,0,0:0:0:0:
192,192,150042,1,2,0:0:0:0:
448,192,150127,1,0,0:0:0:0:
320,192,150170,1,0,0:0:0:0:
64,192,150213,1,0,0:0:0:0:
192,192,150299,1,0,0:0:0:0:
448,192,150384,1,8,0:0:0:0:
64,192,150384,1,2,0:0:0:0:
320,192,150470,128,0,150556:0:0:0:0:
64,192,150556,128,0,150642:0:0:0:0:
448,192,150727,128,0,150984:0:0:0:0:
320,192,150727,128,0,150984:0:0:0:0:
64,192,150727,1,2,0:0:0:0:
192,192,150899,1,0,0:0:0:0:
448,192,151070,128,0,151327:0:0:0:0:
320,192,151070,128,8,151327:0:0:0:0:
64,192,151070,1,2,0:0:0:0:
192,192,151242,1,0,0:0:0:0:
192,192,151327,128,0,151413:0:0:0:0:
448,192,151413,1,0,0:0:0:0:
64,192,151413,1,2,0:0:0:0:
320,192,151456,1,0,0:0:0:0:
192,192,151499,1,0,0:0:0:0:
448,192,151584,1,0,0:0:0:0:
192,192,151670,1,0,0:0:0:0:
320,192,151713,1,0,0:0:0:0:
448,192,151756,1,8,0:0:0:0:
64,192,151756,1,2,0:0:0:0:
64,192,151842,1,0,0:0:0:0:
320,192,151927,1,0,0:0:0:0:
448,192,151970,1,0,0:0:0:0:
192,192,152013,1,0,0:0:0:0:
448,192,152099,1,0,0:0:0:0:
64,192,152099,1,2,0:0:0:0:
448,192,152184,1,0,0:0:0:0:
64,192,152227,1,0,0:0:0:0:
320,192,152270,1,0,0:0:0:0:
192,192,152356,1,0,0:0:0:0:
448,192,152442,1,8,0:0:0:0:
320,192,152442,1,2,0:0:0:0:
320,192,152527,1,0,0:0:0:0:
192,192,152613,1,0,0:0:0:0:
64,192,152699,1,0,0:0:0:0:
320,192,152742,1,0,0:0:0:0:
448,192,152784,1,0,0:0:0:0:
192,192,152784,1,2,0:0:0:0:
448,192,152870,1,0,0:0:0:0:
192,192,152956,1,0,0:0:0:0:
320,192,152999,1,0,0:0:0:0:
448,192,153042,1,0,0:0:0:0:
192,192,153127,1,8,0:0:0:0:
64,192,153127,1,2,0:0:0:0:
320,192,153213,128,0,153384:0:0:0:0:
192,192,153299,128,0,153384:0:0:0:0:
448,192,153384,128,0,153470:0:0:0:0:
320,192,153470,1,0,0:0:0:0:
192,192,153470,128,0,153727:0:0:0:0:
64,192,153470,128,2,153727:0:0:0:0:
448,192,153642,1,0,0:0:0:0:
448,192,153727,1,0,0:0:0:0:
320,192,153813,1,0,0:0:0:0:
192,192,153813,128,8,154070:0:0:0:0:
64,192,153813,128,2,154070:0:0:0:0:
448,192,153984,1,0,0:0:0:0:
448,192,154070,128,0,154156:0:0:0:0:
320,192,154156,1,0,0:0:0:0:
64,192,154156,1,2,0:0:0:0:
192,192,154199,1,0,0:0:0:0:
448,192,154242,1,0,0:0:0:0:
64,192,154327,1,0,0:0:0:0:
192,192,154413,1,0,0:0:0:0:
448,192,154456,1,0,0:0:0:0:
320,192,154499,1,8,0:0:0:0:
64,192,154499,1,2,0:0:0:0:
64,192,154584,1,0,0:0:0:0:
192,192,154670,1,0,0:0:0:0:
448,192,154713,1,0,0:0:0:0:
64,192,154756,1,0,0:0:0:0:
448,192,154842,1,4,0:0:0:0:
192,192,154842,1,2,0:0:0:0:
448,192,154927,1,0,0:0:0:0:
320,192,155013,1,0,0:0:0:0:
192,192,155099,1,0,0:0:0:0:
64,192,155184,1,0,0:0:0:0:
64,192,155270,1,0,0:0:0:0:
448,192,155356,1,0,0:0:0:0:
448,192,155442,1,0,0:0:0:0:
320,192,155527,1,0,0:0:0:0:
192,192,155613,1,0,0:0:0:0:
192,192,155699,1,0,0:0:0:0:
320,192,155784,1,0,0:0:0:0:
448,192,155870,128,0,156042:0:0:0:0:
192,192,155870,1,0,0:0:0:0:
64,192,155870,128,8,156213:0:0:0:0:
448,192,156213,1,0,0:0:0:0:
320,192,156213,1,0,0:0:0:0:
192,192,156213,1,2,0:0:0:0:
320,192,156556,1,0,0:0:0:0:
448,192,156599,128,0,156899:0:0:0:0:
320,192,156899,128,0,157242:0:0:0:0:
192,192,157242,128,0,157327:0:0:0:0:
320,192,157413,1,0,0:0:0:0:
64,192,157456,128,0,157756:0:0:0:0:
448,192,157756,128,0,157842:0:0:0:0:
192,192,157927,1,0,0:0:0:0:
320,192,157970,128,0,158099:0:0:0:0:
64,192,158270,128,0,158613:0:0:0:0:
192,192,158613,128,0,158784:0:0:0:0:
448,192,158956,128,0,159127:0:0:0:0:
320,192,159127,128,0,159213:0:0:0:0:
192,192,159299,128,0,159470:0:0:0:0:
64,192,159470,128,0,159556:0:0:0:0:
320,192,159642,1,0,0:0:0:0:
448,192,159684,128,0,159984:0:0:0:0:
192,192,159984,128,0,160070:0:0:0:0:
64,192,160156,1,0,0:0:0:0:
320,192,160199,128,0,160499:0:0:0:0:
64,192,160499,128,0,160584:0:0:0:0:
320,192,160670,1,0,0:0:0:0:
448,192,160713,128,0,160842:0:0:0:0:
320,192,161013,128,0,161356:0:0:0:0:
64,192,161356,128,0,161699:0:0:0:0:
320,192,162042,1,0,0:0:0:0:
448,192,162084,128,0,162384:0:0:0:0:
320,192,162384,128,0,162727:0:0:0:0:
192,192,162727,128,0,162813:0:0:0:0:
320,192,162899,1,0,0:0:0:0:
64,192,162942,128,0,163242:0:0:0:0:
448,192,163242,128,0,163327:0:0:0:0:
64,192,163413,1,0,0:0:0:0:
320,192,163456,128,0,163584:0:0:0:0:
64,192,163756,128,0,163927:0:0:0:0:
192,192,163927,128,0,164013:0:0:0:0:
320,192,164099,128,0,164270:0:0:0:0:
448,192,164270,128,0,164356:0:0:0:0:
192,192,164442,128,0,164699:0:0:0:0:
320,192,164784,128,0,164956:0:0:0:0:
64,192,164956,128,0,165042:0:0:0:0:
320,192,165127,1,0,0:0:0:0:
448,192,165170,128,0,165470:0:0:0:0:
192,192,165470,128,0,165556:0:0:0:0:
64,192,165642,1,0,0:0:0:0:
320,192,165684,128,0,165984:0:0:0:0:
64,192,165984,128,0,166070:0:0:0:0:
192,192,166156,128,0,166327:0:0:0:0:
448,192,166499,128,0,166756:0:0:0:0:
320,192,166499,128,0,166842:0:0:0:0:
192,192,166842,128,0,167184:0:0:0:0:
64,192,166842,128,0,167099:0:0:0:0:
448,192,167184,1,8,0:0:0:0:
320,192,167184,1,2,0:0:0:0:
64,192,167356,1,0,0:0:0:0:
320,192,167527,1,8,0:0:0:0:
64,192,167527,1,2,0:0:0:0:
448,192,167570,128,0,167870:0:0:0:0:
192,192,167699,1,0,0:0:0:0:
320,192,167870,128,8,168213:0:0:0:0:
64,192,167870,1,2,0:0:0:0:
448,192,168042,1,0,0:0:0:0:
192,192,168213,128,8,168299:0:0:0:0:
64,192,168213,1,2,0:0:0:0:
320,192,168384,1,0,0:0:0:0:
64,192,168427,128,0,168727:0:0:0:0:
448,192,168556,1,8,0:0:0:0:
192,192,168556,1,2,0:0:0:0:
448,192,168727,128,0,168813:0:0:0:0:
192,192,168899,1,8,0:0:0:0:
64,192,168899,1,2,0:0:0:0:
320,192,168942,128,0,169070:0:0:0:0:
448,192,169070,1,0,0:0:0:0:
192,192,169242,1,8,0:0:0:0:
64,192,169242,128,2,169584:0:0:0:0:
448,192,169413,1,0,0:0:0:0:
320,192,169584,1,8,0:0:0:0:
192,192,169584,128,2,169842:0:0:0:0:
448,192,169756,1,0,0:0:0:0:
64,192,169756,1,8,0:0:0:0:
448,192,169927,128,2,170099:0:0:0:0:
192,192,169927,1,8,0:0:0:0:
320,192,170099,128,0,170184:0:0:0:0:
448,192,170270,1,2,0:0:0:0:
192,192,170270,128,8,170442:0:0:0:0:
64,192,170442,128,0,170527:0:0:0:0:
320,192,170613,1,8,0:0:0:0:
192,192,170613,1,2,0:0:0:0:
448,192,170656,128,0,170956:0:0:0:0:
64,192,170784,1,0,0:0:0:0:
320,192,170956,1,2,0:0:0:0:
192,192,170956,128,8,171042:0:0:0:0:
64,192,171127,1,0,0:0:0:0:
320,192,171170,128,0,171470:0:0:0:0:
448,192,171299,1,8,0:0:0:0:
192,192,171299,1,2,0:0:0:0:
64,192,171470,128,0,171556:0:0:0:0:
320,192,171642,1,2,0:0:0:0:
192,192,171642,1,8,0:0:0:0:
448,192,171684,128,0,171813:0:0:0:0:
64,192,171813,1,0,0:0:0:0:
448,192,171984,1,8,0:0:0:0:
320,192,171984,128,2,172327:0:0:0:0:
64,192,172156,1,0,0:0:0:0:
448,192,172327,1,2,0:0:0:0:
192,192,172327,128,8,172670:0:0:0:0:
448,192,172499,1,0,0:0:0:0:
320,192,172499,1,8,0:0:0:0:
320,192,172670,1,8,0:0:0:0:
64,192,172670,1,2,0:0:0:0:
64,192,172842,1,8,0:0:0:0:
320,192,173013,1,2,0:0:0:0:
64,192,173013,1,8,0:0:0:0:
448,192,173056,128,0,173356:0:0:0:0:
64,192,173184,1,8,0:0:0:0:
320,192,173356,128,0,173699:0:0:0:0:
192,192,173356,1,8,0:0:0:0:
64,192,173356,1,2,0:0:0:0:
64,192,173527,1,8,0:0:0:0:
448,192,173699,1,2,0:0:0:0:
64,192,173699,128,8,173784:0:0:0:0:
320,192,173870,1,0,0:0:0:0:
64,192,173870,1,8,0:0:0:0:
192,192,173913,128,0,174213:0:0:0:0:
448,192,174042,1,10,0:0:0:0:
448,192,174213,128,0,174299:0:0:0:0:
320,192,174213,1,8,0:0:0:0:
448,192,174384,1,2,0:0:0:0:
64,192,174384,1,8,0:0:0:0:
320,192,174427,128,0,174556:0:0:0:0:
448,192,174556,1,8,0:0:0:0:
448,192,174727,1,0,0:0:0:0:
192,192,174727,1,8,0:0:0:0:
64,192,174727,128,2,174899:0:0:0:0:
448,192,174899,1,0,0:0:0:0:
192,192,174899,128,8,174984:0:0:0:0:
448,192,175070,1,0,0:0:0:0:
320,192,175070,128,2,175242:0:0:0:0:
64,192,175070,1,8,0:0:0:0:
448,192,175242,128,8,175327:0:0:0:0:
192,192,175413,128,2,175670:0:0:0:0:
64,192,175413,1,8,0:0:0:0:
320,192,175499,1,8,0:0:0:0:
448,192,175584,1,8,0:0:0:0:
64,192,175670,1,8,0:0:0:0:
448,192,175756,1,2,0:0:0:0:
320,192,175756,128,8,175927:0:0:0:0:
192,192,175842,1,8,0:0:0:0:
64,192,175927,128,8,176013:0:0:0:0:
192,192,176013,1,8,0:0:0:0:
320,192,176099,1,2,0:0:0:0:
64,192,176099,1,8,0:0:0:0:
448,192,176142,128,0,176442:0:0:0:0:
192,192,176184,1,8,0:0:0:0:
320,192,176270,1,8,0:0:0:0:
64,192,176356,1,8,0:0:0:0:
320,192,176442,1,2,0:0:0:0:
192,192,176442,128,8,176527:0:0:0:0:
448,192,176527,1,8,0:0:0:0:
64,192,176613,1,8,0:0:0:0:
320,192,176656,128,0,176784:0:0:0:0:
448,192,176699,1,8,0:0:0:0:
192,192,176784,1,2,0:0:0:0:
64,192,176784,1,4,0:0:0:0:
448,192,176956,128,0,177127:0:0:0:0:
64,192,177127,1,0,0:0:0:0:
64,192,177213,1,0,0:0:0:0:
448,192,177299,128,0,177470:0:0:0:0:
64,192,177470,1,0,0:0:0:0:
64,192,177556,1,0,0:0:0:0:
448,192,177642,1,0,0:0:0:0:
448,192,177727,1,0,0:0:0:0:
320,192,177813,1,0,0:0:0:0:
192,192,177813,128,0,177984:0:0:0:0:
64,192,177813,128,8,178070:0:0:0:0:
448,192,178156,1,0,0:0:0:0:
192,192,178156,1,4,0:0:0:0:
64,192,178156,1,2,0:0:0:0:
320,192,178242,1,0,0:0:0:0:
448,192,178327,1,0,0:0:0:0:
192,192,178413,1,0,0:0:0:0:
320,192,178499,1,8,0:0:0:0:
64,192,178499,1,2,0:0:0:0:
448,192,178542,128,0,178842:0:0:0:0:
192,192,178584,128,0,178756:0:0:0:0:
64,192,178670,1,0,0:0:0:0:
320,192,178756,1,0,0:0:0:0:
192,192,178842,128,0,179184:0:0:0:0:
64,192,178842,1,2,0:0:0:0:
320,192,178927,128,0,179099:0:0:0:0:
448,192,179013,1,0,0:0:0:0:
64,192,179099,1,0,0:0:0:0:
448,192,179184,128,8,179270:0:0:0:0:
320,192,179184,128,2,179270:0:0:0:0:
192,192,179270,1,0,0:0:0:0:
448,192,179356,1,0,0:0:0:0:
192,192,179399,128,0,179613:0:0:0:0:
64,192,179442,128,0,179527:0:0:0:0:
448,192,179527,1,0,0:0:0:0:
320,192,179527,1,2,0:0:0:0:
64,192,179613,1,0,0:0:0:0:
448,192,179699,128,0,179784:0:0:0:0:
320,192,179699,128,0,179784:0:0:0:0:
192,192,179784,1,0,0:0:0:0:
320,192,179870,128,8,180042:0:0:0:0:
64,192,179870,1,2,0:0:0:0:
448,192,179956,128,0,180042:0:0:0:0:
192,192,180042,1,0,0:0:0:0:
320,192,180127,1,0,0:0:0:0:
192,192,180213,1,0,0:0:0:0:
64,192,180213,128,2,180556:0:0:0:0:
448,192,180299,128,0,180470:0:0:0:0:
192,192,180384,1,0,0:0:0:0:
320,192,180470,1,0,0:0:0:0:
448,192,180556,1,8,0:0:0:0:
192,192,180556,128,2,180727:0:0:0:0:
320,192,180642,128,0,180727:0:0:0:0:
64,192,180727,1,0,0:0:0:0:
192,192,180813,1,0,0:0:0:0:
448,192,180899,128,0,181070:0:0:0:0:
320,192,180899,1,2,0:0:0:0:
64,192,180984,128,0,181070:0:0:0:0:
320,192,181070,128,0,181156:0:0:0:0:
192,192,181070,128,0,181156:0:0:0:0:
448,192,181156,1,0,0:0:0:0:
192,192,181242,128,8,181413:0:0:0:0:
64,192,181242,1,2,0:0:0:0:
448,192,181327,128,0,181413:0:0:0:0:
320,192,181413,128,0,181499:0:0:0:0:
64,192,181413,128,0,181499:0:0:0:0:
192,192,181499,1,0,0:0:0:0:
320,192,181584,1,0,0:0:0:0:
64,192,181584,1,2,0:0:0:0:
448,192,181627,128,0,181927:0:0:0:0:
192,192,181670,128,0,181842:0:0:0:0:
320,192,181756,1,0,0:0:0:0:
64,192,181842,1,0,0:0:0:0:
320,192,181927,128,8,182013:0:0:0:0:
192,192,181927,128,2,182013:0:0:0:0:
448,192,182013,1,0,0:0:0:0:
64,192,182099,1,0,0:0:0:0:
320,192,182142,128,0,182442:0:0:0:0:
448,192,182184,128,0,182270:0:0:0:0:
192,192,182270,1,0,0:0:0:0:
64,192,182270,1,2,0:0:0:0:
448,192,182356,128,0,182442:0:0:0:0:
192,192,182442,128,0,182527:0:0:0:0:
64,192,182442,128,0,182527:0:0:0:0:
320,192,182527,1,0,0:0:0:0:
192,192,182613,1,8,0:0:0:0:
64,192,182613,1,2,0:0:0:0:
448,192,182656,128,0,182784:0:0:0:0:
320,192,182699,128,0,182784:0:0:0:0:
192,192,182784,1,0,0:0:0:0:
448,192,182870,1,0,0:0:0:0:
192,192,182956,128,0,183213:0:0:0:0:
64,192,182956,1,2,0:0:0:0:
320,192,183042,128,0,183213:0:0:0:0:
448,192,183127,128,0,183213:0:0:0:0:
64,192,183213,1,0,0:0:0:0:
448,192,183299,128,8,183556:0:0:0:0:
192,192,183299,1,2,0:0:0:0:
320,192,183384,128,0,183556:0:0:0:0:
192,192,183470,128,0,183556:0:0:0:0:
64,192,183556,1,0,0:0:0:0:
320,192,183642,1,0,0:0:0:0:
192,192,183642,1,2,0:0:0:0:
448,192,183727,1,0,0:0:0:0:
320,192,183813,1,0,0:0:0:0:
192,192,183899,1,0,0:0:0:0:
320,192,183984,1,8,0:0:0:0:
64,192,183984,1,2,0:0:0:0:
448,192,184027,128,0,184327:0:0:0:0:
192,192,184070,128,0,184242:0:0:0:0:
320,192,184156,1,0,0:0:0:0:
64,192,184242,1,0,0:0:0:0:
320,192,184327,128,0,184670:0:0:0:0:
192,192,184327,1,2,0:0:0:0:
64,192,184413,128,0,184584:0:0:0:0:
448,192,184499,1,0,0:0:0:0:
192,192,184584,1,0,0:0:0:0:
448,192,184670,128,8,184756:0:0:0:0:
64,192,184670,128,2,184756:0:0:0:0:
320,192,184756,1,0,0:0:0:0:
64,192,184842,1,0,0:0:0:0:
192,192,184884,128,0,185099:0:0:0:0:
320,192,184927,128,0,185013:0:0:0:0:
448,192,185013,1,0,0:0:0:0:
64,192,185013,1,2,0:0:0:0:
320,192,185099,1,0,0:0:0:0:
448,192,185184,128,0,185270:0:0:0:0:
64,192,185184,128,0,185270:0:0:0:0:
192,192,185270,1,0,0:0:0:0:
320,192,185356,1,8,0:0:0:0:
64,192,185356,1,2,0:0:0:0:
448,192,185399,128,0,185527:0:0:0:0:
192,192,185442,128,0,185527:0:0:0:0:
320,192,185527,1,0,0:0:0:0:
192,192,185613,1,0,0:0:0:0:
448,192,185699,1,0,0:0:0:0:
64,192,185699,128,2,185870:0:0:0:0:
320,192,185784,128,0,185870:0:0:0:0:
448,192,185870,128,0,185956:0:0:0:0:
192,192,185870,128,0,185956:0:0:0:0:
64,192,185956,1,0,0:0:0:0:
448,192,186042,1,8,0:0:0:0:
320,192,186042,128,2,186213:0:0:0:0:
64,192,186127,128,0,186213:0:0:0:0:
448,192,186213,128,0,186299:0:0:0:0:
192,192,186213,128,0,186299:0:0:0:0:
320,192,186299,1,0,0:0:0:0:
192,192,186384,1,0,0:0:0:0:
64,192,186384,128,2,186556:0:0:0:0:
320,192,186470,128,0,186556:0:0:0:0:
448,192,186556,1,0,0:0:0:0:
192,192,186642,1,0,0:0:0:0:
448,192,186727,128,8,186899:0:0:0:0:
64,192,186727,1,2,0:0:0:0:
192,192,186813,128,0,186899:0:0:0:0:
320,192,186899,128,0,186984:0:0:0:0:
64,192,186899,128,0,186984:0:0:0:0:
192,192,186984,1,0,0:0:0:0:
448,192,187070,1,0,0:0:0:0:
64,192,187070,1,2,0:0:0:0:
192,192,187113,128,0,187413:0:0:0:0:
320,192,187156,128,0,187327:0:0:0:0:
448,192,187242,1,0,0:0:0:0:
64,192,187327,1,0,0:0:0:0:
448,192,187413,128,8,187499:0:0:0:0:
320,192,187413,128,2,187499:0:0:0:0:
192,192,187499,1,0,0:0:0:0:
64,192,187584,1,0,0:0:0:0:
448,192,187627,128,0,187927:0:0:0:0:
192,192,187670,128,0,187756:0:0:0:0:
320,192,187756,1,0,0:0:0:0:
64,192,187756,1,2,0:0:0:0:
192,192,187842,128,0,187927:0:0:0:0:
320,192,187927,128,0,188013:0:0:0:0:
64,192,187927,128,0,188013:0:0:0:0:
448,192,188013,1,0,0:0:0:0:
320,192,188099,1,8,0:0:0:0:
64,192,188099,1,2,0:0:0:0:
192,192,188142,128,0,188270:0:0:0:0:
448,192,188184,128,0,188270:0:0:0:0:
320,192,188270,1,0,0:0:0:0:
448,192,188356,1,0,0:0:0:0:
192,192,188442,128,0,188699:0:0:0:0:
64,192,188442,1,2,0:0:0:0:
320,192,188527,128,0,188699:0:0:0:0:
448,192,188613,128,0,188699:0:0:0:0:
64,192,188699,1,0,0:0:0:0:
448,192,188784,1,8,0:0:0:0:
320,192,188784,128,2,189042:0:0:0:0:
192,192,188870,128,0,189042:0:0:0:0:
64,192,188956,128,0,189042:0:0:0:0:
448,192,189042,1,0,0:0:0:0:
320,192,189127,1,0,0:0:0:0:
192,192,189127,1,4,0:0:0:0:
64,192,189127,1,2,0:0:0:0:
448,192,189213,1,0,0:0:0:0:
192,192,189299,1,0,0:0:0:0:
320,192,189384,1,0,0:0:0:0:
448,192,189470,1,8,0:0:0:0:
192,192,189470,1,2,0:0:0:0:
64,192,189513,128,0,189813:0:0:0:0:
320,192,189556,128,0,189727:0:0:0:0:
448,192,189642,1,0,0:0:0:0:
192,192,189727,1,0,0:0:0:0:
448,192,189813,1,0,0:0:0:0:
320,192,189813,128,2,190156:0:0:0:0:
192,192,189899,128,0,190070:0:0:0:0:
64,192,189984,1,0,0:0:0:0:
448,192,190070,1,0,0:0:0:0:
192,192,190156,128,8,190242:0:0:0:0:
64,192,190156,128,2,190242:0:0:0:0:
320,192,190242,1,0,0:0:0:0:
64,192,190327,1,0,0:0:0:0:
320,192,190370,128,0,190584:0:0:0:0:
448,192,190413,128,0,190499:0:0:0:0:
192,192,190499,1,0,0:0:0:0:
64,192,190499,1,2,0:0:0:0:
448,192,190584,1,0,0:0:0:0:
192,192,190670,128,0,190756:0:0:0:0:
64,192,190670,128,0,190756:0:0:0:0:
320,192,190756,1,0,0:0:0:0:
448,192,190842,1,8,0:0:0:0:
192,192,190842,128,2,191013:0:0:0:0:
64,192,190927,128,0,191013:0:0:0:0:
320,192,191013,1,0,0:0:0:0:
192,192,191099,1,0,0:0:0:0:
448,192,191184,128,0,191527:0:0:0:0:
320,192,191184,1,2,0:0:0:0:
64,192,191270,128,0,191442:0:0:0:0:
320,192,191356,1,0,0:0:0:0:
192,192,191442,1,0,0:0:0:0:
320,192,191527,128,8,191699:0:0:0:0:
64,192,191527,1,2,0:0:0:0:
192,192,191613,128,0,191699:0:0:0:0:
448,192,191699,1,0,0:0:0:0:
320,192,191784,1,0,0:0:0:0:
192,192,191870,1,0,0:0:0:0:
64,192,191870,128,2,192042:0:0:0:0:
448,192,191956,128,0,192042:0:0:0:0:
320,192,192042,128,0,192127:0:0:0:0:
192,192,192042,128,0,192127:0:0:0:0:
64,192,192127,1,0,0:0:0:0:
448,192,192213,1,8,0:0:0:0:
320,192,192213,128,2,192384:0:0:0:0:
64,192,192299,128,0,192384:0:0:0:0:
448,192,192384,128,0,192470:0:0:0:0:
192,192,192384,128,0,192470:0:0:0:0:
320,192,192470,1,0,0:0:0:0:
448,192,192556,1,0,0:0:0:0:
192,192,192556,1,2,0:0:0:0:
64,192,192599,128,0,192899:0:0:0:0:
320,192,192642,128,0,192813:0:0:0:0:
192,192,192727,1,0,0:0:0:0:
448,192,192813,1,0,0:0:0:0:
320,192,192899,128,8,192984:0:0:0:0:
192,192,192899,128,2,192984:0:0:0:0:
64,192,192984,1,0,0:0:0:0:
448,192,193070,1,0,0:0:0:0:
192,192,193113,128,0,193413:0:0:0:0:
64,192,193156,128,0,193242:0:0:0:0:
448,192,193242,1,0,0:0:0:0:
320,192,193242,1,2,0:0:0:0:
64,192,193327,128,0,193413:0:0:0:0:
448,192,193413,128,0,193499:0:0:0:0:
320,192,193413,128,0,193499:0:0:0:0:
192,192,193499,1,0,0:0:0:0:
320,192,193584,1,8,0:0:0:0:
64,192,193584,1,2,0:0:0:0:
448,192,193627,128,0,193756:0:0:0:0:
192,192,193670,128,0,193756:0:0:0:0:
64,192,193756,1,0,0:0:0:0:
320,192,193842,1,0,0:0:0:0:
192,192,193927,128,0,194184:0:0:0:0:
64,192,193927,1,2,0:0:0:0:
320,192,194013,128,0,194184:0:0:0:0:
448,192,194099,128,0,194184:0:0:0:0:
64,192,194184,1,0,0:0:0:0:
448,192,194270,128,8,194527:0:0:0:0:
192,192,194270,1,2,0:0:0:0:
320,192,194356,128,0,194527:0:0:0:0:
192,192,194442,128,0,194527:0:0:0:0:
64,192,194527,1,0,0:0:0:0:
448,192,194613,1,0,0:0:0:0:
320,192,194613,1,2,0:0:0:0:
64,192,194699,1,0,0:0:0:0:
192,192,194784,1,0,0:0:0:0:
320,192,194870,1,0,0:0:0:0:
448,192,194956,1,8,0:0:0:0:
192,192,194956,1,2,0:0:0:0:
64,192,194999,128,0,195299:0:0:0:0:
320,192,195042,128,0,195213:0:0:0:0:
192,192,195127,1,0,0:0:0:0:
448,192,195213,1,0,0:0:0:0:
320,192,195299,1,0,0:0:0:0:
192,192,195299,128,2,195642:0:0:0:0:
448,192,195384,128,0,195556:0:0:0:0:
64,192,195470,1,0,0:0:0:0:
320,192,195556,1,0,0:0:0:0:
448,192,195642,128,8,195727:0:0:0:0:
64,192,195642,128,2,195727:0:0:0:0:
192,192,195727,1,0,0:0:0:0:
448,192,195813,1,0,0:0:0:0:
320,192,195856,128,0,196156:0:0:0:0:
192,192,195899,128,0,195984:0:0:0:0:
448,192,195984,1,0,0:0:0:0:
64,192,195984,1,2,0:0:0:0:
192,192,196070,128,0,196156:0:0:0:0:
448,192,196156,128,0,196242:0:0:0:0:
64,192,196156,128,0,196242:0:0:0:0:
320,192,196242,1,0,0:0:0:0:
448,192,196327,1,8,0:0:0:0:
192,192,196327,1,2,0:0:0:0:
64,192,196370,128,0,196499:0:0:0:0:
320,192,196413,128,0,196499:0:0:0:0:
192,192,196499,1,0,0:0:0:0:
320,192,196584,1,0,0:0:0:0:
448,192,196670,128,0,196842:0:0:0:0:
64,192,196670,1,2,0:0:0:0:
192,192,196756,128,0,196842:0:0:0:0:
320,192,196842,128,0,196927:0:0:0:0:
64,192,196842,128,0,196927:0:0:0:0:
448,192,196927,1,0,0:0:0:0:
192,192,197013,128,8,197184:0:0:0:0:
64,192,197013,1,2,0:0:0:0:
448,192,197099,128,0,197184:0:0:0:0:
320,192,197184,128,0,197270:0:0:0:0:
64,192,197184,128,0,197270:0:0:0:0:
192,192,197270,1,0,0:0:0:0:
448,192,197356,128,0,197527:0:0:0:0:
320,192,197356,1,2,0:0:0:0:
192,192,197442,128,0,197527:0:0:0:0:
64,192,197527,1,0,0:0:0:0:
320,192,197613,1,0,0:0:0:0:
448,192,197699,1,2,0:0:0:0:
64,192,197699,128,8,197870:0:0:0:0:
320,192,197784,128,0,197870:0:0:0:0:
448,192,197870,128,0,197956:0:0:0:0:
192,192,197870,128,0,197956:0:0:0:0:
320,192,197956,1,0,0:0:0:0:
448,192,198042,1,0,0:0:0:0:
64,192,198042,1,2,0:0:0:0:
320,192,198084,128,0,198384:0:0:0:0:
192,192,198127,128,0,198299:0:0:0:0:
64,192,198213,1,0,0:0:0:0:
448,192,198299,1,0,0:0:0:0:
192,192,198384,128,2,198470:0:0:0:0:
64,192,198384,128,8,198470:0:0:0:0:
320,192,198470,1,0,0:0:0:0:
448,192,198556,1,0,0:0:0:0:
64,192,198599,128,0,198727:0:0:0:0:
320,192,198642,128,0,198727:0:0:0:0:
448,192,198727,1,4,0:0:0:0:
192,192,198727,1,2,0:0:0:0:
64,192,198899,128,0,199070:0:0:0:0:
448,192,199070,1,0,0:0:0:0:
448,192,199156,1,0,0:0:0:0:
64,192,199242,128,0,199413:0:0:0:0:
448,192,199413,1,0,0:0:0:0:
448,192,199499,1,0,0:0:0:0:
64,192,199584,1,0,0:0:0:0:
64,192,199670,1,0,0:0:0:0:
448,192,199756,128,0,200013:0:0:0:0:
320,192,199756,128,0,199927:0:0:0:0:
192,192,199756,1,8,0:0:0:0:
192,192,200099,1,2,0:0:0:0:
64,192,200099,1,4,0:0:0:0:
320,192,200270,1,0,0:0:0:0:
448,192,200442,1,8,0:0:0:0:
192,192,200442,1,2,0:0:0:0:
320,192,200613,1,0,0:0:0:0:
448,192,200699,1,0,0:0:0:0:
192,192,200784,1,0,0:0:0:0:
64,192,200784,1,2,0:0:0:0:
320,192,200956,1,0,0:0:0:0:
448,192,201127,1,8,0:0:0:0:
192,192,201127,1,2,0:0:0:0:
320,192,201299,1,0,0:0:0:0:
448,192,201384,1,0,0:0:0:0:
192,192,201470,1,0,0:0:0:0:
64,192,201470,1,2,0:0:0:0:
448,192,201642,1,0,0:0:0:0:
320,192,201813,1,8,0:0:0:0:
192,192,201813,1,2,0:0:0:0:
64,192,201984,1,0,0:0:0:0:
448,192,202070,1,0,0:0:0:0:
192,192,202156,1,0,0:0:0:0:
64,192,202156,1,2,0:0:0:0:
448,192,202327,1,0,0:0:0:0:
320,192,202499,1,8,0:0:0:0:
192,192,202499,1,2,0:0:0:0:
64,192,202670,1,0,0:0:0:0:
192,192,202756,1,0,0:0:0:0:
448,192,202842,1,0,0:0:0:0:
320,192,202842,1,2,0:0:0:0:
64,192,203013,1,0,0:0:0:0:
448,192,203184,1,8,0:0:0:0:
192,192,203184,1,2,0:0:0:0:
64,192,203356,1,0,0:0:0:0:
192,192,203442,1,0,0:0:0:0:
448,192,203527,1,0,0:0:0:0:
320,192,203527,1,2,0:0:0:0:
64,192,203699,1,0,0:0:0:0:
448,192,203870,1,8,0:0:0:0:
192,192,203870,1,2,0:0:0:0:
64,192,204042,1,0,0:0:0:0:
192,192,204127,1,0,0:0:0:0:
448,192,204213,1,0,0:0:0:0:
320,192,204213,1,2,0:0:0:0:
64,192,204384,1,0,0:0:0:0:
448,192,204556,1,8,0:0:0:0:
192,192,204556,1,2,0:0:0:0:
64,192,204727,1,0,0:0:0:0:
192,192,204813,1,0,0:0:0:0:
448,192,204899,1,0,0:0:0:0:
320,192,204899,1,2,0:0:0:0:
64,192,205070,1,0,0:0:0:0:
448,192,205242,1,8,0:0:0:0:
192,192,205242,1,2,0:0:0:0:
64,192,205413,1,0,0:0:0:0:
448,192,205499,1,0,0:0:0:0:
192,192,205584,1,0,0:0:0:0:
64,192,205584,1,2,0:0:0:0:
320,192,205756,1,0,0:0:0:0:
448,192,205927,1,8,0:0:0:0:
192,192,205927,1,2,0:0:0:0:
320,192,206099,1,0,0:0:0:0:
448,192,206184,1,0,0:0:0:0:
192,192,206270,1,0,0:0:0:0:
64,192,206270,1,2,0:0:0:0:
320,192,206442,1,0,0:0:0:0:
448,192,206613,1,8,0:0:0:0:
192,192,206613,1,2,0:0:0:0:
320,192,206784,1,0,0:0:0:0:
448,192,206870,1,0,0:0:0:0:
192,192,206956,1,0,0:0:0:0:
64,192,206956,1,2,0:0:0:0:
448,192,207127,1,0,0:0:0:0:
320,192,207299,1,8,0:0:0:0:
192,192,207299,1,2,0:0:0:0:
64,192,207470,1,0,0:0:0:0:
448,192,207556,1,0,0:0:0:0:
192,192,207642,1,0,0:0:0:0:
64,192,207642,1,2,0:0:0:0:
448,192,207813,1,0,0:0:0:0:
320,192,207984,1,8,0:0:0:0:
192,192,207984,1,2,0:0:0:0:
64,192,208156,1,0,0:0:0:0:
192,192,208242,1,0,0:0:0:0:
448,192,208327,1,0,0:0:0:0:
320,192,208327,1,2,0:0:0:0:
64,192,208499,1,0,0:0:0:0:
448,192,208670,1,8,0:0:0:0:
192,192,208670,1,2,0:0:0:0:
64,192,208842,1,0,0:0:0:0:
192,192,208927,1,0,0:0:0:0:
448,192,209013,1,0,0:0:0:0:
320,192,209013,1,2,0:0:0:0:
64,192,209184,1,0,0:0:0:0:
448,192,209356,1,8,0:0:0:0:
192,192,209356,1,2,0:0:0:0:
64,192,209527,1,0,0:0:0:0:
192,192,209613,1,0,0:0:0:0:
448,192,209699,1,0,0:0:0:0:
320,192,209699,1,4,0:0:0:0:
64,192,209699,1,2,0:0:0:0:
64,192,209870,128,0,210042:0:0:0:0:
448,192,210042,1,0,0:0:0:0:
448,192,210127,1,0,0:0:0:0:
64,192,210213,128,0,210384:0:0:0:0:
448,192,210384,1,0,0:0:0:0:
448,192,210470,1,0,0:0:0:0:
64,192,210556,1,0,0:0:0:0:
64,192,210642,1,0,0:0:0:0:
448,192,210727,1,0,0:0:0:0:
320,192,210727,1,8,0:0:0:0:
192,192,210727,1,2,0:0:0:0:
448,192,210813,1,0,0:0:0:0:
64,192,210899,128,0,211070:0:0:0:0:
192,192,210984,128,0,211070:0:0:0:0:
320,192,211070,1,2,0:0:0:0:
448,192,211070,128,4,211413:0:0:0:0:
