osu file format v14

[General]
AudioFilename: audio.mp3
AudioLeadIn: 0
PreviewTime: 74701
Countdown: 0
SampleSet: Normal
StackLeniency: 0.2
Mode: 1
LetterboxInBreaks: 0
WidescreenStoryboard: 0

[Editor]
Bookmarks: 10701,32034,53368,74701,96034,117368,138701,160034,181368,202701
DistanceSpacing: 1.7
BeatDivisor: 4
GridSize: 32
TimelineZoom: 2.999999

[Metadata]
Title:Education
TitleUnicode:Education
Artist:PSYQUI
ArtistUnicode:PSYQUI
Creator:Genjuro
Version:Oni
Source:
Tags:electronic instrumental future bass techcore evangelix 01 megarex mrx
BeatmapID:2337469
BeatmapSetID:1119099

[Difficulty]
HPDrainRate:5.5
CircleSize:2
OverallDifficulty:5.5
ApproachRate:10
SliderMultiplier:1.4
SliderTickRate:1

[Events]
//Background and Video events
0,0,"bg.jpg",0,10
//Break Periods
//Storyboard Layer 0 (Background)
//Storyboard Layer 1 (Fail)
//Storyboard Layer 2 (Pass)
//Storyboard Layer 3 (Foreground)
//Storyboard Layer 4 (Overlay)
//Storyboard Sound Samples

[TimingPoints]
35,333.333333333333,4,1,0,80,1,0
31951,-100,4,1,0,100,0,0
50784,-100,4,1,0,80,0,0
53451,-100,4,1,0,60,0,0
63951,-100,4,1,0,80,0,0
74618,-100,4,1,0,100,0,0
74701,-100,4,1,0,100,0,1
84034,-100,4,1,0,100,0,0
85368,-100,4,1,0,100,0,1
94701,-100,4,1,0,100,0,0
114784,-100,4,1,0,80,0,0
117284,-100,4,1,0,100,0,0
117368,-100,4,1,0,100,0,1
126701,-100,4,1,0,100,0,0
128034,-100,4,1,0,100,0,1
136034,-100,4,1,0,100,0,0
136118,-100,4,1,0,80,0,0
138784,-100,4,1,0,60,0,0
149284,-100,4,1,0,80,0,0
159951,-100,4,1,0,100,0,0
160034,-100,4,1,0,100,0,1
169368,-100,4,1,0,100,0,0
170701,-100,4,1,0,100,0,1
180034,-100,4,1,0,100,0,0
200118,-100,4,1,0,80,0,0

[HitObjects]
256,192,5368,5,0,0:0:0:0:
256,192,5534,1,0,0:0:0:0:
256,192,5701,1,8,0:0:0:0:
256,192,5868,1,0,0:0:0:0:
256,192,5951,1,8,0:0:0:0:
256,192,6118,1,8,0:0:0:0:
256,192,6201,1,0,0:0:0:0:
256,192,6368,1,8,0:0:0:0:
256,192,6534,1,0,0:0:0:0:
256,192,6618,1,8,0:0:0:0:
256,192,6701,1,0,0:0:0:0:
256,192,6868,1,0,0:0:0:0:
256,192,7034,1,8,0:0:0:0:
256,192,7201,1,0,0:0:0:0:
256,192,7284,1,8,0:0:0:0:
256,192,7451,1,8,0:0:0:0:
256,192,7534,1,0,0:0:0:0:
256,192,7701,1,8,0:0:0:0:
256,192,7868,1,0,0:0:0:0:
256,192,7951,1,8,0:0:0:0:
256,192,8034,1,0,0:0:0:0:
256,192,8201,1,0,0:0:0:0:
256,192,8368,1,8,0:0:0:0:
256,192,8534,1,0,0:0:0:0:
256,192,8618,1,8,0:0:0:0:
256,192,8784,1,8,0:0:0:0:
256,192,8868,1,0,0:0:0:0:
256,192,9034,1,8,0:0:0:0:
256,192,9201,1,0,0:0:0:0:
256,192,9284,1,8,0:0:0:0:
256,192,9368,1,0,0:0:0:0:
256,192,9534,1,0,0:0:0:0:
256,192,9701,1,8,0:0:0:0:
256,192,9868,1,0,0:0:0:0:
256,192,9951,1,0,0:0:0:0:
256,192,10034,1,0,0:0:0:0:
256,192,10201,1,8,0:0:0:0:
256,192,10368,1,0,0:0:0:0:
256,192,10701,1,4,0:0:0:0:
256,192,10868,1,8,0:0:0:0:
256,192,10951,1,0,0:0:0:0:
256,192,11034,1,0,0:0:0:0:
256,192,11201,1,8,0:0:0:0:
256,192,11368,1,0,0:0:0:0:
256,192,11451,1,0,0:0:0:0:
256,192,11534,1,8,0:0:0:0:
256,192,11618,1,0,0:0:0:0:
256,192,11701,1,0,0:0:0:0:
256,192,11868,1,8,0:0:0:0:
256,192,12034,1,0,0:0:0:0:
256,192,12201,1,8,0:0:0:0:
256,192,12284,1,8,0:0:0:0:
256,192,12368,1,0,0:0:0:0:
256,192,12534,1,8,0:0:0:0:
256,192,12701,1,0,0:0:0:0:
256,192,12784,1,0,0:0:0:0:
256,192,12868,1,8,0:0:0:0:
256,192,12951,1,8,0:0:0:0:
256,192,13034,1,0,0:0:0:0:
256,192,13201,1,8,0:0:0:0:
256,192,13368,1,0,0:0:0:0:
256,192,13534,1,8,0:0:0:0:
256,192,13618,1,0,0:0:0:0:
256,192,13701,1,0,0:0:0:0:
256,192,13868,1,8,0:0:0:0:
256,192,14034,1,0,0:0:0:0:
256,192,14118,1,0,0:0:0:0:
256,192,14201,1,8,0:0:0:0:
256,192,14284,1,0,0:0:0:0:
256,192,14368,1,0,0:0:0:0:
256,192,14534,1,8,0:0:0:0:
256,192,14701,1,0,0:0:0:0:
256,192,14868,1,8,0:0:0:0:
256,192,14951,1,8,0:0:0:0:
256,192,15034,1,0,0:0:0:0:
256,192,15201,1,8,0:0:0:0:
256,192,15368,1,0,0:0:0:0:
256,192,15451,1,0,0:0:0:0:
256,192,15534,1,8,0:0:0:0:
256,192,15701,1,0,0:0:0:0:
256,192,16034,1,0,0:0:0:0:
256,192,16201,1,8,0:0:0:0:
256,192,16284,1,0,0:0:0:0:
256,192,16368,1,0,0:0:0:0:
256,192,16534,1,8,0:0:0:0:
256,192,16701,1,0,0:0:0:0:
256,192,16784,1,0,0:0:0:0:
256,192,16868,1,8,0:0:0:0:
256,192,16951,1,0,0:0:0:0:
256,192,17034,1,0,0:0:0:0:
256,192,17201,1,8,0:0:0:0:
256,192,17368,1,0,0:0:0:0:
256,192,17534,1,8,0:0:0:0:
256,192,17618,1,8,0:0:0:0:
256,192,17701,1,0,0:0:0:0:
256,192,17868,1,8,0:0:0:0:
256,192,18034,1,0,0:0:0:0:
256,192,18118,1,0,0:0:0:0:
256,192,18201,1,8,0:0:0:0:
256,192,18284,1,8,0:0:0:0:
256,192,18368,1,0,0:0:0:0:
256,192,18534,1,8,0:0:0:0:
256,192,18701,1,0,0:0:0:0:
256,192,18868,1,8,0:0:0:0:
256,192,18951,1,0,0:0:0:0:
256,192,19034,1,0,0:0:0:0:
256,192,19201,1,8,0:0:0:0:
256,192,19368,1,0,0:0:0:0:
256,192,19451,1,0,0:0:0:0:
256,192,19534,1,8,0:0:0:0:
256,192,19618,1,0,0:0:0:0:
256,192,19701,1,0,0:0:0:0:
256,192,19868,1,8,0:0:0:0:
256,192,20034,1,0,0:0:0:0:
256,192,20201,1,0,0:0:0:0:
256,192,20368,1,8,0:0:0:0:
256,192,20701,1,0,0:0:0:0:
256,192,20868,1,8,0:0:0:0:
256,192,21201,1,8,0:0:0:0:
256,192,21368,1,4,0:0:0:0:
256,192,21534,1,8,0:0:0:0:
256,192,21618,1,0,0:0:0:0:
256,192,21701,1,0,0:0:0:0:
256,192,21868,1,8,0:0:0:0:
256,192,22034,1,0,0:0:0:0:
256,192,22118,1,0,0:0:0:0:
256,192,22201,1,8,0:0:0:0:
256,192,22284,1,0,0:0:0:0:
256,192,22368,1,0,0:0:0:0:
256,192,22534,1,8,0:0:0:0:
256,192,22701,1,0,0:0:0:0:
256,192,22868,1,8,0:0:0:0:
256,192,22951,1,8,0:0:0:0:
256,192,23034,1,0,0:0:0:0:
256,192,23201,1,8,0:0:0:0:
256,192,23368,1,0,0:0:0:0:
256,192,23451,1,0,0:0:0:0:
256,192,23534,1,8,0:0:0:0:
256,192,23618,1,8,0:0:0:0:
256,192,23701,1,0,0:0:0:0:
256,192,23868,1,8,0:0:0:0:
256,192,24034,1,0,0:0:0:0:
256,192,24201,1,8,0:0:0:0:
256,192,24284,1,0,0:0:0:0:
256,192,24368,1,0,0:0:0:0:
256,192,24534,1,8,0:0:0:0:
256,192,24701,1,0,0:0:0:0:
256,192,24784,1,0,0:0:0:0:
256,192,24868,1,8,0:0:0:0:
256,192,24951,1,0,0:0:0:0:
256,192,25034,1,0,0:0:0:0:
256,192,25201,1,8,0:0:0:0:
256,192,25368,1,0,0:0:0:0:
256,192,25534,1,8,0:0:0:0:
256,192,25618,1,8,0:0:0:0:
256,192,25701,1,0,0:0:0:0:
256,192,25868,1,8,0:0:0:0:
256,192,26034,1,0,0:0:0:0:
256,192,26118,1,0,0:0:0:0:
256,192,26201,1,8,0:0:0:0:
256,192,26368,1,0,0:0:0:0:
256,192,26701,1,0,0:0:0:0:
256,192,26868,1,8,0:0:0:0:
256,192,26951,1,0,0:0:0:0:
256,192,27034,1,0,0:0:0:0:
256,192,27201,1,8,0:0:0:0:
256,192,27368,1,0,0:0:0:0:
256,192,27451,1,0,0:0:0:0:
256,192,27534,1,8,0:0:0:0:
256,192,27618,1,0,0:0:0:0:
256,192,27701,1,0,0:0:0:0:
256,192,27868,1,8,0:0:0:0:
256,192,28034,1,0,0:0:0:0:
256,192,28201,1,8,0:0:0:0:
256,192,28284,1,8,0:0:0:0:
256,192,28368,1,0,0:0:0:0:
256,192,28534,1,8,0:0:0:0:
256,192,28701,1,0,0:0:0:0:
256,192,28784,1,0,0:0:0:0:
256,192,28868,1,8,0:0:0:0:
256,192,28951,1,8,0:0:0:0:
256,192,29034,1,0,0:0:0:0:
256,192,29201,1,8,0:0:0:0:
256,192,29368,1,4,0:0:0:0:
256,192,29868,1,0,0:0:0:0:
256,192,30034,1,8,0:0:0:0:
256,192,30534,1,8,0:0:0:0:
256,192,31034,1,8,0:0:0:0:
256,192,31368,1,0,0:0:0:0:
256,192,31534,1,8,0:0:0:0:
256,192,31618,1,8,0:0:0:0:
256,192,31701,1,0,0:0:0:0:
256,192,31868,1,8,0:0:0:0:
256,192,32034,1,4,0:0:0:0:
256,192,32201,1,8,0:0:0:0:
256,192,32284,1,8,0:0:0:0:
256,192,32368,1,8,0:0:0:0:
256,192,32534,1,0,0:0:0:0:
256,192,32701,1,8,0:0:0:0:
256,192,32784,1,0,0:0:0:0:
256,192,32868,1,0,0:0:0:0:
256,192,33034,1,8,0:0:0:0:
256,192,33201,1,0,0:0:0:0:
256,192,33368,1,8,0:0:0:0:
256,192,33451,1,8,0:0:0:0:
256,192,33534,1,0,0:0:0:0:
256,192,33618,1,0,0:0:0:0:
256,192,33701,1,8,0:0:0:0:
256,192,33868,1,0,0:0:0:0:
256,192,34034,1,8,0:0:0:0:
256,192,34118,1,0,0:0:0:0:
256,192,34201,1,8,0:0:0:0:
256,192,34368,1,0,0:0:0:0:
256,192,34534,1,8,0:0:0:0:
256,192,34701,1,0,0:0:0:0:
256,192,34868,1,8,0:0:0:0:
256,192,34951,1,8,0:0:0:0:
256,192,35034,1,8,0:0:0:0:
256,192,35201,1,0,0:0:0:0:
256,192,35368,1,8,0:0:0:0:
256,192,35451,1,0,0:0:0:0:
256,192,35534,1,0,0:0:0:0:
256,192,35701,1,8,0:0:0:0:
256,192,35868,1,0,0:0:0:0:
256,192,36034,1,8,0:0:0:0:
256,192,36118,1,8,0:0:0:0:
256,192,36201,1,0,0:0:0:0:
256,192,36284,1,0,0:0:0:0:
256,192,36368,1,8,0:0:0:0:
256,192,36534,1,0,0:0:0:0:
256,192,36701,1,8,0:0:0:0:
256,192,37034,1,8,0:0:0:0:
256,192,37368,1,0,0:0:0:0:
256,192,37534,1,8,0:0:0:0:
256,192,37618,1,8,0:0:0:0:
256,192,37701,1,8,0:0:0:0:
256,192,37868,1,0,0:0:0:0:
256,192,38034,1,8,0:0:0:0:
256,192,38118,1,0,0:0:0:0:
256,192,38201,1,0,0:0:0:0:
256,192,38368,1,8,0:0:0:0:
256,192,38534,1,0,0:0:0:0:
256,192,38701,1,8,0:0:0:0:
256,192,38784,1,8,0:0:0:0:
256,192,38868,1,0,0:0:0:0:
256,192,38951,1,0,0:0:0:0:
256,192,39034,1,8,0:0:0:0:
256,192,39201,1,0,0:0:0:0:
256,192,39368,1,8,0:0:0:0:
256,192,39451,1,0,0:0:0:0:
256,192,39534,1,8,0:0:0:0:
256,192,39701,1,0,0:0:0:0:
256,192,39868,1,8,0:0:0:0:
256,192,40034,1,0,0:0:0:0:
256,192,40201,1,8,0:0:0:0:
256,192,40284,1,0,0:0:0:0:
256,192,40451,1,8,0:0:0:0:
256,192,40534,1,0,0:0:0:0:
256,192,40701,1,8,0:0:0:0:
256,192,40868,1,0,0:0:0:0:
256,192,40951,1,8,0:0:0:0:
256,192,41118,1,0,0:0:0:0:
256,192,41201,1,8,0:0:0:0:
256,192,41368,1,0,0:0:0:0:
256,192,41534,1,0,0:0:0:0:
256,192,41701,1,8,0:0:0:0:
256,192,42034,1,0,0:0:0:0:
256,192,42201,1,8,0:0:0:0:
256,192,42534,1,8,0:0:0:0:
256,192,42701,1,4,0:0:0:0:
256,192,42868,1,8,0:0:0:0:
256,192,42951,1,8,0:0:0:0:
256,192,43034,1,8,0:0:0:0:
256,192,43201,1,0,0:0:0:0:
256,192,43368,1,8,0:0:0:0:
256,192,43451,1,0,0:0:0:0:
256,192,43534,1,0,0:0:0:0:
256,192,43701,1,8,0:0:0:0:
256,192,43868,1,0,0:0:0:0:
256,192,44034,1,8,0:0:0:0:
256,192,44118,1,8,0:0:0:0:
256,192,44201,1,0,0:0:0:0:
256,192,44284,1,0,0:0:0:0:
256,192,44368,1,8,0:0:0:0:
256,192,44534,1,0,0:0:0:0:
256,192,44701,1,8,0:0:0:0:
256,192,44784,1,0,0:0:0:0:
256,192,44868,1,8,0:0:0:0:
256,192,45034,1,0,0:0:0:0:
256,192,45201,1,8,0:0:0:0:
256,192,45368,1,0,0:0:0:0:
256,192,45534,1,8,0:0:0:0:
256,192,45618,1,8,0:0:0:0:
256,192,45701,1,8,0:0:0:0:
256,192,45868,1,0,0:0:0:0:
256,192,46034,1,8,0:0:0:0:
256,192,46118,1,0,0:0:0:0:
256,192,46201,1,0,0:0:0:0:
256,192,46368,1,8,0:0:0:0:
256,192,46534,1,0,0:0:0:0:
256,192,46701,1,8,0:0:0:0:
256,192,46784,1,8,0:0:0:0:
256,192,46868,1,0,0:0:0:0:
256,192,46951,1,0,0:0:0:0:
256,192,47034,1,8,0:0:0:0:
256,192,47201,1,0,0:0:0:0:
256,192,47368,1,8,0:0:0:0:
256,192,47701,1,8,0:0:0:0:
256,192,48034,1,0,0:0:0:0:
256,192,48201,1,8,0:0:0:0:
256,192,48284,1,8,0:0:0:0:
256,192,48368,1,8,0:0:0:0:
256,192,48534,1,0,0:0:0:0:
256,192,48701,1,8,0:0:0:0:
256,192,48784,1,0,0:0:0:0:
256,192,48868,1,0,0:0:0:0:
256,192,49034,1,8,0:0:0:0:
256,192,49201,1,0,0:0:0:0:
256,192,49368,1,8,0:0:0:0:
256,192,49451,1,8,0:0:0:0:
256,192,49534,1,0,0:0:0:0:
256,192,49618,1,0,0:0:0:0:
256,192,49701,1,8,0:0:0:0:
256,192,49868,1,0,0:0:0:0:
256,192,50034,1,8,0:0:0:0:
256,192,50118,1,0,0:0:0:0:
256,192,50201,1,8,0:0:0:0:
256,192,50368,1,0,0:0:0:0:
256,192,50534,1,8,0:0:0:0:
256,192,50701,1,4,0:0:0:0:
256,192,51201,1,0,0:0:0:0:
256,192,51368,1,8,0:0:0:0:
256,192,51868,1,8,0:0:0:0:
256,192,52201,1,0,0:0:0:0:
256,192,52368,1,0,0:0:0:0:
256,192,52534,1,0,0:0:0:0:
256,192,52701,1,0,0:0:0:0:
256,192,52868,1,0,0:0:0:0:
256,192,53034,1,8,0:0:0:0:
256,192,53118,1,8,0:0:0:0:
256,192,53201,1,8,0:0:0:0:
256,192,53368,1,4,0:0:0:0:
256,192,54534,1,0,0:0:0:0:
256,192,55201,1,0,0:0:0:0:
256,192,56034,1,0,0:0:0:0:
256,192,57201,1,0,0:0:0:0:
256,192,58701,1,8,0:0:0:0:
256,192,59868,1,8,0:0:0:0:
256,192,60701,1,8,0:0:0:0:
256,192,61368,1,8,0:0:0:0:
256,192,62534,1,8,0:0:0:0:
256,192,63201,1,8,0:0:0:0:
256,192,64034,1,4,0:0:0:0:
256,192,64534,1,8,0:0:0:0:
256,192,64701,1,0,0:0:0:0:
256,192,65034,1,0,0:0:0:0:
256,192,65368,1,8,0:0:0:0:
256,192,65868,1,0,0:0:0:0:
256,192,66034,1,8,0:0:0:0:
256,192,66368,1,8,0:0:0:0:
256,192,66534,1,8,0:0:0:0:
256,192,66701,1,8,0:0:0:0:
256,192,66951,1,0,0:0:0:0:
256,192,67201,1,0,0:0:0:0:
256,192,67368,1,8,0:0:0:0:
256,192,67701,1,8,0:0:0:0:
256,192,67868,1,8,0:0:0:0:
256,192,68034,1,8,0:0:0:0:
256,192,68284,1,0,0:0:0:0:
256,192,68534,1,0,0:0:0:0:
256,192,68701,1,8,0:0:0:0:
256,192,69034,1,8,0:0:0:0:
256,192,69201,1,8,0:0:0:0:
256,192,69368,1,8,0:0:0:0:
256,192,69618,1,0,0:0:0:0:
256,192,69868,1,0,0:0:0:0:
256,192,70034,1,8,0:0:0:0:
256,192,70284,1,0,0:0:0:0:
256,192,70534,1,0,0:0:0:0:
256,192,70701,1,8,0:0:0:0:
256,192,70951,1,8,0:0:0:0:
256,192,71201,1,8,0:0:0:0:
256,192,71368,1,0,0:0:0:0:
256,192,71618,1,8,0:0:0:0:
256,192,71868,1,8,0:0:0:0:
256,192,72034,1,0,0:0:0:0:
256,192,72284,1,8,0:0:0:0:
256,192,72534,1,0,0:0:0:0:
256,192,72784,1,8,0:0:0:0:
256,192,73034,1,8,0:0:0:0:
256,192,73368,1,0,0:0:0:0:
256,192,73534,1,8,0:0:0:0:
256,192,73618,1,8,0:0:0:0:
256,192,73701,1,0,0:0:0:0:
256,192,73784,1,8,0:0:0:0:
256,192,73868,1,8,0:0:0:0:
256,192,74034,1,0,0:0:0:0:
256,192,74118,1,8,0:0:0:0:
256,192,74201,1,0,0:0:0:0:
256,192,74368,1,8,0:0:0:0:
256,192,74701,1,4,0:0:0:0:
256,192,74951,1,8,0:0:0:0:
256,192,75034,1,0,0:0:0:0:
256,192,75201,1,8,0:0:0:0:
256,192,75368,1,0,0:0:0:0:
256,192,75618,1,8,0:0:0:0:
256,192,75701,1,0,0:0:0:0:
256,192,75868,1,0,0:0:0:0:
256,192,76034,1,8,0:0:0:0:
256,192,76368,1,0,0:0:0:0:
256,192,76534,1,8,0:0:0:0:
256,192,76701,1,0,0:0:0:0:
256,192,76784,1,8,0:0:0:0:
256,192,76951,1,8,0:0:0:0:
256,192,77034,1,0,0:0:0:0:
256,192,77201,1,8,0:0:0:0:
256,192,77368,1,0,0:0:0:0:
256,192,77701,1,0,0:0:0:0:
256,192,77868,1,8,0:0:0:0:
256,192,78034,1,0,0:0:0:0:
256,192,78118,1,8,0:0:0:0:
256,192,78284,1,8,0:0:0:0:
256,192,78368,1,0,0:0:0:0:
256,192,78451,1,0,0:0:0:0:
256,192,78534,1,8,0:0:0:0:
256,192,78701,1,0,0:0:0:0:
256,192,79034,1,0,0:0:0:0:
256,192,79201,1,8,0:0:0:0:
256,192,79368,1,0,0:0:0:0:
256,192,79451,1,8,0:0:0:0:
256,192,79618,1,8,0:0:0:0:
256,192,79701,1,0,0:0:0:0:
256,192,79868,1,8,0:0:0:0:
256,192,79951,1,8,0:0:0:0:
256,192,80034,1,0,0:0:0:0:
256,192,80284,1,8,0:0:0:0:
256,192,80368,1,0,0:0:0:0:
256,192,80534,1,8,0:0:0:0:
256,192,80701,1,0,0:0:0:0:
256,192,80951,1,8,0:0:0:0:
256,192,81034,1,0,0:0:0:0:
256,192,81201,1,0,0:0:0:0:
256,192,81368,1,8,0:0:0:0:
256,192,81701,1,0,0:0:0:0:
256,192,81868,1,8,0:0:0:0:
256,192,82034,1,0,0:0:0:0:
256,192,82118,1,8,0:0:0:0:
256,192,82284,1,8,0:0:0:0:
256,192,82368,1,0,0:0:0:0:
256,192,82534,1,8,0:0:0:0:
256,192,82701,1,0,0:0:0:0:
256,192,83034,1,0,0:0:0:0:
256,192,83201,1,8,0:0:0:0:
256,192,83368,1,0,0:0:0:0:
256,192,83451,1,8,0:0:0:0:
256,192,83618,1,8,0:0:0:0:
256,192,83701,1,0,0:0:0:0:
256,192,83784,1,0,0:0:0:0:
256,192,83868,1,8,0:0:0:0:
256,192,84034,1,4,0:0:0:0:
256,192,84284,1,8,0:0:0:0:
256,192,84534,1,8,0:0:0:0:
256,192,84784,1,8,0:0:0:0:
256,192,84951,1,0,0:0:0:0:
256,192,85034,1,8,0:0:0:0:
256,192,85368,1,4,0:0:0:0:
256,192,85534,1,8,0:0:0:0:
256,192,85618,1,8,0:0:0:0:
256,192,85701,1,0,0:0:0:0:
256,192,85868,1,8,0:0:0:0:
256,192,86034,1,0,0:0:0:0:
256,192,86118,1,8,0:0:0:0:
256,192,86284,1,8,0:0:0:0:
256,192,86368,1,0,0:0:0:0:
256,192,86534,1,8,0:0:0:0:
256,192,86701,1,0,0:0:0:0:
256,192,86951,1,8,0:0:0:0:
256,192,87034,1,0,0:0:0:0:
256,192,87201,1,8,0:0:0:0:
256,192,87368,1,0,0:0:0:0:
256,192,87451,1,8,0:0:0:0:
256,192,87618,1,8,0:0:0:0:
256,192,87701,1,0,0:0:0:0:
256,192,87784,1,0,0:0:0:0:
256,192,87868,1,8,0:0:0:0:
256,192,88034,1,0,0:0:0:0:
256,192,88284,1,8,0:0:0:0:
256,192,88368,1,0,0:0:0:0:
256,192,88534,1,8,0:0:0:0:
256,192,88701,1,0,0:0:0:0:
256,192,88784,1,8,0:0:0:0:
256,192,88868,1,0,0:0:0:0:
256,192,88951,1,8,0:0:0:0:
256,192,89034,1,0,0:0:0:0:
256,192,89201,1,8,0:0:0:0:
256,192,89368,1,0,0:0:0:0:
256,192,89618,1,8,0:0:0:0:
256,192,89701,1,0,0:0:0:0:
256,192,89868,1,8,0:0:0:0:
256,192,90034,1,0,0:0:0:0:
256,192,90118,1,8,0:0:0:0:
256,192,90201,1,0,0:0:0:0:
256,192,90368,1,8,0:0:0:0:
256,192,90701,1,0,0:0:0:0:
256,192,90868,1,8,0:0:0:0:
256,192,90951,1,8,0:0:0:0:
256,192,91034,1,0,0:0:0:0:
256,192,91201,1,8,0:0:0:0:
256,192,91368,1,0,0:0:0:0:
256,192,91451,1,8,0:0:0:0:
256,192,91618,1,8,0:0:0:0:
256,192,91701,1,0,0:0:0:0:
256,192,91868,1,8,0:0:0:0:
256,192,92034,1,0,0:0:0:0:
256,192,92284,1,8,0:0:0:0:
256,192,92368,1,0,0:0:0:0:
256,192,92534,1,8,0:0:0:0:
256,192,92701,1,0,0:0:0:0:
256,192,92784,1,8,0:0:0:0:
256,192,92951,1,8,0:0:0:0:
256,192,93034,1,0,0:0:0:0:
256,192,93118,1,0,0:0:0:0:
256,192,93201,1,8,0:0:0:0:
256,192,93368,1,0,0:0:0:0:
256,192,93618,1,8,0:0:0:0:
256,192,93701,1,0,0:0:0:0:
256,192,93868,1,8,0:0:0:0:
256,192,94034,1,0,0:0:0:0:
256,192,94118,1,8,0:0:0:0:
256,192,94201,1,0,0:0:0:0:
256,192,94284,1,8,0:0:0:0:
256,192,94368,1,0,0:0:0:0:
256,192,94534,1,8,0:0:0:0:
256,192,94701,1,4,0:0:0:0:
256,192,95034,1,8,0:0:0:0:
256,192,95118,1,8,0:0:0:0:
256,192,95201,1,0,0:0:0:0:
256,192,95284,1,0,0:0:0:0:
256,192,95368,1,8,0:0:0:0:
256,192,95534,1,0,0:0:0:0:
256,192,95618,1,0,0:0:0:0:
256,192,95701,1,0,0:0:0:0:
256,192,95868,1,8,0:0:0:0:
256,192,96034,1,4,0:0:0:0:
256,192,96201,1,8,0:0:0:0:
256,192,96284,1,8,0:0:0:0:
256,192,96368,1,8,0:0:0:0:
256,192,96534,1,0,0:0:0:0:
256,192,96701,1,8,0:0:0:0:
256,192,96784,1,0,0:0:0:0:
256,192,96868,1,0,0:0:0:0:
256,192,97034,1,8,0:0:0:0:
256,192,97201,1,0,0:0:0:0:
256,192,97368,1,8,0:0:0:0:
256,192,97451,1,8,0:0:0:0:
256,192,97534,1,0,0:0:0:0:
256,192,97618,1,0,0:0:0:0:
256,192,97701,1,8,0:0:0:0:
256,192,97868,1,0,0:0:0:0:
256,192,98034,1,8,0:0:0:0:
256,192,98118,1,0,0:0:0:0:
256,192,98201,1,8,0:0:0:0:
256,192,98368,1,0,0:0:0:0:
256,192,98534,1,8,0:0:0:0:
256,192,98701,1,0,0:0:0:0:
256,192,98868,1,8,0:0:0:0:
256,192,98951,1,8,0:0:0:0:
256,192,99034,1,8,0:0:0:0:
256,192,99201,1,0,0:0:0:0:
256,192,99368,1,8,0:0:0:0:
256,192,99451,1,0,0:0:0:0:
256,192,99534,1,0,0:0:0:0:
256,192,99701,1,8,0:0:0:0:
256,192,99868,1,0,0:0:0:0:
256,192,100034,1,8,0:0:0:0:
256,192,100118,1,8,0:0:0:0:
256,192,100201,1,0,0:0:0:0:
256,192,100284,1,0,0:0:0:0:
256,192,100368,1,8,0:0:0:0:
256,192,100534,1,0,0:0:0:0:
256,192,100701,1,8,0:0:0:0:
256,192,101034,1,8,0:0:0:0:
256,192,101368,1,0,0:0:0:0:
256,192,101534,1,8,0:0:0:0:
256,192,101618,1,8,0:0:0:0:
256,192,101701,1,8,0:0:0:0:
256,192,101868,1,0,0:0:0:0:
256,192,102034,1,8,0:0:0:0:
256,192,102118,1,0,0:0:0:0:
256,192,102201,1,0,0:0:0:0:
256,192,102368,1,8,0:0:0:0:
256,192,102534,1,0,0:0:0:0:
256,192,102701,1,8,0:0:0:0:
256,192,102784,1,8,0:0:0:0:
256,192,102868,1,0,0:0:0:0:
256,192,102951,1,0,0:0:0:0:
256,192,103034,1,8,0:0:0:0:
256,192,103201,1,0,0:0:0:0:
256,192,103368,1,8,0:0:0:0:
256,192,103451,1,0,0:0:0:0:
256,192,103534,1,8,0:0:0:0:
256,192,103701,1,0,0:0:0:0:
256,192,103868,1,8,0:0:0:0:
256,192,104034,1,0,0:0:0:0:
256,192,104201,1,8,0:0:0:0:
256,192,104284,1,8,0:0:0:0:
256,192,104368,1,8,0:0:0:0:
256,192,104534,1,0,0:0:0:0:
256,192,104701,1,8,0:0:0:0:
256,192,104784,1,0,0:0:0:0:
256,192,104868,1,0,0:0:0:0:
256,192,105034,1,8,0:0:0:0:
256,192,105201,1,0,0:0:0:0:
256,192,105368,1,8,0:0:0:0:
256,192,105618,1,0,0:0:0:0:
256,192,105701,1,0,0:0:0:0:
256,192,105868,1,8,0:0:0:0:
256,192,106034,1,0,0:0:0:0:
256,192,106118,1,0,0:0:0:0:
256,192,106201,1,0,0:0:0:0:
256,192,106368,1,8,0:0:0:0:
256,192,106701,1,4,0:0:0:0:
256,192,106868,1,8,0:0:0:0:
256,192,106951,1,8,0:0:0:0:
256,192,107034,1,8,0:0:0:0:
256,192,107201,1,0,0:0:0:0:
256,192,107368,1,8,0:0:0:0:
256,192,107451,1,0,0:0:0:0:
256,192,107534,1,0,0:0:0:0:
256,192,107701,1,8,0:0:0:0:
256,192,107868,1,0,0:0:0:0:
256,192,108034,1,8,0:0:0:0:
256,192,108118,1,8,0:0:0:0:
256,192,108201,1,0,0:0:0:0:
256,192,108284,1,0,0:0:0:0:
256,192,108368,1,8,0:0:0:0:
256,192,108534,1,0,0:0:0:0:
256,192,108701,1,8,0:0:0:0:
256,192,108784,1,0,0:0:0:0:
256,192,108868,1,8,0:0:0:0:
256,192,109034,1,0,0:0:0:0:
256,192,109201,1,8,0:0:0:0:
256,192,109368,1,0,0:0:0:0:
256,192,109534,1,8,0:0:0:0:
256,192,109618,1,8,0:0:0:0:
256,192,109701,1,8,0:0:0:0:
256,192,109868,1,0,0:0:0:0:
256,192,110034,1,8,0:0:0:0:
256,192,110118,1,0,0:0:0:0:
256,192,110201,1,0,0:0:0:0:
256,192,110368,1,8,0:0:0:0:
256,192,110534,1,0,0:0:0:0:
256,192,110701,1,8,0:0:0:0:
256,192,110784,1,8,0:0:0:0:
256,192,110868,1,0,0:0:0:0:
256,192,110951,1,0,0:0:0:0:
256,192,111034,1,8,0:0:0:0:
256,192,111201,1,0,0:0:0:0:
256,192,111368,1,8,0:0:0:0:
256,192,111701,1,8,0:0:0:0:
256,192,112034,1,0,0:0:0:0:
256,192,112201,1,8,0:0:0:0:
256,192,112284,1,8,0:0:0:0:
256,192,112368,1,8,0:0:0:0:
256,192,112534,1,0,0:0:0:0:
256,192,112701,1,8,0:0:0:0:
256,192,112784,1,0,0:0:0:0:
256,192,112868,1,0,0:0:0:0:
256,192,113034,1,8,0:0:0:0:
256,192,113201,1,0,0:0:0:0:
256,192,113368,1,8,0:0:0:0:
256,192,113451,1,8,0:0:0:0:
256,192,113534,1,0,0:0:0:0:
256,192,113618,1,0,0:0:0:0:
256,192,113701,1,8,0:0:0:0:
256,192,113868,1,0,0:0:0:0:
256,192,114034,1,8,0:0:0:0:
256,192,114118,1,0,0:0:0:0:
256,192,114201,1,8,0:0:0:0:
256,192,114368,1,0,0:0:0:0:
256,192,114534,1,8,0:0:0:0:
256,192,114701,1,4,0:0:0:0:
256,192,115201,1,0,0:0:0:0:
256,192,115368,1,8,0:0:0:0:
256,192,115868,1,8,0:0:0:0:
256,192,116368,1,8,0:0:0:0:
256,192,116701,1,0,0:0:0:0:
256,192,116868,1,8,0:0:0:0:
256,192,116951,1,8,0:0:0:0:
256,192,117034,1,0,0:0:0:0:
256,192,117201,1,8,0:0:0:0:
256,192,117368,1,0,0:0:0:0:
256,192,117451,1,0,0:0:0:0:
256,192,117534,1,8,0:0:0:0:
256,192,117618,1,0,0:0:0:0:
256,192,117701,1,8,0:0:0:0:
256,192,117868,1,0,0:0:0:0:
256,192,118034,1,8,0:0:0:0:
256,192,118118,1,0,0:0:0:0:
256,192,118201,1,0,0:0:0:0:
256,192,118368,1,8,0:0:0:0:
256,192,118534,1,0,0:0:0:0:
256,192,118701,1,8,0:0:0:0:
256,192,118784,1,8,0:0:0:0:
256,192,118868,1,0,0:0:0:0:
256,192,118951,1,0,0:0:0:0:
256,192,119034,1,8,0:0:0:0:
256,192,119201,1,0,0:0:0:0:
256,192,119368,1,8,0:0:0:0:
256,192,119451,1,0,0:0:0:0:
256,192,119534,1,8,0:0:0:0:
256,192,119701,1,0,0:0:0:0:
256,192,119784,1,0,0:0:0:0:
256,192,119868,1,8,0:0:0:0:
256,192,120034,1,0,0:0:0:0:
256,192,120118,1,0,0:0:0:0:
256,192,120201,1,8,0:0:0:0:
256,192,120284,1,0,0:0:0:0:
256,192,120368,1,8,0:0:0:0:
256,192,120534,1,0,0:0:0:0:
256,192,120701,1,8,0:0:0:0:
256,192,120784,1,0,0:0:0:0:
256,192,120868,1,0,0:0:0:0:
256,192,121034,1,8,0:0:0:0:
256,192,121201,1,0,0:0:0:0:
256,192,121368,1,8,0:0:0:0:
256,192,121451,1,8,0:0:0:0:
256,192,121534,1,0,0:0:0:0:
256,192,121618,1,0,0:0:0:0:
256,192,121701,1,8,0:0:0:0:
256,192,121868,1,0,0:0:0:0:
256,192,122034,1,8,0:0:0:0:
256,192,122368,1,8,0:0:0:0:
256,192,122701,1,0,0:0:0:0:
256,192,122784,1,0,0:0:0:0:
256,192,122868,1,8,0:0:0:0:
256,192,122951,1,0,0:0:0:0:
256,192,123034,1,8,0:0:0:0:
256,192,123201,1,0,0:0:0:0:
256,192,123368,1,8,0:0:0:0:
256,192,123451,1,0,0:0:0:0:
256,192,123534,1,0,0:0:0:0:
256,192,123701,1,8,0:0:0:0:
256,192,123868,1,0,0:0:0:0:
256,192,124034,1,8,0:0:0:0:
256,192,124118,1,8,0:0:0:0:
256,192,124201,1,0,0:0:0:0:
256,192,124284,1,0,0:0:0:0:
256,192,124368,1,8,0:0:0:0:
256,192,124534,1,0,0:0:0:0:
256,192,124701,1,8,0:0:0:0:
256,192,124784,1,0,0:0:0:0:
256,192,124868,1,8,0:0:0:0:
256,192,125034,1,0,0:0:0:0:
256,192,125118,1,0,0:0:0:0:
256,192,125201,1,8,0:0:0:0:
256,192,125368,1,0,0:0:0:0:
256,192,125534,1,8,0:0:0:0:
256,192,125618,1,0,0:0:0:0:
256,192,125784,1,8,0:0:0:0:
256,192,125868,1,0,0:0:0:0:
256,192,126034,1,8,0:0:0:0:
256,192,126201,1,0,0:0:0:0:
256,192,126284,1,8,0:0:0:0:
256,192,126451,1,0,0:0:0:0:
256,192,126534,1,8,0:0:0:0:
256,192,126701,1,0,0:0:0:0:
256,192,126868,1,0,0:0:0:0:
256,192,127034,1,8,0:0:0:0:
256,192,127368,1,0,0:0:0:0:
256,192,127534,1,8,0:0:0:0:
256,192,127868,1,8,0:0:0:0:
256,192,128034,1,0,0:0:0:0:
256,192,128118,1,0,0:0:0:0:
256,192,128201,1,8,0:0:0:0:
256,192,128284,1,0,0:0:0:0:
256,192,128368,1,8,0:0:0:0:
256,192,128534,1,0,0:0:0:0:
256,192,128701,1,8,0:0:0:0:
256,192,128784,1,0,0:0:0:0:
256,192,128868,1,0,0:0:0:0:
256,192,129034,1,8,0:0:0:0:
256,192,129201,1,0,0:0:0:0:
256,192,129368,1,8,0:0:0:0:
256,192,129451,1,8,0:0:0:0:
256,192,129534,1,0,0:0:0:0:
256,192,129618,1,0,0:0:0:0:
256,192,129701,1,8,0:0:0:0:
256,192,129868,1,0,0:0:0:0:
256,192,130034,1,8,0:0:0:0:
256,192,130118,1,0,0:0:0:0:
256,192,130201,1,8,0:0:0:0:
256,192,130368,1,0,0:0:0:0:
256,192,130451,1,0,0:0:0:0:
256,192,130534,1,8,0:0:0:0:
256,192,130701,1,0,0:0:0:0:
256,192,130784,1,0,0:0:0:0:
256,192,130868,1,8,0:0:0:0:
256,192,130951,1,0,0:0:0:0:
256,192,131034,1,8,0:0:0:0:
256,192,131201,1,0,0:0:0:0:
256,192,131368,1,8,0:0:0:0:
256,192,131451,1,0,0:0:0:0:
256,192,131534,1,0,0:0:0:0:
256,192,131701,1,8,0:0:0:0:
256,192,131868,1,0,0:0:0:0:
256,192,132034,1,8,0:0:0:0:
256,192,132118,1,8,0:0:0:0:
256,192,132201,1,0,0:0:0:0:
256,192,132284,1,0,0:0:0:0:
256,192,132368,1,8,0:0:0:0:
256,192,132534,1,0,0:0:0:0:
256,192,132701,1,8,0:0:0:0:
256,192,133034,1,8,0:0:0:0:
256,192,133368,1,0,0:0:0:0:
256,192,133451,1,0,0:0:0:0:
256,192,133534,1,8,0:0:0:0:
256,192,133618,1,0,0:0:0:0:
256,192,133701,1,8,0:0:0:0:
256,192,133868,1,0,0:0:0:0:
256,192,134034,1,8,0:0:0:0:
256,192,134118,1,0,0:0:0:0:
256,192,134201,1,0,0:0:0:0:
256,192,134368,1,8,0:0:0:0:
256,192,134534,1,0,0:0:0:0:
256,192,134701,1,8,0:0:0:0:
256,192,134784,1,8,0:0:0:0:
256,192,134868,1,0,0:0:0:0:
256,192,134951,1,0,0:0:0:0:
256,192,135034,1,8,0:0:0:0:
256,192,135201,1,0,0:0:0:0:
256,192,135368,1,8,0:0:0:0:
256,192,135451,1,0,0:0:0:0:
256,192,135534,1,8,0:0:0:0:
256,192,135701,1,0,0:0:0:0:
256,192,135784,1,0,0:0:0:0:
256,192,135868,1,8,0:0:0:0:
256,192,136034,1,4,0:0:0:0:
256,192,136534,1,0,0:0:0:0:
256,192,136701,1,8,0:0:0:0:
256,192,137201,1,8,0:0:0:0:
256,192,137534,1,0,0:0:0:0:
256,192,137701,1,0,0:0:0:0:
256,192,137868,1,0,0:0:0:0:
256,192,138034,1,0,0:0:0:0:
256,192,138201,1,0,0:0:0:0:
256,192,138368,1,8,0:0:0:0:
256,192,138451,1,8,0:0:0:0:
256,192,138534,1,8,0:0:0:0:
256,192,138701,1,4,0:0:0:0:
256,192,139868,1,0,0:0:0:0:
256,192,140534,1,0,0:0:0:0:
256,192,141368,1,0,0:0:0:0:
256,192,142534,1,0,0:0:0:0:
256,192,144034,1,8,0:0:0:0:
256,192,145201,1,8,0:0:0:0:
256,192,146034,1,8,0:0:0:0:
256,192,146701,1,8,0:0:0:0:
256,192,147868,1,8,0:0:0:0:
256,192,148534,1,8,0:0:0:0:
256,192,149368,1,4,0:0:0:0:
256,192,149868,1,8,0:0:0:0:
256,192,150034,1,0,0:0:0:0:
256,192,150368,1,0,0:0:0:0:
256,192,150701,1,8,0:0:0:0:
256,192,151201,1,0,0:0:0:0:
256,192,151368,1,8,0:0:0:0:
256,192,151701,1,8,0:0:0:0:
256,192,151868,1,8,0:0:0:0:
256,192,152034,1,8,0:0:0:0:
256,192,152284,1,0,0:0:0:0:
256,192,152534,1,0,0:0:0:0:
256,192,152701,1,8,0:0:0:0:
256,192,153034,1,8,0:0:0:0:
256,192,153201,1,8,0:0:0:0:
256,192,153368,1,8,0:0:0:0:
256,192,153618,1,0,0:0:0:0:
256,192,153868,1,0,0:0:0:0:
256,192,154034,1,8,0:0:0:0:
256,192,154368,1,8,0:0:0:0:
256,192,154534,1,8,0:0:0:0:
256,192,154701,1,8,0:0:0:0:
256,192,154951,1,0,0:0:0:0:
256,192,155201,1,0,0:0:0:0:
256,192,155368,1,8,0:0:0:0:
256,192,155618,1,0,0:0:0:0:
256,192,155868,1,0,0:0:0:0:
256,192,156034,1,8,0:0:0:0:
256,192,156284,1,8,0:0:0:0:
256,192,156534,1,8,0:0:0:0:
256,192,156701,1,0,0:0:0:0:
256,192,156951,1,8,0:0:0:0:
256,192,157201,1,8,0:0:0:0:
256,192,157368,1,0,0:0:0:0:
256,192,157618,1,8,0:0:0:0:
256,192,157868,1,0,0:0:0:0:
256,192,158118,1,8,0:0:0:0:
256,192,158368,1,8,0:0:0:0:
256,192,158701,1,0,0:0:0:0:
256,192,158868,1,8,0:0:0:0:
256,192,158951,1,8,0:0:0:0:
256,192,159034,1,0,0:0:0:0:
256,192,159118,1,8,0:0:0:0:
256,192,159201,1,8,0:0:0:0:
256,192,159368,1,0,0:0:0:0:
256,192,159451,1,8,0:0:0:0:
256,192,159534,1,0,0:0:0:0:
256,192,159701,1,8,0:0:0:0:
256,192,160034,1,4,0:0:0:0:
256,192,160284,1,8,0:0:0:0:
256,192,160368,1,0,0:0:0:0:
256,192,160534,1,8,0:0:0:0:
256,192,160701,1,0,0:0:0:0:
256,192,160951,1,8,0:0:0:0:
256,192,161034,1,0,0:0:0:0:
256,192,161201,1,0,0:0:0:0:
256,192,161368,1,8,0:0:0:0:
256,192,161701,1,0,0:0:0:0:
256,192,161868,1,8,0:0:0:0:
256,192,162034,1,0,0:0:0:0:
256,192,162118,1,8,0:0:0:0:
256,192,162284,1,8,0:0:0:0:
256,192,162368,1,0,0:0:0:0:
256,192,162534,1,8,0:0:0:0:
256,192,162701,1,0,0:0:0:0:
256,192,163034,1,0,0:0:0:0:
256,192,163201,1,8,0:0:0:0:
256,192,163368,1,0,0:0:0:0:
256,192,163451,1,8,0:0:0:0:
256,192,163618,1,8,0:0:0:0:
256,192,163701,1,0,0:0:0:0:
256,192,163784,1,0,0:0:0:0:
256,192,163868,1,8,0:0:0:0:
256,192,164034,1,0,0:0:0:0:
256,192,164368,1,0,0:0:0:0:
256,192,164534,1,8,0:0:0:0:
256,192,164701,1,0,0:0:0:0:
256,192,164784,1,8,0:0:0:0:
256,192,164951,1,8,0:0:0:0:
256,192,165034,1,0,0:0:0:0:
256,192,165201,1,8,0:0:0:0:
256,192,165284,1,8,0:0:0:0:
256,192,165368,1,0,0:0:0:0:
256,192,165618,1,8,0:0:0:0:
256,192,165701,1,0,0:0:0:0:
256,192,165868,1,8,0:0:0:0:
256,192,166034,1,0,0:0:0:0:
256,192,166284,1,8,0:0:0:0:
256,192,166368,1,0,0:0:0:0:
256,192,166534,1,0,0:0:0:0:
256,192,166701,1,8,0:0:0:0:
256,192,167034,1,0,0:0:0:0:
256,192,167201,1,8,0:0:0:0:
256,192,167368,1,0,0:0:0:0:
256,192,167451,1,8,0:0:0:0:
256,192,167618,1,8,0:0:0:0:
256,192,167701,1,0,0:0:0:0:
256,192,167868,1,8,0:0:0:0:
256,192,168034,1,0,0:0:0:0:
256,192,168368,1,0,0:0:0:0:
256,192,168534,1,8,0:0:0:0:
256,192,168701,1,0,0:0:0:0:
256,192,168784,1,8,0:0:0:0:
256,192,168951,1,8,0:0:0:0:
256,192,169034,1,0,0:0:0:0:
256,192,169118,1,0,0:0:0:0:
256,192,169201,1,8,0:0:0:0:
256,192,169368,1,4,0:0:0:0:
256,192,169618,1,8,0:0:0:0:
256,192,169868,1,8,0:0:0:0:
256,192,170118,1,8,0:0:0:0:
256,192,170284,1,0,0:0:0:0:
256,192,170368,1,8,0:0:0:0:
256,192,170701,1,4,0:0:0:0:
256,192,170868,1,8,0:0:0:0:
256,192,170951,1,8,0:0:0:0:
256,192,171034,1,0,0:0:0:0:
256,192,171201,1,8,0:0:0:0:
256,192,171368,1,0,0:0:0:0:
256,192,171451,1,8,0:0:0:0:
256,192,171618,1,8,0:0:0:0:
256,192,171701,1,0,0:0:0:0:
256,192,171868,1,8,0:0:0:0:
256,192,172034,1,0,0:0:0:0:
256,192,172284,1,8,0:0:0:0:
256,192,172368,1,0,0:0:0:0:
256,192,172534,1,8,0:0:0:0:
256,192,172701,1,0,0:0:0:0:
256,192,172784,1,8,0:0:0:0:
256,192,172951,1,8,0:0:0:0:
256,192,173034,1,0,0:0:0:0:
256,192,173118,1,0,0:0:0:0:
256,192,173201,1,8,0:0:0:0:
256,192,173368,1,0,0:0:0:0:
256,192,173618,1,8,0:0:0:0:
256,192,173701,1,0,0:0:0:0:
256,192,173868,1,8,0:0:0:0:
256,192,174034,1,0,0:0:0:0:
256,192,174118,1,8,0:0:0:0:
256,192,174201,1,0,0:0:0:0:
256,192,174284,1,8,0:0:0:0:
256,192,174368,1,0,0:0:0:0:
256,192,174534,1,8,0:0:0:0:
256,192,174701,1,0,0:0:0:0:
256,192,174951,1,8,0:0:0:0:
256,192,175034,1,0,0:0:0:0:
256,192,175201,1,8,0:0:0:0:
256,192,175368,1,0,0:0:0:0:
256,192,175451,1,8,0:0:0:0:
256,192,175534,1,0,0:0:0:0:
256,192,175701,1,8,0:0:0:0:
256,192,176034,1,0,0:0:0:0:
256,192,176201,1,8,0:0:0:0:
256,192,176284,1,8,0:0:0:0:
256,192,176368,1,0,0:0:0:0:
256,192,176534,1,8,0:0:0:0:
256,192,176701,1,0,0:0:0:0:
256,192,176784,1,8,0:0:0:0:
256,192,176951,1,8,0:0:0:0:
256,192,177034,1,0,0:0:0:0:
256,192,177201,1,8,0:0:0:0:
256,192,177368,1,0,0:0:0:0:
256,192,177618,1,8,0:0:0:0:
256,192,177701,1,0,0:0:0:0:
256,192,177868,1,8,0:0:0:0:
256,192,178034,1,0,0:0:0:0:
256,192,178118,1,8,0:0:0:0:
256,192,178284,1,8,0:0:0:0:
256,192,178368,1,0,0:0:0:0:
256,192,178451,1,0,0:0:0:0:
256,192,178534,1,8,0:0:0:0:
256,192,178701,1,0,0:0:0:0:
256,192,178951,1,8,0:0:0:0:
256,192,179034,1,0,0:0:0:0:
256,192,179201,1,8,0:0:0:0:
256,192,179368,1,0,0:0:0:0:
256,192,179451,1,8,0:0:0:0:
256,192,179534,1,0,0:0:0:0:
256,192,179618,1,8,0:0:0:0:
256,192,179701,1,0,0:0:0:0:
256,192,179868,1,8,0:0:0:0:
256,192,180034,1,4,0:0:0:0:
256,192,180368,1,8,0:0:0:0:
256,192,180451,1,8,0:0:0:0:
256,192,180534,1,0,0:0:0:0:
256,192,180618,1,0,0:0:0:0:
256,192,180701,1,8,0:0:0:0:
256,192,180868,1,0,0:0:0:0:
256,192,180951,1,0,0:0:0:0:
256,192,181034,1,0,0:0:0:0:
256,192,181201,1,8,0:0:0:0:
256,192,181368,1,4,0:0:0:0:
256,192,181534,1,8,0:0:0:0:
256,192,181618,1,8,0:0:0:0:
256,192,181701,1,8,0:0:0:0:
256,192,181868,1,0,0:0:0:0:
256,192,182034,1,8,0:0:0:0:
256,192,182118,1,0,0:0:0:0:
256,192,182201,1,0,0:0:0:0:
256,192,182368,1,8,0:0:0:0:
256,192,182534,1,0,0:0:0:0:
256,192,182701,1,8,0:0:0:0:
256,192,182784,1,8,0:0:0:0:
256,192,182868,1,0,0:0:0:0:
256,192,182951,1,0,0:0:0:0:
256,192,183034,1,8,0:0:0:0:
256,192,183201,1,0,0:0:0:0:
256,192,183368,1,8,0:0:0:0:
256,192,183451,1,0,0:0:0:0:
256,192,183534,1,8,0:0:0:0:
256,192,183701,1,0,0:0:0:0:
256,192,183868,1,8,0:0:0:0:
256,192,184034,1,0,0:0:0:0:
256,192,184201,1,8,0:0:0:0:
256,192,184284,1,8,0:0:0:0:
256,192,184368,1,8,0:0:0:0:
256,192,184534,1,0,0:0:0:0:
256,192,184701,1,8,0:0:0:0:
256,192,184784,1,0,0:0:0:0:
256,192,184868,1,0,0:0:0:0:
256,192,185034,1,8,0:0:0:0:
256,192,185201,1,0,0:0:0:0:
256,192,185368,1,8,0:0:0:0:
256,192,185451,1,8,0:0:0:0:
256,192,185534,1,0,0:0:0:0:
256,192,185618,1,0,0:0:0:0:
256,192,185701,1,8,0:0:0:0:
256,192,185868,1,0,0:0:0:0:
256,192,186034,1,8,0:0:0:0:
256,192,186368,1,8,0:0:0:0:
256,192,186701,1,0,0:0:0:0:
256,192,186868,1,8,0:0:0:0:
256,192,186951,1,8,0:0:0:0:
256,192,187034,1,8,0:0:0:0:
256,192,187201,1,0,0:0:0:0:
256,192,187368,1,8,0:0:0:0:
256,192,187451,1,0,0:0:0:0:
256,192,187534,1,0,0:0:0:0:
256,192,187701,1,8,0:0:0:0:
256,192,187868,1,0,0:0:0:0:
256,192,188034,1,8,0:0:0:0:
256,192,188118,1,8,0:0:0:0:
256,192,188201,1,0,0:0:0:0:
256,192,188284,1,0,0:0:0:0:
256,192,188368,1,8,0:0:0:0:
256,192,188534,1,0,0:0:0:0:
256,192,188701,1,8,0:0:0:0:
256,192,188784,1,0,0:0:0:0:
256,192,188868,1,8,0:0:0:0:
256,192,189034,1,0,0:0:0:0:
256,192,189201,1,8,0:0:0:0:
256,192,189368,1,0,0:0:0:0:
256,192,189534,1,8,0:0:0:0:
256,192,189618,1,8,0:0:0:0:
256,192,189701,1,8,0:0:0:0:
256,192,189868,1,0,0:0:0:0:
256,192,190034,1,8,0:0:0:0:
256,192,190118,1,0,0:0:0:0:
256,192,190201,1,0,0:0:0:0:
256,192,190368,1,8,0:0:0:0:
256,192,190534,1,0,0:0:0:0:
256,192,190701,1,8,0:0:0:0:
256,192,190951,1,0,0:0:0:0:
256,192,191034,1,0,0:0:0:0:
256,192,191201,1,8,0:0:0:0:
256,192,191368,1,0,0:0:0:0:
256,192,191451,1,0,0:0:0:0:
256,192,191534,1,0,0:0:0:0:
256,192,191701,1,8,0:0:0:0:
256,192,192034,1,4,0:0:0:0:
256,192,192201,1,8,0:0:0:0:
256,192,192284,1,8,0:0:0:0:
256,192,192368,1,8,0:0:0:0:
256,192,192534,1,0,0:0:0:0:
256,192,192701,1,8,0:0:0:0:
256,192,192784,1,0,0:0:0:0:
256,192,192868,1,0,0:0:0:0:
256,192,193034,1,8,0:0:0:0:
256,192,193201,1,0,0:0:0:0:
256,192,193368,1,8,0:0:0:0:
256,192,193451,1,8,0:0:0:0:
256,192,193534,1,0,0:0:0:0:
256,192,193618,1,0,0:0:0:0:
256,192,193701,1,8,0:0:0:0:
256,192,193868,1,0,0:0:0:0:
256,192,194034,1,8,0:0:0:0:
256,192,194118,1,0,0:0:0:0:
256,192,194201,1,8,0:0:0:0:
256,192,194368,1,0,0:0:0:0:
256,192,194534,1,8,0:0:0:0:
256,192,194701,1,0,0:0:0:0:
256,192,194868,1,8,0:0:0:0:
256,192,194951,1,8,0:0:0:0:
256,192,195034,1,8,0:0:0:0:
256,192,195201,1,0,0:0:0:0:
256,192,195368,1,8,0:0:0:0:
256,192,195451,1,0,0:0:0:0:
256,192,195534,1,0,0:0:0:0:
256,192,195701,1,8,0:0:0:0:
256,192,195868,1,0,0:0:0:0:
256,192,196034,1,8,0:0:0:0:
256,192,196118,1,8,0:0:0:0:
256,192,196201,1,0,0:0:0:0:
256,192,196284,1,0,0:0:0:0:
256,192,196368,1,8,0:0:0:0:
256,192,196534,1,0,0:0:0:0:
256,192,196701,1,8,0:0:0:0:
256,192,197034,1,8,0:0:0:0:
256,192,197368,1,0,0:0:0:0:
256,192,197534,1,8,0:0:0:0:
256,192,197618,1,8,0:0:0:0:
256,192,197701,1,8,0:0:0:0:
256,192,197868,1,0,0:0:0:0:
256,192,198034,1,8,0:0:0:0:
256,192,198118,1,0,0:0:0:0:
256,192,198201,1,0,0:0:0:0:
256,192,198368,1,8,0:0:0:0:
256,192,198534,1,0,0:0:0:0:
256,192,198701,1,8,0:0:0:0:
256,192,198784,1,8,0:0:0:0:
256,192,198868,1,0,0:0:0:0:
256,192,198951,1,0,0:0:0:0:
256,192,199034,1,8,0:0:0:0:
256,192,199201,1,0,0:0:0:0:
256,192,199368,1,8,0:0:0:0:
256,192,199451,1,0,0:0:0:0:
256,192,199534,1,8,0:0:0:0:
256,192,199701,1,0,0:0:0:0:
256,192,199868,1,8,0:0:0:0:
256,192,200034,1,4,0:0:0:0:
256,192,200534,1,0,0:0:0:0:
256,192,200701,1,8,0:0:0:0:
256,192,201201,1,8,0:0:0:0:
256,192,201701,1,8,0:0:0:0:
256,192,202034,1,0,0:0:0:0:
256,192,202201,1,8,0:0:0:0:
256,192,202284,1,8,0:0:0:0:
256,192,202368,1,0,0:0:0:0:
256,192,202534,1,8,0:0:0:0:
256,192,202701,1,4,0:0:0:0:
256,192,202868,1,8,0:0:0:0:
256,192,202951,1,0,0:0:0:0:
256,192,203034,1,0,0:0:0:0:
256,192,203201,1,8,0:0:0:0:
256,192,203368,1,0,0:0:0:0:
256,192,203451,1,0,0:0:0:0:
256,192,203534,1,8,0:0:0:0:
256,192,203618,1,0,0:0:0:0:
256,192,203701,1,0,0:0:0:0:
256,192,203868,1,8,0:0:0:0:
256,192,204034,1,0,0:0:0:0:
256,192,204201,1,8,0:0:0:0:
256,192,204284,1,8,0:0:0:0:
256,192,204368,1,0,0:0:0:0:
256,192,204534,1,8,0:0:0:0:
256,192,204701,1,0,0:0:0:0:
256,192,204784,1,0,0:0:0:0:
256,192,204868,1,8,0:0:0:0:
256,192,204951,1,8,0:0:0:0:
256,192,205034,1,0,0:0:0:0:
256,192,205201,1,8,0:0:0:0:
256,192,205368,1,0,0:0:0:0:
256,192,205534,1,8,0:0:0:0:
256,192,205618,1,0,0:0:0:0:
256,192,205701,1,0,0:0:0:0:
256,192,205868,1,8,0:0:0:0:
256,192,206034,1,0,0:0:0:0:
256,192,206118,1,0,0:0:0:0:
256,192,206201,1,8,0:0:0:0:
256,192,206284,1,0,0:0:0:0:
256,192,206368,1,0,0:0:0:0:
256,192,206534,1,8,0:0:0:0:
256,192,206701,1,0,0:0:0:0:
256,192,206868,1,8,0:0:0:0:
256,192,206951,1,8,0:0:0:0:
256,192,207034,1,0,0:0:0:0:
256,192,207201,1,8,0:0:0:0:
256,192,207368,1,0,0:0:0:0:
256,192,207451,1,0,0:0:0:0:
256,192,207534,1,8,0:0:0:0:
256,192,207701,1,0,0:0:0:0:
256,192,208034,1,0,0:0:0:0:
256,192,208201,1,8,0:0:0:0:
256,192,208284,1,0,0:0:0:0:
256,192,208368,1,0,0:0:0:0:
256,192,208534,1,8,0:0:0:0:
256,192,208701,1,0,0:0:0:0:
256,192,208784,1,0,0:0:0:0:
256,192,208868,1,8,0:0:0:0:
256,192,208951,1,0,0:0:0:0:
256,192,209034,1,0,0:0:0:0:
256,192,209201,1,8,0:0:0:0:
256,192,209368,1,0,0:0:0:0:
256,192,209534,1,8,0:0:0:0:
256,192,209618,1,8,0:0:0:0:
256,192,209701,1,0,0:0:0:0:
256,192,209868,1,8,0:0:0:0:
256,192,210034,1,0,0:0:0:0:
256,192,210118,1,0,0:0:0:0:
256,192,210201,1,8,0:0:0:0:
256,192,210284,1,8,0:0:0:0:
256,192,210368,1,0,0:0:0:0:
256,192,210534,1,8,0:0:0:0:
256,192,210701,1,0,0:0:0:0:
256,192,210868,1,8,0:0:0:0:
256,192,210951,1,0,0:0:0:0:
256,192,211034,1,0,0:0:0:0:
256,192,211201,1,8,0:0:0:0:
256,192,211368,1,0,0:0:0:0:
256,192,211451,1,0,0:0:0:0:
256,192,211534,1,8,0:0:0:0:
256,192,211618,1,0,0:0:0:0:
256,192,211701,1,0,0:0:0:0:
256,192,211868,1,8,0:0:0:0:
256,192,212034,1,0,0:0:0:0:
256,192,212201,1,0,0:0:0:0:
256,192,212368,1,8,0:0:0:0:
256,192,212701,1,0,0:0:0:0:
256,192,212868,1,8,0:0:0:0:
256,192,213201,1,8,0:0:0:0:
256,192,213368,1,4,0:0:0:0:
256,192,213534,1,8,0:0:0:0:
256,192,213618,1,0,0:0:0:0:
256,192,213701,1,0,0:0:0:0:
256,192,213868,1,8,0:0:0:0:
256,192,214034,1,0,0:0:0:0:
256,192,214118,1,0,0:0:0:0:
256,192,214201,1,8,0:0:0:0:
256,192,214368,1,0,0:0:0:0:
256,192,214701,1,0,0:0:0:0:
256,192,214868,1,8,0:0:0:0:
256,192,214951,1,8,0:0:0:0:
256,192,215034,1,0,0:0:0:0:
256,192,215201,1,8,0:0:0:0:
256,192,215368,1,0,0:0:0:0:
256,192,215451,1,0,0:0:0:0:
256,192,215534,1,8,0:0:0:0:
256,192,215701,1,0,0:0:0:0:
256,192,216034,1,0,0:0:0:0:
256,192,216201,1,8,0:0:0:0:
256,192,216284,1,0,0:0:0:0:
256,192,216368,1,0,0:0:0:0:
256,192,216534,1,8,0:0:0:0:
256,192,216701,1,0,0:0:0:0:
256,192,216784,1,0,0:0:0:0:
256,192,216868,1,8,0:0:0:0:
256,192,217034,1,0,0:0:0:0:
256,192,217368,1,0,0:0:0:0:
256,192,217534,1,8,0:0:0:0:
256,192,217618,1,8,0:0:0:0:
256,192,217701,1,0,0:0:0:0:
256,192,217868,1,8,0:0:0:0:
256,192,218034,1,0,0:0:0:0:
256,192,218118,1,0,0:0:0:0:
256,192,218201,1,8,0:0:0:0:
256,192,218368,1,0,0:0:0:0:
256,192,218701,1,0,0:0:0:0:
256,192,218868,1,8,0:0:0:0:
256,192,218951,1,0,0:0:0:0:
256,192,219034,1,0,0:0:0:0:
256,192,219201,1,8,0:0:0:0:
256,192,219368,1,0,0:0:0:0:
256,192,219451,1,0,0:0:0:0:
256,192,219534,1,8,0:0:0:0:
256,192,219701,1,0,0:0:0:0:
256,192,220034,1,0,0:0:0:0:
256,192,220201,1,8,0:0:0:0:
256,192,220284,1,8,0:0:0:0:
256,192,220368,1,0,0:0:0:0:
256,192,220534,1,8,0:0:0:0:
256,192,220701,1,0,0:0:0:0:
256,192,220784,1,0,0:0:0:0:
256,192,220868,1,8,0:0:0:0:
256,192,221034,1,0,0:0:0:0:
256,192,221368,1,4,0:0:0:0:
256,192,221868,1,0,0:0:0:0:
256,192,222034,1,8,0:0:0:0:
256,192,222534,1,8,0:0:0:0:
256,192,222868,1,0,0:0:0:0:
256,192,223034,1,0,0:0:0:0:
256,192,223201,1,0,0:0:0:0:
256,192,223368,1,0,0:0:0:0:
256,192,223534,1,0,0:0:0:0:
256,192,223701,1,8,0:0:0:0:
