osu file format v14

[General]
AudioFilename: PSYQUI - Education (thank u Peter).mp3
AudioLeadIn: 0
PreviewTime: 158707
Countdown: 0
SampleSet: Soft
StackLeniency: 0.7
Mode: 3
LetterboxInBreaks: 0
SpecialStyle: 0
WidescreenStoryboard: 0

[Editor]
Bookmarks: 7458,12792,23459,34126,44794,55461,66128,76795,87463,98130,108797,119464,130132,140799,151466,162133,172801,183468,194135,204802,215470,225804
DistanceSpacing: 1.2
BeatDivisor: 4
GridSize: 32
TimelineZoom: 2.3

[Metadata]
Title:Education
TitleUnicode:Education
Artist:PSYQUI
ArtistUnicode:PSYQUI
Creator:Dergo
Version:graduation
Source:
Tags:TECH CORE EVANGELIX 01 MEGAREX Electronic Future Bass FAMoss ByeForNow
BeatmapID:2058813
BeatmapSetID:983953

[Difficulty]
HPDrainRate:8.5
CircleSize:4
OverallDifficulty:7.7
ApproachRate:5
SliderMultiplier:1.4
SliderTickRate:1

[Events]
//Background and Video events
0,0,"education bg.jpg",0,0
//Break Periods
//Storyboard Layer 0 (Background)
//Storyboard Layer 1 (Fail)
//Storyboard Layer 2 (Pass)
//Storyboard Layer 3 (Foreground)
//Storyboard Layer 4 (Overlay)
//Storyboard Sound Samples

[TimingPoints]
41,333.333333333333,4,2,1,50,1,0
74707,-100,4,2,1,50,0,1
96040,-100,4,2,1,50,0,0
160040,-100,4,2,1,50,0,1
181374,-100,4,2,1,50,0,0

[HitObjects]
192,192,41,128,0,374:0:0:0:0:
448,192,41,128,0,374:0:0:0:0:
192,192,707,128,0,1040:0:0:0:0:
448,192,707,128,0,1040:0:0:0:0:
192,192,1374,128,0,1707:0:0:0:0:
448,192,1374,128,0,1707:0:0:0:0:
192,192,2040,128,0,2374:0:0:0:0:
448,192,2040,128,0,2374:0:0:0:0:
192,192,2707,128,0,3040:0:0:0:0:
448,192,2707,128,0,3040:0:0:0:0:
192,192,3374,128,0,3707:0:0:0:0:
448,192,3374,128,0,3707:0:0:0:0:
192,192,4040,128,0,4374:0:0:0:0:
448,192,4040,128,0,4374:0:0:0:0:
192,192,4707,128,0,5040:0:0:0:0:
448,192,4707,128,0,5040:0:0:0:0:
64,192,5374,1,2,0:0:0:0:
192,192,5374,128,0,5707:0:0:0:0:
320,192,5374,1,0,0:0:0:0:
448,192,5374,128,0,5707:0:0:0:0:
64,192,5540,1,2,0:0:0:0:
320,192,5707,1,0,0:0:0:70:LR_Snare Drum .wav
64,192,5874,1,0,0:0:0:0:
320,192,5957,1,0,0:0:0:70:LR_Snare Drum .wav
192,192,6040,128,0,6374:0:0:0:0:
448,192,6040,128,0,6374:0:0:0:0:
320,192,6124,1,0,0:0:0:70:LR_Drum Rpd x2.wav
64,192,6207,1,2,0:0:0:0:
320,192,6207,1,0,0:0:0:0:
64,192,6290,1,2,0:0:0:0:
320,192,6374,1,0,0:0:0:70:LR_Snare Drum .wav
64,192,6540,1,0,0:0:0:0:
320,192,6624,1,0,0:0:0:70:LR_Drum Rpd x2.wav
64,192,6707,1,2,0:0:0:0:
192,192,6707,128,0,7040:0:0:0:0:
320,192,6707,1,0,0:0:0:0:
448,192,6707,128,0,7040:0:0:0:0:
64,192,6874,1,2,0:0:0:0:
320,192,7040,1,0,0:0:0:70:LR_Snare Drum .wav
64,192,7207,1,0,0:0:0:0:
320,192,7290,1,0,0:0:0:70:LR_Snare Drum .wav
192,192,7374,128,0,7707:0:0:0:0:
448,192,7374,128,0,7707:0:0:0:0:
320,192,7457,1,0,0:0:0:70:LR_Drum Rpd x2.wav
64,192,7540,1,2,0:0:0:0:
320,192,7540,1,0,0:0:0:0:
64,192,7624,1,2,0:0:0:0:
320,192,7707,1,0,0:0:0:70:LR_Snare Drum .wav
64,192,7874,1,0,0:0:0:0:
320,192,7957,1,0,0:0:0:70:LR_Drum Rpd x2.wav
64,192,8040,1,2,0:0:0:0:
192,192,8040,128,0,8374:0:0:0:0:
320,192,8040,1,0,0:0:0:0:
448,192,8040,128,0,8374:0:0:0:0:
64,192,8207,1,2,0:0:0:0:
320,192,8374,1,0,0:0:0:70:LR_Snare Drum .wav
64,192,8540,1,0,0:0:0:0:
320,192,8624,1,0,0:0:0:70:LR_Snare Drum .wav
192,192,8707,128,0,9040:0:0:0:0:
448,192,8707,128,0,9040:0:0:0:0:
320,192,8790,1,0,0:0:0:70:LR_Drum Rpd x2.wav
64,192,8874,1,2,0:0:0:0:
320,192,8874,1,0,0:0:0:0:
64,192,8957,1,2,0:0:0:0:
320,192,9040,1,0,0:0:0:70:LR_Snare Drum .wav
64,192,9207,1,0,0:0:0:0:
320,192,9290,1,0,0:0:0:70:LR_Drum Rpd x2.wav
64,192,9374,1,2,0:0:0:0:
192,192,9374,128,0,9707:0:0:0:0:
320,192,9374,1,0,0:0:0:0:
448,192,9374,128,0,9707:0:0:0:0:
64,192,9540,1,2,0:0:0:0:
320,192,9707,1,0,0:0:0:70:LR_Snare Drum .wav
64,192,9874,1,0,0:0:0:0:
320,192,9957,1,0,0:0:0:70:LR_Snare Drum .wav
64,192,10040,1,2,0:0:0:0:
192,192,10040,128,0,10290:0:0:0:0:
320,192,10040,1,0,0:0:0:0:
448,192,10040,128,0,10374:0:0:0:0:
320,192,10207,1,0,0:0:0:70:LR_Snare Drum .wav
64,192,10374,1,0,0:0:0:70:LR4_SnareKKF.wav
192,192,10374,1,0,0:0:0:0:
320,192,10374,1,0,0:0:0:0:
64,192,10707,1,2,0:0:0:0:
320,192,10707,1,4,0:0:0:0:
448,192,10707,128,0,10874:0:0:0:0:
64,192,10874,1,2,0:0:0:0:
192,192,10874,128,0,10957:0:0:0:0:
320,192,10957,1,2,0:0:0:0:
448,192,10957,128,0,11040:0:0:0:0:
64,192,11040,1,8,0:0:0:0:
192,192,11040,1,0,0:0:0:0:
64,192,11207,1,2,0:0:0:0:
448,192,11207,128,0,11290:0:0:0:0:
320,192,11290,1,2,0:0:0:0:
320,192,11374,1,8,0:0:0:0:
448,192,11374,1,0,0:0:0:0:
192,192,11457,128,0,11540:0:0:0:0:
64,192,11540,1,2,0:0:0:0:
448,192,11540,128,0,11624:0:0:0:0:
320,192,11624,1,2,0:0:0:0:
64,192,11707,1,8,0:0:0:0:
192,192,11707,1,0,0:0:0:0:
64,192,11874,1,2,0:0:0:0:
448,192,11874,128,0,11957:0:0:0:0:
320,192,11957,1,2,0:0:0:0:
64,192,12040,1,2,0:0:0:0:
192,192,12040,1,0,0:0:0:0:
448,192,12040,128,0,12207:0:0:0:0:
64,192,12207,1,2,0:0:0:0:
192,192,12207,128,0,12290:0:0:0:0:
320,192,12290,1,2,0:0:0:0:
448,192,12290,128,0,12374:0:0:0:0:
64,192,12374,1,8,0:0:0:0:
192,192,12374,1,0,0:0:0:0:
64,192,12540,1,2,0:0:0:0:
448,192,12540,128,0,12624:0:0:0:0:
320,192,12624,1,2,0:0:0:0:
320,192,12707,1,8,0:0:0:0:
448,192,12707,1,0,0:0:0:0:
192,192,12790,128,0,12874:0:0:0:0:
64,192,12874,1,2,0:0:0:0:
448,192,12874,128,0,12957:0:0:0:0:
320,192,12957,1,2,0:0:0:0:
64,192,13040,1,8,0:0:0:0:
192,192,13040,1,0,0:0:0:0:
64,192,13207,1,2,0:0:0:0:
448,192,13207,128,0,13290:0:0:0:0:
320,192,13290,1,2,0:0:0:0:
64,192,13374,1,2,0:0:0:0:
192,192,13374,1,0,0:0:0:0:
448,192,13374,128,0,13540:0:0:0:0:
64,192,13540,1,2,0:0:0:0:
192,192,13540,128,0,13624:0:0:0:0:
320,192,13624,1,2,0:0:0:0:
448,192,13624,128,0,13707:0:0:0:0:
64,192,13707,1,8,0:0:0:0:
192,192,13707,1,0,0:0:0:0:
64,192,13874,1,2,0:0:0:0:
448,192,13874,128,0,13957:0:0:0:0:
320,192,13957,1,2,0:0:0:0:
320,192,14040,1,8,0:0:0:0:
448,192,14040,1,0,0:0:0:0:
192,192,14124,128,0,14207:0:0:0:0:
64,192,14207,1,2,0:0:0:0:
448,192,14207,128,0,14290:0:0:0:0:
320,192,14290,1,2,0:0:0:0:
64,192,14374,1,8,0:0:0:0:
192,192,14374,1,0,0:0:0:0:
64,192,14540,1,2,0:0:0:0:
448,192,14540,128,0,14624:0:0:0:0:
320,192,14624,1,2,0:0:0:0:
64,192,14707,1,2,0:0:0:0:
192,192,14707,1,0,0:0:0:0:
448,192,14707,128,0,14874:0:0:0:0:
64,192,14874,1,2,0:0:0:0:
192,192,14874,128,0,14957:0:0:0:0:
320,192,14957,1,2,0:0:0:0:
448,192,14957,128,0,15040:0:0:0:0:
64,192,15040,1,8,0:0:0:0:
192,192,15040,1,0,0:0:0:0:
64,192,15207,1,2,0:0:0:0:
448,192,15207,128,0,15290:0:0:0:0:
320,192,15290,1,2,0:0:0:0:
320,192,15374,1,8,0:0:0:0:
448,192,15374,1,0,0:0:0:0:
192,192,15457,128,0,15540:0:0:0:0:
64,192,15540,1,2,0:0:0:0:
448,192,15540,128,0,15624:0:0:0:0:
320,192,15624,1,2,0:0:0:0:
64,192,15707,1,8,0:0:0:0:
192,192,15707,1,0,0:0:0:0:
64,192,15874,1,2,0:0:0:0:
448,192,15874,128,0,15957:0:0:0:0:
320,192,15957,1,2,0:0:0:0:
64,192,16040,1,2,0:0:0:0:
192,192,16040,1,0,0:0:0:0:
448,192,16040,128,0,16207:0:0:0:0:
64,192,16207,1,2,0:0:0:0:
192,192,16207,128,0,16290:0:0:0:0:
320,192,16290,1,2,0:0:0:0:
448,192,16290,128,0,16374:0:0:0:0:
64,192,16374,1,8,0:0:0:0:
192,192,16374,1,0,0:0:0:0:
64,192,16540,1,2,0:0:0:0:
448,192,16540,128,0,16624:0:0:0:0:
320,192,16624,1,2,0:0:0:0:
320,192,16707,1,8,0:0:0:0:
448,192,16707,1,0,0:0:0:0:
192,192,16790,128,0,16874:0:0:0:0:
64,192,16874,1,2,0:0:0:0:
448,192,16874,128,0,16957:0:0:0:0:
320,192,16957,1,2,0:0:0:0:
64,192,17040,1,8,0:0:0:0:
192,192,17040,1,0,0:0:0:0:
64,192,17207,1,2,0:0:0:0:
448,192,17207,128,0,17290:0:0:0:0:
320,192,17290,1,2,0:0:0:0:
64,192,17374,1,2,0:0:0:0:
192,192,17374,1,0,0:0:0:0:
448,192,17374,128,0,17540:0:0:0:0:
64,192,17540,1,2,0:0:0:0:
192,192,17540,128,0,17624:0:0:0:0:
320,192,17624,1,2,0:0:0:0:
448,192,17624,128,0,17707:0:0:0:0:
64,192,17707,1,8,0:0:0:0:
192,192,17707,1,0,0:0:0:0:
64,192,17874,1,2,0:0:0:0:
448,192,17874,128,0,17957:0:0:0:0:
320,192,17957,1,2,0:0:0:0:
320,192,18040,1,8,0:0:0:0:
448,192,18040,1,0,0:0:0:0:
192,192,18124,128,0,18207:0:0:0:0:
64,192,18207,1,2,0:0:0:0:
448,192,18207,128,0,18290:0:0:0:0:
320,192,18290,1,2,0:0:0:0:
64,192,18374,1,8,0:0:0:0:
192,192,18374,1,0,0:0:0:0:
64,192,18540,1,2,0:0:0:0:
448,192,18540,128,0,18624:0:0:0:0:
320,192,18624,1,2,0:0:0:0:
64,192,18707,1,2,0:0:0:0:
192,192,18707,1,0,0:0:0:0:
448,192,18707,128,0,18874:0:0:0:0:
64,192,18874,1,2,0:0:0:0:
192,192,18874,128,0,18957:0:0:0:0:
320,192,18957,1,2,0:0:0:0:
448,192,18957,128,0,19040:0:0:0:0:
64,192,19040,1,8,0:0:0:0:
192,192,19040,1,0,0:0:0:0:
64,192,19207,1,2,0:0:0:0:
448,192,19207,128,0,19290:0:0:0:0:
320,192,19290,1,2,0:0:0:0:
320,192,19374,1,8,0:0:0:0:
448,192,19374,1,0,0:0:0:0:
192,192,19457,128,0,19540:0:0:0:0:
64,192,19540,1,2,0:0:0:0:
448,192,19540,128,0,19624:0:0:0:0:
320,192,19624,1,2,0:0:0:0:
64,192,19707,1,8,0:0:0:0:
192,192,19707,1,0,0:0:0:0:
64,192,19874,1,2,0:0:0:0:
448,192,19874,128,0,19957:0:0:0:0:
320,192,19957,1,2,0:0:0:0:
64,192,20040,128,2,20207:0:0:0:0:
192,192,20040,1,4,0:0:0:0:
448,192,20040,1,0,0:0:0:0:
320,192,20207,128,2,20374:0:0:0:0:
448,192,20207,1,0,0:0:0:0:
192,192,20374,1,0,0:0:0:70:LR_Snare Drum .wav
64,192,20540,1,2,0:0:0:0:
320,192,20624,1,0,0:0:0:70:LR_Snare Drum .wav
64,192,20665,1,0,0:0:0:0:
192,192,20707,128,2,20874:0:0:0:0:
448,192,20707,1,0,0:0:0:0:
448,192,20874,1,0,0:0:0:70:LR_Snare Drum .wav
64,192,21040,128,2,21207:0:0:0:0:
192,192,21040,1,0,0:0:0:0:
320,192,21124,1,0,0:0:0:0:
448,192,21207,1,0,0:0:0:70:LR_Snare Drum .wav
64,192,21374,128,2,21540:0:0:0:0:
192,192,21374,1,4,0:0:0:0:
448,192,21374,1,0,0:0:0:0:
320,192,21540,128,2,21624:0:0:0:0:
448,192,21540,1,0,0:0:0:0:
64,192,21624,128,2,21707:0:0:0:0:
192,192,21624,1,0,0:0:0:0:
320,192,21707,1,8,0:0:0:0:
448,192,21707,1,0,0:0:0:0:
64,192,21874,128,2,21957:0:0:0:0:
448,192,21874,1,0,0:0:0:0:
192,192,21957,1,2,0:0:0:0:
64,192,22040,1,8,0:0:0:0:
192,192,22040,1,0,0:0:0:0:
320,192,22124,128,0,22207:0:0:0:0:
64,192,22207,128,2,22290:0:0:0:0:
448,192,22207,1,0,0:0:0:0:
192,192,22290,1,2,0:0:0:0:
320,192,22374,1,8,0:0:0:0:
448,192,22374,1,0,0:0:0:0:
64,192,22540,128,2,22624:0:0:0:0:
448,192,22540,1,0,0:0:0:0:
192,192,22624,1,2,0:0:0:0:
64,192,22707,128,2,22874:0:0:0:0:
320,192,22707,1,0,0:0:0:0:
448,192,22707,1,0,0:0:0:0:
320,192,22874,128,2,22957:0:0:0:0:
448,192,22874,1,0,0:0:0:0:
64,192,22957,128,2,23040:0:0:0:0:
192,192,22957,1,0,0:0:0:0:
320,192,23040,1,8,0:0:0:0:
448,192,23040,1,0,0:0:0:0:
64,192,23207,128,2,23290:0:0:0:0:
448,192,23207,1,0,0:0:0:0:
192,192,23290,1,2,0:0:0:0:
64,192,23374,1,8,0:0:0:0:
192,192,23374,1,0,0:0:0:0:
320,192,23457,128,0,23540:0:0:0:0:
64,192,23540,128,2,23624:0:0:0:0:
448,192,23540,1,0,0:0:0:0:
192,192,23624,1,2,0:0:0:0:
320,192,23707,1,8,0:0:0:0:
448,192,23707,1,0,0:0:0:0:
64,192,23874,128,2,23957:0:0:0:0:
448,192,23874,1,0,0:0:0:0:
192,192,23957,1,2,0:0:0:0:
64,192,24040,128,2,24207:0:0:0:0:
320,192,24040,1,0,0:0:0:0:
448,192,24040,1,0,0:0:0:0:
320,192,24207,128,2,24290:0:0:0:0:
448,192,24207,1,0,0:0:0:0:
64,192,24290,128,2,24374:0:0:0:0:
192,192,24290,1,0,0:0:0:0:
320,192,24374,1,8,0:0:0:0:
448,192,24374,1,0,0:0:0:0:
64,192,24540,128,2,24624:0:0:0:0:
448,192,24540,1,0,0:0:0:0:
192,192,24624,1,2,0:0:0:0:
64,192,24707,1,8,0:0:0:0:
192,192,24707,1,0,0:0:0:0:
320,192,24790,128,0,24874:0:0:0:0:
64,192,24874,128,2,24957:0:0:0:0:
448,192,24874,1,0,0:0:0:0:
192,192,24957,1,2,0:0:0:0:
320,192,25040,1,8,0:0:0:0:
448,192,25040,1,0,0:0:0:0:
64,192,25207,128,2,25290:0:0:0:0:
448,192,25207,1,0,0:0:0:0:
192,192,25290,1,2,0:0:0:0:
64,192,25374,128,2,25540:0:0:0:0:
320,192,25374,1,0,0:0:0:0:
448,192,25374,1,0,0:0:0:0:
320,192,25540,128,2,25624:0:0:0:0:
448,192,25540,1,0,0:0:0:0:
64,192,25624,128,2,25707:0:0:0:0:
192,192,25624,1,0,0:0:0:0:
320,192,25707,1,8,0:0:0:0:
448,192,25707,1,0,0:0:0:0:
64,192,25874,128,2,25957:0:0:0:0:
448,192,25874,1,0,0:0:0:0:
192,192,25957,1,2,0:0:0:0:
64,192,26040,1,8,0:0:0:0:
192,192,26040,1,0,0:0:0:0:
320,192,26124,128,0,26207:0:0:0:0:
64,192,26207,128,2,26290:0:0:0:0:
448,192,26207,1,0,0:0:0:0:
192,192,26290,1,2,0:0:0:0:
320,192,26374,1,8,0:0:0:0:
448,192,26374,1,0,0:0:0:0:
64,192,26540,128,2,26624:0:0:0:0:
448,192,26540,1,0,0:0:0:0:
192,192,26624,1,2,0:0:0:0:
64,192,26707,128,2,26874:0:0:0:0:
320,192,26707,1,0,0:0:0:0:
448,192,26707,1,0,0:0:0:0:
320,192,26874,128,2,26957:0:0:0:0:
448,192,26874,1,0,0:0:0:0:
64,192,26957,128,2,27040:0:0:0:0:
192,192,26957,1,0,0:0:0:0:
320,192,27040,1,8,0:0:0:0:
448,192,27040,1,0,0:0:0:0:
64,192,27207,128,2,27290:0:0:0:0:
448,192,27207,1,0,0:0:0:0:
192,192,27290,1,2,0:0:0:0:
64,192,27374,1,8,0:0:0:0:
192,192,27374,1,0,0:0:0:0:
320,192,27457,128,0,27540:0:0:0:0:
64,192,27540,128,2,27624:0:0:0:0:
448,192,27540,1,0,0:0:0:0:
192,192,27624,1,2,0:0:0:0:
320,192,27707,1,8,0:0:0:0:
448,192,27707,1,0,0:0:0:0:
64,192,27874,128,2,27957:0:0:0:0:
448,192,27874,1,0,0:0:0:0:
192,192,27957,1,2,0:0:0:0:
64,192,28040,128,2,28207:0:0:0:0:
320,192,28040,1,0,0:0:0:0:
448,192,28040,1,0,0:0:0:0:
320,192,28207,128,2,28290:0:0:0:0:
448,192,28207,1,0,0:0:0:0:
64,192,28290,128,2,28374:0:0:0:0:
192,192,28290,1,0,0:0:0:0:
320,192,28374,1,8,0:0:0:0:
448,192,28374,1,0,0:0:0:0:
64,192,28540,128,2,28624:0:0:0:0:
448,192,28540,1,0,0:0:0:0:
192,192,28624,1,2,0:0:0:0:
64,192,28707,1,8,0:0:0:0:
192,192,28707,1,0,0:0:0:0:
320,192,28790,128,0,28874:0:0:0:0:
64,192,28874,128,2,28957:0:0:0:0:
448,192,28874,1,0,0:0:0:0:
192,192,28957,1,2,0:0:0:0:
320,192,29040,1,8,0:0:0:0:
448,192,29040,1,0,0:0:0:0:
64,192,29207,128,2,29290:0:0:0:0:
448,192,29207,1,0,0:0:0:0:
192,192,29290,1,2,0:0:0:0:
320,192,29374,1,4,0:0:0:0:
448,192,29374,128,2,29874:0:0:0:0:
192,192,29540,128,0,31290:0:0:0:0:
320,192,29874,128,0,30540:0:0:0:0:
448,192,30040,1,0,0:0:0:70:LR_Drum Rpd x2.wav
64,192,30374,1,0,0:0:0:0:
64,192,30540,128,0,31374:0:0:0:70:LR_Drum Rpd x2.wav
448,192,30540,1,0,0:0:0:0:
320,192,31040,1,0,0:0:0:0:
192,192,31374,1,0,0:0:0:70:LR4_SnareKKF.wav
320,192,31374,1,0,0:0:0:0:
448,192,31374,1,0,0:0:0:0:
448,192,31540,1,0,0:0:0:0:
192,192,31582,1,0,0:0:0:0:
320,192,31624,1,0,0:0:0:0:
64,192,31665,1,0,0:0:0:0:
192,192,31707,128,0,31790:0:0:0:0:
448,192,31707,128,0,31874:0:0:0:0:
64,192,31874,128,0,32040:0:0:0:0:
320,192,31874,128,0,31957:0:0:0:0:
192,192,32040,1,4,0:0:0:0:
320,192,32040,1,8,0:0:0:0:
448,192,32040,128,0,32207:0:0:0:0:
64,192,32207,128,0,32290:0:0:0:0:
192,192,32207,1,0,0:0:0:0:
320,192,32290,1,2,0:0:0:0:
448,192,32290,128,0,32374:0:0:0:0:
64,192,32374,1,0,0:0:0:70:LR_Kick Drop Wet Fast.wav
192,192,32374,128,0,32457:0:0:0:0:
448,192,32457,1,0,0:0:0:0:
64,192,32540,1,0,0:0:0:0:
320,192,32540,128,0,32624:0:0:0:0:
64,192,32707,1,8,0:0:0:0:
192,192,32707,1,0,0:0:0:0:
448,192,32707,128,0,32874:0:0:0:0:
192,192,32874,1,0,0:0:0:0:
320,192,32957,1,2,0:0:0:0:
64,192,33040,128,0,33207:0:0:0:70:LR_Kick Drop Wet Fast.wav
320,192,33040,1,0,0:0:0:0:
448,192,33040,1,0,0:0:0:0:
192,192,33124,1,0,0:0:0:0:
320,192,33207,1,0,0:0:0:0:
448,192,33207,128,0,33290:0:0:0:0:
64,192,33374,1,8,0:0:0:0:
192,192,33374,1,0,0:0:0:0:
448,192,33374,128,0,33540:0:0:0:0:
64,192,33540,128,0,33624:0:0:0:0:
192,192,33540,1,0,0:0:0:0:
320,192,33624,1,2,0:0:0:0:
64,192,33707,128,0,33874:0:0:0:70:LR_Kick Drop Wet Fast.wav
320,192,33707,1,0,0:0:0:0:
448,192,33707,1,0,0:0:0:0:
192,192,33790,1,0,0:0:0:0:
320,192,33874,1,0,0:0:0:0:
448,192,33874,128,0,33957:0:0:0:0:
64,192,34040,1,8,0:0:0:0:
192,192,34040,1,0,0:0:0:0:
448,192,34040,128,0,34207:0:0:0:0:
64,192,34124,1,0,0:0:0:0:
192,192,34207,1,0,0:0:0:0:
320,192,34207,1,0,0:0:0:0:
448,192,34290,1,2,0:0:0:0:
64,192,34374,1,0,0:0:0:70:LR_Kick Drop Wet Fast.wav
192,192,34374,128,0,34457:0:0:0:0:
448,192,34457,1,0,0:0:0:0:
64,192,34540,1,0,0:0:0:0:
320,192,34540,128,0,34624:0:0:0:0:
64,192,34707,1,8,0:0:0:0:
192,192,34707,1,0,0:0:0:0:
448,192,34707,128,0,34874:0:0:0:0:
64,192,34874,128,0,34957:0:0:0:0:
192,192,34874,1,0,0:0:0:0:
320,192,34957,1,2,0:0:0:0:
448,192,34957,128,0,35040:0:0:0:0:
64,192,35040,1,0,0:0:0:70:LR_Kick Drop Wet Fast.wav
192,192,35040,128,0,35124:0:0:0:0:
448,192,35124,1,0,0:0:0:0:
64,192,35207,1,0,0:0:0:0:
320,192,35207,128,0,35290:0:0:0:0:
64,192,35374,1,8,0:0:0:0:
192,192,35374,1,0,0:0:0:0:
448,192,35374,128,0,35540:0:0:0:0:
192,192,35540,1,0,0:0:0:0:
320,192,35624,1,2,0:0:0:0:
64,192,35707,128,0,35874:0:0:0:70:LR_Kick Drop Wet Fast.wav
320,192,35707,1,0,0:0:0:0:
448,192,35707,1,0,0:0:0:0:
192,192,35790,1,0,0:0:0:0:
320,192,35874,1,0,0:0:0:0:
448,192,35874,128,0,35957:0:0:0:0:
64,192,36040,1,8,0:0:0:0:
192,192,36040,1,0,0:0:0:0:
448,192,36040,128,0,36207:0:0:0:0:
64,192,36207,128,0,36290:0:0:0:0:
192,192,36207,1,0,0:0:0:0:
320,192,36290,1,2,0:0:0:0:
64,192,36374,128,0,36540:0:0:0:70:LR_Kick Drop Wet Fast.wav
320,192,36374,1,0,0:0:0:0:
448,192,36374,1,0,0:0:0:0:
192,192,36457,1,0,0:0:0:0:
320,192,36540,1,0,0:0:0:0:
448,192,36540,128,0,36624:0:0:0:0:
64,192,36707,1,8,0:0:0:0:
192,192,36707,128,0,36957:0:0:0:0:
320,192,36874,1,0,0:0:0:0:
448,192,36874,128,0,37040:0:0:0:0:
64,192,37040,1,0,0:0:0:70:LR_Kick Drop Wet Fast.wav
320,192,37040,128,0,37290:0:0:0:0:
192,192,37124,1,0,0:0:0:0:
64,192,37207,128,0,37374:0:0:0:0:
448,192,37207,1,0,0:0:0:0:
192,192,37374,1,8,0:0:0:0:
320,192,37374,1,0,0:0:0:70:LR_Kick Drop Wet Fast.wav
448,192,37374,128,0,37540:0:0:0:0:
64,192,37540,128,0,37624:0:0:0:0:
192,192,37540,1,0,0:0:0:0:
320,192,37624,1,2,0:0:0:0:
448,192,37624,128,0,37707:0:0:0:0:
64,192,37707,1,0,0:0:0:70:LR_Kick Drop Wet Fast.wav
192,192,37707,128,0,37790:0:0:0:0:
448,192,37790,1,0,0:0:0:0:
64,192,37874,1,0,0:0:0:0:
320,192,37874,128,0,37957:0:0:0:0:
64,192,38040,1,8,0:0:0:0:
192,192,38040,1,0,0:0:0:0:
448,192,38040,128,0,38207:0:0:0:0:
192,192,38207,1,0,0:0:0:0:
320,192,38290,1,2,0:0:0:0:
64,192,38374,128,0,38540:0:0:0:70:LR_Kick Drop Wet Fast.wav
320,192,38374,1,0,0:0:0:0:
448,192,38374,1,0,0:0:0:0:
192,192,38457,1,0,0:0:0:0:
320,192,38540,1,0,0:0:0:0:
448,192,38540,128,0,38624:0:0:0:0:
64,192,38707,1,8,0:0:0:0:
192,192,38707,1,0,0:0:0:0:
448,192,38707,128,0,38874:0:0:0:0:
64,192,38874,128,0,38957:0:0:0:0:
192,192,38874,1,0,0:0:0:0:
320,192,38957,1,2,0:0:0:0:
64,192,39040,128,0,39207:0:0:0:70:LR_Kick Drop Wet Fast.wav
320,192,39040,1,0,0:0:0:0:
448,192,39040,1,0,0:0:0:0:
192,192,39124,1,0,0:0:0:0:
320,192,39207,1,0,0:0:0:0:
448,192,39207,128,0,39290:0:0:0:0:
64,192,39374,1,8,0:0:0:0:
192,192,39374,1,0,0:0:0:0:
448,192,39374,128,0,39540:0:0:0:0:
64,192,39457,1,0,0:0:0:0:
192,192,39540,1,0,0:0:0:0:
320,192,39540,1,0,0:0:0:0:
448,192,39624,1,2,0:0:0:0:
64,192,39707,1,0,0:0:0:70:LR_Kick Drop Wet Fast.wav
192,192,39707,128,0,39790:0:0:0:0:
448,192,39790,1,0,0:0:0:0:
64,192,39874,1,0,0:0:0:0:
320,192,39874,128,0,39957:0:0:0:0:
192,192,40040,128,8,40290:0:0:0:0:
448,192,40040,1,0,0:0:0:0:
448,192,40207,128,0,40290:0:0:0:0:
64,192,40290,128,2,40374:0:0:0:0:
320,192,40374,128,0,40457:0:0:0:70:LR_Kick Drop Wet Fast.wav
448,192,40374,1,0,0:0:0:0:
192,192,40457,1,0,0:0:0:0:
192,192,40540,128,0,40624:0:0:0:0:
448,192,40540,1,0,0:0:0:0:
64,192,40707,1,8,0:0:0:0:
320,192,40707,128,0,40957:0:0:0:0:
64,192,40874,128,0,40957:0:0:0:0:
448,192,40874,1,0,0:0:0:0:
192,192,40957,1,2,0:0:0:0:
448,192,40957,128,0,41040:0:0:0:0:
64,192,41040,128,0,41124:0:0:0:70:LR_Kick Drop Wet Fast.wav
192,192,41040,1,0,0:0:0:0:
320,192,41124,1,0,0:0:0:0:
448,192,41124,128,0,41207:0:0:0:0:
64,192,41207,1,0,0:0:0:0:
192,192,41207,128,0,41290:0:0:0:0:
320,192,41290,128,2,41374:0:0:0:0:
448,192,41290,1,0,0:0:0:0:
64,192,41374,128,4,41540:0:0:0:0:
192,192,41374,1,8,0:0:0:0:
320,192,41540,128,2,41707:0:0:0:0:
448,192,41540,1,0,0:0:0:0:
192,192,41707,1,0,0:0:0:70:LR_Snare Drum .wav
64,192,41874,1,0,0:0:0:0:
320,192,41957,1,0,0:0:0:70:LR_Snare Drum .wav
64,192,41999,1,0,0:0:0:0:
192,192,42040,128,2,42207:0:0:0:0:
448,192,42040,1,0,0:0:0:0:
448,192,42207,1,0,0:0:0:70:LR_Snare Drum .wav
64,192,42374,128,2,42540:0:0:0:0:
192,192,42374,1,0,0:0:0:0:
320,192,42457,1,0,0:0:0:0:
448,192,42540,1,0,0:0:0:70:LR_Snare Drum .wav
64,192,42707,128,4,42874:0:0:0:0:
192,192,42707,1,8,0:0:0:0:
320,192,42707,1,0,0:0:0:0:
320,192,42874,1,0,0:0:0:0:
448,192,42874,128,0,42957:0:0:0:0:
64,192,42957,128,2,43040:0:0:0:0:
192,192,42957,1,0,0:0:0:0:
320,192,43040,128,0,43124:0:0:0:70:LR_Kick Drop Wet Fast.wav
448,192,43040,1,0,0:0:0:0:
64,192,43124,1,0,0:0:0:0:
192,192,43207,128,0,43290:0:0:0:0:
448,192,43207,1,0,0:0:0:0:
64,192,43374,128,8,43540:0:0:0:0:
320,192,43374,1,0,0:0:0:0:
448,192,43374,1,0,0:0:0:0:
320,192,43540,1,0,0:0:0:0:
192,192,43624,1,2,0:0:0:0:
64,192,43707,1,0,0:0:0:70:LR_Kick Drop Wet Fast.wav
192,192,43707,1,0,0:0:0:0:
448,192,43707,128,0,43874:0:0:0:0:
320,192,43790,1,0,0:0:0:0:
64,192,43874,128,0,43957:0:0:0:0:
192,192,43874,1,0,0:0:0:0:
64,192,44040,128,8,44207:0:0:0:0:
320,192,44040,1,0,0:0:0:0:
448,192,44040,1,0,0:0:0:0:
320,192,44207,1,0,0:0:0:0:
448,192,44207,128,0,44290:0:0:0:0:
192,192,44290,1,2,0:0:0:0:
64,192,44374,1,0,0:0:0:70:LR_Kick Drop Wet Fast.wav
192,192,44374,1,0,0:0:0:0:
448,192,44374,128,0,44540:0:0:0:0:
320,192,44457,1,0,0:0:0:0:
64,192,44540,128,0,44624:0:0:0:0:
192,192,44540,1,0,0:0:0:0:
64,192,44707,128,8,44874:0:0:0:0:
320,192,44707,1,0,0:0:0:0:
448,192,44707,1,0,0:0:0:0:
448,192,44790,1,0,0:0:0:0:
192,192,44874,1,0,0:0:0:0:
320,192,44874,1,0,0:0:0:0:
64,192,44957,1,2,0:0:0:0:
320,192,45040,128,0,45124:0:0:0:70:LR_Kick Drop Wet Fast.wav
448,192,45040,1,0,0:0:0:0:
64,192,45124,1,0,0:0:0:0:
192,192,45207,128,0,45290:0:0:0:0:
448,192,45207,1,0,0:0:0:0:
64,192,45374,128,8,45540:0:0:0:0:
320,192,45374,1,0,0:0:0:0:
448,192,45374,1,0,0:0:0:0:
320,192,45540,1,0,0:0:0:0:
448,192,45540,128,0,45624:0:0:0:0:
64,192,45624,128,2,45707:0:0:0:0:
192,192,45624,1,0,0:0:0:0:
320,192,45707,128,0,45790:0:0:0:70:LR_Kick Drop Wet Fast.wav
448,192,45707,1,0,0:0:0:0:
64,192,45790,1,0,0:0:0:0:
192,192,45874,128,0,45957:0:0:0:0:
448,192,45874,1,0,0:0:0:0:
64,192,46040,128,8,46207:0:0:0:0:
320,192,46040,1,0,0:0:0:0:
448,192,46040,1,0,0:0:0:0:
320,192,46207,1,0,0:0:0:0:
192,192,46290,1,2,0:0:0:0:
64,192,46374,1,0,0:0:0:70:LR_Kick Drop Wet Fast.wav
192,192,46374,1,0,0:0:0:0:
448,192,46374,128,0,46540:0:0:0:0:
320,192,46457,1,0,0:0:0:0:
64,192,46540,128,0,46624:0:0:0:0:
192,192,46540,1,0,0:0:0:0:
64,192,46707,128,8,46874:0:0:0:0:
320,192,46707,1,0,0:0:0:0:
448,192,46707,1,0,0:0:0:0:
320,192,46874,1,0,0:0:0:0:
448,192,46874,128,0,46957:0:0:0:0:
192,192,46957,1,2,0:0:0:0:
64,192,47040,1,0,0:0:0:70:LR_Kick Drop Wet Fast.wav
192,192,47040,1,0,0:0:0:0:
448,192,47040,128,0,47207:0:0:0:0:
320,192,47124,1,0,0:0:0:0:
64,192,47207,128,0,47290:0:0:0:0:
192,192,47207,1,0,0:0:0:0:
320,192,47374,128,8,47624:0:0:0:0:
448,192,47374,1,0,0:0:0:0:
64,192,47540,128,0,47707:0:0:0:0:
192,192,47540,1,0,0:0:0:0:
192,192,47707,128,0,47957:0:0:0:70:LR_Kick Drop Wet Fast.wav
448,192,47707,1,0,0:0:0:0:
320,192,47790,1,0,0:0:0:0:
64,192,47874,1,0,0:0:0:0:
448,192,47874,128,0,48040:0:0:0:0:
64,192,48040,128,8,48207:0:0:0:0:
192,192,48040,1,0,0:0:0:70:LR_Kick Drop Wet Fast.wav
320,192,48040,1,0,0:0:0:0:
320,192,48207,1,0,0:0:0:0:
448,192,48207,128,0,48290:0:0:0:0:
64,192,48290,128,2,48374:0:0:0:0:
192,192,48290,1,0,0:0:0:0:
320,192,48374,128,0,48457:0:0:0:70:LR_Kick Drop Wet Fast.wav
448,192,48374,1,0,0:0:0:0:
64,192,48457,1,0,0:0:0:0:
192,192,48540,128,0,48624:0:0:0:0:
448,192,48540,1,0,0:0:0:0:
64,192,48707,128,8,48874:0:0:0:0:
320,192,48707,1,0,0:0:0:0:
448,192,48707,1,0,0:0:0:0:
320,192,48874,1,0,0:0:0:0:
192,192,48957,1,2,0:0:0:0:
64,192,49040,1,0,0:0:0:70:LR_Kick Drop Wet Fast.wav
192,192,49040,1,0,0:0:0:0:
448,192,49040,128,0,49207:0:0:0:0:
320,192,49124,1,0,0:0:0:0:
64,192,49207,128,0,49290:0:0:0:0:
192,192,49207,1,0,0:0:0:0:
64,192,49374,128,8,49540:0:0:0:0:
320,192,49374,1,0,0:0:0:0:
448,192,49374,1,0,0:0:0:0:
320,192,49540,1,0,0:0:0:0:
448,192,49540,128,0,49624:0:0:0:0:
192,192,49624,1,2,0:0:0:0:
64,192,49707,1,0,0:0:0:70:LR_Kick Drop Wet Fast.wav
192,192,49707,1,0,0:0:0:0:
448,192,49707,128,0,49874:0:0:0:0:
320,192,49790,1,0,0:0:0:0:
64,192,49874,128,0,49957:0:0:0:0:
192,192,49874,1,0,0:0:0:0:
64,192,50040,128,8,50207:0:0:0:0:
320,192,50040,1,0,0:0:0:0:
448,192,50040,1,0,0:0:0:0:
448,192,50124,1,0,0:0:0:0:
192,192,50207,1,0,0:0:0:0:
320,192,50207,1,0,0:0:0:0:
64,192,50290,1,2,0:0:0:0:
320,192,50374,128,0,50457:0:0:0:70:LR_Kick Drop Wet Fast.wav
448,192,50374,1,0,0:0:0:0:
64,192,50457,1,0,0:0:0:0:
192,192,50540,128,0,50624:0:0:0:0:
448,192,50540,1,0,0:0:0:0:
320,192,50707,1,4,0:0:0:0:
448,192,50707,128,8,51207:0:0:0:0:
192,192,50874,128,0,53040:0:0:0:0:
320,192,51207,128,0,51874:0:0:0:0:
448,192,51374,1,0,0:0:0:70:LR_Drum Rpd x2.wav
64,192,51707,1,0,0:0:0:0:
64,192,51874,128,0,52124:0:0:0:70:LR_Drum Rpd x2.wav
448,192,51874,1,0,0:0:0:0:
64,192,52207,128,2,52290:0:0:0:0:
64,192,52374,128,0,52457:0:0:0:0:
64,192,52540,128,2,52624:0:0:0:0:
64,192,52707,128,0,52790:0:0:0:0:
64,192,52874,128,0,52957:0:0:0:0:
64,192,53040,1,0,0:0:0:70:LR4_SnareKKF.wav
448,192,53040,1,0,0:0:0:0:
320,192,53082,1,0,0:0:0:0:
192,192,53124,1,0,0:0:0:0:
448,192,53165,1,0,0:0:0:0:
64,192,53207,1,0,0:0:0:0:
320,192,53249,1,0,0:0:0:0:
192,192,53290,1,0,0:0:0:0:
448,192,53332,1,0,0:0:0:0:
64,192,53374,128,2,53874:0:0:0:0:
320,192,53374,1,4,0:0:0:0:
192,192,53874,128,0,54040:0:0:0:0:
320,192,54040,128,0,54374:0:0:0:0:
448,192,54374,128,0,54540:0:0:0:0:
64,192,54540,1,0,0:0:0:0:
192,192,54707,128,0,54874:0:0:0:0:
320,192,54957,128,0,55040:0:0:0:0:
192,192,55207,1,0,0:0:0:0:
448,192,55207,128,0,55374:0:0:0:0:
64,192,55374,128,0,55540:0:0:0:0:
448,192,55540,128,0,55707:0:0:0:0:
64,192,55707,128,0,55874:0:0:0:0:
448,192,55874,128,0,56040:0:0:0:0:
192,192,56040,1,0,0:0:0:0:
320,192,56040,128,0,56290:0:0:0:0:
192,192,56290,128,0,56374:0:0:0:0:
192,192,56540,128,0,56707:0:0:0:0:
64,192,56707,128,0,56874:0:0:0:0:
448,192,57040,128,0,57124:0:0:0:0:
192,192,57207,1,0,0:0:0:0:
448,192,57207,128,0,57374:0:0:0:0:
320,192,57374,128,0,57457:0:0:0:0:
320,192,57624,128,0,57707:0:0:0:0:
448,192,57874,128,0,58040:0:0:0:0:
320,192,58040,128,0,58207:0:0:0:0:
64,192,58207,128,0,58374:0:0:0:0:
192,192,58374,128,0,58707:0:0:0:0:
448,192,58374,1,0,0:0:0:0:
64,192,58707,128,0,59207:0:0:0:0:
320,192,58707,1,0,0:0:0:0:
192,192,59207,128,0,59374:0:0:0:0:
320,192,59374,128,0,59707:0:0:0:0:
448,192,59707,128,0,59874:0:0:0:0:
64,192,59874,1,0,0:0:0:0:
192,192,60040,128,0,60207:0:0:0:0:
320,192,60290,128,0,60374:0:0:0:0:
448,192,60540,128,0,60707:0:0:0:0:
64,192,60707,128,0,61040:0:0:0:0:
320,192,60707,1,0,0:0:0:0:
192,192,61040,128,0,61207:0:0:0:0:
64,192,61374,1,0,0:0:0:0:
320,192,61374,128,0,61707:0:0:0:0:
448,192,61707,128,0,61874:0:0:0:0:
192,192,61874,128,0,62040:0:0:0:0:
64,192,62040,128,0,62374:0:0:0:0:
320,192,62374,128,0,62540:0:0:0:0:
64,192,62540,1,0,0:0:0:0:
192,192,62540,128,0,62874:0:0:0:0:
64,192,63040,128,0,63207:0:0:0:0:
448,192,63207,1,0,0:0:0:0:
320,192,63374,128,0,63540:0:0:0:0:
448,192,63707,128,0,63874:0:0:0:0:
64,192,64040,128,0,64207:0:0:0:70:boom.wav
192,192,64040,1,0,0:0:0:0:
320,192,64040,1,0,0:0:0:0:
448,192,64207,1,0,0:0:0:0:
64,192,64290,128,0,64374:0:0:0:0:
320,192,64374,1,0,0:0:0:0:
192,192,64540,128,0,64707:0:0:0:0:
448,192,64540,1,0,0:0:0:0:
64,192,64707,1,0,0:0:0:0:
320,192,64707,128,0,64874:0:0:0:0:
448,192,64790,1,0,0:0:0:0:
64,192,64874,1,0,0:0:0:0:
192,192,65040,1,0,0:0:0:0:
448,192,65040,128,0,65207:0:0:0:0:
64,192,65207,1,0,0:0:0:0:
192,192,65374,128,0,65540:0:0:0:0:
448,192,65374,1,0,0:0:0:0:
64,192,65540,1,0,0:0:0:0:
320,192,65624,128,0,65707:0:0:0:0:
448,192,65707,1,0,0:0:0:0:
64,192,65874,1,0,0:0:0:0:
448,192,65874,128,0,66040:0:0:0:0:
64,192,66040,128,0,66207:0:0:0:0:
320,192,66040,1,0,0:0:0:0:
192,192,66124,1,0,0:0:0:0:
320,192,66207,1,0,0:0:0:0:
448,192,66207,128,0,66374:0:0:0:0:
192,192,66290,1,0,0:0:0:0:
64,192,66374,128,0,66540:0:0:0:0:
320,192,66374,1,0,0:0:0:0:
192,192,66540,1,0,0:0:0:0:
448,192,66540,128,0,66707:0:0:0:0:
64,192,66707,1,0,0:0:0:0:
192,192,66707,128,0,66874:0:0:0:0:
448,192,66874,1,0,0:0:0:0:
320,192,66957,128,0,67040:0:0:0:0:
448,192,67040,1,0,0:0:0:0:
192,192,67207,1,0,0:0:0:0:
448,192,67207,128,0,67374:0:0:0:0:
64,192,67374,128,0,67540:0:0:0:0:
320,192,67374,1,0,0:0:0:0:
192,192,67457,1,0,0:0:0:0:
320,192,67540,1,0,0:0:0:0:
448,192,67540,128,0,67707:0:0:0:0:
64,192,67707,128,0,67874:0:0:0:0:
192,192,67707,1,0,0:0:0:0:
320,192,67874,1,0,0:0:0:0:
448,192,67874,128,0,68040:0:0:0:0:
64,192,68040,1,0,0:0:0:0:
192,192,68040,128,0,68207:0:0:0:0:
448,192,68207,1,0,0:0:0:0:
320,192,68290,128,0,68374:0:0:0:0:
448,192,68374,1,0,0:0:0:0:
64,192,68540,1,0,0:0:0:0:
448,192,68540,128,0,68707:0:0:0:0:
64,192,68707,128,0,68874:0:0:0:0:
320,192,68707,1,0,0:0:0:0:
192,192,68790,1,0,0:0:0:0:
320,192,68874,1,0,0:0:0:0:
448,192,68874,128,0,69040:0:0:0:0:
192,192,68957,1,0,0:0:0:0:
64,192,69040,128,0,69207:0:0:0:0:
320,192,69040,1,0,0:0:0:0:
192,192,69207,1,0,0:0:0:0:
448,192,69207,128,0,69374:0:0:0:0:
64,192,69374,128,4,69457:0:0:0:0:
192,192,69374,128,2,69624:0:0:0:0:
320,192,69374,128,0,69624:0:0:0:0:
64,192,69540,128,0,69707:0:0:0:0:
192,192,69707,128,0,69790:0:0:0:0:
320,192,69707,128,0,69957:0:0:0:0:
448,192,69707,128,0,69957:0:0:0:0:
192,192,69874,128,0,70040:0:0:0:0:
64,192,70040,128,0,70290:0:0:0:0:
320,192,70040,128,0,70124:0:0:0:0:
448,192,70040,128,0,70290:0:0:0:0:
320,192,70207,128,0,70374:0:0:0:0:
64,192,70374,128,0,70624:0:0:0:0:
192,192,70374,128,0,70624:0:0:0:0:
448,192,70374,128,0,70457:0:0:0:0:
448,192,70540,128,0,70707:0:0:0:0:
64,192,70707,128,0,70957:0:0:0:0:
192,192,70707,128,0,70790:0:0:0:0:
320,192,70707,128,0,70957:0:0:0:0:
192,192,70874,128,0,71040:0:0:0:0:
64,192,71040,128,0,71290:0:0:0:0:
320,192,71040,128,0,71124:0:0:0:0:
448,192,71040,128,0,71290:0:0:0:0:
320,192,71207,128,0,71374:0:0:0:0:
64,192,71374,128,0,71457:0:0:0:0:
192,192,71374,128,0,71624:0:0:0:0:
448,192,71374,128,0,71624:0:0:0:0:
64,192,71540,128,0,71707:0:0:0:0:
192,192,71707,128,0,71957:0:0:0:0:
320,192,71707,128,0,71957:0:0:0:0:
448,192,71707,128,0,71790:0:0:0:0:
448,192,71874,128,0,72040:0:0:0:0:
64,192,72040,128,0,72457:0:0:0:0:
192,192,72040,128,0,72207:0:0:0:0:
320,192,72040,128,0,72207:0:0:0:0:
192,192,72290,128,0,72457:0:0:0:0:
320,192,72290,128,0,72707:0:0:0:0:
448,192,72290,128,0,72457:0:0:0:0:
64,192,72540,128,0,72707:0:0:0:0:
192,192,72540,128,0,72957:0:0:0:0:
448,192,72540,128,0,72707:0:0:0:0:
64,192,72790,128,0,73124:0:0:0:0:
320,192,72790,128,0,72957:0:0:0:0:
448,192,72790,128,0,72957:0:0:0:0:
192,192,73040,128,0,73207:0:0:0:0:
320,192,73040,128,0,73290:0:0:0:0:
448,192,73040,128,0,73374:0:0:0:0:
192,192,73374,1,2,0:0:0:0:
320,192,73374,1,0,0:0:0:0:
64,192,73540,1,0,0:0:0:50:LR4_SnareKKF.wav
448,192,73540,1,0,0:0:0:0:
192,192,73624,1,0,0:0:0:50:LR4_SnareKKF.wav
448,192,73624,1,0,0:0:0:0:
64,192,73707,1,0,0:0:0:70:LR_Drum Rpd x2.wav
320,192,73707,1,0,0:0:0:0:
64,192,73790,1,0,0:0:0:70:LR_Drum Rpd x2.wav
192,192,73790,1,0,0:0:0:0:
320,192,73874,1,0,0:0:0:70:LR_Snare Drum .wav
448,192,73874,1,0,0:0:0:0:
64,192,73957,1,0,0:0:0:70:LR_Snare Drum .wav
320,192,73957,1,0,0:0:0:0:
192,192,74040,1,0,0:0:0:50:LR_Kick Beat 2.wav
448,192,74040,1,0,0:0:0:0:
64,192,74124,1,0,0:0:0:50:LR_Kick Beat 2.wav
192,192,74124,1,0,0:0:0:0:
320,192,74207,1,0,0:0:0:50:LR_Kick Beat 2.wav
448,192,74207,1,0,0:0:0:0:
64,192,74290,1,0,0:0:0:50:LR_Kick Beat 2.wav
320,192,74290,1,0,0:0:0:0:
64,192,74374,128,0,74540:0:0:0:70:LR4_SnareBPDT.wav
192,192,74374,1,0,0:0:0:0:
448,192,74374,128,0,74540:0:0:0:0:
64,192,74707,1,2,0:0:0:0:
192,192,74707,128,4,74957:0:0:0:0:
320,192,74790,128,0,74874:0:0:0:0:
320,192,74957,128,0,75040:0:0:0:0:
448,192,74957,1,0,0:0:0:0:
64,192,75040,1,8,0:0:0:0:
192,192,75040,128,0,75207:0:0:0:0:
320,192,75207,128,0,75374:0:0:0:0:
448,192,75207,128,0,75290:0:0:0:0:
64,192,75374,1,2,0:0:0:0:
192,192,75374,128,0,75457:0:0:0:0:
320,192,75457,1,0,0:0:0:0:
448,192,75457,128,0,75540:0:0:0:0:
64,192,75624,1,0,0:0:0:0:
192,192,75624,128,0,75707:0:0:0:0:
320,192,75707,128,8,75790:0:0:0:0:
448,192,75707,1,0,0:0:0:0:
64,192,75874,1,0,0:0:0:0:
192,192,75874,128,0,75957:0:0:0:0:
320,192,76040,1,2,0:0:0:0:
448,192,76040,128,0,76207:0:0:0:0:
64,192,76124,128,0,76207:0:0:0:0:
192,192,76124,1,0,0:0:0:0:
64,192,76290,128,0,76374:0:0:0:0:
192,192,76290,1,0,0:0:0:0:
320,192,76374,1,8,0:0:0:0:
448,192,76374,1,0,0:0:0:0:
64,192,76540,128,0,76707:0:0:0:0:
448,192,76540,128,0,76624:0:0:0:0:
320,192,76707,1,2,0:0:0:0:
448,192,76707,128,0,76874:0:0:0:0:
64,192,76790,128,0,76874:0:0:0:0:
192,192,76790,1,0,0:0:0:0:
64,192,76957,128,0,77040:0:0:0:0:
192,192,76957,1,0,0:0:0:0:
320,192,77040,1,8,0:0:0:0:
448,192,77040,128,0,77207:0:0:0:0:
64,192,77207,1,0,0:0:0:0:
192,192,77207,128,0,77290:0:0:0:0:
320,192,77374,128,2,77540:0:0:0:0:
448,192,77374,1,0,0:0:0:0:
64,192,77457,1,0,0:0:0:0:
192,192,77457,128,0,77540:0:0:0:0:
64,192,77624,1,0,0:0:0:0:
192,192,77624,128,0,77707:0:0:0:0:
320,192,77707,1,8,0:0:0:0:
448,192,77707,1,0,0:0:0:0:
64,192,77874,128,0,77957:0:0:0:0:
320,192,77874,128,0,78040:0:0:0:0:
64,192,78040,1,2,0:0:0:0:
192,192,78040,128,0,78207:0:0:0:0:
320,192,78124,1,0,0:0:0:0:
448,192,78124,128,0,78207:0:0:0:0:
64,192,78290,1,0,0:0:0:0:
192,192,78290,128,0,78374:0:0:0:0:
320,192,78374,1,8,0:0:0:0:
448,192,78374,128,0,78540:0:0:0:0:
64,192,78540,1,0,0:0:0:0:
192,192,78540,128,0,78624:0:0:0:0:
320,192,78707,128,2,78874:0:0:0:0:
448,192,78707,1,0,0:0:0:0:
64,192,78790,1,0,0:0:0:0:
192,192,78790,128,0,78874:0:0:0:0:
64,192,78957,1,0,0:0:0:0:
192,192,78957,128,0,79040:0:0:0:0:
320,192,79040,1,8,0:0:0:0:
448,192,79040,1,0,0:0:0:0:
320,192,79207,128,0,79374:0:0:0:0:
448,192,79207,128,0,79290:0:0:0:0:
64,192,79374,1,2,0:0:0:0:
192,192,79374,128,0,79540:0:0:0:0:
320,192,79457,1,0,0:0:0:0:
448,192,79457,128,0,79540:0:0:0:0:
64,192,79624,128,0,79707:0:0:0:0:
192,192,79624,1,0,0:0:0:0:
320,192,79707,128,8,79874:0:0:0:0:
448,192,79707,1,0,0:0:0:0:
192,192,79874,128,0,79957:0:0:0:0:
448,192,79874,1,0,0:0:0:0:
64,192,80040,1,2,0:0:0:0:
192,192,80040,128,0,80290:0:0:0:0:
320,192,80124,128,0,80207:0:0:0:0:
448,192,80124,1,0,0:0:0:0:
320,192,80290,128,0,80374:0:0:0:0:
448,192,80290,1,0,0:0:0:0:
64,192,80374,1,8,0:0:0:0:
192,192,80374,128,0,80540:0:0:0:0:
320,192,80540,128,0,80707:0:0:0:0:
448,192,80540,128,0,80624:0:0:0:0:
64,192,80707,1,2,0:0:0:0:
192,192,80707,128,0,80790:0:0:0:0:
320,192,80790,1,0,0:0:0:0:
448,192,80790,128,0,80874:0:0:0:0:
64,192,80957,1,0,0:0:0:0:
192,192,80957,128,0,81040:0:0:0:0:
320,192,81040,128,8,81124:0:0:0:0:
448,192,81040,1,0,0:0:0:0:
64,192,81207,1,0,0:0:0:0:
192,192,81207,128,0,81290:0:0:0:0:
320,192,81374,1,2,0:0:0:0:
448,192,81374,128,0,81540:0:0:0:0:
64,192,81457,128,0,81540:0:0:0:0:
192,192,81457,1,0,0:0:0:0:
64,192,81624,128,0,81707:0:0:0:0:
192,192,81624,1,0,0:0:0:0:
320,192,81707,1,8,0:0:0:0:
448,192,81707,1,0,0:0:0:0:
64,192,81874,128,0,82040:0:0:0:0:
448,192,81874,128,0,81957:0:0:0:0:
320,192,82040,1,2,0:0:0:0:
448,192,82040,128,0,82207:0:0:0:0:
64,192,82124,128,0,82207:0:0:0:0:
192,192,82124,1,0,0:0:0:0:
64,192,82290,128,0,82374:0:0:0:0:
192,192,82290,1,0,0:0:0:0:
320,192,82374,1,8,0:0:0:0:
448,192,82374,128,0,82540:0:0:0:0:
64,192,82540,1,0,0:0:0:0:
192,192,82540,128,0,82624:0:0:0:0:
320,192,82707,128,2,82874:0:0:0:0:
448,192,82707,1,0,0:0:0:0:
64,192,82790,1,0,0:0:0:0:
192,192,82790,128,0,82874:0:0:0:0:
64,192,82957,1,0,0:0:0:0:
192,192,82957,128,0,83040:0:0:0:0:
320,192,83040,1,8,0:0:0:0:
448,192,83040,1,0,0:0:0:0:
192,192,83207,128,0,83374:0:0:0:0:
448,192,83207,128,0,83290:0:0:0:0:
64,192,83374,128,2,83540:0:0:0:0:
320,192,83374,1,0,0:0:0:0:
448,192,83457,128,0,83540:0:0:0:0:
192,192,83624,128,0,83707:0:0:0:0:
320,192,83707,128,8,83874:0:0:0:0:
448,192,83707,1,0,0:0:0:0:
192,192,83874,128,0,83957:0:0:0:0:
64,192,84040,1,2,0:0:0:0:
320,192,84040,1,4,0:0:0:0:
448,192,84040,128,0,84207:0:0:0:0:
192,192,84124,128,0,84207:0:0:0:0:
192,192,84290,128,0,84374:0:0:0:0:
448,192,84429,1,0,0:0:0:0:
64,192,84485,1,0,0:0:0:0:
320,192,84540,1,0,0:0:0:0:
448,192,84540,1,0,0:0:0:0:
64,192,84707,1,0,0:0:0:0:
192,192,84707,128,0,84874:0:0:0:0:
448,192,84707,1,0,0:0:0:0:
320,192,84790,1,0,0:0:0:0:
64,192,84874,1,0,0:0:0:0:
448,192,84874,1,0,0:0:0:0:
192,192,84957,1,0,0:0:0:0:
64,192,85040,128,0,85207:0:0:0:70:LR4_SnareBPDT.wav
320,192,85040,128,0,85207:0:0:0:0:
448,192,85040,128,0,85207:0:0:0:0:
64,192,85374,1,2,0:0:0:0:
192,192,85374,128,4,85624:0:0:0:0:
448,192,85540,1,0,0:0:0:0:
448,192,85624,1,0,0:0:0:0:
64,192,85707,1,0,0:0:0:70:LR_Kick Drop Wet Fast.wav
192,192,85707,128,0,85874:0:0:0:0:
448,192,85790,1,0,0:0:0:0:
320,192,85874,128,0,86040:0:0:0:0:
448,192,85874,1,0,0:0:0:0:
64,192,86040,1,2,0:0:0:0:
192,192,86040,128,0,86124:0:0:0:0:
64,192,86207,1,0,0:0:0:0:
64,192,86290,1,0,0:0:0:0:
320,192,86374,128,0,86457:0:0:0:70:LR_Kick Drop Wet Fast.wav
448,192,86374,1,0,0:0:0:0:
64,192,86457,1,0,0:0:0:0:
64,192,86540,1,0,0:0:0:0:
320,192,86707,1,2,0:0:0:0:
448,192,86707,128,0,86874:0:0:0:0:
320,192,86874,1,0,0:0:0:0:
320,192,86957,1,0,0:0:0:0:
64,192,87040,1,0,0:0:0:70:LR_Kick Drop Wet Fast.wav
192,192,87040,1,0,0:0:0:0:
320,192,87124,1,0,0:0:0:0:
64,192,87207,128,0,87374:0:0:0:0:
320,192,87207,1,0,0:0:0:0:
320,192,87374,1,2,0:0:0:0:
448,192,87374,128,0,87540:0:0:0:0:
64,192,87540,1,0,0:0:0:0:
64,192,87624,1,0,0:0:0:0:
320,192,87707,1,0,0:0:0:70:LR_Kick Drop Wet Fast.wav
448,192,87707,128,0,87874:0:0:0:0:
64,192,87790,1,0,0:0:0:0:
64,192,87874,1,0,0:0:0:0:
192,192,88040,1,2,0:0:0:0:
320,192,88040,128,0,88207:0:0:0:0:
448,192,88207,1,0,0:0:0:0:
448,192,88290,1,0,0:0:0:0:
64,192,88374,1,0,0:0:0:70:LR_Kick Drop Wet Fast.wav
192,192,88374,1,0,0:0:0:0:
448,192,88457,1,0,0:0:0:0:
320,192,88540,128,0,88707:0:0:0:0:
448,192,88540,1,0,0:0:0:0:
64,192,88707,128,2,88874:0:0:0:0:
192,192,88707,1,0,0:0:0:0:
192,192,88874,1,0,0:0:0:0:
192,192,88957,1,0,0:0:0:0:
320,192,89040,1,0,0:0:0:70:LR_Kick Drop Wet Fast.wav
448,192,89040,128,0,89207:0:0:0:0:
192,192,89124,1,0,0:0:0:0:
192,192,89207,1,0,0:0:0:0:
192,192,89374,1,2,0:0:0:0:
320,192,89374,128,0,89540:0:0:0:0:
448,192,89540,1,0,0:0:0:0:
448,192,89624,1,0,0:0:0:0:
64,192,89707,1,0,0:0:0:70:LR_Kick Drop Wet Fast.wav
192,192,89707,1,0,0:0:0:0:
448,192,89790,1,0,0:0:0:0:
448,192,89874,1,0,0:0:0:0:
192,192,90040,128,2,90207:0:0:0:0:
320,192,90040,1,0,0:0:0:0:
64,192,90207,1,0,0:0:0:0:
64,192,90290,1,0,0:0:0:0:
320,192,90374,128,0,90540:0:0:0:70:LR_Kick Drop Wet Fast.wav
448,192,90374,1,0,0:0:0:0:
64,192,90457,1,0,0:0:0:0:
64,192,90540,1,0,0:0:0:0:
64,192,90707,1,2,0:0:0:0:
192,192,90707,128,0,90957:0:0:0:0:
448,192,90874,1,0,0:0:0:0:
448,192,90957,1,0,0:0:0:0:
64,192,91040,1,0,0:0:0:70:LR_Kick Drop Wet Fast.wav
192,192,91040,128,0,91207:0:0:0:0:
448,192,91124,1,0,0:0:0:0:
320,192,91207,128,0,91374:0:0:0:0:
448,192,91207,1,0,0:0:0:0:
64,192,91374,1,2,0:0:0:0:
192,192,91374,128,0,91457:0:0:0:0:
64,192,91540,1,0,0:0:0:0:
64,192,91624,1,0,0:0:0:0:
320,192,91707,128,0,91790:0:0:0:70:LR_Kick Drop Wet Fast.wav
448,192,91707,1,0,0:0:0:0:
64,192,91790,1,0,0:0:0:0:
64,192,91874,1,0,0:0:0:0:
320,192,92040,1,2,0:0:0:0:
448,192,92040,128,0,92207:0:0:0:0:
320,192,92207,1,0,0:0:0:0:
320,192,92290,1,0,0:0:0:0:
64,192,92374,1,0,0:0:0:70:LR_Kick Drop Wet Fast.wav
192,192,92374,1,0,0:0:0:0:
320,192,92457,1,0,0:0:0:0:
64,192,92540,128,0,92707:0:0:0:0:
320,192,92540,1,0,0:0:0:0:
320,192,92707,1,2,0:0:0:0:
448,192,92707,128,0,92874:0:0:0:0:
64,192,92874,1,0,0:0:0:0:
64,192,92957,1,0,0:0:0:0:
320,192,93040,1,0,0:0:0:70:LR_Kick Drop Wet Fast.wav
448,192,93040,128,0,93207:0:0:0:0:
64,192,93124,1,0,0:0:0:0:
64,192,93207,1,0,0:0:0:0:
192,192,93374,1,2,0:0:0:0:
320,192,93374,128,0,93540:0:0:0:0:
448,192,93540,1,0,0:0:0:0:
448,192,93624,1,0,0:0:0:0:
64,192,93707,1,0,0:0:0:70:LR_Kick Drop Wet Fast.wav
192,192,93707,1,0,0:0:0:0:
448,192,93790,1,0,0:0:0:0:
192,192,93874,128,0,94040:0:0:0:0:
448,192,93874,1,0,0:0:0:0:
64,192,94040,128,2,94207:0:0:0:0:
320,192,94040,1,0,0:0:0:0:
192,192,94207,1,0,0:0:0:0:
192,192,94290,1,0,0:0:0:0:
320,192,94374,128,0,94540:0:0:0:70:LR_Kick Drop Wet Fast.wav
448,192,94374,1,0,0:0:0:0:
192,192,94457,1,0,0:0:0:0:
192,192,94540,1,0,0:0:0:0:
64,192,94707,1,2,0:0:0:0:
320,192,94707,1,0,0:0:0:0:
448,192,94707,128,0,94874:0:0:0:0:
64,192,95040,1,0,0:0:0:50:LR4_SnareKKF.wav
448,192,95040,1,0,0:0:0:0:
192,192,95124,1,0,0:0:0:50:LR4_SnareKKF.wav
448,192,95124,1,0,0:0:0:0:
64,192,95207,1,0,0:0:0:70:LR_Drum Rpd x2.wav
64,192,95290,1,0,0:0:0:70:LR_Drum Rpd x2.wav
192,192,95290,1,0,0:0:0:0:
320,192,95374,1,0,0:0:0:70:LR_Snare Drum .wav
64,192,95457,1,0,0:0:0:70:LR_Snare Drum .wav
320,192,95457,1,0,0:0:0:0:
192,192,95540,1,0,0:0:0:50:LR_Kick Beat 2.wav
448,192,95540,1,0,0:0:0:0:
64,192,95624,1,0,0:0:0:50:LR_Kick Beat 2.wav
192,192,95624,1,0,0:0:0:0:
448,192,95707,1,0,0:0:0:50:LR_Kick Beat 2.wav
192,192,95790,1,0,0:0:0:50:LR_Kick Beat 2.wav
448,192,95790,1,0,0:0:0:0:
64,192,95874,1,0,0:0:0:50:LR_Kick Beat 2.wav
320,192,95874,1,0,0:0:0:0:
64,192,95957,1,0,0:0:0:50:LR_Kick Beat 2.wav
192,192,95957,1,0,0:0:0:0:
192,192,96040,1,2,0:0:0:0:
320,192,96040,1,4,0:0:0:0:
448,192,96040,128,0,96207:0:0:0:0:
64,192,96207,128,0,96290:0:0:0:0:
192,192,96207,1,0,0:0:0:0:
320,192,96290,1,0,0:0:0:0:
448,192,96290,128,0,96374:0:0:0:0:
64,192,96374,1,0,0:0:0:70:LR_Kick Drop Wet Fast.wav
192,192,96374,1,0,0:0:0:0:
64,192,96540,1,0,0:0:0:0:
320,192,96540,128,0,96624:0:0:0:0:
320,192,96707,1,2,0:0:0:0:
448,192,96707,128,0,96874:0:0:0:0:
64,192,96790,1,0,0:0:0:0:
192,192,96874,1,0,0:0:0:0:
64,192,97040,128,0,97207:0:0:0:70:LR_Kick Drop Wet Fast.wav
192,192,97040,1,0,0:0:0:0:
320,192,97207,1,0,0:0:0:0:
448,192,97207,128,0,97290:0:0:0:0:
320,192,97374,1,2,0:0:0:0:
448,192,97374,128,0,97540:0:0:0:0:
192,192,97457,1,0,0:0:0:0:
64,192,97540,128,0,97624:0:0:0:0:
320,192,97540,1,0,0:0:0:0:
64,192,97707,128,0,97874:0:0:0:70:LR_Kick Drop Wet Fast.wav
192,192,97707,1,0,0:0:0:0:
320,192,97874,1,0,0:0:0:0:
448,192,97874,128,0,97957:0:0:0:0:
320,192,98040,1,2,0:0:0:0:
448,192,98040,128,0,98207:0:0:0:0:
64,192,98124,1,0,0:0:0:0:
192,192,98124,1,0,0:0:0:0:
192,192,98207,1,0,0:0:0:0:
320,192,98207,1,0,0:0:0:0:
64,192,98290,1,0,0:0:0:0:
192,192,98374,128,0,98457:0:0:0:70:LR_Kick Drop Wet Fast.wav
320,192,98374,1,0,0:0:0:0:
64,192,98457,1,0,0:0:0:0:
320,192,98540,128,0,98624:0:0:0:0:
448,192,98540,1,0,0:0:0:0:
192,192,98624,1,0,0:0:0:0:
320,192,98707,1,2,0:0:0:0:
448,192,98707,128,0,98790:0:0:0:0:
64,192,98790,128,0,98874:0:0:0:0:
192,192,98790,1,0,0:0:0:0:
320,192,98874,1,0,0:0:0:0:
448,192,98874,128,0,98957:0:0:0:0:
64,192,98957,128,0,99040:0:0:0:0:
192,192,98957,1,0,0:0:0:0:
320,192,99040,1,0,0:0:0:70:LR_Kick Drop Wet Fast.wav
448,192,99040,1,0,0:0:0:0:
64,192,99207,1,0,0:0:0:0:
320,192,99207,128,0,99290:0:0:0:0:
320,192,99374,1,2,0:0:0:0:
448,192,99374,128,0,99540:0:0:0:0:
64,192,99457,1,0,0:0:0:0:
192,192,99540,1,0,0:0:0:0:
64,192,99707,128,0,99874:0:0:0:70:LR_Kick Drop Wet Fast.wav
192,192,99707,1,0,0:0:0:0:
320,192,99874,1,0,0:0:0:0:
448,192,99874,128,0,99957:0:0:0:0:
320,192,100040,1,2,0:0:0:0:
448,192,100040,128,0,100207:0:0:0:0:
64,192,100207,128,0,100290:0:0:0:0:
192,192,100207,1,0,0:0:0:0:
320,192,100290,1,0,0:0:0:0:
64,192,100374,128,0,100540:0:0:0:70:LR_Kick Drop Wet Fast.wav
192,192,100374,1,0,0:0:0:0:
320,192,100540,1,0,0:0:0:0:
448,192,100540,128,0,100624:0:0:0:0:
64,192,100707,1,2,0:0:0:0:
192,192,100707,128,0,100957:0:0:0:0:
448,192,100874,128,0,101040:0:0:0:0:
192,192,101040,1,0,0:0:0:70:LR_Kick Drop Wet Fast.wav
320,192,101040,128,0,101290:0:0:0:0:
64,192,101207,128,0,101374:0:0:0:0:
192,192,101374,1,2,0:0:0:0:
320,192,101374,1,0,0:0:0:70:LR_Kick Drop Wet Fast.wav
448,192,101374,128,0,101540:0:0:0:0:
64,192,101540,128,0,101624:0:0:0:0:
192,192,101540,1,0,0:0:0:0:
320,192,101624,1,0,0:0:0:0:
448,192,101624,128,0,101707:0:0:0:0:
64,192,101707,1,0,0:0:0:70:LR_Kick Drop Wet Fast.wav
192,192,101707,1,0,0:0:0:0:
64,192,101874,1,0,0:0:0:0:
320,192,101874,128,0,101957:0:0:0:0:
320,192,102040,1,2,0:0:0:0:
448,192,102040,128,0,102207:0:0:0:0:
64,192,102124,1,0,0:0:0:0:
192,192,102207,1,0,0:0:0:0:
64,192,102374,128,0,102540:0:0:0:70:LR_Kick Drop Wet Fast.wav
192,192,102374,1,0,0:0:0:0:
320,192,102540,1,0,0:0:0:0:
448,192,102540,128,0,102624:0:0:0:0:
320,192,102707,1,2,0:0:0:0:
448,192,102707,128,0,102874:0:0:0:0:
192,192,102790,1,0,0:0:0:0:
64,192,102874,128,0,102957:0:0:0:0:
320,192,102874,1,0,0:0:0:0:
64,192,103040,128,0,103207:0:0:0:70:LR_Kick Drop Wet Fast.wav
192,192,103040,1,0,0:0:0:0:
320,192,103207,1,0,0:0:0:0:
448,192,103207,128,0,103290:0:0:0:0:
320,192,103374,1,2,0:0:0:0:
448,192,103374,128,0,103540:0:0:0:0:
64,192,103457,1,0,0:0:0:0:
192,192,103457,1,0,0:0:0:0:
192,192,103540,1,0,0:0:0:0:
320,192,103540,1,0,0:0:0:0:
64,192,103707,1,0,0:0:0:70:LR_Kick Drop Wet Fast.wav
192,192,103707,128,0,103790:0:0:0:0:
192,192,103874,1,0,0:0:0:0:
320,192,103874,128,0,103957:0:0:0:0:
320,192,104040,1,2,0:0:0:0:
448,192,104040,128,0,104124:0:0:0:0:
64,192,104124,128,0,104207:0:0:0:0:
192,192,104124,1,0,0:0:0:0:
320,192,104207,1,0,0:0:0:0:
448,192,104207,128,0,104290:0:0:0:0:
64,192,104290,128,0,104374:0:0:0:0:
192,192,104290,1,0,0:0:0:0:
320,192,104374,1,0,0:0:0:70:LR_Kick Drop Wet Fast.wav
448,192,104374,1,0,0:0:0:0:
64,192,104540,1,0,0:0:0:0:
320,192,104540,128,0,104624:0:0:0:0:
320,192,104707,1,2,0:0:0:0:
448,192,104707,128,0,104874:0:0:0:0:
64,192,104790,1,0,0:0:0:0:
192,192,104874,1,0,0:0:0:0:
64,192,105040,128,0,105207:0:0:0:70:LR_Kick Drop Wet Fast.wav
192,192,105040,1,0,0:0:0:0:
320,192,105207,1,0,0:0:0:0:
448,192,105207,128,0,105290:0:0:0:0:
64,192,105374,1,2,0:0:0:0:
320,192,105374,1,0,0:0:0:0:
448,192,105374,128,0,105707:0:0:0:0:
192,192,105540,1,0,0:0:0:0:
320,192,105624,1,0,0:0:0:0:
64,192,105707,1,0,0:0:0:50:LR4_SnareKKF.wav
192,192,105707,1,0,0:0:0:0:
320,192,105874,128,0,106040:0:0:0:0:
448,192,105874,1,0,0:0:0:0:
64,192,106040,1,2,0:0:0:0:
192,192,106040,128,0,106374:0:0:0:0:
448,192,106040,1,0,0:0:0:0:
64,192,106374,1,0,0:0:0:100:LR4_ClapReverbDPS.wav
320,192,106374,1,0,0:0:0:0:
448,192,106374,1,0,0:0:0:0:
64,192,106540,1,0,0:0:0:0:
448,192,106540,1,0,0:0:0:0:
64,192,106707,128,2,106874:0:0:0:0:
192,192,106707,1,4,0:0:0:0:
320,192,106707,1,0,0:0:0:0:
320,192,106874,1,0,0:0:0:0:
448,192,106874,128,0,106957:0:0:0:0:
64,192,106957,128,0,107040:0:0:0:0:
192,192,106957,1,0,0:0:0:0:
320,192,107040,1,0,0:0:0:70:LR_Kick Drop Wet Fast.wav
448,192,107040,1,0,0:0:0:0:
64,192,107124,1,0,0:0:0:0:
192,192,107207,128,0,107290:0:0:0:0:
448,192,107207,1,0,0:0:0:0:
64,192,107374,128,2,107540:0:0:0:0:
192,192,107374,1,0,0:0:0:0:
320,192,107540,1,0,0:0:0:0:
320,192,107707,1,0,0:0:0:70:LR_Kick Drop Wet Fast.wav
448,192,107707,128,0,107874:0:0:0:0:
192,192,107790,1,0,0:0:0:0:
64,192,107874,128,0,107957:0:0:0:0:
320,192,107874,1,0,0:0:0:0:
64,192,108040,128,2,108207:0:0:0:0:
192,192,108040,1,0,0:0:0:0:
320,192,108207,1,0,0:0:0:0:
448,192,108207,128,0,108290:0:0:0:0:
320,192,108374,1,0,0:0:0:70:LR_Kick Drop Wet Fast.wav
448,192,108374,128,0,108540:0:0:0:0:
192,192,108457,1,0,0:0:0:0:
64,192,108540,128,0,108624:0:0:0:0:
320,192,108540,1,0,0:0:0:0:
64,192,108707,128,2,108874:0:0:0:0:
192,192,108707,1,0,0:0:0:0:
320,192,108790,1,0,0:0:0:0:
448,192,108790,1,0,0:0:0:0:
192,192,108874,1,0,0:0:0:0:
320,192,108874,1,0,0:0:0:0:
448,192,108957,1,0,0:0:0:0:
192,192,109040,1,0,0:0:0:70:LR_Kick Drop Wet Fast.wav
320,192,109040,128,0,109124:0:0:0:0:
448,192,109124,1,0,0:0:0:0:
64,192,109207,1,0,0:0:0:0:
192,192,109207,128,0,109290:0:0:0:0:
320,192,109290,1,0,0:0:0:0:
64,192,109374,128,2,109457:0:0:0:0:
192,192,109374,1,0,0:0:0:0:
448,192,109457,128,0,109540:0:0:0:0:
64,192,109540,128,0,109624:0:0:0:0:
192,192,109540,1,0,0:0:0:0:
320,192,109624,1,0,0:0:0:0:
448,192,109624,128,0,109707:0:0:0:0:
64,192,109707,1,0,0:0:0:70:LR_Kick Drop Wet Fast.wav
192,192,109707,1,0,0:0:0:0:
448,192,109790,1,0,0:0:0:0:
192,192,109874,128,0,109957:0:0:0:0:
320,192,109874,1,0,0:0:0:0:
64,192,110040,128,2,110207:0:0:0:0:
192,192,110040,1,0,0:0:0:0:
320,192,110207,1,0,0:0:0:0:
320,192,110374,1,0,0:0:0:70:LR_Kick Drop Wet Fast.wav
448,192,110374,128,0,110540:0:0:0:0:
192,192,110457,1,0,0:0:0:0:
64,192,110540,128,0,110624:0:0:0:0:
320,192,110540,1,0,0:0:0:0:
64,192,110707,128,2,110874:0:0:0:0:
192,192,110707,1,0,0:0:0:0:
320,192,110874,1,0,0:0:0:0:
448,192,110874,128,0,110957:0:0:0:0:
320,192,111040,1,0,0:0:0:70:LR_Kick Drop Wet Fast.wav
448,192,111040,128,0,111207:0:0:0:0:
192,192,111124,1,0,0:0:0:0:
64,192,111207,128,0,111290:0:0:0:0:
320,192,111207,1,0,0:0:0:0:
320,192,111374,128,2,111624:0:0:0:0:
448,192,111374,1,0,0:0:0:0:
64,192,111540,128,0,111707:0:0:0:0:
192,192,111540,1,0,0:0:0:0:
192,192,111707,128,0,111957:0:0:0:70:LR_Kick Drop Wet Fast.wav
448,192,111707,1,0,0:0:0:0:
320,192,111790,1,0,0:0:0:0:
64,192,111874,1,0,0:0:0:0:
448,192,111874,128,0,112040:0:0:0:0:
64,192,112040,128,2,112207:0:0:0:0:
192,192,112040,1,0,0:0:0:70:LR_Kick Drop Wet Fast.wav
320,192,112040,1,0,0:0:0:0:
320,192,112207,1,0,0:0:0:0:
448,192,112207,128,0,112290:0:0:0:0:
64,192,112290,128,0,112374:0:0:0:0:
192,192,112290,1,0,0:0:0:0:
320,192,112374,128,0,112457:0:0:0:70:LR_Kick Drop Wet Fast.wav
448,192,112374,1,0,0:0:0:0:
64,192,112457,1,0,0:0:0:0:
192,192,112540,128,0,112624:0:0:0:0:
448,192,112540,1,0,0:0:0:0:
64,192,112707,128,2,112874:0:0:0:0:
192,192,112707,1,0,0:0:0:0:
320,192,112874,1,0,0:0:0:0:
320,192,113040,1,0,0:0:0:70:LR_Kick Drop Wet Fast.wav
448,192,113040,128,0,113207:0:0:0:0:
192,192,113124,1,0,0:0:0:0:
64,192,113207,128,0,113290:0:0:0:0:
320,192,113207,1,0,0:0:0:0:
64,192,113374,128,2,113540:0:0:0:0:
192,192,113374,1,0,0:0:0:0:
320,192,113540,1,0,0:0:0:0:
448,192,113540,128,0,113624:0:0:0:0:
320,192,113707,1,0,0:0:0:70:LR_Kick Drop Wet Fast.wav
448,192,113707,128,0,113874:0:0:0:0:
192,192,113790,1,0,0:0:0:0:
64,192,113874,128,0,113957:0:0:0:0:
320,192,113874,1,0,0:0:0:0:
64,192,114040,128,2,114207:0:0:0:0:
192,192,114040,1,0,0:0:0:0:
448,192,114124,1,0,0:0:0:0:
192,192,114207,1,0,0:0:0:0:
320,192,114207,1,0,0:0:0:0:
320,192,114374,128,0,114457:0:0:0:70:LR_Kick Drop Wet Fast.wav
448,192,114374,1,0,0:0:0:0:
64,192,114457,1,0,0:0:0:0:
192,192,114540,128,0,114624:0:0:0:0:
448,192,114540,1,0,0:0:0:0:
64,192,114624,1,0,0:0:0:0:
320,192,114707,1,2,0:0:0:0:
448,192,114707,128,4,115207:0:0:0:0:
192,192,114874,128,0,116624:0:0:0:0:
320,192,115207,128,0,115874:0:0:0:0:
448,192,115374,1,0,0:0:0:70:LR_Drum Rpd x2.wav
64,192,115707,1,0,0:0:0:0:
64,192,115874,128,0,116707:0:0:0:70:LR_Drum Rpd x2.wav
448,192,115874,1,0,0:0:0:0:
320,192,116374,1,0,0:0:0:0:
192,192,116707,1,0,0:0:0:70:LR4_SnareKKF.wav
320,192,116707,1,0,0:0:0:0:
448,192,116707,1,0,0:0:0:0:
448,192,116874,1,0,0:0:0:0:
192,192,116915,1,0,0:0:0:0:
320,192,116957,1,0,0:0:0:0:
64,192,116999,1,0,0:0:0:0:
192,192,117040,128,0,117124:0:0:0:0:
448,192,117040,128,0,117207:0:0:0:0:
64,192,117207,128,0,117374:0:0:0:0:
320,192,117207,128,0,117290:0:0:0:0:
192,192,117374,1,4,0:0:0:0:
320,192,117374,1,8,0:0:0:0:
448,192,117374,128,0,117540:0:0:0:0:
192,192,117457,1,2,0:0:0:0:
64,192,117540,128,0,117624:0:0:0:0:
448,192,117624,128,2,117707:0:0:0:0:
64,192,117707,1,0,0:0:0:70:LR_Kick Drop Wet Fast.wav
192,192,117707,128,0,117790:0:0:0:0:
320,192,117707,1,0,0:0:0:0:
448,192,117790,1,2,0:0:0:0:
64,192,117874,1,0,0:0:0:0:
320,192,117874,128,0,117957:0:0:0:0:
64,192,117957,1,2,0:0:0:0:
192,192,118040,1,8,0:0:0:0:
320,192,118040,1,0,0:0:0:0:
448,192,118040,128,0,118207:0:0:0:0:
64,192,118124,1,2,0:0:0:0:
64,192,118207,1,0,0:0:0:0:
320,192,118290,1,2,0:0:0:0:
64,192,118374,128,0,118540:0:0:0:70:LR_Kick Drop Wet Fast.wav
192,192,118374,1,0,0:0:0:0:
448,192,118374,1,0,0:0:0:0:
320,192,118457,1,2,0:0:0:0:
448,192,118540,128,0,118624:0:0:0:0:
192,192,118624,1,2,0:0:0:0:
64,192,118707,1,8,0:0:0:0:
192,192,118707,1,0,0:0:0:0:
448,192,118707,128,0,118874:0:0:0:0:
320,192,118790,1,2,0:0:0:0:
64,192,118874,128,0,118957:0:0:0:0:
320,192,118957,1,2,0:0:0:0:
64,192,119040,128,0,119207:0:0:0:70:LR_Kick Drop Wet Fast.wav
192,192,119040,1,0,0:0:0:0:
448,192,119040,1,0,0:0:0:0:
320,192,119124,1,2,0:0:0:0:
448,192,119207,128,0,119290:0:0:0:0:
192,192,119290,1,2,0:0:0:0:
192,192,119374,1,8,0:0:0:0:
320,192,119374,1,0,0:0:0:0:
448,192,119374,128,0,119540:0:0:0:0:
64,192,119457,1,2,0:0:0:0:
320,192,119540,1,0,0:0:0:0:
192,192,119624,1,2,0:0:0:0:
64,192,119707,1,0,0:0:0:70:LR_Kick Drop Wet Fast.wav
192,192,119707,128,0,119790:0:0:0:0:
320,192,119707,1,0,0:0:0:0:
192,192,119874,1,0,0:0:0:0:
320,192,119874,128,0,119957:0:0:0:0:
64,192,120040,1,8,0:0:0:0:
320,192,120040,1,0,0:0:0:0:
448,192,120040,128,0,120207:0:0:0:0:
192,192,120124,1,2,0:0:0:0:
64,192,120207,128,0,120290:0:0:0:0:
448,192,120290,128,2,120374:0:0:0:0:
64,192,120374,1,0,0:0:0:70:LR_Kick Drop Wet Fast.wav
192,192,120374,128,0,120457:0:0:0:0:
320,192,120374,1,0,0:0:0:0:
448,192,120457,1,2,0:0:0:0:
64,192,120540,1,0,0:0:0:0:
320,192,120540,128,0,120624:0:0:0:0:
64,192,120624,1,2,0:0:0:0:
192,192,120707,1,8,0:0:0:0:
320,192,120707,1,0,0:0:0:0:
448,192,120707,128,0,120874:0:0:0:0:
64,192,120790,1,2,0:0:0:0:
64,192,120874,1,0,0:0:0:0:
320,192,120957,1,2,0:0:0:0:
64,192,121040,128,0,121207:0:0:0:70:LR_Kick Drop Wet Fast.wav
192,192,121040,1,0,0:0:0:0:
448,192,121040,1,0,0:0:0:0:
320,192,121124,1,2,0:0:0:0:
448,192,121207,128,0,121290:0:0:0:0:
192,192,121290,1,2,0:0:0:0:
64,192,121374,1,8,0:0:0:0:
192,192,121374,1,0,0:0:0:0:
448,192,121374,128,0,121540:0:0:0:0:
320,192,121457,1,2,0:0:0:0:
64,192,121540,128,0,121624:0:0:0:0:
320,192,121624,1,2,0:0:0:0:
64,192,121707,128,0,121874:0:0:0:70:LR_Kick Drop Wet Fast.wav
192,192,121707,1,0,0:0:0:0:
448,192,121707,1,0,0:0:0:0:
320,192,121790,1,2,0:0:0:0:
448,192,121874,128,0,121957:0:0:0:0:
320,192,121957,1,2,0:0:0:0:
64,192,122040,1,8,0:0:0:0:
192,192,122040,128,0,122290:0:0:0:0:
448,192,122040,1,0,0:0:0:0:
320,192,122207,1,0,0:0:0:0:
448,192,122207,128,0,122374:0:0:0:0:
64,192,122374,1,0,0:0:0:70:LR_Kick Drop Wet Fast.wav
320,192,122374,128,0,122624:0:0:0:0:
192,192,122457,1,0,0:0:0:0:
64,192,122540,128,0,122707:0:0:0:0:
448,192,122540,1,0,0:0:0:0:
192,192,122707,1,8,0:0:0:0:
320,192,122707,1,0,0:0:0:70:LR_Kick Drop Wet Fast.wav
448,192,122707,128,0,122874:0:0:0:0:
192,192,122790,1,2,0:0:0:0:
64,192,122874,128,0,122957:0:0:0:0:
448,192,122957,128,2,123040:0:0:0:0:
64,192,123040,1,0,0:0:0:70:LR_Kick Drop Wet Fast.wav
192,192,123040,128,0,123124:0:0:0:0:
320,192,123040,1,0,0:0:0:0:
448,192,123124,1,2,0:0:0:0:
64,192,123207,1,0,0:0:0:0:
320,192,123207,128,0,123290:0:0:0:0:
64,192,123290,1,2,0:0:0:0:
192,192,123374,1,8,0:0:0:0:
320,192,123374,1,0,0:0:0:0:
448,192,123374,128,0,123540:0:0:0:0:
64,192,123457,1,2,0:0:0:0:
64,192,123540,1,0,0:0:0:0:
320,192,123624,1,2,0:0:0:0:
64,192,123707,128,0,123874:0:0:0:70:LR_Kick Drop Wet Fast.wav
192,192,123707,1,0,0:0:0:0:
448,192,123707,1,0,0:0:0:0:
320,192,123790,1,2,0:0:0:0:
448,192,123874,128,0,123957:0:0:0:0:
192,192,123957,1,2,0:0:0:0:
64,192,124040,1,8,0:0:0:0:
192,192,124040,1,0,0:0:0:0:
448,192,124040,128,0,124207:0:0:0:0:
320,192,124124,1,2,0:0:0:0:
64,192,124207,128,0,124290:0:0:0:0:
320,192,124290,1,2,0:0:0:0:
64,192,124374,128,0,124540:0:0:0:70:LR_Kick Drop Wet Fast.wav
192,192,124374,1,0,0:0:0:0:
448,192,124374,1,0,0:0:0:0:
320,192,124457,1,2,0:0:0:0:
448,192,124540,128,0,124624:0:0:0:0:
192,192,124624,1,2,0:0:0:0:
64,192,124707,1,8,0:0:0:0:
320,192,124707,1,0,0:0:0:0:
448,192,124707,128,0,124874:0:0:0:0:
64,192,124790,1,2,0:0:0:0:
320,192,124874,1,0,0:0:0:0:
192,192,124957,1,2,0:0:0:0:
64,192,125040,1,0,0:0:0:70:LR_Kick Drop Wet Fast.wav
192,192,125040,128,0,125124:0:0:0:0:
320,192,125040,1,0,0:0:0:0:
192,192,125207,1,0,0:0:0:0:
320,192,125207,128,0,125290:0:0:0:0:
192,192,125374,128,8,125624:0:0:0:0:
320,192,125374,1,0,0:0:0:0:
448,192,125374,1,0,0:0:0:0:
448,192,125540,128,0,125624:0:0:0:0:
64,192,125624,128,2,125707:0:0:0:0:
320,192,125707,128,0,125790:0:0:0:70:LR_Kick Drop Wet Fast.wav
448,192,125707,1,0,0:0:0:0:
192,192,125790,1,2,0:0:0:0:
192,192,125874,128,0,125957:0:0:0:0:
448,192,125874,1,0,0:0:0:0:
64,192,126040,1,8,0:0:0:0:
320,192,126040,128,0,126290:0:0:0:0:
64,192,126207,128,0,126290:0:0:0:0:
448,192,126207,1,0,0:0:0:0:
192,192,126290,1,2,0:0:0:0:
448,192,126290,128,0,126374:0:0:0:0:
64,192,126374,128,0,126457:0:0:0:70:LR_Kick Drop Wet Fast.wav
192,192,126374,1,0,0:0:0:0:
320,192,126457,1,2,0:0:0:0:
448,192,126457,128,0,126540:0:0:0:0:
64,192,126540,1,0,0:0:0:0:
192,192,126540,128,0,126624:0:0:0:0:
320,192,126624,128,2,126707:0:0:0:0:
448,192,126624,1,0,0:0:0:0:
64,192,126707,128,4,126874:0:0:0:0:
192,192,126707,1,8,0:0:0:0:
320,192,126874,128,0,127040:0:0:0:0:
448,192,126874,1,0,0:0:0:0:
192,192,127040,1,0,0:0:0:70:LR_Snare Drum .wav
64,192,127207,1,0,0:0:0:70:LR_Snare Drum .wav
320,192,127290,1,0,0:0:0:70:LR_Drum Rpd x2.wav
64,192,127332,1,0,0:0:0:0:
192,192,127374,128,8,127540:0:0:0:0:
448,192,127374,1,0,0:0:0:0:
448,192,127540,1,0,0:0:0:70:LR_Drum Rpd x2.wav
64,192,127707,128,0,127874:0:0:0:0:
192,192,127707,1,0,0:0:0:0:
320,192,127790,1,0,0:0:0:0:
448,192,127874,1,0,0:0:0:70:LR_Drum Rpd x2.wav
64,192,128040,128,4,128207:0:0:0:0:
192,192,128040,1,8,0:0:0:0:
320,192,128040,1,0,0:0:0:0:
320,192,128124,1,2,0:0:0:0:
448,192,128207,128,0,128290:0:0:0:0:
64,192,128290,128,2,128374:0:0:0:0:
192,192,128374,1,0,0:0:0:70:LR_Kick Drop Wet Fast.wav
320,192,128374,128,0,128457:0:0:0:0:
448,192,128374,1,0,0:0:0:0:
64,192,128457,1,2,0:0:0:0:
192,192,128540,128,0,128624:0:0:0:0:
448,192,128540,1,0,0:0:0:0:
448,192,128624,1,2,0:0:0:0:
64,192,128707,128,8,128874:0:0:0:0:
192,192,128707,1,0,0:0:0:0:
320,192,128707,1,0,0:0:0:0:
448,192,128790,1,2,0:0:0:0:
448,192,128874,1,0,0:0:0:0:
192,192,128957,1,2,0:0:0:0:
64,192,129040,1,0,0:0:0:70:LR_Kick Drop Wet Fast.wav
320,192,129040,1,0,0:0:0:0:
448,192,129040,128,0,129207:0:0:0:0:
192,192,129124,1,2,0:0:0:0:
64,192,129207,128,0,129290:0:0:0:0:
320,192,129290,1,2,0:0:0:0:
64,192,129374,128,8,129540:0:0:0:0:
320,192,129374,1,0,0:0:0:0:
448,192,129374,1,0,0:0:0:0:
192,192,129457,1,2,0:0:0:0:
448,192,129540,128,0,129624:0:0:0:0:
192,192,129624,1,2,0:0:0:0:
64,192,129707,1,0,0:0:0:70:LR_Kick Drop Wet Fast.wav
320,192,129707,1,0,0:0:0:0:
448,192,129707,128,0,129874:0:0:0:0:
192,192,129790,1,2,0:0:0:0:
64,192,129874,128,0,129957:0:0:0:0:
320,192,129957,1,2,0:0:0:0:
64,192,130040,128,8,130207:0:0:0:0:
192,192,130040,1,0,0:0:0:0:
320,192,130040,1,0,0:0:0:0:
448,192,130124,1,2,0:0:0:0:
192,192,130207,1,0,0:0:0:0:
320,192,130290,1,2,0:0:0:0:
192,192,130374,1,0,0:0:0:70:LR_Kick Drop Wet Fast.wav
320,192,130374,128,0,130457:0:0:0:0:
448,192,130374,1,0,0:0:0:0:
192,192,130540,128,0,130624:0:0:0:0:
320,192,130540,1,0,0:0:0:0:
64,192,130707,128,8,130874:0:0:0:0:
192,192,130707,1,0,0:0:0:0:
448,192,130707,1,0,0:0:0:0:
320,192,130790,1,2,0:0:0:0:
448,192,130874,128,0,130957:0:0:0:0:
64,192,130957,128,2,131040:0:0:0:0:
192,192,131040,1,0,0:0:0:70:LR_Kick Drop Wet Fast.wav
320,192,131040,128,0,131124:0:0:0:0:
448,192,131040,1,0,0:0:0:0:
64,192,131124,1,2,0:0:0:0:
192,192,131207,128,0,131290:0:0:0:0:
448,192,131207,1,0,0:0:0:0:
448,192,131290,1,2,0:0:0:0:
64,192,131374,128,8,131540:0:0:0:0:
192,192,131374,1,0,0:0:0:0:
320,192,131374,1,0,0:0:0:0:
448,192,131457,1,2,0:0:0:0:
448,192,131540,1,0,0:0:0:0:
192,192,131624,1,2,0:0:0:0:
64,192,131707,1,0,0:0:0:70:LR_Kick Drop Wet Fast.wav
320,192,131707,1,0,0:0:0:0:
448,192,131707,128,0,131874:0:0:0:0:
192,192,131790,1,2,0:0:0:0:
64,192,131874,128,0,131957:0:0:0:0:
320,192,131957,1,2,0:0:0:0:
64,192,132040,128,8,132207:0:0:0:0:
320,192,132040,1,0,0:0:0:0:
448,192,132040,1,0,0:0:0:0:
192,192,132124,1,2,0:0:0:0:
448,192,132207,128,0,132290:0:0:0:0:
192,192,132290,1,2,0:0:0:0:
64,192,132374,1,0,0:0:0:70:LR_Kick Drop Wet Fast.wav
320,192,132374,1,0,0:0:0:0:
448,192,132374,128,0,132540:0:0:0:0:
192,192,132457,1,2,0:0:0:0:
64,192,132540,128,0,132624:0:0:0:0:
192,192,132624,1,2,0:0:0:0:
64,192,132707,1,8,0:0:0:0:
320,192,132707,128,0,132957:0:0:0:0:
448,192,132707,1,0,0:0:0:0:
64,192,132874,128,0,133040:0:0:0:0:
192,192,132874,1,0,0:0:0:0:
192,192,133040,128,0,133290:0:0:0:70:LR_Kick Drop Wet Fast.wav
448,192,133040,1,0,0:0:0:0:
320,192,133124,1,0,0:0:0:0:
64,192,133207,1,0,0:0:0:0:
448,192,133207,128,0,133374:0:0:0:0:
64,192,133374,128,8,133540:0:0:0:0:
192,192,133374,1,0,0:0:0:70:LR_Kick Drop Wet Fast.wav
320,192,133374,1,0,0:0:0:0:
320,192,133457,1,2,0:0:0:0:
448,192,133540,128,0,133624:0:0:0:0:
64,192,133624,128,2,133707:0:0:0:0:
192,192,133707,1,0,0:0:0:70:LR_Kick Drop Wet Fast.wav
320,192,133707,128,0,133790:0:0:0:0:
448,192,133707,1,0,0:0:0:0:
64,192,133790,1,2,0:0:0:0:
192,192,133874,128,0,133957:0:0:0:0:
448,192,133874,1,0,0:0:0:0:
448,192,133957,1,2,0:0:0:0:
64,192,134040,128,8,134207:0:0:0:0:
192,192,134040,1,0,0:0:0:0:
320,192,134040,1,0,0:0:0:0:
448,192,134124,1,2,0:0:0:0:
448,192,134207,1,0,0:0:0:0:
192,192,134290,1,2,0:0:0:0:
64,192,134374,1,0,0:0:0:70:LR_Kick Drop Wet Fast.wav
320,192,134374,1,0,0:0:0:0:
448,192,134374,128,0,134540:0:0:0:0:
192,192,134457,1,2,0:0:0:0:
64,192,134540,128,0,134624:0:0:0:0:
320,192,134624,1,2,0:0:0:0:
64,192,134707,128,8,134874:0:0:0:0:
320,192,134707,1,0,0:0:0:0:
448,192,134707,1,0,0:0:0:0:
192,192,134790,1,2,0:0:0:0:
448,192,134874,128,0,134957:0:0:0:0:
192,192,134957,1,2,0:0:0:0:
64,192,135040,1,0,0:0:0:70:LR_Kick Drop Wet Fast.wav
320,192,135040,1,0,0:0:0:0:
448,192,135040,128,0,135207:0:0:0:0:
192,192,135124,1,2,0:0:0:0:
64,192,135207,128,0,135290:0:0:0:0:
320,192,135290,1,2,0:0:0:0:
64,192,135374,128,8,135540:0:0:0:0:
192,192,135374,1,0,0:0:0:0:
448,192,135374,1,0,0:0:0:0:
448,192,135457,1,2,0:0:0:0:
192,192,135540,1,0,0:0:0:0:
320,192,135624,1,2,0:0:0:0:
192,192,135707,1,0,0:0:0:70:LR_Kick Drop Wet Fast.wav
320,192,135707,128,0,135790:0:0:0:0:
448,192,135707,1,0,0:0:0:0:
192,192,135874,128,0,135957:0:0:0:0:
320,192,135874,1,0,0:0:0:0:
64,192,136040,128,4,136540:0:0:0:0:
192,192,136040,1,8,0:0:0:0:
320,192,136207,128,0,138374:0:0:0:0:
192,192,136540,128,0,137207:0:0:0:0:
64,192,136707,1,0,0:0:0:70:LR_Drum Rpd x2.wav
448,192,137040,1,0,0:0:0:0:
64,192,137207,1,0,0:0:0:70:LR_Drum Rpd x2.wav
448,192,137207,128,0,137457:0:0:0:0:
448,192,137540,128,2,137624:0:0:0:0:
448,192,137707,128,0,137790:0:0:0:0:
448,192,137874,128,2,137957:0:0:0:0:
448,192,138040,128,0,138124:0:0:0:0:
448,192,138207,128,0,138290:0:0:0:0:
64,192,138374,1,0,0:0:0:70:LR4_SnareKKF.wav
448,192,138374,1,0,0:0:0:0:
192,192,138415,1,0,0:0:0:0:
320,192,138457,1,0,0:0:0:0:
64,192,138499,1,0,0:0:0:0:
448,192,138540,1,0,0:0:0:0:
192,192,138582,1,0,0:0:0:0:
320,192,138624,1,0,0:0:0:0:
64,192,138665,1,0,0:0:0:0:
192,192,138707,1,2,0:0:0:0:
448,192,138707,128,4,139207:0:0:0:0:
320,192,139207,128,0,139374:0:0:0:0:
192,192,139374,128,0,139707:0:0:0:0:
64,192,139707,128,0,139874:0:0:0:0:
448,192,139874,1,0,0:0:0:0:
320,192,140040,128,0,140207:0:0:0:0:
192,192,140290,128,0,140374:0:0:0:0:
64,192,140540,128,0,140707:0:0:0:0:
320,192,140540,1,0,0:0:0:0:
448,192,140707,128,0,140874:0:0:0:0:
64,192,140874,128,0,141040:0:0:0:0:
448,192,141040,128,0,141207:0:0:0:0:
64,192,141207,128,0,141374:0:0:0:0:
192,192,141374,128,0,141624:0:0:0:0:
320,192,141374,1,0,0:0:0:0:
320,192,141624,128,0,141707:0:0:0:0:
320,192,141874,128,0,142040:0:0:0:0:
448,192,142040,128,0,142207:0:0:0:0:
64,192,142374,128,0,142540:0:0:0:0:
320,192,142540,1,0,0:0:0:0:
192,192,142707,128,0,142790:0:0:0:0:
320,192,142957,128,0,143040:0:0:0:0:
64,192,143207,128,0,143374:0:0:0:0:
192,192,143374,128,0,143540:0:0:0:0:
448,192,143540,128,0,143707:0:0:0:0:
64,192,143707,1,0,0:0:0:0:
320,192,143707,128,0,144040:0:0:0:0:
192,192,144040,1,0,0:0:0:0:
448,192,144040,128,0,144540:0:0:0:0:
320,192,144540,128,0,144707:0:0:0:0:
192,192,144707,128,0,145040:0:0:0:0:
64,192,145040,128,0,145207:0:0:0:0:
448,192,145207,1,0,0:0:0:0:
320,192,145374,128,0,145540:0:0:0:0:
192,192,145624,128,0,145707:0:0:0:0:
64,192,145874,128,0,146040:0:0:0:0:
192,192,146040,1,0,0:0:0:0:
448,192,146040,128,0,146374:0:0:0:0:
320,192,146374,128,0,146540:0:0:0:0:
192,192,146707,128,0,147040:0:0:0:0:
448,192,146707,1,0,0:0:0:0:
64,192,147040,128,0,147207:0:0:0:0:
320,192,147207,128,0,147374:0:0:0:0:
448,192,147374,128,0,147707:0:0:0:0:
192,192,147707,128,0,147874:0:0:0:0:
320,192,147874,128,0,148207:0:0:0:0:
448,192,147874,1,0,0:0:0:0:
448,192,148374,128,0,148540:0:0:0:0:
64,192,148540,1,0,0:0:0:0:
192,192,148707,128,0,148874:0:0:0:0:
64,192,149040,128,0,149207:0:0:0:0:
192,192,149374,1,0,0:0:0:70:boom.wav
320,192,149374,1,0,0:0:0:0:
448,192,149374,128,0,149540:0:0:0:0:
64,192,149540,1,0,0:0:0:0:
448,192,149624,128,0,149707:0:0:0:0:
192,192,149707,1,0,0:0:0:0:
64,192,149874,1,0,0:0:0:0:
320,192,149874,128,0,150040:0:0:0:0:
192,192,150040,128,0,150207:0:0:0:0:
448,192,150040,1,0,0:0:0:0:
64,192,150124,1,0,0:0:0:0:
448,192,150207,1,0,0:0:0:0:
64,192,150374,128,0,150540:0:0:0:0:
320,192,150374,1,0,0:0:0:0:
448,192,150540,1,0,0:0:0:0:
64,192,150707,1,0,0:0:0:0:
320,192,150707,128,0,150874:0:0:0:0:
448,192,150874,1,0,0:0:0:0:
192,192,150957,128,0,151040:0:0:0:0:
64,192,151040,1,0,0:0:0:0:
64,192,151207,128,0,151374:0:0:0:0:
448,192,151207,1,0,0:0:0:0:
192,192,151374,1,0,0:0:0:0:
448,192,151374,128,0,151540:0:0:0:0:
320,192,151457,1,0,0:0:0:0:
64,192,151540,128,0,151707:0:0:0:0:
192,192,151540,1,0,0:0:0:0:
320,192,151624,1,0,0:0:0:0:
192,192,151707,1,0,0:0:0:0:
448,192,151707,128,0,151874:0:0:0:0:
64,192,151874,128,0,152040:0:0:0:0:
320,192,151874,1,0,0:0:0:0:
320,192,152040,128,0,152207:0:0:0:0:
448,192,152040,1,0,0:0:0:0:
64,192,152207,1,0,0:0:0:0:
192,192,152290,128,0,152374:0:0:0:0:
64,192,152374,1,0,0:0:0:0:
64,192,152540,128,0,152707:0:0:0:0:
320,192,152540,1,0,0:0:0:0:
192,192,152707,1,0,0:0:0:0:
448,192,152707,128,0,152874:0:0:0:0:
320,192,152790,1,0,0:0:0:0:
64,192,152874,128,0,153040:0:0:0:0:
192,192,152874,1,0,0:0:0:0:
320,192,153040,1,0,0:0:0:0:
448,192,153040,128,0,153207:0:0:0:0:
64,192,153207,128,0,153374:0:0:0:0:
192,192,153207,1,0,0:0:0:0:
320,192,153374,128,0,153540:0:0:0:0:
448,192,153374,1,0,0:0:0:0:
64,192,153540,1,0,0:0:0:0:
192,192,153624,128,0,153707:0:0:0:0:
64,192,153707,1,0,0:0:0:0:
64,192,153874,128,0,154040:0:0:0:0:
448,192,153874,1,0,0:0:0:0:
192,192,154040,1,0,0:0:0:0:
448,192,154040,128,0,154207:0:0:0:0:
320,192,154124,1,0,0:0:0:0:
64,192,154207,128,0,154374:0:0:0:0:
192,192,154207,1,0,0:0:0:0:
320,192,154290,1,0,0:0:0:0:
192,192,154374,1,0,0:0:0:0:
448,192,154374,128,0,154540:0:0:0:0:
64,192,154540,128,0,154707:0:0:0:0:
320,192,154540,1,0,0:0:0:0:
192,192,154707,128,4,154957:0:0:0:0:
320,192,154707,128,2,154957:0:0:0:0:
448,192,154707,128,0,154790:0:0:0:0:
448,192,154874,128,0,155040:0:0:0:0:
64,192,155040,128,0,155290:0:0:0:0:
192,192,155040,128,0,155290:0:0:0:0:
320,192,155040,128,0,155124:0:0:0:0:
320,192,155207,128,0,155374:0:0:0:0:
64,192,155374,128,0,155624:0:0:0:0:
192,192,155374,128,0,155457:0:0:0:0:
448,192,155374,128,0,155624:0:0:0:0:
192,192,155540,128,0,155707:0:0:0:0:
64,192,155707,128,0,155790:0:0:0:0:
320,192,155707,128,0,155957:0:0:0:0:
448,192,155707,128,0,155957:0:0:0:0:
64,192,155874,128,0,156040:0:0:0:0:
192,192,156040,128,0,156290:0:0:0:0:
320,192,156040,128,0,156124:0:0:0:0:
448,192,156040,128,0,156290:0:0:0:0:
320,192,156207,128,0,156374:0:0:0:0:
64,192,156374,128,0,156624:0:0:0:0:
192,192,156374,128,0,156457:0:0:0:0:
448,192,156374,128,0,156624:0:0:0:0:
192,192,156540,128,0,156707:0:0:0:0:
64,192,156707,128,0,156957:0:0:0:0:
320,192,156707,128,0,156957:0:0:0:0:
448,192,156707,128,0,156790:0:0:0:0:
448,192,156874,128,0,157040:0:0:0:0:
64,192,157040,128,0,157124:0:0:0:0:
192,192,157040,128,0,157290:0:0:0:0:
320,192,157040,128,0,157290:0:0:0:0:
64,192,157207,128,0,157374:0:0:0:0:
192,192,157374,128,0,157540:0:0:0:0:
320,192,157374,128,0,157540:0:0:0:0:
448,192,157374,128,0,157790:0:0:0:0:
64,192,157624,128,0,157790:0:0:0:0:
192,192,157624,128,0,158040:0:0:0:0:
320,192,157624,128,0,157790:0:0:0:0:
64,192,157874,128,0,158040:0:0:0:0:
320,192,157874,128,0,158290:0:0:0:0:
448,192,157874,128,0,158040:0:0:0:0:
64,192,158124,128,0,158290:0:0:0:0:
192,192,158124,128,0,158290:0:0:0:0:
448,192,158124,128,0,158457:0:0:0:0:
64,192,158374,128,0,158707:0:0:0:0:
192,192,158374,128,0,158624:0:0:0:0:
320,192,158374,128,0,158540:0:0:0:0:
192,192,158707,1,2,0:0:0:0:
320,192,158707,1,0,0:0:0:0:
64,192,158874,1,0,0:0:0:50:LR4_SnareKKF.wav
448,192,158874,1,0,0:0:0:0:
64,192,158957,1,0,0:0:0:50:LR4_SnareKKF.wav
320,192,158957,1,0,0:0:0:0:
192,192,159040,1,0,0:0:0:70:LR_Drum Rpd x2.wav
448,192,159040,1,0,0:0:0:0:
320,192,159124,1,0,0:0:0:70:LR_Drum Rpd x2.wav
448,192,159124,1,0,0:0:0:0:
64,192,159207,1,0,0:0:0:70:LR_Snare Drum .wav
192,192,159207,1,0,0:0:0:0:
192,192,159290,1,0,0:0:0:70:LR_Snare Drum .wav
448,192,159290,1,0,0:0:0:0:
64,192,159374,1,0,0:0:0:50:LR_Kick Beat 2.wav
320,192,159374,1,0,0:0:0:0:
320,192,159457,1,0,0:0:0:50:LR_Kick Beat 2.wav
448,192,159457,1,0,0:0:0:0:
64,192,159540,1,0,0:0:0:50:LR_Kick Beat 2.wav
192,192,159540,1,0,0:0:0:0:
192,192,159624,1,0,0:0:0:50:LR_Kick Beat 2.wav
448,192,159624,1,0,0:0:0:0:
64,192,159707,128,0,159874:0:0:0:70:LR4_SnareBPDT.wav
320,192,159707,1,0,0:0:0:0:
448,192,159707,128,0,159874:0:0:0:0:
64,192,160040,1,2,0:0:0:0:
192,192,160040,128,4,160290:0:0:0:0:
320,192,160124,128,0,160207:0:0:0:0:
320,192,160290,128,0,160374:0:0:0:0:
448,192,160290,1,0,0:0:0:0:
64,192,160374,1,8,0:0:0:0:
192,192,160374,128,0,160540:0:0:0:0:
320,192,160540,128,0,160707:0:0:0:0:
448,192,160540,128,0,160624:0:0:0:0:
64,192,160707,1,2,0:0:0:0:
192,192,160707,128,0,160790:0:0:0:0:
320,192,160790,1,0,0:0:0:0:
448,192,160790,128,0,160874:0:0:0:0:
64,192,160957,1,0,0:0:0:0:
192,192,160957,128,0,161040:0:0:0:0:
320,192,161040,128,8,161124:0:0:0:0:
448,192,161040,1,0,0:0:0:0:
192,192,161207,128,0,161290:0:0:0:0:
320,192,161374,1,2,0:0:0:0:
448,192,161374,128,0,161540:0:0:0:0:
64,192,161457,128,0,161540:0:0:0:0:
192,192,161457,1,0,0:0:0:0:
64,192,161624,128,0,161707:0:0:0:0:
192,192,161624,1,0,0:0:0:0:
320,192,161707,1,8,0:0:0:0:
448,192,161707,1,0,0:0:0:0:
64,192,161874,128,0,162040:0:0:0:0:
448,192,161874,128,0,161957:0:0:0:0:
320,192,162040,1,2,0:0:0:0:
448,192,162040,128,0,162207:0:0:0:0:
64,192,162124,128,0,162207:0:0:0:0:
192,192,162124,1,0,0:0:0:0:
64,192,162290,128,0,162374:0:0:0:0:
192,192,162290,1,0,0:0:0:0:
320,192,162374,1,8,0:0:0:0:
448,192,162374,128,0,162540:0:0:0:0:
64,192,162540,1,0,0:0:0:0:
192,192,162540,128,0,162624:0:0:0:0:
320,192,162707,128,2,162874:0:0:0:0:
448,192,162707,1,0,0:0:0:0:
64,192,162790,1,0,0:0:0:0:
192,192,162790,128,0,162874:0:0:0:0:
64,192,162957,1,0,0:0:0:0:
192,192,162957,128,0,163040:0:0:0:0:
320,192,163040,1,8,0:0:0:0:
448,192,163040,1,0,0:0:0:0:
64,192,163207,128,0,163290:0:0:0:0:
320,192,163207,128,0,163374:0:0:0:0:
64,192,163374,1,2,0:0:0:0:
192,192,163374,128,0,163540:0:0:0:0:
320,192,163457,1,0,0:0:0:0:
448,192,163457,128,0,163540:0:0:0:0:
64,192,163624,1,0,0:0:0:0:
192,192,163624,128,0,163707:0:0:0:0:
320,192,163707,1,8,0:0:0:0:
448,192,163707,128,0,163874:0:0:0:0:
64,192,163874,1,0,0:0:0:0:
192,192,163874,128,0,163957:0:0:0:0:
320,192,164040,128,2,164207:0:0:0:0:
448,192,164040,1,0,0:0:0:0:
64,192,164124,1,0,0:0:0:0:
192,192,164124,128,0,164207:0:0:0:0:
64,192,164290,1,0,0:0:0:0:
192,192,164290,128,0,164374:0:0:0:0:
320,192,164374,1,8,0:0:0:0:
448,192,164374,1,0,0:0:0:0:
320,192,164540,128,0,164707:0:0:0:0:
448,192,164540,128,0,164624:0:0:0:0:
64,192,164707,1,2,0:0:0:0:
192,192,164707,128,0,164874:0:0:0:0:
320,192,164790,1,0,0:0:0:0:
448,192,164790,128,0,164874:0:0:0:0:
64,192,164957,1,0,0:0:0:0:
192,192,164957,128,0,165040:0:0:0:0:
320,192,165040,128,8,165207:0:0:0:0:
448,192,165040,1,0,0:0:0:0:
192,192,165207,1,0,0:0:0:0:
448,192,165207,128,0,165290:0:0:0:0:
64,192,165374,1,2,0:0:0:0:
192,192,165374,128,0,165624:0:0:0:0:
320,192,165457,128,0,165540:0:0:0:0:
448,192,165457,1,0,0:0:0:0:
320,192,165624,128,0,165707:0:0:0:0:
448,192,165624,1,0,0:0:0:0:
64,192,165707,1,8,0:0:0:0:
192,192,165707,128,0,165874:0:0:0:0:
320,192,165874,128,0,166040:0:0:0:0:
448,192,165874,128,0,165957:0:0:0:0:
64,192,166040,1,2,0:0:0:0:
192,192,166040,128,0,166124:0:0:0:0:
320,192,166124,1,0,0:0:0:0:
448,192,166124,128,0,166207:0:0:0:0:
64,192,166290,1,0,0:0:0:0:
192,192,166290,128,0,166374:0:0:0:0:
320,192,166374,128,8,166457:0:0:0:0:
448,192,166374,1,0,0:0:0:0:
64,192,166540,1,0,0:0:0:0:
192,192,166540,128,0,166624:0:0:0:0:
320,192,166707,1,2,0:0:0:0:
448,192,166707,128,0,166874:0:0:0:0:
64,192,166790,128,0,166874:0:0:0:0:
192,192,166790,1,0,0:0:0:0:
64,192,166957,128,0,167040:0:0:0:0:
192,192,166957,1,0,0:0:0:0:
320,192,167040,1,8,0:0:0:0:
448,192,167040,1,0,0:0:0:0:
64,192,167207,128,0,167374:0:0:0:0:
192,192,167207,128,0,167290:0:0:0:0:
320,192,167374,1,2,0:0:0:0:
448,192,167374,128,0,167540:0:0:0:0:
64,192,167457,128,0,167540:0:0:0:0:
192,192,167457,1,0,0:0:0:0:
64,192,167624,128,0,167707:0:0:0:0:
192,192,167624,1,0,0:0:0:0:
320,192,167707,1,8,0:0:0:0:
448,192,167707,128,0,167874:0:0:0:0:
64,192,167874,1,0,0:0:0:0:
192,192,167874,128,0,167957:0:0:0:0:
320,192,168040,128,2,168207:0:0:0:0:
448,192,168040,1,0,0:0:0:0:
64,192,168124,1,0,0:0:0:0:
192,192,168124,128,0,168207:0:0:0:0:
64,192,168290,1,0,0:0:0:0:
192,192,168290,128,0,168374:0:0:0:0:
320,192,168374,1,8,0:0:0:0:
448,192,168374,1,0,0:0:0:0:
192,192,168540,128,0,168707:0:0:0:0:
448,192,168540,128,0,168624:0:0:0:0:
64,192,168707,128,2,168874:0:0:0:0:
320,192,168707,1,0,0:0:0:0:
448,192,168790,128,0,168874:0:0:0:0:
192,192,168957,128,0,169040:0:0:0:0:
320,192,169040,128,8,169207:0:0:0:0:
448,192,169040,1,0,0:0:0:0:
192,192,169207,128,0,169290:0:0:0:0:
64,192,169374,1,2,0:0:0:0:
320,192,169374,1,4,0:0:0:0:
448,192,169374,128,0,169540:0:0:0:0:
192,192,169457,128,0,169540:0:0:0:0:
192,192,169624,128,0,169707:0:0:0:0:
448,192,169763,1,0,0:0:0:0:
64,192,169818,1,0,0:0:0:0:
320,192,169874,1,0,0:0:0:0:
448,192,169874,1,0,0:0:0:0:
64,192,170040,1,0,0:0:0:0:
192,192,170040,128,0,170207:0:0:0:0:
448,192,170040,1,0,0:0:0:0:
320,192,170124,1,0,0:0:0:0:
64,192,170207,1,0,0:0:0:0:
448,192,170207,1,0,0:0:0:0:
192,192,170290,1,0,0:0:0:0:
64,192,170374,128,0,170540:0:0:0:70:LR4_SnareBPDT.wav
320,192,170374,128,0,170540:0:0:0:0:
448,192,170374,128,0,170540:0:0:0:0:
64,192,170707,1,2,0:0:0:0:
192,192,170707,128,4,170957:0:0:0:0:
448,192,170874,1,0,0:0:0:0:
448,192,170957,1,0,0:0:0:0:
64,192,171040,1,0,0:0:0:70:LR_Kick Drop Wet Fast.wav
192,192,171040,128,0,171207:0:0:0:0:
448,192,171124,1,0,0:0:0:0:
320,192,171207,128,0,171374:0:0:0:0:
448,192,171207,1,0,0:0:0:0:
64,192,171374,1,2,0:0:0:0:
192,192,171374,128,0,171457:0:0:0:0:
64,192,171540,1,0,0:0:0:0:
64,192,171624,1,0,0:0:0:0:
320,192,171707,128,0,171790:0:0:0:70:LR_Kick Drop Wet Fast.wav
448,192,171707,1,0,0:0:0:0:
64,192,171790,1,0,0:0:0:0:
64,192,171874,1,0,0:0:0:0:
320,192,172040,1,2,0:0:0:0:
448,192,172040,128,0,172207:0:0:0:0:
320,192,172207,1,0,0:0:0:0:
320,192,172290,1,0,0:0:0:0:
64,192,172374,1,0,0:0:0:70:LR_Kick Drop Wet Fast.wav
192,192,172374,1,0,0:0:0:0:
320,192,172457,1,0,0:0:0:0:
64,192,172540,128,0,172707:0:0:0:0:
320,192,172540,1,0,0:0:0:0:
320,192,172707,1,2,0:0:0:0:
448,192,172707,128,0,172874:0:0:0:0:
64,192,172874,1,0,0:0:0:0:
64,192,172957,1,0,0:0:0:0:
320,192,173040,1,0,0:0:0:70:LR_Kick Drop Wet Fast.wav
448,192,173040,128,0,173207:0:0:0:0:
64,192,173124,1,0,0:0:0:0:
64,192,173207,1,0,0:0:0:0:
192,192,173374,1,2,0:0:0:0:
320,192,173374,128,0,173540:0:0:0:0:
448,192,173540,1,0,0:0:0:0:
448,192,173624,1,0,0:0:0:0:
64,192,173707,1,0,0:0:0:70:LR_Kick Drop Wet Fast.wav
192,192,173707,1,0,0:0:0:0:
448,192,173790,1,0,0:0:0:0:
320,192,173874,128,0,174040:0:0:0:0:
448,192,173874,1,0,0:0:0:0:
64,192,174040,128,2,174207:0:0:0:0:
192,192,174040,1,0,0:0:0:0:
192,192,174207,1,0,0:0:0:0:
192,192,174290,1,0,0:0:0:0:
320,192,174374,1,0,0:0:0:70:LR_Kick Drop Wet Fast.wav
448,192,174374,128,0,174540:0:0:0:0:
192,192,174457,1,0,0:0:0:0:
192,192,174540,1,0,0:0:0:0:
192,192,174707,1,2,0:0:0:0:
320,192,174707,128,0,174874:0:0:0:0:
448,192,174874,1,0,0:0:0:0:
448,192,174957,1,0,0:0:0:0:
64,192,175040,1,0,0:0:0:70:LR_Kick Drop Wet Fast.wav
192,192,175040,1,0,0:0:0:0:
448,192,175124,1,0,0:0:0:0:
448,192,175207,1,0,0:0:0:0:
192,192,175374,128,2,175540:0:0:0:0:
320,192,175374,1,0,0:0:0:0:
64,192,175540,1,0,0:0:0:0:
64,192,175624,1,0,0:0:0:0:
320,192,175707,128,0,175874:0:0:0:70:LR_Kick Drop Wet Fast.wav
448,192,175707,1,0,0:0:0:0:
64,192,175790,1,0,0:0:0:0:
64,192,175874,1,0,0:0:0:0:
64,192,176040,1,2,0:0:0:0:
192,192,176040,128,0,176290:0:0:0:0:
448,192,176207,1,0,0:0:0:0:
448,192,176290,1,0,0:0:0:0:
64,192,176374,1,0,0:0:0:70:LR_Kick Drop Wet Fast.wav
192,192,176374,128,0,176540:0:0:0:0:
448,192,176457,1,0,0:0:0:0:
320,192,176540,128,0,176707:0:0:0:0:
448,192,176540,1,0,0:0:0:0:
64,192,176707,1,2,0:0:0:0:
192,192,176707,128,0,176790:0:0:0:0:
64,192,176874,1,0,0:0:0:0:
64,192,176957,1,0,0:0:0:0:
320,192,177040,128,0,177124:0:0:0:70:LR_Kick Drop Wet Fast.wav
448,192,177040,1,0,0:0:0:0:
64,192,177124,1,0,0:0:0:0:
64,192,177207,1,0,0:0:0:0:
320,192,177374,1,2,0:0:0:0:
448,192,177374,128,0,177540:0:0:0:0:
320,192,177540,1,0,0:0:0:0:
320,192,177624,1,0,0:0:0:0:
64,192,177707,1,0,0:0:0:70:LR_Kick Drop Wet Fast.wav
192,192,177707,1,0,0:0:0:0:
320,192,177790,1,0,0:0:0:0:
64,192,177874,128,0,178040:0:0:0:0:
320,192,177874,1,0,0:0:0:0:
320,192,178040,1,2,0:0:0:0:
448,192,178040,128,0,178207:0:0:0:0:
64,192,178207,1,0,0:0:0:0:
64,192,178290,1,0,0:0:0:0:
320,192,178374,1,0,0:0:0:70:LR_Kick Drop Wet Fast.wav
448,192,178374,128,0,178540:0:0:0:0:
64,192,178457,1,0,0:0:0:0:
64,192,178540,1,0,0:0:0:0:
192,192,178707,1,2,0:0:0:0:
320,192,178707,128,0,178874:0:0:0:0:
448,192,178874,1,0,0:0:0:0:
448,192,178957,1,0,0:0:0:0:
64,192,179040,1,0,0:0:0:70:LR_Kick Drop Wet Fast.wav
192,192,179040,1,0,0:0:0:0:
448,192,179124,1,0,0:0:0:0:
192,192,179207,128,0,179374:0:0:0:0:
448,192,179207,1,0,0:0:0:0:
64,192,179374,128,2,179540:0:0:0:0:
320,192,179374,1,0,0:0:0:0:
192,192,179540,1,0,0:0:0:0:
192,192,179624,1,0,0:0:0:0:
320,192,179707,128,0,179874:0:0:0:70:LR_Kick Drop Wet Fast.wav
448,192,179707,1,0,0:0:0:0:
192,192,179790,1,0,0:0:0:0:
192,192,179874,1,0,0:0:0:0:
64,192,180040,1,2,0:0:0:0:
320,192,180040,1,0,0:0:0:0:
448,192,180040,128,0,180207:0:0:0:0:
64,192,180374,1,0,0:0:0:50:LR4_SnareKKF.wav
448,192,180374,1,0,0:0:0:0:
192,192,180457,1,0,0:0:0:50:LR4_SnareKKF.wav
448,192,180457,1,0,0:0:0:0:
64,192,180540,1,0,0:0:0:0:
64,192,180624,1,0,0:0:0:70:LR_Drum Rpd x2.wav
192,192,180624,1,0,0:0:0:0:
320,192,180707,1,0,0:0:0:70:LR_Snare Drum .wav
64,192,180790,1,0,0:0:0:70:LR_Snare Drum .wav
320,192,180790,1,0,0:0:0:0:
192,192,180874,1,0,0:0:0:50:LR_Kick Beat 2.wav
448,192,180874,1,0,0:0:0:0:
64,192,180957,1,0,0:0:0:50:LR_Kick Beat 2.wav
192,192,180957,1,0,0:0:0:0:
448,192,181040,1,0,0:0:0:50:LR_Kick Beat 2.wav
192,192,181124,1,0,0:0:0:50:LR_Kick Beat 2.wav
448,192,181124,1,0,0:0:0:0:
64,192,181207,1,0,0:0:0:50:LR_Kick Beat 2.wav
320,192,181207,1,0,0:0:0:0:
64,192,181290,1,0,0:0:0:50:LR_Kick Beat 2.wav
192,192,181290,1,0,0:0:0:0:
192,192,181374,1,2,0:0:0:0:
320,192,181374,1,4,0:0:0:0:
448,192,181374,128,0,181540:0:0:0:0:
64,192,181540,128,0,181624:0:0:0:0:
192,192,181540,1,0,0:0:0:0:
320,192,181624,1,0,0:0:0:0:
448,192,181624,128,0,181707:0:0:0:0:
64,192,181707,1,0,0:0:0:70:LR_Kick Drop Wet Fast.wav
192,192,181707,1,0,0:0:0:0:
320,192,181874,128,0,181957:0:0:0:0:
320,192,182040,1,2,0:0:0:0:
448,192,182040,128,0,182207:0:0:0:0:
64,192,182124,1,0,0:0:0:0:
192,192,182207,1,0,0:0:0:0:
64,192,182374,128,0,182540:0:0:0:70:LR_Kick Drop Wet Fast.wav
192,192,182374,1,0,0:0:0:0:
320,192,182540,1,0,0:0:0:0:
448,192,182540,128,0,182624:0:0:0:0:
320,192,182707,1,2,0:0:0:0:
448,192,182707,128,0,182874:0:0:0:0:
192,192,182790,1,0,0:0:0:0:
64,192,182874,128,0,182957:0:0:0:0:
320,192,182874,1,0,0:0:0:0:
64,192,183040,128,0,183207:0:0:0:70:LR_Kick Drop Wet Fast.wav
192,192,183040,1,0,0:0:0:0:
320,192,183207,1,0,0:0:0:0:
448,192,183207,128,0,183290:0:0:0:0:
320,192,183374,1,2,0:0:0:0:
448,192,183374,128,0,183540:0:0:0:0:
64,192,183457,1,0,0:0:0:0:
192,192,183457,1,0,0:0:0:0:
192,192,183540,1,0,0:0:0:0:
320,192,183540,1,0,0:0:0:0:
64,192,183624,1,0,0:0:0:0:
192,192,183707,128,0,183790:0:0:0:70:LR_Kick Drop Wet Fast.wav
320,192,183707,1,0,0:0:0:0:
64,192,183790,1,0,0:0:0:0:
320,192,183874,128,0,183957:0:0:0:0:
448,192,183874,1,0,0:0:0:0:
192,192,183957,1,0,0:0:0:0:
320,192,184040,1,2,0:0:0:0:
448,192,184040,128,0,184124:0:0:0:0:
64,192,184124,128,0,184207:0:0:0:0:
192,192,184124,1,0,0:0:0:0:
320,192,184207,1,0,0:0:0:0:
448,192,184207,128,0,184290:0:0:0:0:
64,192,184290,128,0,184374:0:0:0:0:
192,192,184290,1,0,0:0:0:0:
320,192,184374,1,0,0:0:0:70:LR_Kick Drop Wet Fast.wav
448,192,184374,1,0,0:0:0:0:
64,192,184540,1,0,0:0:0:0:
320,192,184540,128,0,184624:0:0:0:0:
320,192,184707,1,2,0:0:0:0:
448,192,184707,128,0,184874:0:0:0:0:
64,192,184790,1,0,0:0:0:0:
192,192,184874,1,0,0:0:0:0:
64,192,185040,128,0,185207:0:0:0:70:LR_Kick Drop Wet Fast.wav
192,192,185040,1,0,0:0:0:0:
320,192,185207,1,0,0:0:0:0:
448,192,185207,128,0,185290:0:0:0:0:
320,192,185374,1,2,0:0:0:0:
448,192,185374,128,0,185540:0:0:0:0:
64,192,185540,128,0,185624:0:0:0:0:
192,192,185540,1,0,0:0:0:0:
320,192,185624,1,0,0:0:0:0:
64,192,185707,128,0,185874:0:0:0:70:LR_Kick Drop Wet Fast.wav
192,192,185707,1,0,0:0:0:0:
320,192,185874,1,0,0:0:0:0:
448,192,185874,128,0,185957:0:0:0:0:
64,192,186040,1,2,0:0:0:0:
192,192,186040,128,0,186290:0:0:0:0:
448,192,186207,128,0,186374:0:0:0:0:
192,192,186374,1,0,0:0:0:70:LR_Kick Drop Wet Fast.wav
320,192,186374,128,0,186624:0:0:0:0:
64,192,186540,128,0,186707:0:0:0:0:
192,192,186707,1,2,0:0:0:0:
320,192,186707,1,0,0:0:0:70:LR_Kick Drop Wet Fast.wav
448,192,186707,128,0,186874:0:0:0:0:
64,192,186874,128,0,186957:0:0:0:0:
192,192,186874,1,0,0:0:0:0:
320,192,186957,1,0,0:0:0:0:
448,192,186957,128,0,187040:0:0:0:0:
64,192,187040,1,0,0:0:0:70:LR_Kick Drop Wet Fast.wav
192,192,187040,1,0,0:0:0:0:
320,192,187207,128,0,187290:0:0:0:0:
320,192,187374,1,2,0:0:0:0:
448,192,187374,128,0,187540:0:0:0:0:
64,192,187457,1,0,0:0:0:0:
192,192,187540,1,0,0:0:0:0:
64,192,187707,128,0,187874:0:0:0:70:LR_Kick Drop Wet Fast.wav
192,192,187707,1,0,0:0:0:0:
320,192,187874,1,0,0:0:0:0:
448,192,187874,128,0,187957:0:0:0:0:
320,192,188040,1,2,0:0:0:0:
448,192,188040,128,0,188207:0:0:0:0:
192,192,188124,1,0,0:0:0:0:
64,192,188207,128,0,188290:0:0:0:0:
320,192,188207,1,0,0:0:0:0:
64,192,188374,128,0,188540:0:0:0:70:LR_Kick Drop Wet Fast.wav
192,192,188374,1,0,0:0:0:0:
320,192,188540,1,0,0:0:0:0:
448,192,188540,128,0,188624:0:0:0:0:
320,192,188707,1,2,0:0:0:0:
448,192,188707,128,0,188874:0:0:0:0:
64,192,188790,1,0,0:0:0:0:
192,192,188790,1,0,0:0:0:0:
192,192,188874,1,0,0:0:0:0:
320,192,188874,1,0,0:0:0:0:
64,192,189040,1,0,0:0:0:70:LR_Kick Drop Wet Fast.wav
192,192,189040,128,0,189124:0:0:0:0:
192,192,189207,1,0,0:0:0:0:
320,192,189207,128,0,189290:0:0:0:0:
320,192,189374,1,2,0:0:0:0:
448,192,189374,128,0,189457:0:0:0:0:
64,192,189457,128,0,189540:0:0:0:0:
192,192,189457,1,0,0:0:0:0:
320,192,189540,1,0,0:0:0:0:
448,192,189540,128,0,189624:0:0:0:0:
64,192,189624,128,0,189707:0:0:0:0:
192,192,189624,1,0,0:0:0:0:
320,192,189707,1,0,0:0:0:70:LR_Kick Drop Wet Fast.wav
448,192,189707,1,0,0:0:0:0:
64,192,189874,1,0,0:0:0:0:
320,192,189874,128,0,189957:0:0:0:0:
320,192,190040,1,2,0:0:0:0:
448,192,190040,128,0,190207:0:0:0:0:
64,192,190124,1,0,0:0:0:0:
192,192,190207,1,0,0:0:0:0:
64,192,190374,128,0,190540:0:0:0:70:LR_Kick Drop Wet Fast.wav
192,192,190374,1,0,0:0:0:0:
320,192,190540,1,0,0:0:0:0:
448,192,190540,128,0,190624:0:0:0:0:
64,192,190707,1,2,0:0:0:0:
320,192,190707,1,0,0:0:0:0:
448,192,190707,128,0,191040:0:0:0:0:
192,192,190874,1,0,0:0:0:0:
320,192,190957,1,0,0:0:0:0:
64,192,191040,1,0,0:0:0:50:LR4_SnareKKF.wav
192,192,191040,1,0,0:0:0:0:
320,192,191207,128,0,191374:0:0:0:0:
448,192,191207,1,0,0:0:0:0:
64,192,191374,1,2,0:0:0:0:
192,192,191374,128,0,191707:0:0:0:0:
448,192,191374,1,0,0:0:0:0:
64,192,191707,1,0,0:0:0:100:LR4_ClapReverbDPS.wav
320,192,191707,1,0,0:0:0:0:
448,192,191707,1,0,0:0:0:0:
64,192,191874,1,0,0:0:0:0:
448,192,191874,1,0,0:0:0:0:
64,192,192040,128,2,192207:0:0:0:0:
192,192,192040,1,4,0:0:0:0:
320,192,192040,1,0,0:0:0:0:
320,192,192207,1,0,0:0:0:0:
448,192,192207,128,0,192290:0:0:0:0:
64,192,192290,128,0,192374:0:0:0:0:
192,192,192290,1,0,0:0:0:0:
320,192,192374,1,0,0:0:0:70:LR_Kick Drop Wet Fast.wav
448,192,192374,1,0,0:0:0:0:
64,192,192457,1,0,0:0:0:0:
192,192,192540,128,0,192624:0:0:0:0:
448,192,192540,1,0,0:0:0:0:
64,192,192707,128,2,192874:0:0:0:0:
192,192,192707,1,0,0:0:0:0:
320,192,192874,1,0,0:0:0:0:
320,192,193040,1,0,0:0:0:70:LR_Kick Drop Wet Fast.wav
448,192,193040,128,0,193207:0:0:0:0:
192,192,193124,1,0,0:0:0:0:
64,192,193207,128,0,193290:0:0:0:0:
320,192,193207,1,0,0:0:0:0:
64,192,193374,128,2,193540:0:0:0:0:
192,192,193374,1,0,0:0:0:0:
320,192,193540,1,0,0:0:0:0:
448,192,193540,128,0,193624:0:0:0:0:
320,192,193707,1,0,0:0:0:70:LR_Kick Drop Wet Fast.wav
448,192,193707,128,0,193874:0:0:0:0:
192,192,193790,1,0,0:0:0:0:
64,192,193874,128,0,193957:0:0:0:0:
320,192,193874,1,0,0:0:0:0:
64,192,194040,128,2,194207:0:0:0:0:
192,192,194040,1,0,0:0:0:0:
320,192,194124,1,0,0:0:0:0:
448,192,194124,1,0,0:0:0:0:
192,192,194207,1,0,0:0:0:0:
320,192,194207,1,0,0:0:0:0:
448,192,194290,1,0,0:0:0:0:
192,192,194374,1,0,0:0:0:70:LR_Kick Drop Wet Fast.wav
320,192,194374,128,0,194457:0:0:0:0:
448,192,194457,1,0,0:0:0:0:
64,192,194540,1,0,0:0:0:0:
192,192,194540,128,0,194624:0:0:0:0:
320,192,194624,1,0,0:0:0:0:
64,192,194707,128,2,194790:0:0:0:0:
192,192,194707,1,0,0:0:0:0:
448,192,194790,128,0,194874:0:0:0:0:
64,192,194874,128,0,194957:0:0:0:0:
192,192,194874,1,0,0:0:0:0:
320,192,194957,1,0,0:0:0:0:
448,192,194957,128,0,195040:0:0:0:0:
64,192,195040,1,0,0:0:0:70:LR_Kick Drop Wet Fast.wav
192,192,195040,1,0,0:0:0:0:
448,192,195124,1,0,0:0:0:0:
192,192,195207,128,0,195290:0:0:0:0:
320,192,195207,1,0,0:0:0:0:
64,192,195374,128,2,195540:0:0:0:0:
192,192,195374,1,0,0:0:0:0:
320,192,195540,1,0,0:0:0:0:
320,192,195707,1,0,0:0:0:70:LR_Kick Drop Wet Fast.wav
448,192,195707,128,0,195874:0:0:0:0:
192,192,195790,1,0,0:0:0:0:
64,192,195874,128,0,195957:0:0:0:0:
320,192,195874,1,0,0:0:0:0:
64,192,196040,128,2,196207:0:0:0:0:
192,192,196040,1,0,0:0:0:0:
320,192,196207,1,0,0:0:0:0:
448,192,196207,128,0,196290:0:0:0:0:
320,192,196374,1,0,0:0:0:70:LR_Kick Drop Wet Fast.wav
448,192,196374,128,0,196540:0:0:0:0:
192,192,196457,1,0,0:0:0:0:
64,192,196540,128,0,196624:0:0:0:0:
320,192,196540,1,0,0:0:0:0:
320,192,196707,128,2,196957:0:0:0:0:
448,192,196707,1,0,0:0:0:0:
64,192,196874,128,0,197040:0:0:0:0:
192,192,196874,1,0,0:0:0:0:
192,192,197040,128,0,197290:0:0:0:70:LR_Kick Drop Wet Fast.wav
448,192,197040,1,0,0:0:0:0:
320,192,197124,1,0,0:0:0:0:
64,192,197207,1,0,0:0:0:0:
448,192,197207,128,0,197374:0:0:0:0:
64,192,197374,128,2,197540:0:0:0:0:
192,192,197374,1,0,0:0:0:70:LR_Kick Drop Wet Fast.wav
320,192,197374,1,0,0:0:0:0:
320,192,197540,1,0,0:0:0:0:
448,192,197540,128,0,197624:0:0:0:0:
64,192,197624,128,0,197707:0:0:0:0:
192,192,197624,1,0,0:0:0:0:
320,192,197707,1,0,0:0:0:70:LR_Kick Drop Wet Fast.wav
448,192,197707,1,0,0:0:0:0:
64,192,197790,1,0,0:0:0:0:
192,192,197874,128,0,197957:0:0:0:0:
448,192,197874,1,0,0:0:0:0:
64,192,198040,128,2,198207:0:0:0:0:
192,192,198040,1,0,0:0:0:0:
320,192,198207,1,0,0:0:0:0:
320,192,198374,1,0,0:0:0:70:LR_Kick Drop Wet Fast.wav
448,192,198374,128,0,198540:0:0:0:0:
192,192,198457,1,0,0:0:0:0:
64,192,198540,128,0,198624:0:0:0:0:
320,192,198540,1,0,0:0:0:0:
64,192,198707,128,2,198874:0:0:0:0:
192,192,198707,1,0,0:0:0:0:
320,192,198874,1,0,0:0:0:0:
448,192,198874,128,0,198957:0:0:0:0:
320,192,199040,1,0,0:0:0:70:LR_Kick Drop Wet Fast.wav
448,192,199040,128,0,199207:0:0:0:0:
192,192,199124,1,0,0:0:0:0:
64,192,199207,128,0,199290:0:0:0:0:
320,192,199207,1,0,0:0:0:0:
64,192,199374,128,2,199540:0:0:0:0:
192,192,199374,1,0,0:0:0:0:
448,192,199457,1,0,0:0:0:0:
192,192,199540,1,0,0:0:0:0:
320,192,199540,1,0,0:0:0:0:
320,192,199707,128,0,199790:0:0:0:70:LR_Kick Drop Wet Fast.wav
448,192,199707,1,0,0:0:0:0:
64,192,199790,1,0,0:0:0:0:
192,192,199874,128,0,199957:0:0:0:0:
448,192,199874,1,0,0:0:0:0:
64,192,199957,1,0,0:0:0:0:
192,192,200040,1,2,0:0:0:0:
320,192,200040,1,4,0:0:0:0:
448,192,200040,128,0,200540:0:0:0:0:
192,192,200207,128,0,201957:0:0:0:0:
320,192,200540,128,0,201207:0:0:0:0:
448,192,200707,1,0,0:0:0:70:LR_Drum Rpd x2.wav
64,192,201040,1,0,0:0:0:0:
64,192,201207,128,0,202040:0:0:0:70:LR_Drum Rpd x2.wav
448,192,201207,1,0,0:0:0:0:
320,192,201707,1,0,0:0:0:0:
192,192,202040,1,0,0:0:0:70:LR4_SnareKKF.wav
320,192,202040,1,0,0:0:0:0:
448,192,202040,1,0,0:0:0:0:
448,192,202207,1,0,0:0:0:0:
192,192,202249,1,0,0:0:0:0:
320,192,202290,1,0,0:0:0:0:
64,192,202332,1,0,0:0:0:0:
192,192,202374,128,0,202457:0:0:0:0:
448,192,202374,128,0,202540:0:0:0:0:
64,192,202540,128,0,202707:0:0:0:0:
320,192,202540,128,0,202624:0:0:0:0:
192,192,202707,128,4,202874:0:0:0:0:
320,192,202707,1,8,0:0:0:0:
448,192,202707,128,0,202874:0:0:0:0:
64,192,202874,1,0,0:0:0:0:
64,192,202957,1,2,0:0:0:0:
320,192,203040,1,0,0:0:0:70:LR_Kick Drop Wet Fast.wav
448,192,203040,1,0,0:0:0:0:
320,192,203124,1,0,0:0:0:0:
448,192,203207,1,0,0:0:0:0:
192,192,203290,1,2,0:0:0:0:
192,192,203374,128,8,203540:0:0:0:0:
320,192,203374,1,0,0:0:0:0:
448,192,203374,128,0,203540:0:0:0:0:
64,192,203540,1,0,0:0:0:0:
64,192,203624,1,2,0:0:0:0:
320,192,203707,1,0,0:0:0:70:LR_Kick Drop Wet Fast.wav
448,192,203707,1,0,0:0:0:0:
320,192,203790,1,0,0:0:0:0:
448,192,203874,1,0,0:0:0:0:
192,192,203957,1,2,0:0:0:0:
192,192,204040,128,8,204207:0:0:0:0:
320,192,204040,1,0,0:0:0:0:
448,192,204040,128,0,204207:0:0:0:0:
64,192,204207,1,0,0:0:0:0:
64,192,204290,1,2,0:0:0:0:
320,192,204374,1,0,0:0:0:70:LR_Kick Drop Wet Fast.wav
448,192,204374,1,0,0:0:0:0:
320,192,204457,1,0,0:0:0:0:
448,192,204540,1,0,0:0:0:0:
192,192,204624,1,2,0:0:0:0:
192,192,204707,128,8,204874:0:0:0:0:
320,192,204707,1,0,0:0:0:0:
448,192,204707,128,0,204874:0:0:0:0:
64,192,204874,1,0,0:0:0:0:
64,192,204957,1,2,0:0:0:0:
320,192,205040,1,0,0:0:0:70:LR_Kick Drop Wet Fast.wav
448,192,205040,1,0,0:0:0:0:
320,192,205124,1,0,0:0:0:0:
448,192,205207,1,0,0:0:0:0:
192,192,205290,1,2,0:0:0:0:
192,192,205374,128,8,205540:0:0:0:0:
320,192,205374,1,0,0:0:0:0:
448,192,205374,128,0,205540:0:0:0:0:
64,192,205540,1,0,0:0:0:0:
64,192,205624,1,2,0:0:0:0:
320,192,205707,1,0,0:0:0:70:LR_Kick Drop Wet Fast.wav
448,192,205707,1,0,0:0:0:0:
320,192,205790,1,0,0:0:0:0:
448,192,205874,1,0,0:0:0:0:
192,192,205957,1,2,0:0:0:0:
192,192,206040,128,8,206207:0:0:0:0:
320,192,206040,1,0,0:0:0:0:
448,192,206040,128,0,206207:0:0:0:0:
64,192,206207,1,0,0:0:0:0:
64,192,206290,1,2,0:0:0:0:
320,192,206374,1,0,0:0:0:70:LR_Kick Drop Wet Fast.wav
448,192,206374,1,0,0:0:0:0:
320,192,206457,1,0,0:0:0:0:
448,192,206540,1,0,0:0:0:0:
192,192,206624,1,2,0:0:0:0:
192,192,206707,128,8,206874:0:0:0:0:
320,192,206707,1,0,0:0:0:0:
448,192,206707,128,0,206874:0:0:0:0:
64,192,206874,1,0,0:0:0:0:
64,192,206957,1,2,0:0:0:0:
320,192,207040,1,0,0:0:0:70:LR_Kick Drop Wet Fast.wav
448,192,207040,1,0,0:0:0:0:
320,192,207124,1,0,0:0:0:0:
448,192,207207,1,0,0:0:0:0:
192,192,207290,1,2,0:0:0:0:
192,192,207374,128,8,207540:0:0:0:0:
320,192,207374,1,0,0:0:0:0:
448,192,207374,128,0,207540:0:0:0:0:
64,192,207540,1,0,0:0:0:0:
64,192,207624,1,2,0:0:0:0:
320,192,207707,1,0,0:0:0:70:LR_Kick Drop Wet Fast.wav
448,192,207707,1,0,0:0:0:0:
320,192,207790,1,0,0:0:0:0:
448,192,207874,1,0,0:0:0:0:
192,192,207957,1,2,0:0:0:0:
192,192,208040,128,8,208207:0:0:0:0:
320,192,208040,1,0,0:0:0:0:
448,192,208040,128,0,208207:0:0:0:0:
64,192,208207,1,0,0:0:0:0:
64,192,208290,1,2,0:0:0:0:
320,192,208374,1,0,0:0:0:70:LR_Kick Drop Wet Fast.wav
448,192,208374,1,0,0:0:0:0:
320,192,208457,1,0,0:0:0:0:
448,192,208540,1,0,0:0:0:0:
192,192,208624,1,2,0:0:0:0:
192,192,208707,128,8,208874:0:0:0:0:
320,192,208707,1,0,0:0:0:0:
448,192,208707,128,0,208874:0:0:0:0:
64,192,208874,1,0,0:0:0:0:
64,192,208957,1,2,0:0:0:0:
320,192,209040,1,0,0:0:0:70:LR_Kick Drop Wet Fast.wav
448,192,209040,1,0,0:0:0:0:
320,192,209124,1,0,0:0:0:0:
448,192,209207,1,0,0:0:0:0:
192,192,209290,1,2,0:0:0:0:
192,192,209374,128,8,209540:0:0:0:0:
320,192,209374,1,0,0:0:0:0:
448,192,209374,128,0,209540:0:0:0:0:
64,192,209540,1,0,0:0:0:0:
64,192,209624,1,2,0:0:0:0:
320,192,209707,1,0,0:0:0:70:LR_Kick Drop Wet Fast.wav
448,192,209707,1,0,0:0:0:0:
320,192,209790,1,0,0:0:0:0:
448,192,209874,1,0,0:0:0:0:
192,192,209957,1,2,0:0:0:0:
192,192,210040,128,8,210207:0:0:0:0:
320,192,210040,1,0,0:0:0:0:
448,192,210040,128,0,210207:0:0:0:0:
64,192,210207,1,0,0:0:0:0:
64,192,210290,1,2,0:0:0:0:
320,192,210374,1,0,0:0:0:70:LR_Kick Drop Wet Fast.wav
448,192,210374,1,0,0:0:0:0:
320,192,210457,1,0,0:0:0:0:
448,192,210540,1,0,0:0:0:0:
192,192,210624,1,2,0:0:0:0:
192,192,210707,128,8,210874:0:0:0:0:
320,192,210707,1,0,0:0:0:0:
448,192,210707,128,0,210874:0:0:0:0:
64,192,210874,1,0,0:0:0:0:
64,192,210957,1,2,0:0:0:0:
320,192,211040,1,0,0:0:0:70:LR_Kick Drop Wet Fast.wav
448,192,211040,1,0,0:0:0:0:
320,192,211124,1,0,0:0:0:0:
448,192,211207,1,0,0:0:0:0:
192,192,211290,1,2,0:0:0:0:
192,192,211374,128,8,211540:0:0:0:0:
320,192,211374,1,0,0:0:0:0:
448,192,211374,128,0,211540:0:0:0:0:
64,192,211540,1,0,0:0:0:0:
64,192,211624,1,2,0:0:0:0:
320,192,211707,1,0,0:0:0:70:LR_Kick Drop Wet Fast.wav
448,192,211707,1,0,0:0:0:0:
320,192,211790,1,0,0:0:0:0:
448,192,211874,1,0,0:0:0:0:
192,192,211957,1,2,0:0:0:0:
64,192,212040,128,4,212207:0:0:0:0:
320,192,212040,1,8,0:0:0:0:
320,192,212207,128,0,212374:0:0:0:0:
448,192,212207,1,0,0:0:0:0:
192,192,212374,1,0,0:0:0:70:LR_Snare Drum .wav
64,192,212540,1,0,0:0:0:70:LR_Snare Drum .wav
320,192,212624,1,0,0:0:0:70:LR_Drum Rpd x2.wav
64,192,212665,1,0,0:0:0:0:
192,192,212707,128,0,212874:0:0:0:0:
448,192,212707,1,0,0:0:0:0:
448,192,212874,1,0,0:0:0:70:LR_Drum Rpd x2.wav
64,192,213040,128,0,213207:0:0:0:0:
192,192,213040,1,0,0:0:0:0:
320,192,213124,1,0,0:0:0:0:
448,192,213207,1,0,0:0:0:70:LR_Drum Rpd x2.wav
64,192,213374,128,4,213540:0:0:0:0:
192,192,213374,1,8,0:0:0:0:
320,192,213374,128,0,213540:0:0:0:0:
448,192,213540,1,2,0:0:0:0:
448,192,213624,1,2,0:0:0:0:
64,192,213707,1,0,0:0:0:70:LR_Kick Drop Wet Fast.wav
192,192,213707,1,0,0:0:0:0:
448,192,213874,1,2,0:0:0:0:
448,192,213957,1,2,0:0:0:0:
64,192,214040,128,8,214207:0:0:0:0:
192,192,214040,1,0,0:0:0:0:
320,192,214040,128,0,214207:0:0:0:0:
448,192,214207,1,2,0:0:0:0:
448,192,214290,1,2,0:0:0:0:
64,192,214374,1,0,0:0:0:70:LR_Kick Drop Wet Fast.wav
192,192,214374,1,0,0:0:0:0:
448,192,214540,1,2,0:0:0:0:
448,192,214624,1,2,0:0:0:0:
64,192,214707,128,8,214874:0:0:0:0:
192,192,214707,1,0,0:0:0:0:
320,192,214707,128,0,214874:0:0:0:0:
448,192,214874,1,2,0:0:0:0:
448,192,214957,1,2,0:0:0:0:
64,192,215040,1,0,0:0:0:70:LR_Kick Drop Wet Fast.wav
192,192,215040,1,0,0:0:0:0:
448,192,215207,1,2,0:0:0:0:
448,192,215290,1,2,0:0:0:0:
64,192,215374,128,8,215540:0:0:0:0:
192,192,215374,1,0,0:0:0:0:
320,192,215374,128,0,215540:0:0:0:0:
448,192,215540,1,2,0:0:0:0:
448,192,215624,1,2,0:0:0:0:
64,192,215707,1,0,0:0:0:70:LR_Kick Drop Wet Fast.wav
192,192,215707,1,0,0:0:0:0:
448,192,215874,1,2,0:0:0:0:
448,192,215957,1,2,0:0:0:0:
64,192,216040,128,8,216207:0:0:0:0:
192,192,216040,1,0,0:0:0:0:
320,192,216040,128,0,216207:0:0:0:0:
448,192,216207,1,2,0:0:0:0:
448,192,216290,1,2,0:0:0:0:
64,192,216374,1,0,0:0:0:70:LR_Kick Drop Wet Fast.wav
192,192,216374,1,0,0:0:0:0:
448,192,216540,1,2,0:0:0:0:
448,192,216624,1,2,0:0:0:0:
64,192,216707,128,8,216874:0:0:0:0:
192,192,216707,1,0,0:0:0:0:
320,192,216707,128,0,216874:0:0:0:0:
448,192,216874,1,2,0:0:0:0:
448,192,216957,1,2,0:0:0:0:
64,192,217040,1,0,0:0:0:70:LR_Kick Drop Wet Fast.wav
192,192,217040,1,0,0:0:0:0:
448,192,217207,1,2,0:0:0:0:
448,192,217290,1,2,0:0:0:0:
64,192,217374,128,8,217540:0:0:0:0:
192,192,217374,1,0,0:0:0:0:
320,192,217374,128,0,217540:0:0:0:0:
448,192,217540,1,2,0:0:0:0:
448,192,217624,1,2,0:0:0:0:
64,192,217707,1,0,0:0:0:70:LR_Kick Drop Wet Fast.wav
192,192,217707,1,0,0:0:0:0:
448,192,217874,1,2,0:0:0:0:
448,192,217957,1,2,0:0:0:0:
64,192,218040,128,8,218207:0:0:0:0:
192,192,218040,1,0,0:0:0:0:
320,192,218040,128,0,218207:0:0:0:0:
448,192,218207,1,2,0:0:0:0:
448,192,218290,1,2,0:0:0:0:
64,192,218374,1,0,0:0:0:70:LR_Kick Drop Wet Fast.wav
192,192,218374,1,0,0:0:0:0:
448,192,218540,1,2,0:0:0:0:
448,192,218624,1,2,0:0:0:0:
64,192,218707,128,8,218874:0:0:0:0:
192,192,218707,1,0,0:0:0:0:
320,192,218707,128,0,218874:0:0:0:0:
448,192,218874,1,2,0:0:0:0:
448,192,218957,1,2,0:0:0:0:
64,192,219040,1,0,0:0:0:70:LR_Kick Drop Wet Fast.wav
192,192,219040,1,0,0:0:0:0:
448,192,219207,1,2,0:0:0:0:
448,192,219290,1,2,0:0:0:0:
64,192,219374,128,8,219540:0:0:0:0:
192,192,219374,1,0,0:0:0:0:
320,192,219374,128,0,219540:0:0:0:0:
448,192,219540,1,2,0:0:0:0:
448,192,219624,1,2,0:0:0:0:
64,192,219707,1,0,0:0:0:70:LR_Kick Drop Wet Fast.wav
192,192,219707,1,0,0:0:0:0:
448,192,219874,1,2,0:0:0:0:
448,192,219957,1,2,0:0:0:0:
64,192,220040,128,8,220207:0:0:0:0:
192,192,220040,1,0,0:0:0:0:
320,192,220040,128,0,220207:0:0:0:0:
448,192,220207,1,2,0:0:0:0:
448,192,220290,1,2,0:0:0:0:
64,192,220374,1,0,0:0:0:70:LR_Kick Drop Wet Fast.wav
192,192,220374,1,0,0:0:0:0:
448,192,220540,1,2,0:0:0:0:
448,192,220624,1,2,0:0:0:0:
64,192,220707,128,8,220874:0:0:0:0:
192,192,220707,1,0,0:0:0:0:
320,192,220707,128,0,220874:0:0:0:0:
448,192,220874,1,2,0:0:0:0:
448,192,220957,1,2,0:0:0:0:
64,192,221040,1,0,0:0:0:70:LR_Kick Drop Wet Fast.wav
192,192,221040,1,0,0:0:0:0:
192,192,221207,1,2,0:0:0:0:
192,192,221290,1,2,0:0:0:0:
64,192,221374,1,4,0:0:0:0:
320,192,221374,1,8,0:0:0:0:
448,192,221374,128,0,221874:0:0:0:0:
192,192,221540,128,0,223707:0:0:0:0:
320,192,221874,128,0,222540:0:0:0:0:
448,192,222040,1,0,0:0:0:70:LR_Drum Rpd x2.wav
64,192,222374,1,0,0:0:0:0:
64,192,222540,128,0,222790:0:0:0:70:LR_Drum Rpd x2.wav
448,192,222540,1,0,0:0:0:0:
64,192,222874,128,0,222957:0:0:0:0:
64,192,223040,128,0,223124:0:0:0:0:
64,192,223207,128,0,223290:0:0:0:0:
64,192,223374,128,0,223457:0:0:0:0:
64,192,223540,128,0,223624:0:0:0:0:
64,192,223707,1,0,0:0:0:50:LR4_SnareKKF.wav
320,192,223707,1,0,0:0:0:0:
448,192,223707,1,0,0:0:0:0:
