osu file format v14

[General]
AudioFilename: PSYQUI - Education (thank u Peter).mp3
AudioLeadIn: 0
PreviewTime: 158707
Countdown: 0
SampleSet: Soft
StackLeniency: 0.7
Mode: 3
LetterboxInBreaks: 0
SpecialStyle: 0
WidescreenStoryboard: 1

[Editor]
Bookmarks: 7458,12792,23459,34126,44794,55461,66128,76795,87463,98130,108797,119464,130132,140799,151466,162133,172801,183468,194135,204802,215470,225804
DistanceSpacing: 1.2
BeatDivisor: 4
GridSize: 32
TimelineZoom: 1.9

[Metadata]
Title:Education
TitleUnicode:Education
Artist:PSYQUI
ArtistUnicode:PSYQUI
Creator:Dergo
Version:elementary school
Source:
Tags:TECH CORE EVANGELIX 01 MEGAREX Electronic Future Bass FAMoss ByeForNow
BeatmapID:2058826
BeatmapSetID:983953

[Difficulty]
HPDrainRate:7
CircleSize:4
OverallDifficulty:7
ApproachRate:5
SliderMultiplier:1.4
SliderTickRate:1

[Events]
//Background and Video events
0,0,"education bg.jpg",0,0
//Break Periods
//Storyboard Layer 0 (Background)
//Storyboard Layer 1 (Fail)
//Storyboard Layer 2 (Pass)
//Storyboard Layer 3 (Foreground)
//Storyboard Layer 4 (Overlay)
//Storyboard Sound Samples
Sample,101374,0,"LR_Kick Drop Wet Fast.wav",70
Sample,112040,0,"LR_Kick Drop Wet Fast.wav",70
Sample,122707,0,"LR_Kick Drop Wet Fast.wav",70
Sample,133374,0,"LR_Kick Drop Wet Fast.wav",70
Sample,186707,0,"LR_Kick Drop Wet Fast.wav",70
Sample,197374,0,"LR_Kick Drop Wet Fast.wav",70

[TimingPoints]
41,333.333333333333,4,2,1,50,1,0
74707,-100,4,2,1,50,0,1
96040,-100,4,2,1,50,0,0
160040,-100,4,2,1,50,0,1
181374,-100,4,2,1,50,0,0

[HitObjects]
448,192,41,128,0,374:0:0:0:0:
448,192,707,128,0,1040:0:0:0:0:
192,192,1374,128,0,1707:0:0:0:0:
192,192,2040,128,0,2374:0:0:0:0:
448,192,2707,128,0,3040:0:0:0:0:
448,192,3374,128,0,3707:0:0:0:0:
192,192,4040,128,0,4374:0:0:0:0:
192,192,4707,128,0,5040:0:0:0:0:
448,192,5374,1,2,0:0:0:0:
64,192,5707,1,0,0:0:0:70:LR_Snare Drum .wav
448,192,6207,1,2,0:0:0:0:
64,192,6374,1,0,0:0:0:70:LR_Snare Drum .wav
64,192,6707,1,2,0:0:0:0:
448,192,7040,1,0,0:0:0:70:LR_Snare Drum .wav
64,192,7540,1,2,0:0:0:0:
448,192,7707,1,0,0:0:0:70:LR_Snare Drum .wav
448,192,8040,1,2,0:0:0:0:
64,192,8374,1,0,0:0:0:70:LR_Snare Drum .wav
448,192,8874,1,2,0:0:0:0:
64,192,9040,1,0,0:0:0:70:LR_Snare Drum .wav
64,192,9374,1,2,0:0:0:0:
448,192,9707,1,0,0:0:0:70:LR_Snare Drum .wav
64,192,10040,1,2,0:0:0:0:
192,192,10374,1,0,0:0:0:70:LR4_SnareKKF.wav
320,192,10374,1,0,0:0:0:0:
320,192,10707,1,2,0:0:0:0:
448,192,10707,1,4,0:0:0:0:
320,192,11040,1,8,0:0:0:0:
448,192,11040,1,0,0:0:0:0:
320,192,11374,1,8,0:0:0:0:
448,192,11374,1,0,0:0:0:0:
320,192,11707,1,8,0:0:0:0:
448,192,11707,1,0,0:0:0:0:
64,192,12040,1,2,0:0:0:0:
192,192,12040,1,0,0:0:0:0:
64,192,12374,1,8,0:0:0:0:
192,192,12374,1,0,0:0:0:0:
64,192,12707,1,8,0:0:0:0:
192,192,12707,1,0,0:0:0:0:
64,192,13040,1,8,0:0:0:0:
192,192,13040,1,0,0:0:0:0:
320,192,13374,1,2,0:0:0:0:
448,192,13374,1,0,0:0:0:0:
320,192,13707,1,8,0:0:0:0:
448,192,13707,1,0,0:0:0:0:
320,192,14040,1,8,0:0:0:0:
448,192,14040,1,0,0:0:0:0:
320,192,14374,1,8,0:0:0:0:
448,192,14374,1,0,0:0:0:0:
64,192,14707,1,2,0:0:0:0:
192,192,14707,1,0,0:0:0:0:
64,192,15040,1,8,0:0:0:0:
192,192,15040,1,0,0:0:0:0:
64,192,15374,1,8,0:0:0:0:
192,192,15374,1,0,0:0:0:0:
64,192,15707,1,8,0:0:0:0:
192,192,15707,1,0,0:0:0:0:
320,192,16040,1,2,0:0:0:0:
448,192,16040,1,0,0:0:0:0:
320,192,16374,1,8,0:0:0:0:
448,192,16374,1,0,0:0:0:0:
320,192,16707,1,8,0:0:0:0:
448,192,16707,1,0,0:0:0:0:
320,192,17040,1,8,0:0:0:0:
448,192,17040,1,0,0:0:0:0:
64,192,17374,1,2,0:0:0:0:
192,192,17374,1,0,0:0:0:0:
64,192,17707,1,8,0:0:0:0:
192,192,17707,1,0,0:0:0:0:
64,192,18040,1,8,0:0:0:0:
192,192,18040,1,0,0:0:0:0:
64,192,18374,1,8,0:0:0:0:
192,192,18374,1,0,0:0:0:0:
320,192,18707,1,2,0:0:0:0:
448,192,18707,1,0,0:0:0:0:
320,192,19040,1,8,0:0:0:0:
448,192,19040,1,0,0:0:0:0:
320,192,19374,1,8,0:0:0:0:
448,192,19374,1,0,0:0:0:0:
320,192,19707,1,8,0:0:0:0:
448,192,19707,1,0,0:0:0:0:
192,192,20040,1,6,0:0:0:0:
448,192,20207,1,2,0:0:0:0:
320,192,20707,1,2,0:0:0:0:
64,192,21040,1,2,0:0:0:0:
320,192,21374,1,2,0:0:0:0:
448,192,21374,1,4,0:0:0:0:
320,192,21707,1,8,0:0:0:0:
448,192,21707,1,0,0:0:0:0:
320,192,22040,1,8,0:0:0:0:
448,192,22040,1,0,0:0:0:0:
320,192,22374,1,8,0:0:0:0:
448,192,22374,1,0,0:0:0:0:
64,192,22707,1,2,0:0:0:0:
192,192,22707,1,0,0:0:0:0:
64,192,23040,1,8,0:0:0:0:
192,192,23040,1,0,0:0:0:0:
64,192,23374,1,8,0:0:0:0:
192,192,23374,1,0,0:0:0:0:
64,192,23707,1,8,0:0:0:0:
192,192,23707,1,0,0:0:0:0:
320,192,24040,1,2,0:0:0:0:
448,192,24040,1,0,0:0:0:0:
320,192,24374,1,8,0:0:0:0:
448,192,24374,1,0,0:0:0:0:
320,192,24707,1,8,0:0:0:0:
448,192,24707,1,0,0:0:0:0:
320,192,25040,1,8,0:0:0:0:
448,192,25040,1,0,0:0:0:0:
64,192,25374,1,2,0:0:0:0:
192,192,25374,1,0,0:0:0:0:
64,192,25707,1,8,0:0:0:0:
192,192,25707,1,0,0:0:0:0:
64,192,26040,1,8,0:0:0:0:
192,192,26040,1,0,0:0:0:0:
64,192,26374,1,8,0:0:0:0:
192,192,26374,1,0,0:0:0:0:
320,192,26707,1,2,0:0:0:0:
448,192,26707,1,0,0:0:0:0:
320,192,27040,1,8,0:0:0:0:
448,192,27040,1,0,0:0:0:0:
320,192,27374,1,8,0:0:0:0:
448,192,27374,1,0,0:0:0:0:
320,192,27707,1,8,0:0:0:0:
448,192,27707,1,0,0:0:0:0:
64,192,28040,1,2,0:0:0:0:
192,192,28040,1,0,0:0:0:0:
64,192,28374,1,8,0:0:0:0:
192,192,28374,1,0,0:0:0:0:
64,192,28707,1,8,0:0:0:0:
192,192,28707,1,0,0:0:0:0:
64,192,29040,1,8,0:0:0:0:
192,192,29040,1,0,0:0:0:0:
448,192,29374,128,6,29874:0:0:0:0:
64,192,29874,128,0,30540:0:0:0:0:
320,192,30540,128,0,31374:0:0:0:70:LR_Drum Rpd x2.wav
192,192,31374,1,0,0:0:0:70:LR4_SnareKKF.wav
64,192,31707,1,0,0:0:0:0:
448,192,31707,1,0,0:0:0:0:
320,192,32040,1,4,0:0:0:0:
448,192,32040,128,8,32374:0:0:0:0:
64,192,32374,1,0,0:0:0:70:LR_Kick Drop Wet Fast.wav
320,192,32707,1,8,0:0:0:0:
448,192,32707,128,0,33040:0:0:0:0:
64,192,33040,1,0,0:0:0:70:LR_Kick Drop Wet Fast.wav
64,192,33374,128,8,33707:0:0:0:0:
192,192,33374,1,0,0:0:0:0:
448,192,33707,1,0,0:0:0:70:LR_Kick Drop Wet Fast.wav
64,192,34040,128,8,34374:0:0:0:0:
192,192,34040,1,0,0:0:0:0:
448,192,34374,1,0,0:0:0:70:LR_Kick Drop Wet Fast.wav
320,192,34707,1,8,0:0:0:0:
448,192,34707,128,0,35040:0:0:0:0:
64,192,35040,1,0,0:0:0:70:LR_Kick Drop Wet Fast.wav
320,192,35374,1,8,0:0:0:0:
448,192,35374,128,0,35707:0:0:0:0:
64,192,35707,1,0,0:0:0:70:LR_Kick Drop Wet Fast.wav
64,192,36040,128,8,36374:0:0:0:0:
192,192,36040,1,0,0:0:0:0:
448,192,36374,1,0,0:0:0:70:LR_Kick Drop Wet Fast.wav
192,192,36707,128,8,37040:0:0:0:0:
320,192,37040,128,0,37374:0:0:0:70:LR_Kick Drop Wet Fast.wav
64,192,37374,128,8,37707:0:0:0:0:
192,192,37374,1,0,0:0:0:70:LR_Kick Drop Wet Fast.wav
448,192,37707,1,0,0:0:0:70:LR_Kick Drop Wet Fast.wav
64,192,38040,128,8,38374:0:0:0:0:
192,192,38040,1,0,0:0:0:0:
448,192,38374,1,0,0:0:0:70:LR_Kick Drop Wet Fast.wav
320,192,38707,1,8,0:0:0:0:
448,192,38707,128,0,39040:0:0:0:0:
64,192,39040,1,0,0:0:0:70:LR_Kick Drop Wet Fast.wav
320,192,39374,1,8,0:0:0:0:
448,192,39374,128,0,39707:0:0:0:0:
64,192,39707,1,0,0:0:0:70:LR_Kick Drop Wet Fast.wav
192,192,40040,128,8,40374:0:0:0:0:
320,192,40374,1,0,0:0:0:70:LR_Kick Drop Wet Fast.wav
320,192,40707,128,8,41040:0:0:0:0:
192,192,41040,1,0,0:0:0:70:LR_Kick Drop Wet Fast.wav
192,192,41374,1,12,0:0:0:0:
448,192,41540,1,2,0:0:0:0:
320,192,42040,1,2,0:0:0:0:
64,192,42374,1,2,0:0:0:0:
320,192,42707,1,4,0:0:0:0:
448,192,42707,128,8,43040:0:0:0:0:
64,192,43040,1,0,0:0:0:70:LR_Kick Drop Wet Fast.wav
320,192,43374,1,8,0:0:0:0:
448,192,43374,128,0,43707:0:0:0:0:
64,192,43707,1,0,0:0:0:70:LR_Kick Drop Wet Fast.wav
64,192,44040,128,8,44374:0:0:0:0:
192,192,44040,1,0,0:0:0:0:
448,192,44374,1,0,0:0:0:70:LR_Kick Drop Wet Fast.wav
64,192,44707,128,8,45040:0:0:0:0:
192,192,44707,1,0,0:0:0:0:
448,192,45040,1,0,0:0:0:70:LR_Kick Drop Wet Fast.wav
320,192,45374,1,8,0:0:0:0:
448,192,45374,128,0,45707:0:0:0:0:
64,192,45707,1,0,0:0:0:70:LR_Kick Drop Wet Fast.wav
320,192,46040,1,8,0:0:0:0:
448,192,46040,128,0,46374:0:0:0:0:
64,192,46374,1,0,0:0:0:70:LR_Kick Drop Wet Fast.wav
64,192,46707,128,8,47040:0:0:0:0:
192,192,46707,1,0,0:0:0:0:
448,192,47040,1,0,0:0:0:70:LR_Kick Drop Wet Fast.wav
192,192,47374,128,8,47707:0:0:0:0:
320,192,47707,128,0,48040:0:0:0:70:LR_Kick Drop Wet Fast.wav
64,192,48040,128,8,48374:0:0:0:0:
192,192,48040,1,0,0:0:0:70:LR_Kick Drop Wet Fast.wav
448,192,48374,1,0,0:0:0:70:LR_Kick Drop Wet Fast.wav
64,192,48707,128,8,49040:0:0:0:0:
192,192,48707,1,0,0:0:0:0:
448,192,49040,1,0,0:0:0:70:LR_Kick Drop Wet Fast.wav
320,192,49374,1,8,0:0:0:0:
448,192,49374,128,0,49707:0:0:0:0:
64,192,49707,1,0,0:0:0:70:LR_Kick Drop Wet Fast.wav
320,192,50040,1,8,0:0:0:0:
448,192,50040,128,0,50374:0:0:0:0:
64,192,50374,1,0,0:0:0:70:LR_Kick Drop Wet Fast.wav
448,192,50707,128,12,51207:0:0:0:0:
64,192,51207,128,0,51874:0:0:0:0:
320,192,51874,128,0,53040:0:0:0:70:LR_Drum Rpd x2.wav
192,192,52207,128,2,53040:0:0:0:0:
448,192,53040,1,0,0:0:0:70:LR4_SnareKKF.wav
64,192,53374,1,6,0:0:0:0:
192,192,54540,1,0,0:0:0:0:
448,192,55207,1,0,0:0:0:0:
320,192,56040,1,0,0:0:0:0:
192,192,57207,1,0,0:0:0:0:
448,192,58374,1,0,0:0:0:0:
64,192,58707,1,0,0:0:0:0:
192,192,59874,1,0,0:0:0:0:
320,192,60707,1,0,0:0:0:0:
448,192,61374,1,0,0:0:0:0:
192,192,62540,1,0,0:0:0:0:
320,192,63207,1,0,0:0:0:0:
64,192,64040,128,0,64374:0:0:0:70:boom.wav
320,192,64707,128,0,65040:0:0:0:0:
192,192,65374,1,0,0:0:0:0:
448,192,65874,128,0,66374:0:0:0:0:
64,192,66374,128,0,66707:0:0:0:0:
320,192,66707,128,0,67040:0:0:0:0:
64,192,67207,128,0,67707:0:0:0:0:
448,192,67707,128,0,68040:0:0:0:0:
192,192,68040,128,0,68374:0:0:0:0:
448,192,68540,128,0,69040:0:0:0:0:
64,192,69040,128,0,69374:0:0:0:0:
448,192,69374,128,6,69707:0:0:0:0:
192,192,69707,128,0,70040:0:0:0:0:
320,192,70040,128,0,70374:0:0:0:0:
64,192,70374,128,0,70707:0:0:0:0:
192,192,70707,128,0,71040:0:0:0:0:
320,192,71040,128,0,71374:0:0:0:0:
448,192,71374,128,0,71707:0:0:0:0:
192,192,71707,128,0,72040:0:0:0:0:
320,192,72040,1,0,0:0:0:0:
64,192,72290,1,0,0:0:0:0:
192,192,72540,1,0,0:0:0:0:
320,192,72790,1,0,0:0:0:0:
448,192,73040,1,0,0:0:0:0:
64,192,73374,1,2,0:0:0:0:
320,192,73540,1,0,0:0:0:50:LR4_SnareKKF.wav
448,192,73540,1,0,0:0:0:0:
192,192,73707,1,0,0:0:0:70:LR_Drum Rpd x2.wav
320,192,73874,1,0,0:0:0:70:LR_Snare Drum .wav
192,192,74040,1,0,0:0:0:50:LR_Kick Beat 2.wav
64,192,74207,1,0,0:0:0:50:LR_Kick Beat 2.wav
320,192,74374,1,0,0:0:0:70:LR4_SnareBPDT.wav
448,192,74374,128,0,74707:0:0:0:0:
64,192,74707,1,2,0:0:0:0:
192,192,74707,1,4,0:0:0:0:
64,192,75040,1,8,0:0:0:0:
320,192,75040,1,0,0:0:0:0:
192,192,75374,1,2,0:0:0:0:
320,192,75374,1,0,0:0:0:0:
192,192,75707,1,8,0:0:0:0:
448,192,75707,1,0,0:0:0:0:
320,192,76040,1,2,0:0:0:0:
448,192,76040,1,0,0:0:0:0:
64,192,76374,1,8,0:0:0:0:
192,192,76374,1,0,0:0:0:0:
320,192,76707,1,2,0:0:0:0:
448,192,76707,1,0,0:0:0:0:
320,192,77040,1,8,0:0:0:0:
448,192,77040,1,0,0:0:0:0:
64,192,77374,1,2,0:0:0:0:
320,192,77374,1,0,0:0:0:0:
192,192,77707,1,8,0:0:0:0:
448,192,77707,1,0,0:0:0:0:
64,192,78040,1,2,0:0:0:0:
192,192,78040,1,0,0:0:0:0:
192,192,78374,1,8,0:0:0:0:
448,192,78374,1,0,0:0:0:0:
64,192,78707,1,2,0:0:0:0:
320,192,78707,1,0,0:0:0:0:
192,192,79040,1,8,0:0:0:0:
448,192,79040,1,0,0:0:0:0:
64,192,79374,1,2,0:0:0:0:
192,192,79374,1,0,0:0:0:0:
192,192,79707,1,8,0:0:0:0:
320,192,79707,1,0,0:0:0:0:
64,192,80040,1,2,0:0:0:0:
192,192,80040,1,0,0:0:0:0:
64,192,80374,1,8,0:0:0:0:
320,192,80374,1,0,0:0:0:0:
192,192,80707,1,2,0:0:0:0:
320,192,80707,1,0,0:0:0:0:
192,192,81040,1,8,0:0:0:0:
448,192,81040,1,0,0:0:0:0:
320,192,81374,1,2,0:0:0:0:
448,192,81374,1,0,0:0:0:0:
64,192,81707,1,8,0:0:0:0:
192,192,81707,1,0,0:0:0:0:
320,192,82040,1,2,0:0:0:0:
448,192,82040,1,0,0:0:0:0:
320,192,82374,1,8,0:0:0:0:
448,192,82374,1,0,0:0:0:0:
64,192,82707,1,2,0:0:0:0:
320,192,82707,1,0,0:0:0:0:
192,192,83040,1,8,0:0:0:0:
448,192,83040,1,0,0:0:0:0:
64,192,83374,1,2,0:0:0:0:
192,192,83374,1,0,0:0:0:0:
192,192,83707,1,8,0:0:0:0:
448,192,83707,1,0,0:0:0:0:
64,192,84040,1,2,0:0:0:0:
448,192,84040,1,4,0:0:0:0:
192,192,84707,1,0,0:0:0:0:
320,192,84707,1,0,0:0:0:0:
64,192,85040,1,0,0:0:0:70:LR4_SnareBPDT.wav
448,192,85040,1,0,0:0:0:0:
64,192,85374,1,6,0:0:0:0:
320,192,85540,1,0,0:0:0:0:
192,192,85707,1,0,0:0:0:70:LR_Kick Drop Wet Fast.wav
320,192,85874,1,0,0:0:0:0:
64,192,86040,1,2,0:0:0:0:
320,192,86207,1,0,0:0:0:0:
192,192,86374,1,0,0:0:0:70:LR_Kick Drop Wet Fast.wav
320,192,86540,1,0,0:0:0:0:
448,192,86707,1,2,0:0:0:0:
192,192,86874,1,0,0:0:0:0:
320,192,87040,1,0,0:0:0:70:LR_Kick Drop Wet Fast.wav
192,192,87207,1,0,0:0:0:0:
448,192,87374,1,2,0:0:0:0:
192,192,87540,1,0,0:0:0:0:
320,192,87707,1,0,0:0:0:70:LR_Kick Drop Wet Fast.wav
192,192,87874,1,0,0:0:0:0:
64,192,88040,1,2,0:0:0:0:
448,192,88207,1,0,0:0:0:0:
192,192,88374,1,0,0:0:0:70:LR_Kick Drop Wet Fast.wav
448,192,88540,1,0,0:0:0:0:
64,192,88707,1,2,0:0:0:0:
448,192,88874,1,0,0:0:0:0:
192,192,89040,1,0,0:0:0:70:LR_Kick Drop Wet Fast.wav
448,192,89207,1,0,0:0:0:0:
320,192,89374,1,2,0:0:0:0:
64,192,89540,1,0,0:0:0:0:
448,192,89707,1,0,0:0:0:70:LR_Kick Drop Wet Fast.wav
64,192,89874,1,0,0:0:0:0:
320,192,90040,1,2,0:0:0:0:
64,192,90207,1,0,0:0:0:0:
448,192,90374,1,0,0:0:0:70:LR_Kick Drop Wet Fast.wav
64,192,90540,1,0,0:0:0:0:
192,192,90707,1,2,0:0:0:0:
320,192,90874,1,0,0:0:0:0:
64,192,91040,1,0,0:0:0:70:LR_Kick Drop Wet Fast.wav
320,192,91207,1,0,0:0:0:0:
192,192,91374,1,2,0:0:0:0:
320,192,91540,1,0,0:0:0:0:
64,192,91707,1,0,0:0:0:70:LR_Kick Drop Wet Fast.wav
320,192,91874,1,0,0:0:0:0:
448,192,92040,1,2,0:0:0:0:
192,192,92207,1,0,0:0:0:0:
320,192,92374,1,0,0:0:0:70:LR_Kick Drop Wet Fast.wav
192,192,92540,1,0,0:0:0:0:
448,192,92707,1,2,0:0:0:0:
192,192,92874,1,0,0:0:0:0:
320,192,93040,1,0,0:0:0:70:LR_Kick Drop Wet Fast.wav
192,192,93207,1,0,0:0:0:0:
64,192,93374,1,2,0:0:0:0:
448,192,93540,1,0,0:0:0:0:
192,192,93707,1,0,0:0:0:70:LR_Kick Drop Wet Fast.wav
448,192,93874,1,0,0:0:0:0:
64,192,94040,1,2,0:0:0:0:
448,192,94207,1,0,0:0:0:0:
192,192,94374,1,0,0:0:0:70:LR_Kick Drop Wet Fast.wav
448,192,94540,1,0,0:0:0:0:
64,192,94707,1,2,0:0:0:0:
320,192,94707,1,0,0:0:0:0:
64,192,95040,1,0,0:0:0:50:LR4_SnareKKF.wav
448,192,95207,1,0,0:0:0:70:LR_Drum Rpd x2.wav
192,192,95374,1,0,0:0:0:70:LR_Snare Drum .wav
320,192,95540,1,0,0:0:0:50:LR_Kick Beat 2.wav
64,192,95707,1,0,0:0:0:50:LR_Kick Beat 2.wav
192,192,95874,1,0,0:0:0:50:LR_Kick Beat 2.wav
448,192,96040,128,6,96374:0:0:0:0:
64,192,96374,1,0,0:0:0:70:LR_Kick Drop Wet Fast.wav
448,192,96707,128,2,97040:0:0:0:0:
192,192,97040,1,0,0:0:0:70:LR_Kick Drop Wet Fast.wav
64,192,97374,128,2,97707:0:0:0:0:
448,192,97707,1,0,0:0:0:70:LR_Kick Drop Wet Fast.wav
64,192,98040,128,2,98374:0:0:0:0:
320,192,98374,1,0,0:0:0:70:LR_Kick Drop Wet Fast.wav
448,192,98707,128,2,99040:0:0:0:0:
64,192,99040,1,0,0:0:0:70:LR_Kick Drop Wet Fast.wav
448,192,99374,128,2,99707:0:0:0:0:
192,192,99707,1,0,0:0:0:70:LR_Kick Drop Wet Fast.wav
64,192,100040,128,2,100374:0:0:0:0:
448,192,100374,1,0,0:0:0:70:LR_Kick Drop Wet Fast.wav
192,192,100707,128,2,101040:0:0:0:0:
320,192,101040,128,0,101374:0:0:0:70:LR_Kick Drop Wet Fast.wav
64,192,101374,128,2,101707:0:0:0:0:
448,192,101707,1,0,0:0:0:70:LR_Kick Drop Wet Fast.wav
64,192,102040,128,2,102374:0:0:0:0:
320,192,102374,1,0,0:0:0:70:LR_Kick Drop Wet Fast.wav
448,192,102707,128,2,103040:0:0:0:0:
64,192,103040,1,0,0:0:0:70:LR_Kick Drop Wet Fast.wav
448,192,103374,128,2,103707:0:0:0:0:
192,192,103707,1,0,0:0:0:70:LR_Kick Drop Wet Fast.wav
64,192,104040,128,2,104374:0:0:0:0:
448,192,104374,1,0,0:0:0:70:LR_Kick Drop Wet Fast.wav
64,192,104707,128,2,105040:0:0:0:0:
320,192,105040,1,0,0:0:0:70:LR_Kick Drop Wet Fast.wav
448,192,105374,128,2,105707:0:0:0:0:
192,192,106040,128,2,106374:0:0:0:0:
448,192,106374,1,0,0:0:0:100:LR4_ClapReverbDPS.wav
64,192,106540,1,0,0:0:0:0:
320,192,106707,1,6,0:0:0:0:
320,192,107040,1,0,0:0:0:70:LR_Kick Drop Wet Fast.wav
192,192,107374,1,2,0:0:0:0:
192,192,107707,1,0,0:0:0:70:LR_Kick Drop Wet Fast.wav
448,192,108040,1,2,0:0:0:0:
448,192,108374,1,0,0:0:0:70:LR_Kick Drop Wet Fast.wav
64,192,108707,1,2,0:0:0:0:
64,192,109040,1,0,0:0:0:70:LR_Kick Drop Wet Fast.wav
320,192,109374,1,2,0:0:0:0:
320,192,109707,1,0,0:0:0:70:LR_Kick Drop Wet Fast.wav
192,192,110040,1,2,0:0:0:0:
192,192,110374,1,0,0:0:0:70:LR_Kick Drop Wet Fast.wav
448,192,110707,1,2,0:0:0:0:
448,192,111040,1,0,0:0:0:70:LR_Kick Drop Wet Fast.wav
192,192,111374,128,2,111707:0:0:0:0:
320,192,111707,128,0,112040:0:0:0:70:LR_Kick Drop Wet Fast.wav
64,192,112040,1,2,0:0:0:0:
64,192,112374,1,0,0:0:0:70:LR_Kick Drop Wet Fast.wav
448,192,112707,1,2,0:0:0:0:
448,192,113040,1,0,0:0:0:70:LR_Kick Drop Wet Fast.wav
192,192,113374,1,2,0:0:0:0:
192,192,113707,1,0,0:0:0:70:LR_Kick Drop Wet Fast.wav
320,192,114040,1,2,0:0:0:0:
320,192,114374,1,0,0:0:0:70:LR_Kick Drop Wet Fast.wav
448,192,114707,128,6,115207:0:0:0:0:
64,192,115207,128,0,115874:0:0:0:0:
320,192,115874,128,0,116707:0:0:0:70:LR_Drum Rpd x2.wav
192,192,116707,1,0,0:0:0:70:LR4_SnareKKF.wav
64,192,117040,1,0,0:0:0:0:
448,192,117040,1,0,0:0:0:0:
192,192,117374,1,12,0:0:0:0:
320,192,117540,1,0,0:0:0:0:
192,192,117707,1,0,0:0:0:70:LR_Kick Drop Wet Fast.wav
320,192,117874,1,0,0:0:0:0:
192,192,118040,1,8,0:0:0:0:
320,192,118207,1,0,0:0:0:0:
192,192,118374,1,0,0:0:0:70:LR_Kick Drop Wet Fast.wav
320,192,118540,1,0,0:0:0:0:
64,192,118707,1,8,0:0:0:0:
320,192,118874,1,0,0:0:0:0:
64,192,119040,1,0,0:0:0:70:LR_Kick Drop Wet Fast.wav
320,192,119207,1,0,0:0:0:0:
64,192,119374,1,8,0:0:0:0:
320,192,119540,1,0,0:0:0:0:
64,192,119707,1,0,0:0:0:70:LR_Kick Drop Wet Fast.wav
320,192,119874,1,0,0:0:0:0:
64,192,120040,1,8,0:0:0:0:
448,192,120207,1,0,0:0:0:0:
64,192,120374,1,0,0:0:0:70:LR_Kick Drop Wet Fast.wav
448,192,120540,1,0,0:0:0:0:
64,192,120707,1,8,0:0:0:0:
448,192,120874,1,0,0:0:0:0:
64,192,121040,1,0,0:0:0:70:LR_Kick Drop Wet Fast.wav
448,192,121207,1,0,0:0:0:0:
192,192,121374,1,8,0:0:0:0:
448,192,121540,1,0,0:0:0:0:
192,192,121707,1,0,0:0:0:70:LR_Kick Drop Wet Fast.wav
448,192,121874,1,0,0:0:0:0:
192,192,122040,128,8,122374:0:0:0:0:
320,192,122374,128,0,122707:0:0:0:70:LR_Kick Drop Wet Fast.wav
64,192,122707,1,8,0:0:0:0:
448,192,122874,1,0,0:0:0:0:
64,192,123040,1,0,0:0:0:70:LR_Kick Drop Wet Fast.wav
448,192,123207,1,0,0:0:0:0:
64,192,123374,1,8,0:0:0:0:
448,192,123540,1,0,0:0:0:0:
64,192,123707,1,0,0:0:0:70:LR_Kick Drop Wet Fast.wav
448,192,123874,1,0,0:0:0:0:
192,192,124040,1,8,0:0:0:0:
448,192,124207,1,0,0:0:0:0:
192,192,124374,1,0,0:0:0:70:LR_Kick Drop Wet Fast.wav
448,192,124540,1,0,0:0:0:0:
192,192,124707,1,8,0:0:0:0:
448,192,124874,1,0,0:0:0:0:
192,192,125040,1,0,0:0:0:70:LR_Kick Drop Wet Fast.wav
448,192,125207,1,0,0:0:0:0:
192,192,125374,128,8,125707:0:0:0:0:
320,192,125707,1,0,0:0:0:70:LR_Kick Drop Wet Fast.wav
320,192,126040,128,8,126374:0:0:0:0:
64,192,126374,1,0,0:0:0:70:LR_Kick Drop Wet Fast.wav
192,192,126707,1,12,0:0:0:0:
448,192,126874,1,0,0:0:0:0:
320,192,127374,1,8,0:0:0:0:
64,192,127707,1,0,0:0:0:0:
192,192,128040,1,12,0:0:0:0:
320,192,128207,1,0,0:0:0:0:
192,192,128374,1,0,0:0:0:70:LR_Kick Drop Wet Fast.wav
320,192,128540,1,0,0:0:0:0:
192,192,128707,1,8,0:0:0:0:
320,192,128874,1,0,0:0:0:0:
192,192,129040,1,0,0:0:0:70:LR_Kick Drop Wet Fast.wav
320,192,129207,1,0,0:0:0:0:
64,192,129374,1,8,0:0:0:0:
320,192,129540,1,0,0:0:0:0:
64,192,129707,1,0,0:0:0:70:LR_Kick Drop Wet Fast.wav
320,192,129874,1,0,0:0:0:0:
64,192,130040,1,8,0:0:0:0:
320,192,130207,1,0,0:0:0:0:
64,192,130374,1,0,0:0:0:70:LR_Kick Drop Wet Fast.wav
320,192,130540,1,0,0:0:0:0:
64,192,130707,1,8,0:0:0:0:
448,192,130874,1,0,0:0:0:0:
64,192,131040,1,0,0:0:0:70:LR_Kick Drop Wet Fast.wav
448,192,131207,1,0,0:0:0:0:
64,192,131374,1,8,0:0:0:0:
448,192,131540,1,0,0:0:0:0:
64,192,131707,1,0,0:0:0:70:LR_Kick Drop Wet Fast.wav
448,192,131874,1,0,0:0:0:0:
192,192,132040,1,8,0:0:0:0:
448,192,132207,1,0,0:0:0:0:
192,192,132374,1,0,0:0:0:70:LR_Kick Drop Wet Fast.wav
448,192,132540,1,0,0:0:0:0:
192,192,132707,128,8,133040:0:0:0:0:
320,192,133040,128,0,133374:0:0:0:70:LR_Kick Drop Wet Fast.wav
64,192,133374,1,8,0:0:0:0:
448,192,133540,1,0,0:0:0:0:
64,192,133707,1,0,0:0:0:70:LR_Kick Drop Wet Fast.wav
448,192,133874,1,0,0:0:0:0:
64,192,134040,1,8,0:0:0:0:
448,192,134207,1,0,0:0:0:0:
64,192,134374,1,0,0:0:0:70:LR_Kick Drop Wet Fast.wav
448,192,134540,1,0,0:0:0:0:
192,192,134707,1,8,0:0:0:0:
448,192,134874,1,0,0:0:0:0:
192,192,135040,1,0,0:0:0:70:LR_Kick Drop Wet Fast.wav
448,192,135207,1,0,0:0:0:0:
192,192,135374,1,8,0:0:0:0:
448,192,135540,1,0,0:0:0:0:
192,192,135707,1,0,0:0:0:70:LR_Kick Drop Wet Fast.wav
448,192,135874,1,0,0:0:0:0:
64,192,136040,128,12,136540:0:0:0:0:
448,192,136540,128,0,137207:0:0:0:0:
192,192,137207,128,0,138374:0:0:0:70:LR_Drum Rpd x2.wav
320,192,137540,128,2,138374:0:0:0:0:
64,192,138374,1,0,0:0:0:70:LR4_SnareKKF.wav
448,192,138707,1,6,0:0:0:0:
320,192,139874,1,0,0:0:0:0:
64,192,140540,1,0,0:0:0:0:
192,192,141374,1,0,0:0:0:0:
320,192,142540,1,0,0:0:0:0:
64,192,143707,1,0,0:0:0:0:
448,192,144040,1,0,0:0:0:0:
320,192,145207,1,0,0:0:0:0:
192,192,146040,1,0,0:0:0:0:
64,192,146707,1,0,0:0:0:0:
320,192,147874,1,0,0:0:0:0:
192,192,148540,1,0,0:0:0:0:
448,192,149374,128,0,149707:0:0:0:70:boom.wav
192,192,150040,128,0,150374:0:0:0:0:
320,192,150707,1,0,0:0:0:0:
64,192,151207,128,0,151707:0:0:0:0:
448,192,151707,128,0,152040:0:0:0:0:
192,192,152040,128,0,152374:0:0:0:0:
448,192,152540,128,0,153040:0:0:0:0:
64,192,153040,128,0,153374:0:0:0:0:
320,192,153374,128,0,153707:0:0:0:0:
64,192,153874,128,0,154374:0:0:0:0:
448,192,154374,128,0,154707:0:0:0:0:
64,192,154707,128,6,155040:0:0:0:0:
320,192,155040,128,0,155374:0:0:0:0:
192,192,155374,128,0,155707:0:0:0:0:
448,192,155707,128,0,156040:0:0:0:0:
320,192,156040,128,0,156374:0:0:0:0:
192,192,156374,128,0,156707:0:0:0:0:
64,192,156707,128,0,157040:0:0:0:0:
320,192,157040,128,0,157374:0:0:0:0:
192,192,157374,1,0,0:0:0:0:
448,192,157624,1,0,0:0:0:0:
320,192,157874,1,0,0:0:0:0:
192,192,158124,1,0,0:0:0:0:
64,192,158374,1,0,0:0:0:0:
448,192,158707,1,2,0:0:0:0:
64,192,158874,1,0,0:0:0:50:LR4_SnareKKF.wav
192,192,158874,1,0,0:0:0:0:
320,192,159040,1,0,0:0:0:70:LR_Drum Rpd x2.wav
192,192,159207,1,0,0:0:0:70:LR_Snare Drum .wav
320,192,159374,1,0,0:0:0:50:LR_Kick Beat 2.wav
448,192,159540,1,0,0:0:0:50:LR_Kick Beat 2.wav
64,192,159707,128,0,160040:0:0:0:70:LR4_SnareBPDT.wav
192,192,159707,1,0,0:0:0:0:
320,192,160040,1,2,0:0:0:0:
448,192,160040,1,4,0:0:0:0:
192,192,160374,1,8,0:0:0:0:
448,192,160374,1,0,0:0:0:0:
192,192,160707,1,2,0:0:0:0:
320,192,160707,1,0,0:0:0:0:
64,192,161040,1,8,0:0:0:0:
320,192,161040,1,0,0:0:0:0:
64,192,161374,1,2,0:0:0:0:
192,192,161374,1,0,0:0:0:0:
320,192,161707,1,8,0:0:0:0:
448,192,161707,1,0,0:0:0:0:
64,192,162040,1,2,0:0:0:0:
192,192,162040,1,0,0:0:0:0:
64,192,162374,1,8,0:0:0:0:
192,192,162374,1,0,0:0:0:0:
192,192,162707,1,2,0:0:0:0:
448,192,162707,1,0,0:0:0:0:
64,192,163040,1,8,0:0:0:0:
320,192,163040,1,0,0:0:0:0:
320,192,163374,1,2,0:0:0:0:
448,192,163374,1,0,0:0:0:0:
64,192,163707,1,8,0:0:0:0:
320,192,163707,1,0,0:0:0:0:
192,192,164040,1,2,0:0:0:0:
448,192,164040,1,0,0:0:0:0:
64,192,164374,1,8,0:0:0:0:
320,192,164374,1,0,0:0:0:0:
320,192,164707,1,2,0:0:0:0:
448,192,164707,1,0,0:0:0:0:
192,192,165040,1,8,0:0:0:0:
320,192,165040,1,0,0:0:0:0:
320,192,165374,1,2,0:0:0:0:
448,192,165374,1,0,0:0:0:0:
192,192,165707,1,8,0:0:0:0:
448,192,165707,1,0,0:0:0:0:
192,192,166040,1,2,0:0:0:0:
320,192,166040,1,0,0:0:0:0:
64,192,166374,1,8,0:0:0:0:
320,192,166374,1,0,0:0:0:0:
64,192,166707,1,2,0:0:0:0:
192,192,166707,1,0,0:0:0:0:
320,192,167040,1,8,0:0:0:0:
448,192,167040,1,0,0:0:0:0:
64,192,167374,1,2,0:0:0:0:
192,192,167374,1,0,0:0:0:0:
64,192,167707,1,8,0:0:0:0:
192,192,167707,1,0,0:0:0:0:
192,192,168040,1,2,0:0:0:0:
448,192,168040,1,0,0:0:0:0:
64,192,168374,1,8,0:0:0:0:
320,192,168374,1,0,0:0:0:0:
320,192,168707,1,2,0:0:0:0:
448,192,168707,1,0,0:0:0:0:
64,192,169040,1,8,0:0:0:0:
320,192,169040,1,0,0:0:0:0:
64,192,169374,1,2,0:0:0:0:
448,192,169374,1,4,0:0:0:0:
192,192,170040,1,0,0:0:0:0:
320,192,170040,1,0,0:0:0:0:
64,192,170374,1,0,0:0:0:70:LR4_SnareBPDT.wav
448,192,170374,1,0,0:0:0:0:
448,192,170707,1,6,0:0:0:0:
192,192,170874,1,0,0:0:0:0:
320,192,171040,1,0,0:0:0:70:LR_Kick Drop Wet Fast.wav
192,192,171207,1,0,0:0:0:0:
448,192,171374,1,2,0:0:0:0:
192,192,171540,1,0,0:0:0:0:
320,192,171707,1,0,0:0:0:70:LR_Kick Drop Wet Fast.wav
192,192,171874,1,0,0:0:0:0:
64,192,172040,1,2,0:0:0:0:
320,192,172207,1,0,0:0:0:0:
192,192,172374,1,0,0:0:0:70:LR_Kick Drop Wet Fast.wav
320,192,172540,1,0,0:0:0:0:
64,192,172707,1,2,0:0:0:0:
320,192,172874,1,0,0:0:0:0:
192,192,173040,1,0,0:0:0:70:LR_Kick Drop Wet Fast.wav
320,192,173207,1,0,0:0:0:0:
448,192,173374,1,2,0:0:0:0:
64,192,173540,1,0,0:0:0:0:
320,192,173707,1,0,0:0:0:70:LR_Kick Drop Wet Fast.wav
64,192,173874,1,0,0:0:0:0:
448,192,174040,1,2,0:0:0:0:
64,192,174207,1,0,0:0:0:0:
320,192,174374,1,0,0:0:0:70:LR_Kick Drop Wet Fast.wav
64,192,174540,1,0,0:0:0:0:
192,192,174707,1,2,0:0:0:0:
448,192,174874,1,0,0:0:0:0:
64,192,175040,1,0,0:0:0:70:LR_Kick Drop Wet Fast.wav
448,192,175207,1,0,0:0:0:0:
192,192,175374,1,2,0:0:0:0:
448,192,175540,1,0,0:0:0:0:
64,192,175707,1,0,0:0:0:70:LR_Kick Drop Wet Fast.wav
448,192,175874,1,0,0:0:0:0:
320,192,176040,1,2,0:0:0:0:
192,192,176207,1,0,0:0:0:0:
448,192,176374,1,0,0:0:0:70:LR_Kick Drop Wet Fast.wav
192,192,176540,1,0,0:0:0:0:
320,192,176707,1,2,0:0:0:0:
192,192,176874,1,0,0:0:0:0:
448,192,177040,1,0,0:0:0:70:LR_Kick Drop Wet Fast.wav
192,192,177207,1,0,0:0:0:0:
64,192,177374,1,2,0:0:0:0:
320,192,177540,1,0,0:0:0:0:
192,192,177707,1,0,0:0:0:70:LR_Kick Drop Wet Fast.wav
320,192,177874,1,0,0:0:0:0:
64,192,178040,1,2,0:0:0:0:
320,192,178207,1,0,0:0:0:0:
192,192,178374,1,0,0:0:0:70:LR_Kick Drop Wet Fast.wav
320,192,178540,1,0,0:0:0:0:
448,192,178707,1,2,0:0:0:0:
64,192,178874,1,0,0:0:0:0:
320,192,179040,1,0,0:0:0:70:LR_Kick Drop Wet Fast.wav
64,192,179207,1,0,0:0:0:0:
448,192,179374,1,2,0:0:0:0:
64,192,179540,1,0,0:0:0:0:
320,192,179707,1,0,0:0:0:70:LR_Kick Drop Wet Fast.wav
64,192,179874,1,0,0:0:0:0:
192,192,180040,1,2,0:0:0:0:
448,192,180040,1,0,0:0:0:0:
320,192,180374,1,0,0:0:0:50:LR4_SnareKKF.wav
448,192,180374,1,0,0:0:0:0:
64,192,180540,1,0,0:0:0:0:
320,192,180707,1,0,0:0:0:70:LR_Snare Drum .wav
192,192,180874,1,0,0:0:0:50:LR_Kick Beat 2.wav
448,192,181040,1,0,0:0:0:50:LR_Kick Beat 2.wav
320,192,181207,1,0,0:0:0:50:LR_Kick Beat 2.wav
64,192,181374,128,6,181707:0:0:0:0:
448,192,181707,1,0,0:0:0:70:LR_Kick Drop Wet Fast.wav
64,192,182040,128,2,182374:0:0:0:0:
448,192,182374,1,0,0:0:0:70:LR_Kick Drop Wet Fast.wav
448,192,182707,128,2,183040:0:0:0:0:
64,192,183040,1,0,0:0:0:70:LR_Kick Drop Wet Fast.wav
448,192,183374,128,2,183707:0:0:0:0:
64,192,183707,1,0,0:0:0:70:LR_Kick Drop Wet Fast.wav
64,192,184040,128,2,184374:0:0:0:0:
448,192,184374,1,0,0:0:0:70:LR_Kick Drop Wet Fast.wav
64,192,184707,128,2,185040:0:0:0:0:
448,192,185040,1,0,0:0:0:70:LR_Kick Drop Wet Fast.wav
448,192,185374,128,2,185707:0:0:0:0:
64,192,185707,1,0,0:0:0:70:LR_Kick Drop Wet Fast.wav
320,192,186040,128,2,186374:0:0:0:0:
192,192,186374,128,0,186707:0:0:0:70:LR_Kick Drop Wet Fast.wav
448,192,186707,128,2,187040:0:0:0:0:
64,192,187040,1,0,0:0:0:70:LR_Kick Drop Wet Fast.wav
448,192,187374,128,2,187707:0:0:0:0:
64,192,187707,1,0,0:0:0:70:LR_Kick Drop Wet Fast.wav
64,192,188040,128,2,188374:0:0:0:0:
448,192,188374,1,0,0:0:0:70:LR_Kick Drop Wet Fast.wav
64,192,188707,128,2,189040:0:0:0:0:
448,192,189040,1,0,0:0:0:70:LR_Kick Drop Wet Fast.wav
448,192,189374,128,2,189707:0:0:0:0:
64,192,189707,1,0,0:0:0:70:LR_Kick Drop Wet Fast.wav
448,192,190040,128,2,190374:0:0:0:0:
64,192,190374,1,0,0:0:0:70:LR_Kick Drop Wet Fast.wav
192,192,190707,128,2,191040:0:0:0:0:
320,192,191374,128,2,191707:0:0:0:0:
64,192,191707,1,0,0:0:0:100:LR4_ClapReverbDPS.wav
448,192,191874,1,0,0:0:0:0:
192,192,192040,1,6,0:0:0:0:
192,192,192374,1,0,0:0:0:70:LR_Kick Drop Wet Fast.wav
320,192,192707,1,2,0:0:0:0:
320,192,193040,1,0,0:0:0:70:LR_Kick Drop Wet Fast.wav
64,192,193374,1,2,0:0:0:0:
64,192,193707,1,0,0:0:0:70:LR_Kick Drop Wet Fast.wav
448,192,194040,1,2,0:0:0:0:
448,192,194374,1,0,0:0:0:70:LR_Kick Drop Wet Fast.wav
192,192,194707,1,2,0:0:0:0:
192,192,195040,1,0,0:0:0:70:LR_Kick Drop Wet Fast.wav
320,192,195374,1,2,0:0:0:0:
320,192,195707,1,0,0:0:0:70:LR_Kick Drop Wet Fast.wav
64,192,196040,1,2,0:0:0:0:
64,192,196374,1,0,0:0:0:70:LR_Kick Drop Wet Fast.wav
320,192,196707,128,2,197040:0:0:0:0:
192,192,197040,128,0,197374:0:0:0:70:LR_Kick Drop Wet Fast.wav
448,192,197374,1,2,0:0:0:0:
448,192,197707,1,0,0:0:0:70:LR_Kick Drop Wet Fast.wav
64,192,198040,1,2,0:0:0:0:
64,192,198374,1,0,0:0:0:70:LR_Kick Drop Wet Fast.wav
320,192,198707,1,2,0:0:0:0:
320,192,199040,1,0,0:0:0:70:LR_Kick Drop Wet Fast.wav
192,192,199374,1,2,0:0:0:0:
192,192,199707,1,0,0:0:0:70:LR_Kick Drop Wet Fast.wav
64,192,200040,128,6,200540:0:0:0:0:
448,192,200540,128,0,201207:0:0:0:0:
192,192,201207,128,0,202040:0:0:0:70:LR_Drum Rpd x2.wav
320,192,202040,1,0,0:0:0:70:LR4_SnareKKF.wav
64,192,202374,1,0,0:0:0:0:
448,192,202374,1,0,0:0:0:0:
320,192,202707,128,12,203040:0:0:0:0:
192,192,203040,1,0,0:0:0:70:LR_Kick Drop Wet Fast.wav
320,192,203374,128,8,203707:0:0:0:0:
64,192,203707,1,0,0:0:0:70:LR_Kick Drop Wet Fast.wav
192,192,204040,128,8,204374:0:0:0:0:
320,192,204374,1,0,0:0:0:70:LR_Kick Drop Wet Fast.wav
192,192,204707,128,8,205040:0:0:0:0:
448,192,205040,1,0,0:0:0:70:LR_Kick Drop Wet Fast.wav
320,192,205374,128,8,205707:0:0:0:0:
192,192,205707,1,0,0:0:0:70:LR_Kick Drop Wet Fast.wav
320,192,206040,128,8,206374:0:0:0:0:
64,192,206374,1,0,0:0:0:70:LR_Kick Drop Wet Fast.wav
192,192,206707,128,8,207040:0:0:0:0:
320,192,207040,1,0,0:0:0:70:LR_Kick Drop Wet Fast.wav
192,192,207374,128,8,207707:0:0:0:0:
448,192,207707,1,0,0:0:0:70:LR_Kick Drop Wet Fast.wav
320,192,208040,128,8,208374:0:0:0:0:
192,192,208374,1,0,0:0:0:70:LR_Kick Drop Wet Fast.wav
320,192,208707,128,8,209040:0:0:0:0:
64,192,209040,1,0,0:0:0:70:LR_Kick Drop Wet Fast.wav
192,192,209374,128,8,209707:0:0:0:0:
448,192,209707,1,0,0:0:0:70:LR_Kick Drop Wet Fast.wav
320,192,210040,128,8,210374:0:0:0:0:
64,192,210374,1,0,0:0:0:70:LR_Kick Drop Wet Fast.wav
192,192,210707,128,8,211040:0:0:0:0:
320,192,211040,1,0,0:0:0:70:LR_Kick Drop Wet Fast.wav
192,192,211374,128,8,211707:0:0:0:0:
448,192,211707,1,0,0:0:0:70:LR_Kick Drop Wet Fast.wav
192,192,212040,1,12,0:0:0:0:
448,192,212207,1,0,0:0:0:0:
320,192,212707,1,0,0:0:0:0:
64,192,213040,1,0,0:0:0:0:
448,192,213374,1,12,0:0:0:0:
64,192,213707,1,0,0:0:0:70:LR_Kick Drop Wet Fast.wav
192,192,213707,1,0,0:0:0:0:
448,192,214040,1,8,0:0:0:0:
64,192,214374,1,0,0:0:0:70:LR_Kick Drop Wet Fast.wav
192,192,214374,1,0,0:0:0:0:
320,192,214707,1,8,0:0:0:0:
64,192,215040,1,0,0:0:0:70:LR_Kick Drop Wet Fast.wav
192,192,215040,1,0,0:0:0:0:
320,192,215374,1,8,0:0:0:0:
64,192,215707,1,0,0:0:0:70:LR_Kick Drop Wet Fast.wav
192,192,215707,1,0,0:0:0:0:
64,192,216040,1,8,0:0:0:0:
320,192,216374,1,0,0:0:0:70:LR_Kick Drop Wet Fast.wav
448,192,216374,1,0,0:0:0:0:
64,192,216707,1,8,0:0:0:0:
320,192,217040,1,0,0:0:0:70:LR_Kick Drop Wet Fast.wav
448,192,217040,1,0,0:0:0:0:
192,192,217374,1,8,0:0:0:0:
320,192,217707,1,0,0:0:0:70:LR_Kick Drop Wet Fast.wav
448,192,217707,1,0,0:0:0:0:
192,192,218040,1,8,0:0:0:0:
320,192,218374,1,0,0:0:0:70:LR_Kick Drop Wet Fast.wav
448,192,218374,1,0,0:0:0:0:
448,192,218707,1,8,0:0:0:0:
64,192,219040,1,0,0:0:0:70:LR_Kick Drop Wet Fast.wav
192,192,219040,1,0,0:0:0:0:
448,192,219374,1,8,0:0:0:0:
64,192,219707,1,0,0:0:0:70:LR_Kick Drop Wet Fast.wav
192,192,219707,1,0,0:0:0:0:
320,192,220040,1,8,0:0:0:0:
64,192,220374,1,0,0:0:0:70:LR_Kick Drop Wet Fast.wav
192,192,220374,1,0,0:0:0:0:
320,192,220707,1,8,0:0:0:0:
64,192,221040,1,0,0:0:0:70:LR_Kick Drop Wet Fast.wav
192,192,221040,1,0,0:0:0:0:
448,192,221374,128,12,221874:0:0:0:0:
64,192,221874,128,0,222540:0:0:0:0:
320,192,222540,128,0,223707:0:0:0:70:LR_Drum Rpd x2.wav
192,192,222874,128,0,223707:0:0:0:0:
64,192,223707,1,0,0:0:0:50:LR4_SnareKKF.wav
448,192,223707,1,0,0:0:0:0:
