osu file format v14

[General]
AudioFilename: audio.mp3
AudioLeadIn: 0
PreviewTime: 63014
Countdown: 0
SampleSet: Normal
StackLeniency: 0.7
Mode: 3
LetterboxInBreaks: 0
SpecialStyle: 0
WidescreenStoryboard: 1

[Editor]
DistanceSpacing: 1
BeatDivisor: 12
GridSize: 16
TimelineZoom: 2.599999

[Metadata]
Title:Don't you want me feat. Such
TitleUnicode:Don't you want me feat. Such
Artist:PSYQUI
ArtistUnicode:PSYQUI
Creator:nayeonie bunny
Version:u and i
Source:
Tags:Future Core japanese electronic dance music edm c94 コミックマーケット COMIC MARKET コミケ Comiket spd gar 001 Speed Garage megarex 2018 dont
BeatmapID:4053317
BeatmapSetID:1956641

[Difficulty]
HPDrainRate:8
CircleSize:4
OverallDifficulty:8
ApproachRate:5
SliderMultiplier:1.4
SliderTickRate:1

[Events]
//Background and Video events
0,0,"bg.jpg",0,0
//Break Periods
//Storyboard Layer 0 (Background)
//Storyboard Layer 1 (Fail)
//Storyboard Layer 2 (Pass)
//Storyboard Layer 3 (Foreground)
//Storyboard Layer 4 (Overlay)
//Storyboard Sound Samples

[TimingPoints]
1436,394.736842105263,4,1,1,50,1,0
64593,-100,4,1,1,50,0,1
89462,-100,4,1,1,50,0,0
190909,-100,4,1,1,50,0,1
216172,-100,4,1,1,50,0,0
231764,-100,4,1,1,50,0,1
253672,-100,4,1,1,50,0,0

[HitObjects]
192,192,1041,5,0,0:0:0:0:
64,192,1436,1,0,0:0:0:0:
320,192,1436,1,0,0:0:0:0:
448,192,1436,1,0,0:0:0:0:
192,192,1633,1,0,0:0:0:0:
320,192,1830,1,0,0:0:0:0:
448,192,1830,1,0,0:0:0:0:
320,192,2028,1,0,0:0:0:0:
64,192,2159,1,0,0:0:0:0:
192,192,2159,1,0,0:0:0:0:
320,192,2422,1,0,0:0:0:0:
64,192,2620,1,0,0:0:0:0:
448,192,2620,1,0,0:0:0:0:
320,192,2817,1,0,0:0:0:0:
64,192,3014,1,0,0:0:0:0:
192,192,3212,1,0,0:0:0:0:
320,192,3409,1,0,0:0:0:0:
448,192,3409,1,0,0:0:0:0:
448,192,3607,1,0,0:0:0:0:
64,192,3738,1,0,0:0:0:0:
192,192,3738,1,0,0:0:0:0:
320,192,4001,1,0,0:0:0:0:
64,192,4199,1,0,0:0:0:0:
448,192,4199,1,0,0:0:0:0:
320,192,4396,1,0,0:0:0:0:
64,192,4593,1,0,0:0:0:0:
320,192,4791,1,0,0:0:0:0:
64,192,4988,1,0,0:0:0:0:
192,192,4988,1,0,0:0:0:0:
64,192,5185,1,0,0:0:0:0:
320,192,5317,1,0,0:0:0:0:
448,192,5317,1,0,0:0:0:0:
192,192,5580,1,0,0:0:0:0:
448,192,5778,1,0,0:0:0:0:
64,192,5778,1,0,0:0:0:0:
320,192,5975,1,0,0:0:0:0:
64,192,6172,1,0,0:0:0:0:
320,192,6370,1,0,0:0:0:0:
64,192,6567,1,0,0:0:0:0:
448,192,6567,1,0,0:0:0:0:
192,192,6764,1,0,0:0:0:0:
448,192,6896,1,0,0:0:0:0:
64,192,6896,1,0,0:0:0:0:
320,192,7159,1,0,0:0:0:0:
64,192,7357,1,0,0:0:0:0:
448,192,7357,1,0,0:0:0:0:
320,192,7554,1,0,0:0:0:0:
64,192,7751,1,0,0:0:0:0:
448,192,7949,1,0,0:0:0:0:
320,192,8146,1,0,0:0:0:0:
192,192,8146,1,0,0:0:0:0:
192,192,8343,1,0,0:0:0:0:
320,192,8475,1,0,0:0:0:0:
448,192,8475,1,0,0:0:0:0:
192,192,8738,1,0,0:0:0:0:
64,192,8935,1,0,0:0:0:0:
448,192,8935,1,0,0:0:0:0:
192,192,9133,1,0,0:0:0:0:
448,192,9330,1,0,0:0:0:0:
320,192,9528,1,0,0:0:0:0:
192,192,9725,1,0,0:0:0:0:
64,192,9725,1,0,0:0:0:0:
192,192,9922,1,0,0:0:0:0:
448,192,10054,1,0,0:0:0:0:
320,192,10054,1,0,0:0:0:0:
192,192,10317,1,0,0:0:0:0:
448,192,10514,1,0,0:0:0:0:
64,192,10514,1,0,0:0:0:0:
320,192,10712,1,0,0:0:0:0:
64,192,10909,1,0,0:0:0:0:
192,192,11107,1,0,0:0:0:0:
448,192,11304,1,0,0:0:0:0:
320,192,11304,1,0,0:0:0:0:
320,192,11501,1,0,0:0:0:0:
64,192,11633,1,0,0:0:0:0:
192,192,11633,1,0,0:0:0:0:
320,192,11896,1,0,0:0:0:0:
448,192,12093,1,0,0:0:0:0:
64,192,12093,1,0,0:0:0:0:
192,192,12291,1,0,0:0:0:0:
320,192,12488,1,0,0:0:0:0:
192,192,12685,1,0,0:0:0:0:
448,192,12883,1,0,0:0:0:0:
64,192,12883,1,0,0:0:0:0:
320,192,13080,1,0,0:0:0:0:
448,192,13212,1,0,0:0:0:0:
64,192,13212,1,0,0:0:0:0:
192,192,13475,1,0,0:0:0:0:
192,192,13672,1,0,0:0:0:0:
320,192,13672,1,0,0:0:0:0:
320,192,13870,1,0,0:0:0:0:
64,192,14067,1,0,0:0:0:0:
192,192,14067,1,0,0:0:0:0:
448,192,14067,1,0,0:0:0:0:
320,192,14264,1,0,0:0:0:0:
192,192,14462,1,0,0:0:0:0:
320,192,14462,1,0,0:0:0:0:
448,192,14462,1,0,0:0:0:0:
64,192,14659,1,0,0:0:0:0:
320,192,14791,1,0,0:0:0:0:
448,192,14857,1,0,0:0:0:0:
448,192,14988,1,0,0:0:0:0:
320,192,15054,1,0,0:0:0:0:
192,192,15054,1,0,0:0:0:0:
64,192,15251,1,0,0:0:0:0:
320,192,15251,1,0,0:0:0:0:
448,192,15251,1,0,0:0:0:0:
192,192,15449,1,0,0:0:0:0:
64,192,15449,1,0,0:0:0:0:
320,192,15646,1,0,0:0:0:0:
64,192,15778,1,0,0:0:0:0:
448,192,15843,1,0,0:0:0:0:
320,192,15843,1,0,0:0:0:0:
64,192,16041,1,0,0:0:0:0:
448,192,16041,1,0,0:0:0:0:
192,192,16041,1,0,0:0:0:0:
320,192,16238,1,0,0:0:0:0:
64,192,16370,1,0,0:0:0:0:
192,192,16435,1,0,0:0:0:0:
192,192,16567,1,0,0:0:0:0:
320,192,16633,1,0,0:0:0:0:
448,192,16633,1,0,0:0:0:0:
64,192,16830,1,0,0:0:0:0:
192,192,16830,1,0,0:0:0:0:
320,192,16830,1,0,0:0:0:0:
64,192,17028,1,0,0:0:0:0:
448,192,17159,1,0,0:0:0:0:
192,192,17225,1,0,0:0:0:0:
320,192,17225,1,0,0:0:0:0:
320,192,17422,1,0,0:0:0:0:
448,192,17620,1,0,0:0:0:0:
320,192,17620,1,0,0:0:0:0:
192,192,17620,1,0,0:0:0:0:
64,192,17817,1,0,0:0:0:0:
448,192,17949,1,0,0:0:0:0:
192,192,18014,1,0,0:0:0:0:
192,192,18146,1,0,0:0:0:0:
320,192,18212,1,0,0:0:0:0:
448,192,18212,1,0,0:0:0:0:
448,192,18409,1,0,0:0:0:0:
64,192,18409,1,0,0:0:0:0:
192,192,18409,1,0,0:0:0:0:
320,192,18607,1,0,0:0:0:0:
192,192,18607,1,0,0:0:0:0:
448,192,18804,1,0,0:0:0:0:
64,192,18935,1,0,0:0:0:0:
320,192,19001,1,0,0:0:0:0:
192,192,19001,1,0,0:0:0:0:
64,192,19199,1,0,0:0:0:0:
448,192,19199,1,0,0:0:0:0:
192,192,19199,1,0,0:0:0:0:
320,192,19396,1,0,0:0:0:0:
64,192,19528,1,0,0:0:0:0:
448,192,19593,1,0,0:0:0:0:
448,192,19725,1,0,0:0:0:0:
192,192,19791,1,0,0:0:0:0:
320,192,19791,1,0,0:0:0:0:
320,192,19988,1,0,0:0:0:0:
448,192,19988,1,0,0:0:0:0:
64,192,19988,1,0,0:0:0:0:
448,192,20185,1,0,0:0:0:0:
64,192,20317,1,0,0:0:0:0:
320,192,20383,1,0,0:0:0:0:
192,192,20383,1,0,0:0:0:0:
192,192,20580,1,0,0:0:0:0:
320,192,20778,1,0,0:0:0:0:
192,192,20778,1,0,0:0:0:0:
448,192,20778,1,0,0:0:0:0:
64,192,20975,1,0,0:0:0:0:
448,192,21107,1,0,0:0:0:0:
192,192,21172,1,0,0:0:0:0:
192,192,21304,1,0,0:0:0:0:
320,192,21370,1,0,0:0:0:0:
448,192,21370,1,0,0:0:0:0:
64,192,21567,1,0,0:0:0:0:
448,192,21567,1,0,0:0:0:0:
192,192,21567,1,0,0:0:0:0:
192,192,21764,1,0,0:0:0:0:
320,192,21764,1,0,0:0:0:0:
64,192,21962,1,0,0:0:0:0:
448,192,22093,1,0,0:0:0:0:
192,192,22159,1,0,0:0:0:0:
320,192,22159,1,0,0:0:0:0:
64,192,22357,1,0,0:0:0:0:
448,192,22357,1,0,0:0:0:0:
192,192,22357,1,0,0:0:0:0:
320,192,22554,1,0,0:0:0:0:
64,192,22685,1,0,0:0:0:0:
448,192,22751,1,0,0:0:0:0:
192,192,22883,1,0,0:0:0:0:
448,192,22949,1,0,0:0:0:0:
320,192,22949,1,0,0:0:0:0:
64,192,23146,1,0,0:0:0:0:
192,192,23146,1,0,0:0:0:0:
320,192,23146,1,0,0:0:0:0:
448,192,23343,1,0,0:0:0:0:
64,192,23475,1,0,0:0:0:0:
192,192,23541,1,0,0:0:0:0:
320,192,23541,1,0,0:0:0:0:
320,192,23738,1,0,0:0:0:0:
320,192,23935,1,0,0:0:0:0:
448,192,23935,1,0,0:0:0:0:
64,192,23935,1,0,0:0:0:0:
192,192,24133,1,0,0:0:0:0:
320,192,24264,1,0,0:0:0:0:
64,192,24330,1,0,0:0:0:0:
448,192,24462,1,0,0:0:0:0:
320,192,24528,1,0,0:0:0:0:
192,192,24528,1,0,0:0:0:0:
448,192,24725,1,0,0:0:0:0:
64,192,24725,1,0,0:0:0:0:
192,192,24725,1,0,0:0:0:0:
192,192,24922,1,0,0:0:0:0:
448,192,24922,1,0,0:0:0:0:
320,192,24955,1,0,0:0:0:0:
192,192,25514,1,0,0:0:0:0:
320,192,25909,1,0,0:0:0:0:
448,192,25975,1,0,0:0:0:0:
64,192,26107,128,0,26304:0:0:0:0:
192,192,26139,128,0,26403:0:0:0:0:
448,192,26304,128,0,26501:0:0:0:0:
320,192,26337,128,0,26600:0:0:0:0:
448,192,26699,128,0,27028:0:0:0:0:
192,192,26699,128,0,26962:0:0:0:0:
320,192,26699,128,0,26830:0:0:0:0:
64,192,26699,128,0,26995:0:0:0:0:
320,192,26896,1,0,0:0:0:0:
448,192,27093,1,0,0:0:0:0:
64,192,27093,1,0,0:0:0:0:
320,192,27291,128,0,27422:0:0:0:0:
448,192,27422,1,0,0:0:0:0:
192,192,27488,128,0,27685:0:0:0:0:
320,192,27620,1,0,0:0:0:0:
64,192,27685,128,0,27784:0:0:0:0:
448,192,27817,128,0,27949:0:0:0:0:
320,192,27883,1,0,0:0:0:0:
64,192,27883,1,0,0:0:0:0:
192,192,28014,128,0,28146:0:0:0:0:
448,192,28080,1,0,0:0:0:0:
320,192,28080,128,0,28343:0:0:0:0:
64,192,28278,1,0,0:0:0:0:
320,192,28409,1,0,0:0:0:0:
192,192,28475,1,0,0:0:0:0:
448,192,28672,1,0,0:0:0:0:
64,192,28672,1,0,0:0:0:0:
64,192,28870,128,0,29133:0:0:0:0:
320,192,28870,128,0,29067:0:0:0:0:
448,192,29001,1,0,0:0:0:0:
192,192,29067,1,0,0:0:0:0:
64,192,29199,1,0,0:0:0:0:
192,192,29264,128,0,29330:0:0:0:0:
320,192,29264,128,0,29396:0:0:0:0:
320,192,29462,128,0,29528:0:0:0:0:
448,192,29462,128,0,29560:0:0:0:0:
320,192,29659,128,0,29725:0:0:0:0:
64,192,29659,128,0,29725:0:0:0:0:
192,192,29857,128,0,29955:0:0:0:0:
64,192,29857,128,0,30054:0:0:0:0:
448,192,29988,1,0,0:0:0:0:
320,192,30054,1,0,0:0:0:0:
192,192,30153,128,0,30350:0:0:0:0:
64,192,30251,1,0,0:0:0:0:
448,192,30251,128,0,30514:0:0:0:0:
320,192,30449,128,0,30646:0:0:0:0:
192,192,30580,1,0,0:0:0:0:
448,192,30646,1,0,0:0:0:0:
64,192,30778,1,0,0:0:0:0:
192,192,30843,1,0,0:0:0:0:
320,192,30843,1,0,0:0:0:0:
448,192,31041,1,0,0:0:0:0:
320,192,31041,128,0,31172:0:0:0:0:
448,192,31238,1,0,0:0:0:0:
192,192,31238,128,0,31435:0:0:0:0:
320,192,31435,128,0,31501:0:0:0:0:
192,192,31567,1,0,0:0:0:0:
320,192,31633,128,0,31732:0:0:0:0:
64,192,31830,128,0,32028:0:0:0:0:
448,192,31830,128,0,32028:0:0:0:0:
320,192,32028,128,0,32159:0:0:0:0:
192,192,32159,1,0,0:0:0:0:
64,192,32225,128,0,32291:0:0:0:0:
320,192,32357,1,0,0:0:0:0:
192,192,32422,1,0,0:0:0:0:
64,192,32422,128,0,32554:0:0:0:0:
320,192,32620,1,0,0:0:0:0:
448,192,32620,128,0,32751:0:0:0:0:
448,192,32817,128,0,32916:0:0:0:0:
64,192,33014,128,0,33113:0:0:0:0:
320,192,33014,1,0,0:0:0:0:
448,192,33146,128,0,33212:0:0:0:0:
192,192,33212,128,0,33278:0:0:0:0:
448,192,33409,1,0,0:0:0:0:
192,192,33409,128,0,33607:0:0:0:0:
320,192,33607,128,0,33672:0:0:0:0:
64,192,33607,128,0,33672:0:0:0:0:
448,192,33738,1,0,0:0:0:0:
192,192,33804,128,0,33935:0:0:0:0:
64,192,33804,128,0,33903:0:0:0:0:
320,192,33935,1,0,0:0:0:0:
192,192,34001,1,0,0:0:0:0:
64,192,34100,128,0,34297:0:0:0:0:
320,192,34199,1,0,0:0:0:0:
448,192,34199,128,0,34330:0:0:0:0:
448,192,34396,128,0,34495:0:0:0:0:
192,192,34396,128,0,34593:0:0:0:0:
320,192,34593,1,0,0:0:0:0:
192,192,34725,1,0,0:0:0:0:
320,192,34791,128,0,34857:0:0:0:0:
64,192,34988,1,0,0:0:0:0:
448,192,34988,128,0,35185:0:0:0:0:
64,192,35185,128,0,35251:0:0:0:0:
192,192,35317,1,0,0:0:0:0:
448,192,35383,128,0,35482:0:0:0:0:
320,192,35383,128,0,35482:0:0:0:0:
448,192,35580,1,0,0:0:0:0:
192,192,35580,128,0,35679:0:0:0:0:
320,192,35679,128,0,35876:0:0:0:0:
64,192,35778,1,0,0:0:0:0:
192,192,35778,128,0,35975:0:0:0:0:
448,192,35975,128,0,36041:0:0:0:0:
64,192,36172,1,0,0:0:0:0:
320,192,36172,1,0,0:0:0:0:
192,192,36304,1,0,0:0:0:0:
448,192,36370,1,0,0:0:0:0:
448,192,36567,128,0,36764:0:0:0:0:
64,192,36567,128,0,36699:0:0:0:0:
192,192,36699,1,0,0:0:0:0:
320,192,36764,1,0,0:0:0:0:
448,192,36896,128,0,37093:0:0:0:0:
192,192,36962,128,0,37159:0:0:0:0:
320,192,37093,1,0,0:0:0:0:
64,192,37159,1,0,0:0:0:0:
448,192,37159,1,0,0:0:0:0:
192,192,37357,1,0,0:0:0:0:
448,192,37357,128,0,37554:0:0:0:0:
320,192,37554,1,0,0:0:0:0:
64,192,37554,1,0,0:0:0:0:
64,192,37653,128,0,37949:0:0:0:0:
448,192,37751,1,0,0:0:0:0:
192,192,37883,1,0,0:0:0:0:
320,192,37949,1,0,0:0:0:0:
448,192,38146,1,0,0:0:0:0:
64,192,38146,128,0,38212:0:0:0:0:
192,192,38212,128,0,38278:0:0:0:0:
320,192,38278,128,0,38343:0:0:0:0:
64,192,38343,1,0,0:0:0:0:
448,192,38343,128,0,38475:0:0:0:0:
192,192,38475,128,0,38541:0:0:0:0:
320,192,38541,128,0,38672:0:0:0:0:
64,192,38672,128,0,38738:0:0:0:0:
320,192,38738,1,0,0:0:0:0:
192,192,38738,128,0,38870:0:0:0:0:
320,192,38870,128,0,38935:0:0:0:0:
448,192,38935,1,0,0:0:0:0:
64,192,38935,128,0,39133:0:0:0:0:
448,192,39133,128,0,39264:0:0:0:0:
192,192,39330,128,0,39462:0:0:0:0:
320,192,39330,128,0,39626:0:0:0:0:
448,192,39330,128,0,39593:0:0:0:0:
64,192,39330,128,0,39659:0:0:0:0:
192,192,39528,1,0,0:0:0:0:
64,192,39725,1,0,0:0:0:0:
448,192,39725,1,0,0:0:0:0:
192,192,39922,128,0,40054:0:0:0:0:
64,192,40054,1,0,0:0:0:0:
320,192,40120,128,0,40317:0:0:0:0:
192,192,40251,1,0,0:0:0:0:
448,192,40317,128,0,40416:0:0:0:0:
192,192,40449,128,0,40580:0:0:0:0:
64,192,40514,1,0,0:0:0:0:
448,192,40514,1,0,0:0:0:0:
320,192,40646,128,0,40778:0:0:0:0:
192,192,40712,1,0,0:0:0:0:
64,192,40712,128,0,40975:0:0:0:0:
320,192,40909,1,0,0:0:0:0:
64,192,41041,1,0,0:0:0:0:
192,192,41107,1,0,0:0:0:0:
448,192,41304,1,0,0:0:0:0:
64,192,41304,1,0,0:0:0:0:
448,192,41501,128,0,41764:0:0:0:0:
192,192,41501,128,0,41699:0:0:0:0:
64,192,41633,1,0,0:0:0:0:
320,192,41699,1,0,0:0:0:0:
448,192,41830,1,0,0:0:0:0:
320,192,41896,128,0,41962:0:0:0:0:
192,192,41896,128,0,42028:0:0:0:0:
64,192,42093,128,0,42192:0:0:0:0:
192,192,42093,128,0,42159:0:0:0:0:
192,192,42291,128,0,42357:0:0:0:0:
448,192,42291,128,0,42357:0:0:0:0:
448,192,42488,128,0,42685:0:0:0:0:
320,192,42488,128,0,42587:0:0:0:0:
64,192,42620,1,0,0:0:0:0:
192,192,42685,1,0,0:0:0:0:
320,192,42784,128,0,42982:0:0:0:0:
448,192,42883,1,0,0:0:0:0:
64,192,42883,128,0,43146:0:0:0:0:
192,192,43080,128,0,43278:0:0:0:0:
320,192,43212,1,0,0:0:0:0:
64,192,43278,1,0,0:0:0:0:
448,192,43409,1,0,0:0:0:0:
320,192,43475,1,0,0:0:0:0:
192,192,43475,1,0,0:0:0:0:
64,192,43672,1,0,0:0:0:0:
192,192,43672,128,0,43804:0:0:0:0:
64,192,43870,1,0,0:0:0:0:
320,192,43870,128,0,44067:0:0:0:0:
192,192,44067,128,0,44133:0:0:0:0:
320,192,44199,1,0,0:0:0:0:
192,192,44264,128,0,44363:0:0:0:0:
448,192,44462,128,0,44659:0:0:0:0:
64,192,44462,128,0,44659:0:0:0:0:
192,192,44659,128,0,44791:0:0:0:0:
320,192,44791,1,0,0:0:0:0:
448,192,44857,128,0,44922:0:0:0:0:
192,192,44988,1,0,0:0:0:0:
320,192,45054,1,0,0:0:0:0:
448,192,45054,128,0,45185:0:0:0:0:
64,192,45251,128,0,45383:0:0:0:0:
192,192,45251,1,0,0:0:0:0:
64,192,45449,128,0,45547:0:0:0:0:
448,192,45646,128,0,45745:0:0:0:0:
192,192,45646,1,0,0:0:0:0:
64,192,45778,128,0,45843:0:0:0:0:
320,192,45843,128,0,45909:0:0:0:0:
64,192,46041,1,0,0:0:0:0:
320,192,46041,128,0,46238:0:0:0:0:
192,192,46238,128,0,46304:0:0:0:0:
448,192,46238,128,0,46304:0:0:0:0:
64,192,46370,1,0,0:0:0:0:
320,192,46435,128,0,46567:0:0:0:0:
448,192,46435,128,0,46534:0:0:0:0:
192,192,46567,1,0,0:0:0:0:
320,192,46633,1,0,0:0:0:0:
448,192,46732,128,0,46929:0:0:0:0:
192,192,46830,1,0,0:0:0:0:
64,192,46830,128,0,46962:0:0:0:0:
64,192,47028,128,0,47126:0:0:0:0:
320,192,47028,128,0,47225:0:0:0:0:
192,192,47225,1,0,0:0:0:0:
320,192,47357,1,0,0:0:0:0:
192,192,47422,128,0,47488:0:0:0:0:
64,192,47620,128,0,47817:0:0:0:0:
448,192,47620,1,0,0:0:0:0:
448,192,47817,128,0,47883:0:0:0:0:
320,192,47949,1,0,0:0:0:0:
64,192,48014,128,0,48113:0:0:0:0:
192,192,48014,128,0,48146:0:0:0:0:
448,192,48146,1,0,0:0:0:0:
64,192,48212,1,0,0:0:0:0:
320,192,48212,128,0,48310:0:0:0:0:
192,192,48310,128,0,48508:0:0:0:0:
448,192,48409,1,0,0:0:0:0:
320,192,48409,128,0,48607:0:0:0:0:
64,192,48607,128,0,48672:0:0:0:0:
448,192,48804,1,0,0:0:0:0:
192,192,48804,1,0,0:0:0:0:
320,192,48935,1,0,0:0:0:0:
64,192,49001,1,0,0:0:0:0:
64,192,49199,128,0,49396:0:0:0:0:
448,192,49199,128,0,49330:0:0:0:0:
320,192,49330,1,0,0:0:0:0:
192,192,49396,1,0,0:0:0:0:
64,192,49528,128,0,49725:0:0:0:0:
320,192,49593,128,0,49791:0:0:0:0:
192,192,49725,1,0,0:0:0:0:
448,192,49791,1,0,0:0:0:0:
64,192,49791,1,0,0:0:0:0:
192,192,49889,128,0,50087:0:0:0:0:
448,192,49988,1,0,0:0:0:0:
320,192,49988,1,0,0:0:0:0:
64,192,50185,1,0,0:0:0:0:
320,192,50185,128,0,50514:0:0:0:0:
448,192,50383,128,0,50482:0:0:0:0:
192,192,50482,128,0,50613:0:0:0:0:
64,192,50580,128,0,50712:0:0:0:0:
192,192,50679,128,0,50810:0:0:0:0:
320,192,50778,128,0,50876:0:0:0:0:
448,192,50876,128,0,50975:0:0:0:0:
192,192,50975,128,0,51764:0:0:0:0:
64,192,51172,128,0,51666:0:0:0:0:
320,192,51370,128,0,51863:0:0:0:0:
448,192,51567,128,0,52159:0:0:0:0:
64,192,51764,1,0,0:0:0:0:
64,192,51962,128,0,53541:0:0:0:0:
192,192,51962,128,0,52751:0:0:0:0:
320,192,51962,128,0,52357:0:0:0:0:
448,192,52357,1,0,0:0:0:0:
320,192,52554,1,0,0:0:0:0:
192,192,52949,1,0,0:0:0:0:
320,192,53146,1,0,0:0:0:0:
448,192,53146,1,0,0:0:0:0:
192,192,53343,1,0,0:0:0:0:
64,192,53738,1,0,0:0:0:0:
320,192,53935,1,0,0:0:0:0:
448,192,53935,1,0,0:0:0:0:
64,192,54133,1,0,0:0:0:0:
192,192,54528,1,0,0:0:0:0:
320,192,54725,1,0,0:0:0:0:
448,192,54725,1,0,0:0:0:0:
192,192,54922,1,0,0:0:0:0:
64,192,55317,1,0,0:0:0:0:
448,192,55514,1,0,0:0:0:0:
320,192,55514,1,0,0:0:0:0:
64,192,55712,1,0,0:0:0:0:
192,192,56107,1,0,0:0:0:0:
320,192,56304,1,0,0:0:0:0:
448,192,56304,1,0,0:0:0:0:
192,192,56501,1,0,0:0:0:0:
64,192,56699,1,0,0:0:0:0:
448,192,56732,1,0,0:0:0:0:
192,192,56797,1,0,0:0:0:0:
64,192,56896,1,0,0:0:0:0:
320,192,56995,1,0,0:0:0:0:
448,192,57093,1,0,0:0:0:0:
320,192,57093,1,0,0:0:0:0:
192,192,57192,1,0,0:0:0:0:
320,192,57291,1,0,0:0:0:0:
64,192,57488,1,0,0:0:0:0:
448,192,57521,1,0,0:0:0:0:
192,192,57587,1,0,0:0:0:0:
64,192,57685,1,0,0:0:0:0:
320,192,57784,1,0,0:0:0:0:
448,192,57883,1,0,0:0:0:0:
320,192,57883,1,0,0:0:0:0:
192,192,57982,1,0,0:0:0:0:
320,192,58080,1,0,0:0:0:0:
192,192,58278,1,0,0:0:0:0:
64,192,58278,1,0,0:0:0:0:
448,192,58278,1,0,0:0:0:0:
448,192,58475,1,0,0:0:0:0:
192,192,58672,1,0,0:0:0:0:
320,192,58672,1,0,0:0:0:0:
448,192,58672,1,0,0:0:0:0:
192,192,58870,1,0,0:0:0:0:
320,192,59067,1,0,0:0:0:0:
192,192,59067,1,0,0:0:0:0:
64,192,59067,1,0,0:0:0:0:
320,192,59264,1,0,0:0:0:0:
448,192,59462,1,0,0:0:0:0:
320,192,59462,1,0,0:0:0:0:
64,192,59462,1,0,0:0:0:0:
64,192,59659,1,0,0:0:0:0:
192,192,59857,1,0,0:0:0:0:
64,192,59857,1,0,0:0:0:0:
320,192,59857,1,0,0:0:0:0:
192,192,60054,1,0,0:0:0:0:
320,192,60251,5,0,0:0:0:0:
448,192,60251,1,0,0:0:0:0:
192,192,60251,1,0,0:0:0:0:
320,192,60449,1,0,0:0:0:0:
320,192,60646,1,0,0:0:0:0:
64,192,60646,1,0,0:0:0:0:
192,192,60646,1,0,0:0:0:0:
64,192,60843,1,0,0:0:0:0:
448,192,61041,1,0,0:0:0:0:
320,192,61041,1,0,0:0:0:0:
64,192,61041,1,0,0:0:0:0:
448,192,61238,1,0,0:0:0:0:
320,192,61435,1,0,0:0:0:0:
192,192,61435,1,0,0:0:0:0:
192,192,61534,1,0,0:0:0:0:
448,192,61548,1,0,0:0:0:0:
64,192,61633,1,0,0:0:0:0:
192,192,61633,1,0,0:0:0:0:
320,192,61732,1,0,0:0:0:0:
320,192,61830,1,0,0:0:0:0:
192,192,61830,1,0,0:0:0:0:
320,192,61929,1,0,0:0:0:0:
448,192,61943,1,0,0:0:0:0:
192,192,62028,1,0,0:0:0:0:
64,192,62028,1,0,0:0:0:0:
192,192,62126,1,0,0:0:0:0:
320,192,62225,1,0,0:0:0:0:
64,192,62225,1,0,0:0:0:0:
192,192,62324,1,0,0:0:0:0:
64,192,62338,1,0,0:0:0:0:
320,192,62422,1,0,0:0:0:0:
448,192,62422,1,0,0:0:0:0:
448,192,62521,1,0,0:0:0:0:
192,192,62620,1,0,0:0:0:0:
64,192,62620,1,0,0:0:0:0:
320,192,62718,1,0,0:0:0:0:
192,192,62817,1,0,0:0:0:0:
448,192,62817,1,0,0:0:0:0:
320,192,62866,1,0,0:0:0:0:
448,192,62916,1,0,0:0:0:0:
192,192,62965,1,0,0:0:0:0:
320,192,63014,1,0,0:0:0:0:
192,192,63080,1,0,0:0:0:0:
64,192,63146,1,0,0:0:0:0:
64,192,63278,1,0,0:0:0:0:
192,192,63409,1,0,0:0:0:0:
64,192,63442,128,0,63574:0:0:0:0:
448,192,63541,1,0,0:0:0:0:
320,192,63607,128,0,63804:0:0:0:0:
448,192,63804,1,0,0:0:0:0:
64,192,63804,1,0,0:0:0:0:
192,192,63804,1,0,0:0:0:0:
64,192,63935,1,0,0:0:0:0:
448,192,64001,1,0,0:0:0:0:
320,192,64067,1,0,0:0:0:0:
448,192,64133,1,0,0:0:0:0:
64,192,64199,1,0,0:0:0:0:
192,192,64232,128,0,64297:0:0:0:0:
320,192,64264,128,0,64330:0:0:0:0:
448,192,64330,128,0,64429:0:0:0:0:
320,192,64396,128,0,64462:0:0:0:0:
192,192,64429,128,0,64495:0:0:0:0:
64,192,64462,128,0,64528:0:0:0:0:
64,192,64593,128,0,64922:0:0:0:0:
192,192,64593,128,0,64725:0:0:0:0:
320,192,64626,128,0,64889:0:0:0:0:
448,192,64659,128,0,64955:0:0:0:0:
192,192,64791,1,0,0:0:0:0:
320,192,64988,128,0,65284:0:0:0:0:
64,192,64988,1,0,0:0:0:0:
192,192,65185,128,0,65317:0:0:0:0:
64,192,65317,128,0,65547:0:0:0:0:
448,192,65383,1,0,0:0:0:0:
192,192,65580,1,0,0:0:0:0:
64,192,65778,1,0,0:0:0:0:
320,192,65778,1,0,0:0:0:0:
192,192,65909,1,0,0:0:0:0:
64,192,65975,128,0,66304:0:0:0:0:
448,192,65975,128,0,66271:0:0:0:0:
320,192,66008,128,0,66304:0:0:0:0:
192,192,66041,128,0,66337:0:0:0:0:
448,192,66370,128,0,66435:0:0:0:0:
192,192,66501,1,0,0:0:0:0:
320,192,66567,1,0,0:0:0:0:
64,192,66567,128,0,66633:0:0:0:0:
448,192,66699,128,0,66764:0:0:0:0:
192,192,66764,1,0,0:0:0:0:
64,192,66896,1,0,0:0:0:0:
320,192,66962,128,0,67060:0:0:0:0:
64,192,67159,128,0,67258:0:0:0:0:
192,192,67192,128,0,67291:0:0:0:0:
448,192,67225,128,0,67324:0:0:0:0:
320,192,67357,1,0,0:0:0:0:
64,192,67357,1,0,0:0:0:0:
192,192,67554,128,0,68080:0:0:0:0:
320,192,67554,128,0,68080:0:0:0:0:
64,192,67587,128,0,67883:0:0:0:0:
448,192,67620,128,0,68113:0:0:0:0:
64,192,67949,1,0,0:0:0:0:
64,192,68146,128,0,68245:0:0:0:0:
320,192,68179,128,0,68278:0:0:0:0:
448,192,68212,128,0,68442:0:0:0:0:
64,192,68343,1,0,0:0:0:0:
192,192,68475,128,0,68607:0:0:0:0:
64,192,68541,128,0,68672:0:0:0:0:
448,192,68607,128,0,68738:0:0:0:0:
320,192,68672,128,0,68804:0:0:0:0:
192,192,68738,128,0,68870:0:0:0:0:
320,192,68935,128,0,69001:0:0:0:0:
64,192,68968,128,0,69067:0:0:0:0:
448,192,69133,128,0,69462:0:0:0:0:
192,192,69133,128,0,69462:0:0:0:0:
320,192,69166,128,0,69429:0:0:0:0:
64,192,69199,128,0,69495:0:0:0:0:
320,192,69528,128,0,69626:0:0:0:0:
64,192,69725,128,0,69889:0:0:0:0:
320,192,69758,128,0,69824:0:0:0:0:
448,192,69791,128,0,69857:0:0:0:0:
192,192,69922,128,0,69988:0:0:0:0:
320,192,70021,1,0,0:0:0:0:
192,192,70054,1,0,0:0:0:0:
64,192,70120,128,0,70416:0:0:0:0:
448,192,70120,128,0,70416:0:0:0:0:
192,192,70153,128,0,70482:0:0:0:0:
320,192,70185,128,0,70449:0:0:0:0:
320,192,70514,128,0,70778:0:0:0:0:
64,192,70514,128,0,70778:0:0:0:0:
192,192,70547,128,0,70745:0:0:0:0:
448,192,70580,128,0,70810:0:0:0:0:
64,192,70843,128,0,71139:0:0:0:0:
192,192,70843,128,0,71041:0:0:0:0:
320,192,70876,128,0,71205:0:0:0:0:
448,192,70909,128,0,71172:0:0:0:0:
192,192,71107,1,0,0:0:0:0:
64,192,71238,1,0,0:0:0:0:
192,192,71501,1,0,0:0:0:0:
448,192,71501,1,0,0:0:0:0:
320,192,71699,1,0,0:0:0:0:
64,192,71896,1,0,0:0:0:0:
448,192,71896,1,0,0:0:0:0:
192,192,72028,128,0,72093:0:0:0:0:
320,192,72060,128,0,72126:0:0:0:0:
448,192,72093,128,0,72192:0:0:0:0:
64,192,72192,128,0,72258:0:0:0:0:
320,192,72291,128,0,72587:0:0:0:0:
448,192,72291,128,0,72587:0:0:0:0:
192,192,72324,128,0,72620:0:0:0:0:
64,192,72357,128,0,72653:0:0:0:0:
320,192,72685,128,0,72751:0:0:0:0:
448,192,72718,1,0,0:0:0:0:
448,192,72883,128,0,72982:0:0:0:0:
64,192,72883,1,0,0:0:0:0:
192,192,72982,128,0,73080:0:0:0:0:
320,192,73080,128,0,73146:0:0:0:0:
64,192,73212,128,0,73343:0:0:0:0:
192,192,73409,128,0,73574:0:0:0:0:
64,192,73442,128,0,73574:0:0:0:0:
448,192,73475,128,0,73574:0:0:0:0:
320,192,73475,128,0,73607:0:0:0:0:
64,192,73672,128,0,73738:0:0:0:0:
192,192,73672,128,0,73738:0:0:0:0:
320,192,73705,128,0,73804:0:0:0:0:
192,192,73870,128,0,74199:0:0:0:0:
448,192,73870,128,0,74363:0:0:0:0:
320,192,73903,128,0,74330:0:0:0:0:
64,192,73903,128,0,74396:0:0:0:0:
192,192,74264,1,0,0:0:0:0:
64,192,74462,128,0,74560:0:0:0:0:
320,192,74495,128,0,74593:0:0:0:0:
448,192,74528,128,0,74725:0:0:0:0:
64,192,74659,1,0,0:0:0:0:
320,192,74791,128,0,74922:0:0:0:0:
448,192,74857,128,0,74988:0:0:0:0:
64,192,74922,128,0,75054:0:0:0:0:
192,192,74988,128,0,75120:0:0:0:0:
320,192,75054,128,0,75185:0:0:0:0:
64,192,75185,128,0,75251:0:0:0:0:
448,192,75251,1,0,0:0:0:0:
192,192,75251,128,0,75317:0:0:0:0:
64,192,75317,128,0,75383:0:0:0:0:
320,192,75449,128,0,76008:0:0:0:0:
448,192,75449,128,0,75942:0:0:0:0:
192,192,75482,128,0,75975:0:0:0:0:
64,192,75514,128,0,75942:0:0:0:0:
64,192,76041,128,0,76370:0:0:0:0:
448,192,76041,128,0,76337:0:0:0:0:
192,192,76074,128,0,76403:0:0:0:0:
320,192,76107,128,0,76370:0:0:0:0:
320,192,76435,128,0,76797:0:0:0:0:
448,192,76435,128,0,76764:0:0:0:0:
192,192,76468,128,0,76764:0:0:0:0:
64,192,76501,128,0,76732:0:0:0:0:
448,192,76830,1,0,0:0:0:0:
192,192,76830,1,0,0:0:0:0:
64,192,77159,1,0,0:0:0:0:
448,192,77225,128,0,77488:0:0:0:0:
192,192,77225,128,0,77357:0:0:0:0:
320,192,77258,128,0,77521:0:0:0:0:
64,192,77291,128,0,77554:0:0:0:0:
192,192,77422,1,0,0:0:0:0:
192,192,77620,128,0,77916:0:0:0:0:
448,192,77620,1,0,0:0:0:0:
320,192,77817,128,0,77949:0:0:0:0:
448,192,77949,128,0,78179:0:0:0:0:
64,192,78014,1,0,0:0:0:0:
320,192,78212,1,0,0:0:0:0:
448,192,78409,1,0,0:0:0:0:
192,192,78409,1,0,0:0:0:0:
320,192,78541,1,0,0:0:0:0:
64,192,78607,128,0,78903:0:0:0:0:
448,192,78607,128,0,78903:0:0:0:0:
192,192,78639,128,0,78935:0:0:0:0:
320,192,78672,128,0,78968:0:0:0:0:
64,192,79001,128,0,79067:0:0:0:0:
64,192,79133,128,0,79199:0:0:0:0:
192,192,79199,1,0,0:0:0:0:
448,192,79199,128,0,79264:0:0:0:0:
64,192,79330,128,0,79396:0:0:0:0:
320,192,79396,1,0,0:0:0:0:
192,192,79528,1,0,0:0:0:0:
320,192,79593,128,0,79692:0:0:0:0:
448,192,79791,128,0,79889:0:0:0:0:
320,192,79824,128,0,79922:0:0:0:0:
64,192,79857,128,0,79955:0:0:0:0:
192,192,79988,1,0,0:0:0:0:
448,192,79988,1,0,0:0:0:0:
448,192,80185,128,0,80679:0:0:0:0:
320,192,80185,128,0,80482:0:0:0:0:
192,192,80218,128,0,80712:0:0:0:0:
64,192,80251,128,0,80646:0:0:0:0:
320,192,80580,1,0,0:0:0:0:
448,192,80778,128,0,80876:0:0:0:0:
192,192,80810,128,0,80909:0:0:0:0:
64,192,80843,128,0,81041:0:0:0:0:
320,192,80975,1,0,0:0:0:0:
192,192,81107,128,0,81172:0:0:0:0:
320,192,81172,128,0,81238:0:0:0:0:
448,192,81238,128,0,81370:0:0:0:0:
192,192,81370,128,0,81501:0:0:0:0:
192,192,81567,128,0,81633:0:0:0:0:
64,192,81567,128,0,81666:0:0:0:0:
192,192,81764,128,0,82126:0:0:0:0:
448,192,81764,128,0,81896:0:0:0:0:
320,192,81797,128,0,82093:0:0:0:0:
64,192,81830,128,0,82028:0:0:0:0:
448,192,81962,128,0,82126:0:0:0:0:
64,192,82159,128,0,82258:0:0:0:0:
192,192,82258,128,0,82357:0:0:0:0:
64,192,82357,1,0,0:0:0:0:
320,192,82357,128,0,82455:0:0:0:0:
192,192,82455,128,0,82554:0:0:0:0:
320,192,82554,128,0,82620:0:0:0:0:
448,192,82587,128,0,82653:0:0:0:0:
192,192,82685,128,0,82883:0:0:0:0:
64,192,82685,128,0,82916:0:0:0:0:
320,192,82718,128,0,82850:0:0:0:0:
448,192,82751,128,0,82883:0:0:0:0:
448,192,82949,128,0,83080:0:0:0:0:
320,192,82949,128,0,83047:0:0:0:0:
192,192,82982,128,0,83080:0:0:0:0:
64,192,83014,128,0,83113:0:0:0:0:
448,192,83146,128,0,83409:0:0:0:0:
192,192,83146,128,0,83343:0:0:0:0:
320,192,83179,128,0,83376:0:0:0:0:
64,192,83212,128,0,83409:0:0:0:0:
448,192,83475,128,0,83639:0:0:0:0:
64,192,83475,128,0,83607:0:0:0:0:
192,192,83508,128,0,83639:0:0:0:0:
320,192,83541,128,0,83672:0:0:0:0:
192,192,83738,128,0,83837:0:0:0:0:
64,192,83771,128,0,83870:0:0:0:0:
448,192,83935,128,0,84133:0:0:0:0:
64,192,83935,128,0,84133:0:0:0:0:
192,192,83968,128,0,84232:0:0:0:0:
320,192,84001,128,0,84232:0:0:0:0:
320,192,84330,128,0,84528:0:0:0:0:
64,192,84330,128,0,84593:0:0:0:0:
192,192,84363,128,0,84528:0:0:0:0:
448,192,84396,128,0,84593:0:0:0:0:
320,192,84659,128,0,84791:0:0:0:0:
448,192,84659,1,0,0:0:0:0:
64,192,84692,128,0,84791:0:0:0:0:
192,192,84692,128,0,84791:0:0:0:0:
320,192,84857,1,0,0:0:0:0:
192,192,84922,128,0,85218:0:0:0:0:
64,192,84922,128,0,85185:0:0:0:0:
320,192,84955,128,0,85185:0:0:0:0:
448,192,84988,128,0,85251:0:0:0:0:
192,192,85317,128,0,85383:0:0:0:0:
64,192,85350,1,0,0:0:0:0:
448,192,85514,1,0,0:0:0:0:
64,192,85514,128,0,85613:0:0:0:0:
320,192,85613,128,0,85712:0:0:0:0:
192,192,85712,128,0,85778:0:0:0:0:
448,192,85843,128,0,85975:0:0:0:0:
320,192,86041,128,0,86205:0:0:0:0:
448,192,86074,128,0,86205:0:0:0:0:
64,192,86107,128,0,86205:0:0:0:0:
192,192,86107,128,0,86238:0:0:0:0:
448,192,86304,128,0,86370:0:0:0:0:
320,192,86304,128,0,86370:0:0:0:0:
192,192,86337,128,0,86435:0:0:0:0:
64,192,86501,128,0,86995:0:0:0:0:
320,192,86501,128,0,86797:0:0:0:0:
192,192,86534,128,0,86962:0:0:0:0:
448,192,86567,128,0,87028:0:0:0:0:
320,192,86896,1,0,0:0:0:0:
192,192,87093,128,0,87225:0:0:0:0:
448,192,87126,128,0,87357:0:0:0:0:
64,192,87159,128,0,87357:0:0:0:0:
320,192,87291,1,0,0:0:0:0:
192,192,87422,128,0,87488:0:0:0:0:
320,192,87488,128,0,87554:0:0:0:0:
448,192,87554,128,0,87685:0:0:0:0:
192,192,87685,128,0,87817:0:0:0:0:
192,192,87883,128,0,87949:0:0:0:0:
64,192,87883,128,0,87982:0:0:0:0:
64,192,88080,128,0,89363:0:0:0:0:
320,192,88080,128,0,89166:0:0:0:0:
192,192,88113,128,0,89264:0:0:0:0:
448,192,88146,128,0,89067:0:0:0:0:
64,192,89462,1,0,0:0:0:0:
192,192,89462,1,0,0:0:0:0:
192,192,89857,128,0,89988:0:0:0:0:
64,192,89857,128,0,90185:0:0:0:0:
320,192,89889,128,0,90185:0:0:0:0:
448,192,89922,128,0,90218:0:0:0:0:
192,192,90054,128,0,90153:0:0:0:0:
192,192,90251,1,0,0:0:0:0:
64,192,90251,1,0,0:0:0:0:
64,192,90449,1,0,0:0:0:0:
320,192,90580,1,0,0:0:0:0:
192,192,90646,1,0,0:0:0:0:
320,192,90778,1,0,0:0:0:0:
448,192,90843,1,0,0:0:0:0:
64,192,90843,1,0,0:0:0:0:
64,192,91041,1,0,0:0:0:0:
192,192,91041,1,0,0:0:0:0:
192,192,91238,128,0,91567:0:0:0:0:
320,192,91238,128,0,91370:0:0:0:0:
64,192,91271,128,0,91534:0:0:0:0:
448,192,91304,128,0,91567:0:0:0:0:
320,192,91435,128,0,91600:0:0:0:0:
192,192,91633,1,0,0:0:0:0:
64,192,91830,1,0,0:0:0:0:
192,192,91830,1,0,0:0:0:0:
320,192,92028,128,0,92126:0:0:0:0:
64,192,92028,128,0,92159:0:0:0:0:
448,192,92060,128,0,92159:0:0:0:0:
192,192,92093,128,0,92192:0:0:0:0:
320,192,92225,1,0,0:0:0:0:
448,192,92324,1,0,0:0:0:0:
320,192,92422,128,0,92521:0:0:0:0:
64,192,92422,128,0,92587:0:0:0:0:
192,192,92455,128,0,92554:0:0:0:0:
448,192,92488,128,0,92554:0:0:0:0:
320,192,92620,128,0,92685:0:0:0:0:
448,192,92653,128,0,92784:0:0:0:0:
64,192,92817,1,0,0:0:0:0:
192,192,92817,1,0,0:0:0:0:
320,192,92949,128,0,93278:0:0:0:0:
192,192,92949,128,0,93146:0:0:0:0:
64,192,92982,128,0,93278:0:0:0:0:
448,192,93014,128,0,93245:0:0:0:0:
192,192,93212,128,0,93310:0:0:0:0:
192,192,93409,1,0,0:0:0:0:
64,192,93409,1,0,0:0:0:0:
320,192,93607,1,0,0:0:0:0:
192,192,93738,1,0,0:0:0:0:
448,192,93804,1,0,0:0:0:0:
192,192,93935,1,0,0:0:0:0:
64,192,94001,1,0,0:0:0:0:
320,192,94001,1,0,0:0:0:0:
192,192,94199,128,0,94264:0:0:0:0:
64,192,94199,128,0,94330:0:0:0:0:
320,192,94396,128,0,94528:0:0:0:0:
192,192,94396,128,0,94725:0:0:0:0:
448,192,94429,128,0,94889:0:0:0:0:
64,192,94462,128,0,94857:0:0:0:0:
320,192,94593,128,0,94955:0:0:0:0:
192,192,94791,128,0,94922:0:0:0:0:
64,192,94988,128,0,95120:0:0:0:0:
192,192,94988,128,0,95350:0:0:0:0:
320,192,95021,128,0,95284:0:0:0:0:
448,192,95054,128,0,95251:0:0:0:0:
64,192,95185,128,0,95317:0:0:0:0:
64,192,95383,128,0,95679:0:0:0:0:
448,192,95383,128,0,95514:0:0:0:0:
192,192,95416,128,0,95712:0:0:0:0:
320,192,95449,128,0,95745:0:0:0:0:
448,192,95580,128,0,95712:0:0:0:0:
64,192,95778,128,0,95909:0:0:0:0:
192,192,95778,128,0,96041:0:0:0:0:
320,192,95810,128,0,96008:0:0:0:0:
448,192,95843,128,0,95975:0:0:0:0:
64,192,95975,128,0,96074:0:0:0:0:
192,192,96107,128,0,96501:0:0:0:0:
320,192,96107,128,0,96304:0:0:0:0:
64,192,96139,128,0,96435:0:0:0:0:
448,192,96172,128,0,96468:0:0:0:0:
320,192,96370,128,0,96534:0:0:0:0:
192,192,96567,1,0,0:0:0:0:
64,192,96567,1,0,0:0:0:0:
192,192,96764,1,0,0:0:0:0:
320,192,96896,1,0,0:0:0:0:
64,192,96962,1,0,0:0:0:0:
320,192,97093,1,0,0:0:0:0:
448,192,97159,1,0,0:0:0:0:
192,192,97159,1,0,0:0:0:0:
64,192,97357,1,0,0:0:0:0:
448,192,97357,1,0,0:0:0:0:
192,192,97554,128,0,97685:0:0:0:0:
320,192,97554,128,0,97817:0:0:0:0:
448,192,97587,128,0,97784:0:0:0:0:
64,192,97620,128,0,97817:0:0:0:0:
192,192,97751,128,0,97883:0:0:0:0:
320,192,97949,1,0,0:0:0:0:
320,192,98146,1,0,0:0:0:0:
448,192,98146,1,0,0:0:0:0:
448,192,98343,1,0,0:0:0:0:
192,192,98475,1,0,0:0:0:0:
320,192,98541,1,0,0:0:0:0:
192,192,98672,1,0,0:0:0:0:
448,192,98738,1,0,0:0:0:0:
64,192,98738,1,0,0:0:0:0:
192,192,98935,1,0,0:0:0:0:
64,192,98935,1,0,0:0:0:0:
448,192,99133,128,0,99264:0:0:0:0:
64,192,99133,128,0,99363:0:0:0:0:
320,192,99166,128,0,99429:0:0:0:0:
192,192,99199,128,0,99396:0:0:0:0:
448,192,99330,128,0,99462:0:0:0:0:
64,192,99528,1,0,0:0:0:0:
192,192,99725,1,0,0:0:0:0:
64,192,99725,1,0,0:0:0:0:
192,192,99922,1,0,0:0:0:0:
320,192,100054,1,0,0:0:0:0:
64,192,100120,1,0,0:0:0:0:
320,192,100251,1,0,0:0:0:0:
448,192,100317,1,0,0:0:0:0:
192,192,100317,1,0,0:0:0:0:
192,192,100514,1,0,0:0:0:0:
64,192,100514,1,0,0:0:0:0:
64,192,100712,128,0,101107:0:0:0:0:
192,192,100712,128,0,101172:0:0:0:0:
320,192,100745,128,0,101008:0:0:0:0:
448,192,100778,128,0,101172:0:0:0:0:
320,192,101107,128,0,101238:0:0:0:0:
320,192,101304,128,0,101567:0:0:0:0:
448,192,101304,128,0,101567:0:0:0:0:
192,192,101337,128,0,101633:0:0:0:0:
64,192,101337,128,0,101567:0:0:0:0:
320,192,101699,128,0,101962:0:0:0:0:
448,192,101699,128,0,101995:0:0:0:0:
64,192,101699,128,0,101995:0:0:0:0:
192,192,102093,128,0,102192:0:0:0:0:
320,192,102093,128,0,102159:0:0:0:0:
64,192,102093,128,0,102159:0:0:0:0:
64,192,102488,128,0,102949:0:0:0:0:
192,192,102488,128,0,102685:0:0:0:0:
448,192,102488,128,0,102587:0:0:0:0:
192,192,102883,128,0,103343:0:0:0:0:
448,192,102883,1,0,0:0:0:0:
320,192,103278,128,0,103738:0:0:0:0:
448,192,103278,1,0,0:0:0:0:
448,192,103672,128,0,104133:0:0:0:0:
64,192,103672,1,0,0:0:0:0:
64,192,104067,128,0,104560:0:0:0:0:
192,192,104067,1,0,0:0:0:0:
192,192,104462,128,0,104955:0:0:0:0:
448,192,104462,1,0,0:0:0:0:
320,192,104857,128,0,105350:0:0:0:0:
448,192,104857,1,0,0:0:0:0:
448,192,105251,128,0,105745:0:0:0:0:
64,192,105251,1,0,0:0:0:0:
64,192,105646,128,0,106172:0:0:0:0:
192,192,105646,1,0,0:0:0:0:
192,192,106041,128,0,106567:0:0:0:0:
448,192,106041,1,0,0:0:0:0:
320,192,106435,128,0,106962:0:0:0:0:
448,192,106435,1,0,0:0:0:0:
448,192,106830,128,0,107357:0:0:0:0:
64,192,106830,1,0,0:0:0:0:
64,192,107225,128,0,107751:0:0:0:0:
192,192,107225,1,0,0:0:0:0:
192,192,107620,128,0,108146:0:0:0:0:
448,192,107620,1,0,0:0:0:0:
320,192,108014,128,0,108541:0:0:0:0:
448,192,108014,1,0,0:0:0:0:
448,192,108409,128,0,109001:0:0:0:0:
64,192,108409,1,0,0:0:0:0:
320,192,108804,128,0,109396:0:0:0:0:
192,192,108804,1,0,0:0:0:0:
64,192,109001,128,0,109199:0:0:0:0:
192,192,109199,128,0,109791:0:0:0:0:
448,192,109199,1,0,0:0:0:0:
448,192,109396,128,0,109593:0:0:0:0:
64,192,109593,128,0,110185:0:0:0:0:
320,192,109593,1,0,0:0:0:0:
320,192,109791,128,0,109988:0:0:0:0:
448,192,109988,128,0,110580:0:0:0:0:
192,192,109988,1,0,0:0:0:0:
192,192,110185,128,0,110383:0:0:0:0:
320,192,110383,128,0,110975:0:0:0:0:
64,192,110383,1,0,0:0:0:0:
64,192,110580,128,0,110778:0:0:0:0:
192,192,110778,128,0,111370:0:0:0:0:
448,192,110778,1,0,0:0:0:0:
448,192,110975,128,0,111172:0:0:0:0:
64,192,111172,128,0,111764:0:0:0:0:
320,192,111172,128,0,111271:0:0:0:0:
320,192,111370,128,0,111567:0:0:0:0:
448,192,111567,128,0,112159:0:0:0:0:
192,192,111567,128,0,111666:0:0:0:0:
192,192,111764,128,0,111962:0:0:0:0:
320,192,111962,128,0,112554:0:0:0:0:
64,192,111962,128,0,112060:0:0:0:0:
64,192,112159,128,0,112357:0:0:0:0:
192,192,112357,128,0,112949:0:0:0:0:
448,192,112357,128,0,112455:0:0:0:0:
448,192,112554,128,0,112751:0:0:0:0:
64,192,112751,128,0,113343:0:0:0:0:
320,192,112751,128,0,112883:0:0:0:0:
320,192,112949,128,0,113146:0:0:0:0:
448,192,113146,128,0,113738:0:0:0:0:
192,192,113146,128,0,113278:0:0:0:0:
192,192,113343,128,0,113541:0:0:0:0:
320,192,113541,128,0,114133:0:0:0:0:
64,192,113541,128,0,113672:0:0:0:0:
64,192,113738,128,0,113935:0:0:0:0:
192,192,113935,128,0,114528:0:0:0:0:
448,192,113935,128,0,114067:0:0:0:0:
448,192,114133,128,0,114330:0:0:0:0:
64,192,114330,128,0,115021:0:0:0:0:
320,192,114330,128,0,114462:0:0:0:0:
320,192,114528,128,0,115054:0:0:0:0:
192,192,114725,128,0,114988:0:0:0:0:
448,192,114725,128,0,115120:0:0:0:0:
64,192,115120,128,0,115317:0:0:0:0:
320,192,115120,128,0,115185:0:0:0:0:
192,192,115120,128,0,115218:0:0:0:0:
192,192,115317,1,0,0:0:0:0:
448,192,115317,1,0,0:0:0:0:
320,192,115449,1,0,0:0:0:0:
448,192,115449,1,0,0:0:0:0:
192,192,115514,1,0,0:0:0:0:
64,192,115514,1,0,0:0:0:0:
64,192,115712,1,0,0:0:0:0:
320,192,115712,1,0,0:0:0:0:
192,192,115909,1,0,0:0:0:0:
320,192,115909,1,0,0:0:0:0:
192,192,116008,1,0,0:0:0:0:
448,192,116008,1,0,0:0:0:0:
320,192,116107,1,0,0:0:0:0:
64,192,116107,1,0,0:0:0:0:
192,192,116304,1,0,0:0:0:0:
64,192,116304,1,0,0:0:0:0:
192,192,116501,1,0,0:0:0:0:
448,192,116501,1,0,0:0:0:0:
320,192,116699,1,0,0:0:0:0:
448,192,116699,1,0,0:0:0:0:
64,192,116896,1,0,0:0:0:0:
320,192,116896,1,0,0:0:0:0:
448,192,116995,1,0,0:0:0:0:
320,192,117044,1,0,0:0:0:0:
64,192,117093,1,0,0:0:0:0:
192,192,117093,1,0,0:0:0:0:
448,192,117291,1,0,0:0:0:0:
64,192,117291,1,0,0:0:0:0:
192,192,117488,1,0,0:0:0:0:
320,192,117488,1,0,0:0:0:0:
448,192,117587,1,0,0:0:0:0:
448,192,117685,1,0,0:0:0:0:
64,192,117685,1,0,0:0:0:0:
64,192,117784,1,0,0:0:0:0:
320,192,117883,1,0,0:0:0:0:
192,192,117883,1,0,0:0:0:0:
448,192,118080,1,0,0:0:0:0:
64,192,118080,1,0,0:0:0:0:
192,192,118278,1,0,0:0:0:0:
64,192,118278,1,0,0:0:0:0:
192,192,118475,1,0,0:0:0:0:
448,192,118475,1,0,0:0:0:0:
64,192,118574,1,0,0:0:0:0:
192,192,118623,1,0,0:0:0:0:
448,192,118672,1,0,0:0:0:0:
320,192,118672,1,0,0:0:0:0:
320,192,118870,1,0,0:0:0:0:
64,192,118870,1,0,0:0:0:0:
192,192,119067,1,0,0:0:0:0:
64,192,119067,1,0,0:0:0:0:
448,192,119166,1,0,0:0:0:0:
64,192,119166,1,0,0:0:0:0:
320,192,119264,1,0,0:0:0:0:
192,192,119264,1,0,0:0:0:0:
448,192,119462,1,0,0:0:0:0:
320,192,119462,1,0,0:0:0:0:
448,192,119659,1,0,0:0:0:0:
64,192,119659,1,0,0:0:0:0:
192,192,119857,1,0,0:0:0:0:
64,192,119857,1,0,0:0:0:0:
448,192,120054,1,0,0:0:0:0:
192,192,120054,1,0,0:0:0:0:
64,192,120153,1,0,0:0:0:0:
448,192,120202,1,0,0:0:0:0:
192,192,120251,1,0,0:0:0:0:
320,192,120251,1,0,0:0:0:0:
64,192,120449,1,0,0:0:0:0:
320,192,120449,1,0,0:0:0:0:
320,192,120646,1,0,0:0:0:0:
192,192,120646,1,0,0:0:0:0:
64,192,120745,1,0,0:0:0:0:
448,192,120843,1,0,0:0:0:0:
64,192,120843,1,0,0:0:0:0:
448,192,120942,1,0,0:0:0:0:
320,192,121041,1,0,0:0:0:0:
192,192,121041,1,0,0:0:0:0:
448,192,121238,1,0,0:0:0:0:
192,192,121238,1,0,0:0:0:0:
192,192,121435,1,0,0:0:0:0:
64,192,121435,1,0,0:0:0:0:
448,192,121534,1,0,0:0:0:0:
320,192,121633,1,0,0:0:0:0:
192,192,121633,1,0,0:0:0:0:
64,192,121732,1,0,0:0:0:0:
448,192,121830,1,0,0:0:0:0:
320,192,121830,1,0,0:0:0:0:
64,192,121863,1,0,0:0:0:0:
192,192,121896,1,0,0:0:0:0:
320,192,121929,1,0,0:0:0:0:
192,192,122028,1,0,0:0:0:0:
64,192,122028,1,0,0:0:0:0:
448,192,122126,1,0,0:0:0:0:
320,192,122225,1,0,0:0:0:0:
192,192,122225,1,0,0:0:0:0:
64,192,122324,1,0,0:0:0:0:
320,192,122422,1,0,0:0:0:0:
192,192,122422,1,0,0:0:0:0:
448,192,122521,1,0,0:0:0:0:
192,192,122620,1,0,0:0:0:0:
64,192,122620,1,0,0:0:0:0:
448,192,122653,1,0,0:0:0:0:
320,192,122685,1,0,0:0:0:0:
192,192,122718,1,0,0:0:0:0:
320,192,122817,1,0,0:0:0:0:
448,192,122817,1,0,0:0:0:0:
64,192,122916,1,0,0:0:0:0:
320,192,123014,1,0,0:0:0:0:
192,192,123014,1,0,0:0:0:0:
448,192,123113,1,0,0:0:0:0:
320,192,123212,1,0,0:0:0:0:
192,192,123212,1,0,0:0:0:0:
64,192,123310,1,0,0:0:0:0:
320,192,123409,1,0,0:0:0:0:
448,192,123409,1,0,0:0:0:0:
64,192,123442,1,0,0:0:0:0:
192,192,123475,1,0,0:0:0:0:
320,192,123508,1,0,0:0:0:0:
192,192,123607,1,0,0:0:0:0:
64,192,123607,1,0,0:0:0:0:
448,192,123705,1,0,0:0:0:0:
320,192,123804,1,0,0:0:0:0:
192,192,123804,1,0,0:0:0:0:
64,192,123903,1,0,0:0:0:0:
320,192,124001,1,0,0:0:0:0:
192,192,124001,1,0,0:0:0:0:
448,192,124100,1,0,0:0:0:0:
64,192,124199,1,0,0:0:0:0:
192,192,124199,1,0,0:0:0:0:
448,192,124232,1,0,0:0:0:0:
320,192,124264,1,0,0:0:0:0:
192,192,124297,1,0,0:0:0:0:
320,192,124396,1,0,0:0:0:0:
448,192,124396,1,0,0:0:0:0:
192,192,124495,1,0,0:0:0:0:
448,192,124593,5,0,0:0:0:0:
320,192,124593,1,0,0:0:0:0:
192,192,124692,1,0,0:0:0:0:
448,192,124692,1,0,0:0:0:0:
320,192,124791,1,0,0:0:0:0:
64,192,124791,1,0,0:0:0:0:
192,192,124889,1,0,0:0:0:0:
64,192,124889,1,0,0:0:0:0:
320,192,124988,1,0,0:0:0:0:
448,192,124988,1,0,0:0:0:0:
192,192,125087,1,0,0:0:0:0:
320,192,125087,1,0,0:0:0:0:
448,192,125185,1,0,0:0:0:0:
64,192,125185,1,0,0:0:0:0:
320,192,125284,1,0,0:0:0:0:
448,192,125284,1,0,0:0:0:0:
64,192,125383,1,0,0:0:0:0:
192,192,125416,1,0,0:0:0:0:
320,192,125449,1,0,0:0:0:0:
64,192,125482,1,0,0:0:0:0:
320,192,125580,1,0,0:0:0:0:
448,192,125580,1,0,0:0:0:0:
448,192,125679,1,0,0:0:0:0:
192,192,125679,1,0,0:0:0:0:
64,192,125778,1,0,0:0:0:0:
320,192,125778,1,0,0:0:0:0:
320,192,125876,1,0,0:0:0:0:
192,192,125876,1,0,0:0:0:0:
64,192,125975,1,0,0:0:0:0:
448,192,125975,1,0,0:0:0:0:
64,192,126074,1,0,0:0:0:0:
192,192,126074,1,0,0:0:0:0:
320,192,126172,128,0,126271:0:0:0:0:
448,192,126205,128,0,126501:0:0:0:0:
192,192,126501,1,0,0:0:0:0:
320,192,126567,1,0,0:0:0:0:
64,192,126600,1,0,0:0:0:0:
192,192,126699,128,0,126764:0:0:0:0:
320,192,126732,128,0,126830:0:0:0:0:
64,192,126896,1,0,0:0:0:0:
448,192,126962,1,0,0:0:0:0:
192,192,126995,1,0,0:0:0:0:
320,192,127093,1,0,0:0:0:0:
448,192,127126,1,0,0:0:0:0:
192,192,127159,128,0,127225:0:0:0:0:
64,192,127192,128,0,127291:0:0:0:0:
320,192,127225,128,0,127324:0:0:0:0:
448,192,127258,128,0,127324:0:0:0:0:
192,192,127357,128,0,127554:0:0:0:0:
64,192,127357,1,0,0:0:0:0:
320,192,127554,128,0,127653:0:0:0:0:
448,192,127587,128,0,127751:0:0:0:0:
64,192,127653,128,0,127751:0:0:0:0:
192,192,127751,128,0,127949:0:0:0:0:
320,192,127751,128,0,127850:0:0:0:0:
448,192,127949,128,0,128014:0:0:0:0:
64,192,128146,128,0,128212:0:0:0:0:
192,192,128179,1,0,0:0:0:0:
448,192,128212,1,0,0:0:0:0:
320,192,128343,128,0,128409:0:0:0:0:
192,192,128376,1,0,0:0:0:0:
192,192,128541,128,0,128607:0:0:0:0:
64,192,128738,1,0,0:0:0:0:
192,192,128738,1,0,0:0:0:0:
448,192,128771,1,0,0:0:0:0:
320,192,128870,128,0,128935:0:0:0:0:
64,192,128935,1,0,0:0:0:0:
448,192,128935,1,0,0:0:0:0:
64,192,129133,1,0,0:0:0:0:
192,192,129133,1,0,0:0:0:0:
320,192,129166,1,0,0:0:0:0:
192,192,129264,128,0,129330:0:0:0:0:
448,192,129330,128,0,129396:0:0:0:0:
448,192,129462,128,0,129528:0:0:0:0:
320,192,129528,128,0,129593:0:0:0:0:
192,192,129560,1,0,0:0:0:0:
448,192,129725,1,0,0:0:0:0:
64,192,129725,128,0,129791:0:0:0:0:
320,192,129857,1,0,0:0:0:0:
192,192,129922,128,0,129988:0:0:0:0:
448,192,129955,1,0,0:0:0:0:
192,192,130054,128,0,130120:0:0:0:0:
320,192,130120,128,0,130185:0:0:0:0:
64,192,130251,128,0,130317:0:0:0:0:
320,192,130317,1,0,0:0:0:0:
448,192,130317,1,0,0:0:0:0:
192,192,130350,1,0,0:0:0:0:
320,192,130449,128,0,130514:0:0:0:0:
64,192,130514,128,0,130580:0:0:0:0:
448,192,130514,1,0,0:0:0:0:
448,192,130712,1,0,0:0:0:0:
320,192,130712,128,0,130778:0:0:0:0:
64,192,130745,1,0,0:0:0:0:
192,192,130909,128,0,130975:0:0:0:0:
320,192,131107,128,0,131172:0:0:0:0:
192,192,131139,1,0,0:0:0:0:
448,192,131304,1,0,0:0:0:0:
64,192,131304,128,0,131370:0:0:0:0:
192,192,131435,1,0,0:0:0:0:
448,192,131501,128,0,131567:0:0:0:0:
320,192,131534,1,0,0:0:0:0:
192,192,131699,128,0,131764:0:0:0:0:
192,192,131896,1,0,0:0:0:0:
64,192,131896,128,0,131962:0:0:0:0:
448,192,131929,1,0,0:0:0:0:
320,192,132028,128,0,132093:0:0:0:0:
64,192,132093,1,0,0:0:0:0:
448,192,132093,1,0,0:0:0:0:
192,192,132291,1,0,0:0:0:0:
64,192,132291,128,0,132357:0:0:0:0:
320,192,132324,1,0,0:0:0:0:
192,192,132422,128,0,132488:0:0:0:0:
448,192,132488,128,0,132554:0:0:0:0:
448,192,132620,128,0,132685:0:0:0:0:
320,192,132685,128,0,132751:0:0:0:0:
192,192,132718,1,0,0:0:0:0:
448,192,132883,1,0,0:0:0:0:
64,192,132883,128,0,132949:0:0:0:0:
320,192,133014,1,0,0:0:0:0:
64,192,133080,128,0,133146:0:0:0:0:
192,192,133113,1,0,0:0:0:0:
320,192,133212,1,0,0:0:0:0:
448,192,133212,1,0,0:0:0:0:
192,192,133278,128,0,133343:0:0:0:0:
320,192,133409,1,0,0:0:0:0:
448,192,133409,128,0,133475:0:0:0:0:
64,192,133475,1,0,0:0:0:0:
192,192,133508,1,0,0:0:0:0:
320,192,133607,128,0,133672:0:0:0:0:
448,192,133672,1,0,0:0:0:0:
64,192,133672,128,0,133738:0:0:0:0:
320,192,133804,1,0,0:0:0:0:
64,192,133870,1,0,0:0:0:0:
448,192,133903,1,0,0:0:0:0:
192,192,133935,1,0,0:0:0:0:
64,192,134067,128,0,134133:0:0:0:0:
320,192,134264,128,0,134330:0:0:0:0:
448,192,134462,128,0,134528:0:0:0:0:
320,192,134495,1,0,0:0:0:0:
64,192,134528,1,0,0:0:0:0:
192,192,134659,128,0,134725:0:0:0:0:
320,192,134692,1,0,0:0:0:0:
320,192,134857,128,0,134922:0:0:0:0:
448,192,135054,1,0,0:0:0:0:
320,192,135054,1,0,0:0:0:0:
64,192,135087,1,0,0:0:0:0:
192,192,135185,128,0,135251:0:0:0:0:
448,192,135251,1,0,0:0:0:0:
64,192,135251,1,0,0:0:0:0:
448,192,135449,1,0,0:0:0:0:
320,192,135449,1,0,0:0:0:0:
192,192,135482,1,0,0:0:0:0:
320,192,135580,128,0,135646:0:0:0:0:
64,192,135646,128,0,135712:0:0:0:0:
64,192,135778,128,0,135843:0:0:0:0:
192,192,135843,128,0,135909:0:0:0:0:
320,192,135876,1,0,0:0:0:0:
64,192,136041,1,0,0:0:0:0:
448,192,136041,128,0,136107:0:0:0:0:
192,192,136172,1,0,0:0:0:0:
320,192,136238,128,0,136304:0:0:0:0:
64,192,136271,1,0,0:0:0:0:
320,192,136370,128,0,136435:0:0:0:0:
192,192,136435,128,0,136501:0:0:0:0:
448,192,136567,128,0,136633:0:0:0:0:
192,192,136633,1,0,0:0:0:0:
64,192,136633,1,0,0:0:0:0:
320,192,136666,1,0,0:0:0:0:
192,192,136764,128,0,136830:0:0:0:0:
448,192,136830,128,0,136896:0:0:0:0:
64,192,136830,1,0,0:0:0:0:
64,192,137028,1,0,0:0:0:0:
192,192,137028,128,0,137093:0:0:0:0:
448,192,137060,1,0,0:0:0:0:
320,192,137225,128,0,137291:0:0:0:0:
192,192,137422,128,0,137488:0:0:0:0:
320,192,137455,1,0,0:0:0:0:
64,192,137620,1,0,0:0:0:0:
448,192,137620,128,0,137685:0:0:0:0:
320,192,137751,1,0,0:0:0:0:
64,192,137817,128,0,137883:0:0:0:0:
192,192,137850,1,0,0:0:0:0:
320,192,138014,128,0,138080:0:0:0:0:
320,192,138212,1,0,0:0:0:0:
448,192,138212,128,0,138278:0:0:0:0:
64,192,138245,1,0,0:0:0:0:
192,192,138343,128,0,138409:0:0:0:0:
448,192,138409,1,0,0:0:0:0:
64,192,138409,1,0,0:0:0:0:
320,192,138607,1,0,0:0:0:0:
448,192,138607,128,0,138672:0:0:0:0:
192,192,138639,1,0,0:0:0:0:
320,192,138738,128,0,138804:0:0:0:0:
64,192,138804,128,0,138870:0:0:0:0:
64,192,138935,128,0,139001:0:0:0:0:
192,192,139001,128,0,139067:0:0:0:0:
320,192,139034,1,0,0:0:0:0:
64,192,139199,1,0,0:0:0:0:
448,192,139199,128,0,139264:0:0:0:0:
192,192,139330,1,0,0:0:0:0:
448,192,139396,128,0,139462:0:0:0:0:
320,192,139429,1,0,0:0:0:0:
192,192,139528,1,0,0:0:0:0:
64,192,139528,1,0,0:0:0:0:
320,192,139593,128,0,139659:0:0:0:0:
192,192,139725,1,0,0:0:0:0:
64,192,139725,128,0,139791:0:0:0:0:
448,192,139791,1,0,0:0:0:0:
320,192,139824,1,0,0:0:0:0:
192,192,139922,128,0,139988:0:0:0:0:
64,192,139988,1,0,0:0:0:0:
448,192,139988,128,0,140054:0:0:0:0:
320,192,140120,1,0,0:0:0:0:
64,192,140185,128,0,140251:0:0:0:0:
192,192,140185,1,0,0:0:0:0:
320,192,140383,1,0,0:0:0:0:
448,192,140416,1,0,0:0:0:0:
64,192,140449,1,0,0:0:0:0:
192,192,140514,1,0,0:0:0:0:
320,192,140580,128,0,140679:0:0:0:0:
64,192,140778,128,0,140843:0:0:0:0:
192,192,140810,1,0,0:0:0:0:
448,192,140843,1,0,0:0:0:0:
320,192,140975,128,0,141041:0:0:0:0:
192,192,141008,1,0,0:0:0:0:
192,192,141172,128,0,141238:0:0:0:0:
64,192,141370,1,0,0:0:0:0:
192,192,141370,1,0,0:0:0:0:
448,192,141403,1,0,0:0:0:0:
320,192,141501,128,0,141567:0:0:0:0:
64,192,141567,1,0,0:0:0:0:
448,192,141567,1,0,0:0:0:0:
64,192,141764,1,0,0:0:0:0:
192,192,141764,1,0,0:0:0:0:
320,192,141797,1,0,0:0:0:0:
192,192,141896,128,0,141962:0:0:0:0:
448,192,141962,128,0,142028:0:0:0:0:
448,192,142093,128,0,142159:0:0:0:0:
320,192,142159,128,0,142225:0:0:0:0:
192,192,142192,1,0,0:0:0:0:
448,192,142357,1,0,0:0:0:0:
64,192,142357,128,0,142422:0:0:0:0:
320,192,142488,1,0,0:0:0:0:
192,192,142554,128,0,142620:0:0:0:0:
448,192,142587,1,0,0:0:0:0:
192,192,142685,128,0,142751:0:0:0:0:
320,192,142751,128,0,142817:0:0:0:0:
64,192,142883,128,0,142949:0:0:0:0:
320,192,142949,1,0,0:0:0:0:
448,192,142949,1,0,0:0:0:0:
192,192,142982,1,0,0:0:0:0:
320,192,143080,128,0,143146:0:0:0:0:
64,192,143146,128,0,143212:0:0:0:0:
448,192,143146,1,0,0:0:0:0:
448,192,143343,1,0,0:0:0:0:
320,192,143343,128,0,143409:0:0:0:0:
64,192,143376,1,0,0:0:0:0:
192,192,143541,128,0,143607:0:0:0:0:
320,192,143738,128,0,143804:0:0:0:0:
192,192,143771,1,0,0:0:0:0:
448,192,143935,1,0,0:0:0:0:
64,192,143935,128,0,144001:0:0:0:0:
192,192,144067,1,0,0:0:0:0:
448,192,144133,128,0,144199:0:0:0:0:
320,192,144166,1,0,0:0:0:0:
192,192,144330,128,0,144396:0:0:0:0:
192,192,144528,1,0,0:0:0:0:
64,192,144528,128,0,144593:0:0:0:0:
448,192,144560,1,0,0:0:0:0:
320,192,144659,128,0,144725:0:0:0:0:
64,192,144725,1,0,0:0:0:0:
448,192,144725,1,0,0:0:0:0:
192,192,144922,1,0,0:0:0:0:
64,192,144922,128,0,144988:0:0:0:0:
320,192,144955,1,0,0:0:0:0:
192,192,145054,128,0,145120:0:0:0:0:
448,192,145120,128,0,145185:0:0:0:0:
448,192,145251,128,0,145317:0:0:0:0:
320,192,145317,128,0,145383:0:0:0:0:
192,192,145350,1,0,0:0:0:0:
448,192,145514,1,0,0:0:0:0:
64,192,145514,128,0,145580:0:0:0:0:
320,192,145646,1,0,0:0:0:0:
64,192,145712,128,0,145778:0:0:0:0:
192,192,145745,1,0,0:0:0:0:
320,192,145843,1,0,0:0:0:0:
448,192,145843,1,0,0:0:0:0:
192,192,145909,128,0,145975:0:0:0:0:
320,192,146041,1,0,0:0:0:0:
448,192,146041,128,0,146107:0:0:0:0:
64,192,146107,1,0,0:0:0:0:
192,192,146139,1,0,0:0:0:0:
320,192,146238,128,0,146304:0:0:0:0:
448,192,146304,1,0,0:0:0:0:
64,192,146304,128,0,146370:0:0:0:0:
448,192,146501,128,0,146600:0:0:0:0:
320,192,146501,128,0,146600:0:0:0:0:
64,192,146501,128,0,146600:0:0:0:0:
192,192,146699,1,0,0:0:0:0:
320,192,146732,1,0,0:0:0:0:
64,192,146764,1,0,0:0:0:0:
192,192,146830,1,0,0:0:0:0:
448,192,146896,128,0,146995:0:0:0:0:
320,192,146995,128,0,147093:0:0:0:0:
448,192,147093,128,0,147159:0:0:0:0:
192,192,147093,128,0,147159:0:0:0:0:
64,192,147093,128,0,147159:0:0:0:0:
192,192,147291,128,0,147357:0:0:0:0:
320,192,147324,1,0,0:0:0:0:
320,192,147488,128,0,147554:0:0:0:0:
320,192,147685,1,0,0:0:0:0:
448,192,147685,1,0,0:0:0:0:
64,192,147718,1,0,0:0:0:0:
192,192,147817,128,0,147883:0:0:0:0:
64,192,147883,1,0,0:0:0:0:
448,192,147883,1,0,0:0:0:0:
320,192,148080,1,0,0:0:0:0:
448,192,148080,1,0,0:0:0:0:
192,192,148113,1,0,0:0:0:0:
320,192,148212,128,0,148278:0:0:0:0:
64,192,148278,128,0,148343:0:0:0:0:
64,192,148409,128,0,148475:0:0:0:0:
192,192,148475,128,0,148541:0:0:0:0:
320,192,148508,1,0,0:0:0:0:
448,192,148672,128,0,148738:0:0:0:0:
64,192,148672,1,0,0:0:0:0:
192,192,148804,1,0,0:0:0:0:
320,192,148870,128,0,148935:0:0:0:0:
64,192,148903,1,0,0:0:0:0:
320,192,149001,128,0,149067:0:0:0:0:
192,192,149067,128,0,149133:0:0:0:0:
448,192,149199,128,0,149264:0:0:0:0:
64,192,149264,1,0,0:0:0:0:
192,192,149264,1,0,0:0:0:0:
320,192,149297,1,0,0:0:0:0:
192,192,149396,128,0,149462:0:0:0:0:
64,192,149462,1,0,0:0:0:0:
448,192,149462,128,0,149528:0:0:0:0:
192,192,149659,128,0,149725:0:0:0:0:
64,192,149659,1,0,0:0:0:0:
448,192,149692,1,0,0:0:0:0:
320,192,149857,128,0,149922:0:0:0:0:
192,192,150054,128,0,150120:0:0:0:0:
320,192,150087,1,0,0:0:0:0:
448,192,150251,128,0,150317:0:0:0:0:
64,192,150251,1,0,0:0:0:0:
320,192,150383,1,0,0:0:0:0:
64,192,150449,128,0,150514:0:0:0:0:
192,192,150482,1,0,0:0:0:0:
320,192,150646,128,0,150712:0:0:0:0:
448,192,150843,128,0,150909:0:0:0:0:
320,192,150843,1,0,0:0:0:0:
64,192,150876,1,0,0:0:0:0:
192,192,150975,128,0,151041:0:0:0:0:
64,192,151041,1,0,0:0:0:0:
448,192,151041,1,0,0:0:0:0:
448,192,151238,128,0,151304:0:0:0:0:
320,192,151238,1,0,0:0:0:0:
192,192,151271,1,0,0:0:0:0:
320,192,151370,128,0,151435:0:0:0:0:
64,192,151435,128,0,151501:0:0:0:0:
64,192,151567,128,0,151633:0:0:0:0:
192,192,151633,128,0,151699:0:0:0:0:
320,192,151666,1,0,0:0:0:0:
448,192,151830,1,0,0:0:0:0:
320,192,151863,1,0,0:0:0:0:
64,192,151896,1,0,0:0:0:0:
192,192,151962,1,0,0:0:0:0:
320,192,152028,128,0,152126:0:0:0:0:
64,192,152225,1,0,0:0:0:0:
192,192,152258,1,0,0:0:0:0:
448,192,152291,1,0,0:0:0:0:
320,192,152357,1,0,0:0:0:0:
192,192,152422,128,0,152521:0:0:0:0:
320,192,152521,128,0,152620:0:0:0:0:
448,192,152620,128,0,152751:0:0:0:0:
320,192,152751,128,0,152817:0:0:0:0:
192,192,152817,1,0,0:0:0:0:
448,192,153014,1,0,0:0:0:0:
192,192,153014,1,0,0:0:0:0:
64,192,153014,1,0,0:0:0:0:
320,192,153212,1,0,0:0:0:0:
192,192,153409,1,0,0:0:0:0:
64,192,153409,1,0,0:0:0:0:
192,192,153607,1,0,0:0:0:0:
448,192,153738,1,0,0:0:0:0:
320,192,153738,1,0,0:0:0:0:
192,192,154001,1,0,0:0:0:0:
448,192,154199,1,0,0:0:0:0:
64,192,154199,1,0,0:0:0:0:
192,192,154396,1,0,0:0:0:0:
448,192,154593,1,0,0:0:0:0:
320,192,154791,1,0,0:0:0:0:
192,192,154988,1,0,0:0:0:0:
64,192,154988,1,0,0:0:0:0:
64,192,155185,1,0,0:0:0:0:
448,192,155317,1,0,0:0:0:0:
320,192,155317,1,0,0:0:0:0:
192,192,155580,1,0,0:0:0:0:
448,192,155778,1,0,0:0:0:0:
64,192,155778,1,0,0:0:0:0:
192,192,155975,1,0,0:0:0:0:
448,192,156172,1,0,0:0:0:0:
192,192,156370,1,0,0:0:0:0:
448,192,156567,1,0,0:0:0:0:
320,192,156567,1,0,0:0:0:0:
448,192,156764,1,0,0:0:0:0:
192,192,156896,1,0,0:0:0:0:
64,192,156896,1,0,0:0:0:0:
320,192,157159,1,0,0:0:0:0:
64,192,157357,1,0,0:0:0:0:
448,192,157357,1,0,0:0:0:0:
192,192,157554,1,0,0:0:0:0:
448,192,157751,1,0,0:0:0:0:
192,192,157949,1,0,0:0:0:0:
448,192,158146,1,0,0:0:0:0:
64,192,158146,1,0,0:0:0:0:
320,192,158343,1,0,0:0:0:0:
64,192,158475,1,0,0:0:0:0:
448,192,158475,1,0,0:0:0:0:
192,192,158738,1,0,0:0:0:0:
448,192,158935,1,0,0:0:0:0:
64,192,158935,1,0,0:0:0:0:
192,192,159133,1,0,0:0:0:0:
448,192,159330,1,0,0:0:0:0:
64,192,159528,1,0,0:0:0:0:
192,192,159725,1,0,0:0:0:0:
320,192,159725,1,0,0:0:0:0:
320,192,159922,1,0,0:0:0:0:
192,192,160054,1,0,0:0:0:0:
64,192,160054,1,0,0:0:0:0:
320,192,160317,1,0,0:0:0:0:
448,192,160514,1,0,0:0:0:0:
64,192,160514,1,0,0:0:0:0:
320,192,160712,1,0,0:0:0:0:
64,192,160909,1,0,0:0:0:0:
192,192,161107,1,0,0:0:0:0:
320,192,161304,1,0,0:0:0:0:
448,192,161304,1,0,0:0:0:0:
320,192,161501,1,0,0:0:0:0:
64,192,161633,1,0,0:0:0:0:
192,192,161633,1,0,0:0:0:0:
320,192,161896,1,0,0:0:0:0:
64,192,162093,1,0,0:0:0:0:
448,192,162093,1,0,0:0:0:0:
192,192,162291,1,0,0:0:0:0:
448,192,162488,1,0,0:0:0:0:
320,192,162685,1,0,0:0:0:0:
64,192,162883,1,0,0:0:0:0:
192,192,162883,1,0,0:0:0:0:
192,192,163080,1,0,0:0:0:0:
448,192,163212,1,0,0:0:0:0:
320,192,163212,1,0,0:0:0:0:
192,192,163475,1,0,0:0:0:0:
64,192,163672,1,0,0:0:0:0:
448,192,163672,1,0,0:0:0:0:
320,192,163870,1,0,0:0:0:0:
192,192,164067,1,0,0:0:0:0:
320,192,164264,1,0,0:0:0:0:
64,192,164462,1,0,0:0:0:0:
448,192,164462,1,0,0:0:0:0:
192,192,164659,1,0,0:0:0:0:
64,192,164791,1,0,0:0:0:0:
448,192,164791,1,0,0:0:0:0:
320,192,165054,1,0,0:0:0:0:
320,192,165251,1,0,0:0:0:0:
192,192,165251,1,0,0:0:0:0:
192,192,165449,1,0,0:0:0:0:
448,192,165646,1,0,0:0:0:0:
320,192,165646,1,0,0:0:0:0:
64,192,165646,1,0,0:0:0:0:
192,192,165843,1,0,0:0:0:0:
320,192,166041,1,0,0:0:0:0:
192,192,166041,1,0,0:0:0:0:
64,192,166041,1,0,0:0:0:0:
448,192,166238,1,0,0:0:0:0:
192,192,166370,1,0,0:0:0:0:
64,192,166435,1,0,0:0:0:0:
64,192,166567,1,0,0:0:0:0:
192,192,166633,1,0,0:0:0:0:
320,192,166633,1,0,0:0:0:0:
448,192,166830,1,0,0:0:0:0:
192,192,166830,1,0,0:0:0:0:
64,192,166830,1,0,0:0:0:0:
320,192,167028,1,0,0:0:0:0:
448,192,167028,1,0,0:0:0:0:
192,192,167225,1,0,0:0:0:0:
448,192,167357,1,0,0:0:0:0:
64,192,167422,1,0,0:0:0:0:
192,192,167422,1,0,0:0:0:0:
448,192,167620,1,0,0:0:0:0:
64,192,167620,1,0,0:0:0:0:
320,192,167620,1,0,0:0:0:0:
192,192,167817,1,0,0:0:0:0:
448,192,167949,1,0,0:0:0:0:
320,192,168014,1,0,0:0:0:0:
320,192,168146,1,0,0:0:0:0:
192,192,168212,1,0,0:0:0:0:
64,192,168212,1,0,0:0:0:0:
448,192,168409,1,0,0:0:0:0:
320,192,168409,1,0,0:0:0:0:
192,192,168409,1,0,0:0:0:0:
448,192,168607,1,0,0:0:0:0:
64,192,168738,1,0,0:0:0:0:
320,192,168804,1,0,0:0:0:0:
192,192,168804,1,0,0:0:0:0:
192,192,169001,1,0,0:0:0:0:
64,192,169199,1,0,0:0:0:0:
192,192,169199,1,0,0:0:0:0:
320,192,169199,1,0,0:0:0:0:
448,192,169396,1,0,0:0:0:0:
64,192,169528,1,0,0:0:0:0:
320,192,169593,1,0,0:0:0:0:
320,192,169725,1,0,0:0:0:0:
192,192,169791,1,0,0:0:0:0:
64,192,169791,1,0,0:0:0:0:
64,192,169988,1,0,0:0:0:0:
448,192,169988,1,0,0:0:0:0:
320,192,169988,1,0,0:0:0:0:
192,192,170185,1,0,0:0:0:0:
320,192,170185,1,0,0:0:0:0:
64,192,170383,1,0,0:0:0:0:
448,192,170514,1,0,0:0:0:0:
192,192,170580,1,0,0:0:0:0:
320,192,170580,1,0,0:0:0:0:
448,192,170778,1,0,0:0:0:0:
64,192,170778,1,0,0:0:0:0:
320,192,170778,1,0,0:0:0:0:
192,192,170975,1,0,0:0:0:0:
448,192,171107,1,0,0:0:0:0:
64,192,171172,1,0,0:0:0:0:
64,192,171304,1,0,0:0:0:0:
320,192,171370,1,0,0:0:0:0:
192,192,171370,1,0,0:0:0:0:
192,192,171567,1,0,0:0:0:0:
64,192,171567,1,0,0:0:0:0:
448,192,171567,1,0,0:0:0:0:
64,192,171764,1,0,0:0:0:0:
448,192,171896,1,0,0:0:0:0:
192,192,171962,1,0,0:0:0:0:
320,192,171962,1,0,0:0:0:0:
320,192,172159,1,0,0:0:0:0:
192,192,172357,1,0,0:0:0:0:
320,192,172357,1,0,0:0:0:0:
64,192,172357,1,0,0:0:0:0:
448,192,172554,1,0,0:0:0:0:
64,192,172685,1,0,0:0:0:0:
320,192,172751,1,0,0:0:0:0:
320,192,172883,1,0,0:0:0:0:
192,192,172949,1,0,0:0:0:0:
64,192,172949,1,0,0:0:0:0:
448,192,173146,1,0,0:0:0:0:
64,192,173146,1,0,0:0:0:0:
320,192,173146,1,0,0:0:0:0:
320,192,173343,1,0,0:0:0:0:
192,192,173343,1,0,0:0:0:0:
448,192,173541,1,0,0:0:0:0:
64,192,173672,1,0,0:0:0:0:
320,192,173738,1,0,0:0:0:0:
192,192,173738,1,0,0:0:0:0:
448,192,173935,1,0,0:0:0:0:
64,192,173935,1,0,0:0:0:0:
320,192,173935,1,0,0:0:0:0:
192,192,174133,1,0,0:0:0:0:
448,192,174264,1,0,0:0:0:0:
64,192,174330,1,0,0:0:0:0:
320,192,174462,1,0,0:0:0:0:
64,192,174528,1,0,0:0:0:0:
192,192,174528,1,0,0:0:0:0:
448,192,174725,1,0,0:0:0:0:
320,192,174725,1,0,0:0:0:0:
192,192,174725,1,0,0:0:0:0:
64,192,174922,1,0,0:0:0:0:
448,192,175054,1,0,0:0:0:0:
320,192,175120,1,0,0:0:0:0:
192,192,175120,1,0,0:0:0:0:
192,192,175317,1,0,0:0:0:0:
192,192,175514,1,0,0:0:0:0:
64,192,175514,1,0,0:0:0:0:
448,192,175514,1,0,0:0:0:0:
320,192,175712,1,0,0:0:0:0:
64,192,175843,1,0,0:0:0:0:
192,192,175909,1,0,0:0:0:0:
192,192,176041,1,0,0:0:0:0:
320,192,176107,1,0,0:0:0:0:
448,192,176107,1,0,0:0:0:0:
64,192,176304,1,0,0:0:0:0:
192,192,176304,1,0,0:0:0:0:
320,192,176304,1,0,0:0:0:0:
448,192,176501,1,0,0:0:0:0:
64,192,176534,1,0,0:0:0:0:
192,192,176567,1,0,0:0:0:0:
320,192,176896,1,0,0:0:0:0:
448,192,177093,1,0,0:0:0:0:
192,192,177126,1,0,0:0:0:0:
64,192,177291,1,0,0:0:0:0:
320,192,177488,1,0,0:0:0:0:
64,192,177685,1,0,0:0:0:0:
192,192,177883,1,0,0:0:0:0:
448,192,177916,1,0,0:0:0:0:
320,192,178080,1,0,0:0:0:0:
448,192,178278,128,0,178672:0:0:0:0:
192,192,178278,128,0,178376:0:0:0:0:
64,192,178278,128,0,178475:0:0:0:0:
320,192,178672,128,0,179067:0:0:0:0:
64,192,178672,1,0,0:0:0:0:
192,192,179067,128,0,179462:0:0:0:0:
64,192,179067,1,0,0:0:0:0:
64,192,179462,128,0,179857:0:0:0:0:
320,192,179462,1,0,0:0:0:0:
448,192,179857,128,0,180317:0:0:0:0:
320,192,179857,1,0,0:0:0:0:
320,192,180251,128,0,180712:0:0:0:0:
64,192,180251,1,0,0:0:0:0:
192,192,180646,128,0,181107:0:0:0:0:
64,192,180646,1,0,0:0:0:0:
64,192,181041,128,0,181501:0:0:0:0:
448,192,181041,1,0,0:0:0:0:
448,192,181435,128,0,181929:0:0:0:0:
320,192,181435,1,0,0:0:0:0:
320,192,181830,128,0,182324:0:0:0:0:
64,192,181830,1,0,0:0:0:0:
192,192,182225,128,0,182718:0:0:0:0:
64,192,182225,1,0,0:0:0:0:
64,192,182620,128,0,183113:0:0:0:0:
320,192,182620,1,0,0:0:0:0:
448,192,183014,128,0,183541:0:0:0:0:
320,192,183014,1,0,0:0:0:0:
320,192,183409,128,0,183935:0:0:0:0:
64,192,183409,1,0,0:0:0:0:
192,192,183804,128,0,184330:0:0:0:0:
64,192,183804,1,0,0:0:0:0:
64,192,184199,128,0,184725:0:0:0:0:
448,192,184199,1,0,0:0:0:0:
320,192,184593,1,0,0:0:0:0:
192,192,184593,128,0,184791:0:0:0:0:
320,192,184791,128,0,184988:0:0:0:0:
448,192,184791,1,0,0:0:0:0:
448,192,184988,128,0,185185:0:0:0:0:
64,192,184988,1,0,0:0:0:0:
64,192,185185,128,0,185383:0:0:0:0:
192,192,185185,1,0,0:0:0:0:
192,192,185383,128,0,185580:0:0:0:0:
320,192,185383,1,0,0:0:0:0:
320,192,185580,128,0,185778:0:0:0:0:
448,192,185580,1,0,0:0:0:0:
448,192,185778,128,0,185975:0:0:0:0:
192,192,185778,1,0,0:0:0:0:
64,192,185975,128,0,186172:0:0:0:0:
192,192,185975,1,0,0:0:0:0:
192,192,186172,128,0,186370:0:0:0:0:
320,192,186172,1,0,0:0:0:0:
320,192,186370,128,0,186567:0:0:0:0:
448,192,186370,1,0,0:0:0:0:
448,192,186567,128,0,186764:0:0:0:0:
64,192,186567,1,0,0:0:0:0:
64,192,186764,128,0,186962:0:0:0:0:
192,192,186764,1,0,0:0:0:0:
192,192,186962,128,0,187159:0:0:0:0:
320,192,186962,1,0,0:0:0:0:
320,192,187159,128,0,187357:0:0:0:0:
448,192,187159,1,0,0:0:0:0:
448,192,187357,128,0,187554:0:0:0:0:
192,192,187357,1,0,0:0:0:0:
64,192,187554,128,0,187751:0:0:0:0:
320,192,187554,1,0,0:0:0:0:
448,192,187751,1,0,0:0:0:0:
320,192,187751,1,0,0:0:0:0:
192,192,187850,1,0,0:0:0:0:
448,192,187850,1,0,0:0:0:0:
320,192,187949,1,0,0:0:0:0:
64,192,187949,1,0,0:0:0:0:
192,192,188047,1,0,0:0:0:0:
64,192,188047,1,0,0:0:0:0:
320,192,188146,1,0,0:0:0:0:
448,192,188146,1,0,0:0:0:0:
192,192,188245,1,0,0:0:0:0:
320,192,188245,1,0,0:0:0:0:
448,192,188343,1,0,0:0:0:0:
64,192,188343,1,0,0:0:0:0:
320,192,188442,1,0,0:0:0:0:
448,192,188442,1,0,0:0:0:0:
192,192,188541,1,0,0:0:0:0:
64,192,188541,1,0,0:0:0:0:
64,192,188639,1,0,0:0:0:0:
320,192,188639,1,0,0:0:0:0:
192,192,188738,1,0,0:0:0:0:
448,192,188738,1,0,0:0:0:0:
448,192,188837,1,0,0:0:0:0:
320,192,188837,1,0,0:0:0:0:
192,192,188935,1,0,0:0:0:0:
64,192,188935,1,0,0:0:0:0:
320,192,189034,1,0,0:0:0:0:
192,192,189034,1,0,0:0:0:0:
448,192,189133,1,0,0:0:0:0:
64,192,189133,1,0,0:0:0:0:
64,192,189232,1,0,0:0:0:0:
192,192,189232,1,0,0:0:0:0:
448,192,189330,1,0,0:0:0:0:
320,192,189330,1,0,0:0:0:0:
192,192,189363,1,0,0:0:0:0:
64,192,189396,1,0,0:0:0:0:
320,192,189528,1,0,0:0:0:0:
448,192,189528,1,0,0:0:0:0:
64,192,189626,1,0,0:0:0:0:
192,192,189626,1,0,0:0:0:0:
192,192,189725,1,0,0:0:0:0:
448,192,189725,1,0,0:0:0:0:
448,192,189824,1,0,0:0:0:0:
320,192,189922,1,0,0:0:0:0:
192,192,190021,1,0,0:0:0:0:
64,192,190120,1,0,0:0:0:0:
192,192,190120,1,0,0:0:0:0:
64,192,190218,1,0,0:0:0:0:
192,192,190317,1,0,0:0:0:0:
320,192,190416,1,0,0:0:0:0:
64,192,190514,128,0,190810:0:0:0:0:
192,192,190514,128,0,190909:0:0:0:0:
448,192,190514,128,0,190810:0:0:0:0:
320,192,190712,128,0,190843:0:0:0:0:
448,192,190909,128,0,191107:0:0:0:0:
320,192,190909,128,0,191041:0:0:0:0:
64,192,190909,128,0,191008:0:0:0:0:
192,192,191008,128,0,191074:0:0:0:0:
320,192,191107,128,0,191205:0:0:0:0:
64,192,191304,1,0,0:0:0:0:
448,192,191304,1,0,0:0:0:0:
320,192,191304,1,0,0:0:0:0:
192,192,191403,1,0,0:0:0:0:
192,192,191501,128,0,191633:0:0:0:0:
448,192,191633,1,0,0:0:0:0:
64,192,191699,1,0,0:0:0:0:
320,192,191699,128,0,191896:0:0:0:0:
192,192,191830,1,0,0:0:0:0:
448,192,191896,128,0,191995:0:0:0:0:
64,192,192028,128,0,192159:0:0:0:0:
448,192,192093,1,0,0:0:0:0:
192,192,192093,1,0,0:0:0:0:
320,192,192093,1,0,0:0:0:0:
320,192,192225,128,0,192357:0:0:0:0:
192,192,192291,128,0,192488:0:0:0:0:
448,192,192488,1,0,0:0:0:0:
64,192,192488,1,0,0:0:0:0:
320,192,192587,1,0,0:0:0:0:
320,192,192685,1,0,0:0:0:0:
320,192,192883,1,0,0:0:0:0:
64,192,192883,1,0,0:0:0:0:
448,192,192883,1,0,0:0:0:0:
192,192,192982,1,0,0:0:0:0:
320,192,193080,128,0,193212:0:0:0:0:
192,192,193146,128,0,193541:0:0:0:0:
64,192,193212,1,0,0:0:0:0:
320,192,193278,1,0,0:0:0:0:
448,192,193278,1,0,0:0:0:0:
64,192,193409,1,0,0:0:0:0:
320,192,193475,128,0,193607:0:0:0:0:
448,192,193672,128,0,193738:0:0:0:0:
320,192,193672,128,0,193771:0:0:0:0:
192,192,193672,1,0,0:0:0:0:
64,192,193771,1,0,0:0:0:0:
64,192,193870,128,0,193935:0:0:0:0:
192,192,193870,128,0,193968:0:0:0:0:
448,192,194067,128,0,194264:0:0:0:0:
320,192,194067,128,0,194166:0:0:0:0:
64,192,194199,1,0,0:0:0:0:
192,192,194264,1,0,0:0:0:0:
320,192,194363,128,0,194560:0:0:0:0:
448,192,194462,1,0,0:0:0:0:
64,192,194462,1,0,0:0:0:0:
192,192,194462,128,0,194725:0:0:0:0:
320,192,194659,128,0,194889:0:0:0:0:
64,192,194791,1,0,0:0:0:0:
192,192,194857,1,0,0:0:0:0:
448,192,194857,1,0,0:0:0:0:
192,192,194955,1,0,0:0:0:0:
64,192,195054,1,0,0:0:0:0:
64,192,195251,1,0,0:0:0:0:
448,192,195251,1,0,0:0:0:0:
320,192,195251,128,0,195383:0:0:0:0:
192,192,195350,1,0,0:0:0:0:
192,192,195449,128,0,195646:0:0:0:0:
320,192,195580,1,0,0:0:0:0:
64,192,195646,1,0,0:0:0:0:
448,192,195646,128,0,195712:0:0:0:0:
192,192,195778,128,0,195909:0:0:0:0:
448,192,195843,128,0,195942:0:0:0:0:
192,192,196041,128,0,196172:0:0:0:0:
64,192,196041,1,0,0:0:0:0:
320,192,196041,128,0,196304:0:0:0:0:
448,192,196172,1,0,0:0:0:0:
192,192,196238,1,0,0:0:0:0:
320,192,196370,1,0,0:0:0:0:
448,192,196435,1,0,0:0:0:0:
64,192,196435,128,0,196501:0:0:0:0:
192,192,196567,128,0,196699:0:0:0:0:
64,192,196633,128,0,196732:0:0:0:0:
320,192,196830,1,0,0:0:0:0:
448,192,196830,1,0,0:0:0:0:
192,192,196830,128,0,196962:0:0:0:0:
64,192,196962,1,0,0:0:0:0:
320,192,197028,128,0,197159:0:0:0:0:
192,192,197159,1,0,0:0:0:0:
64,192,197225,1,0,0:0:0:0:
448,192,197225,1,0,0:0:0:0:
64,192,197324,1,0,0:0:0:0:
192,192,197422,1,0,0:0:0:0:
192,192,197620,1,0,0:0:0:0:
64,192,197620,1,0,0:0:0:0:
448,192,197620,1,0,0:0:0:0:
320,192,197718,1,0,0:0:0:0:
320,192,197817,128,0,197916:0:0:0:0:
192,192,197949,1,0,0:0:0:0:
64,192,198014,128,0,198212:0:0:0:0:
448,192,198014,128,0,198113:0:0:0:0:
320,192,198113,1,0,0:0:0:0:
192,192,198212,1,0,0:0:0:0:
192,192,198310,128,0,198508:0:0:0:0:
64,192,198409,1,0,0:0:0:0:
448,192,198409,128,0,198672:0:0:0:0:
320,192,198409,1,0,0:0:0:0:
192,192,198607,128,0,198804:0:0:0:0:
448,192,198738,1,0,0:0:0:0:
64,192,198804,1,0,0:0:0:0:
320,192,198804,1,0,0:0:0:0:
320,192,198903,1,0,0:0:0:0:
192,192,199001,1,0,0:0:0:0:
448,192,199199,1,0,0:0:0:0:
64,192,199199,1,0,0:0:0:0:
320,192,199199,1,0,0:0:0:0:
64,192,199297,1,0,0:0:0:0:
192,192,199396,128,0,199593:0:0:0:0:
320,192,199528,1,0,0:0:0:0:
448,192,199593,128,0,199692:0:0:0:0:
64,192,199593,128,0,199791:0:0:0:0:
192,192,199692,1,0,0:0:0:0:
448,192,199791,1,0,0:0:0:0:
448,192,199889,128,0,200087:0:0:0:0:
192,192,199988,1,0,0:0:0:0:
320,192,199988,128,0,200251:0:0:0:0:
64,192,199988,1,0,0:0:0:0:
192,192,200185,128,0,200383:0:0:0:0:
320,192,200317,1,0,0:0:0:0:
448,192,200383,1,0,0:0:0:0:
64,192,200383,1,0,0:0:0:0:
64,192,200482,1,0,0:0:0:0:
320,192,200580,1,0,0:0:0:0:
192,192,200712,128,0,200909:0:0:0:0:
64,192,200778,1,0,0:0:0:0:
320,192,200778,128,0,200975:0:0:0:0:
192,192,200975,128,0,201074:0:0:0:0:
64,192,201041,128,0,201107:0:0:0:0:
64,192,201172,1,0,0:0:0:0:
192,192,201172,128,0,201370:0:0:0:0:
320,192,201271,1,0,0:0:0:0:
320,192,201370,1,0,0:0:0:0:
192,192,201501,128,0,201666:0:0:0:0:
448,192,201567,1,0,0:0:0:0:
320,192,201567,128,0,201699:0:0:0:0:
64,192,201764,1,0,0:0:0:0:
192,192,201863,128,0,202028:0:0:0:0:
448,192,201962,1,0,0:0:0:0:
64,192,201962,128,0,202093:0:0:0:0:
320,192,202093,1,0,0:0:0:0:
192,192,202159,128,0,202291:0:0:0:0:
448,192,202291,1,0,0:0:0:0:
64,192,202357,128,0,202488:0:0:0:0:
192,192,202357,128,0,202422:0:0:0:0:
320,192,202422,128,0,202488:0:0:0:0:
448,192,202488,128,0,202554:0:0:0:0:
320,192,202554,128,0,202653:0:0:0:0:
192,192,202620,128,0,202685:0:0:0:0:
64,192,202685,128,0,202850:0:0:0:0:
448,192,202751,1,0,0:0:0:0:
320,192,202751,1,0,0:0:0:0:
192,192,202850,1,0,0:0:0:0:
192,192,202949,1,0,0:0:0:0:
64,192,203146,1,0,0:0:0:0:
320,192,203146,1,0,0:0:0:0:
448,192,203146,128,0,203278:0:0:0:0:
192,192,203343,128,0,203475:0:0:0:0:
320,192,203475,1,0,0:0:0:0:
64,192,203541,128,0,203738:0:0:0:0:
192,192,203541,128,0,203672:0:0:0:0:
448,192,203541,128,0,203639:0:0:0:0:
320,192,203639,128,0,203705:0:0:0:0:
192,192,203738,128,0,203837:0:0:0:0:
64,192,203935,1,0,0:0:0:0:
448,192,203935,1,0,0:0:0:0:
320,192,203935,1,0,0:0:0:0:
192,192,204034,1,0,0:0:0:0:
192,192,204133,128,0,204264:0:0:0:0:
448,192,204264,1,0,0:0:0:0:
64,192,204330,1,0,0:0:0:0:
320,192,204330,128,0,204528:0:0:0:0:
192,192,204462,1,0,0:0:0:0:
448,192,204528,128,0,204626:0:0:0:0:
64,192,204659,128,0,204791:0:0:0:0:
448,192,204725,1,0,0:0:0:0:
192,192,204725,1,0,0:0:0:0:
320,192,204725,1,0,0:0:0:0:
320,192,204857,128,0,204988:0:0:0:0:
192,192,204922,128,0,205120:0:0:0:0:
448,192,205120,1,0,0:0:0:0:
64,192,205120,1,0,0:0:0:0:
64,192,205218,1,0,0:0:0:0:
192,192,205317,1,0,0:0:0:0:
320,192,205514,1,0,0:0:0:0:
64,192,205514,1,0,0:0:0:0:
448,192,205514,1,0,0:0:0:0:
448,192,205613,1,0,0:0:0:0:
320,192,205712,128,0,205843:0:0:0:0:
192,192,205778,128,0,206172:0:0:0:0:
64,192,205843,1,0,0:0:0:0:
448,192,205909,1,0,0:0:0:0:
320,192,205909,1,0,0:0:0:0:
64,192,206041,1,0,0:0:0:0:
320,192,206107,128,0,206238:0:0:0:0:
448,192,206304,128,0,206370:0:0:0:0:
320,192,206304,128,0,206403:0:0:0:0:
64,192,206304,1,0,0:0:0:0:
192,192,206403,1,0,0:0:0:0:
192,192,206501,128,0,206600:0:0:0:0:
64,192,206699,128,0,206797:0:0:0:0:
320,192,206699,128,0,206896:0:0:0:0:
448,192,206830,1,0,0:0:0:0:
192,192,206896,1,0,0:0:0:0:
320,192,206995,128,0,207192:0:0:0:0:
448,192,207093,1,0,0:0:0:0:
64,192,207093,1,0,0:0:0:0:
192,192,207093,128,0,207225:0:0:0:0:
64,192,207291,128,0,207488:0:0:0:0:
192,192,207422,1,0,0:0:0:0:
448,192,207488,1,0,0:0:0:0:
320,192,207488,1,0,0:0:0:0:
192,192,207587,1,0,0:0:0:0:
192,192,207685,1,0,0:0:0:0:
64,192,207883,1,0,0:0:0:0:
448,192,207883,1,0,0:0:0:0:
192,192,207883,128,0,207982:0:0:0:0:
320,192,207982,1,0,0:0:0:0:
320,192,208080,128,0,208278:0:0:0:0:
64,192,208212,1,0,0:0:0:0:
448,192,208278,128,0,208343:0:0:0:0:
192,192,208278,1,0,0:0:0:0:
320,192,208409,128,0,208541:0:0:0:0:
448,192,208475,128,0,208574:0:0:0:0:
192,192,208672,1,0,0:0:0:0:
320,192,208672,128,0,208804:0:0:0:0:
64,192,208672,128,0,208968:0:0:0:0:
448,192,208804,1,0,0:0:0:0:
192,192,208870,1,0,0:0:0:0:
320,192,209001,1,0,0:0:0:0:
64,192,209067,128,0,209133:0:0:0:0:
448,192,209067,1,0,0:0:0:0:
192,192,209199,128,0,209330:0:0:0:0:
64,192,209264,128,0,209363:0:0:0:0:
320,192,209462,1,0,0:0:0:0:
448,192,209462,1,0,0:0:0:0:
192,192,209462,128,0,209593:0:0:0:0:
64,192,209593,1,0,0:0:0:0:
320,192,209659,128,0,209791:0:0:0:0:
192,192,209791,1,0,0:0:0:0:
64,192,209857,1,0,0:0:0:0:
448,192,209857,1,0,0:0:0:0:
64,192,209955,1,0,0:0:0:0:
192,192,210054,1,0,0:0:0:0:
192,192,210251,1,0,0:0:0:0:
64,192,210251,1,0,0:0:0:0:
448,192,210251,1,0,0:0:0:0:
320,192,210350,1,0,0:0:0:0:
320,192,210449,128,0,210547:0:0:0:0:
192,192,210580,1,0,0:0:0:0:
64,192,210646,128,0,210843:0:0:0:0:
448,192,210646,128,0,210745:0:0:0:0:
320,192,210745,1,0,0:0:0:0:
192,192,210843,1,0,0:0:0:0:
192,192,210942,128,0,211139:0:0:0:0:
64,192,211041,1,0,0:0:0:0:
448,192,211041,128,0,211304:0:0:0:0:
320,192,211041,1,0,0:0:0:0:
192,192,211238,128,0,211435:0:0:0:0:
448,192,211370,1,0,0:0:0:0:
64,192,211435,1,0,0:0:0:0:
320,192,211435,1,0,0:0:0:0:
64,192,211534,1,0,0:0:0:0:
192,192,211633,1,0,0:0:0:0:
448,192,211830,1,0,0:0:0:0:
64,192,211830,1,0,0:0:0:0:
320,192,211830,1,0,0:0:0:0:
320,192,211929,1,0,0:0:0:0:
192,192,212028,128,0,212225:0:0:0:0:
320,192,212159,1,0,0:0:0:0:
64,192,212225,128,0,212324:0:0:0:0:
448,192,212225,128,0,212422:0:0:0:0:
320,192,212324,1,0,0:0:0:0:
64,192,212422,1,0,0:0:0:0:
64,192,212521,128,0,212718:0:0:0:0:
448,192,212620,1,0,0:0:0:0:
192,192,212620,128,0,212883:0:0:0:0:
320,192,212620,1,0,0:0:0:0:
320,192,212817,128,0,213014:0:0:0:0:
64,192,212949,1,0,0:0:0:0:
192,192,213014,1,0,0:0:0:0:
448,192,213014,1,0,0:0:0:0:
320,192,213113,5,0,0:0:0:0:
320,192,213212,1,0,0:0:0:0:
192,192,213343,128,0,213541:0:0:0:0:
320,192,213409,128,0,213607:0:0:0:0:
448,192,213409,1,0,0:0:0:0:
192,192,213607,128,0,213705:0:0:0:0:
64,192,213672,128,0,213738:0:0:0:0:
64,192,213804,1,0,0:0:0:0:
192,192,213804,128,0,214001:0:0:0:0:
320,192,213903,1,0,0:0:0:0:
320,192,214001,1,0,0:0:0:0:
448,192,214100,128,0,214297:0:0:0:0:
192,192,214199,1,0,0:0:0:0:
320,192,214199,128,0,214330:0:0:0:0:
64,192,214199,1,0,0:0:0:0:
192,192,214396,128,0,214593:0:0:0:0:
64,192,214593,1,0,0:0:0:0:
448,192,214626,1,0,0:0:0:0:
320,192,214659,1,0,0:0:0:0:
192,192,214692,128,0,214857:0:0:0:0:
320,192,214791,128,0,214988:0:0:0:0:
192,192,214988,1,0,0:0:0:0:
64,192,215021,1,0,0:0:0:0:
448,192,215054,1,0,0:0:0:0:
320,192,215087,1,0,0:0:0:0:
192,192,215185,128,0,215251:0:0:0:0:
192,192,215317,128,0,215514:0:0:0:0:
320,192,215383,1,0,0:0:0:0:
448,192,215449,1,0,0:0:0:0:
64,192,215482,1,0,0:0:0:0:
320,192,215580,128,0,215975:0:0:0:0:
192,192,215778,1,0,0:0:0:0:
64,192,215843,1,0,0:0:0:0:
448,192,215876,1,0,0:0:0:0:
192,192,215975,1,0,0:0:0:0:
320,192,216172,1,0,0:0:0:0:
448,192,216172,1,0,0:0:0:0:
64,192,216172,1,0,0:0:0:0:
192,192,216567,1,0,0:0:0:0:
320,192,216962,1,0,0:0:0:0:
192,192,217357,1,0,0:0:0:0:
64,192,217554,1,0,0:0:0:0:
320,192,217751,1,0,0:0:0:0:
192,192,217949,1,0,0:0:0:0:
448,192,218146,1,0,0:0:0:0:
320,192,218541,1,0,0:0:0:0:
64,192,218738,1,0,0:0:0:0:
192,192,218935,1,0,0:0:0:0:
64,192,219133,1,0,0:0:0:0:
320,192,219330,1,0,0:0:0:0:
192,192,219725,1,0,0:0:0:0:
448,192,219922,1,0,0:0:0:0:
192,192,220120,1,0,0:0:0:0:
320,192,220317,1,0,0:0:0:0:
64,192,220514,1,0,0:0:0:0:
64,192,220712,1,0,0:0:0:0:
192,192,220909,1,0,0:0:0:0:
448,192,220909,1,0,0:0:0:0:
320,192,221107,1,0,0:0:0:0:
448,192,221304,1,0,0:0:0:0:
64,192,221304,1,0,0:0:0:0:
192,192,221501,1,0,0:0:0:0:
64,192,221699,1,0,0:0:0:0:
320,192,221699,1,0,0:0:0:0:
192,192,221896,1,0,0:0:0:0:
448,192,222093,1,0,0:0:0:0:
64,192,222093,1,0,0:0:0:0:
64,192,222488,1,0,0:0:0:0:
448,192,222488,1,0,0:0:0:0:
320,192,222488,1,0,0:0:0:0:
64,192,222685,1,0,0:0:0:0:
64,192,222883,1,0,0:0:0:0:
192,192,222883,1,0,0:0:0:0:
320,192,222883,1,0,0:0:0:0:
192,192,223080,1,0,0:0:0:0:
448,192,223278,1,0,0:0:0:0:
320,192,223278,1,0,0:0:0:0:
192,192,223278,1,0,0:0:0:0:
320,192,223475,1,0,0:0:0:0:
448,192,223672,1,0,0:0:0:0:
64,192,223672,1,0,0:0:0:0:
320,192,223672,1,0,0:0:0:0:
448,192,223870,1,0,0:0:0:0:
192,192,224067,1,0,0:0:0:0:
448,192,224067,1,0,0:0:0:0:
320,192,224067,1,0,0:0:0:0:
320,192,224264,1,0,0:0:0:0:
192,192,224462,5,0,0:0:0:0:
320,192,224462,1,0,0:0:0:0:
64,192,224462,1,0,0:0:0:0:
192,192,224659,1,0,0:0:0:0:
448,192,224857,1,0,0:0:0:0:
192,192,224857,1,0,0:0:0:0:
64,192,224857,1,0,0:0:0:0:
64,192,225054,1,0,0:0:0:0:
320,192,225251,1,0,0:0:0:0:
192,192,225251,1,0,0:0:0:0:
64,192,225251,1,0,0:0:0:0:
192,192,225449,1,0,0:0:0:0:
320,192,225646,1,0,0:0:0:0:
192,192,225646,1,0,0:0:0:0:
320,192,225745,1,0,0:0:0:0:
64,192,225759,1,0,0:0:0:0:
320,192,225843,1,0,0:0:0:0:
448,192,225843,1,0,0:0:0:0:
192,192,225942,1,0,0:0:0:0:
320,192,226041,1,0,0:0:0:0:
192,192,226041,1,0,0:0:0:0:
192,192,226139,1,0,0:0:0:0:
64,192,226154,1,0,0:0:0:0:
448,192,226238,1,0,0:0:0:0:
320,192,226238,1,0,0:0:0:0:
320,192,226337,1,0,0:0:0:0:
448,192,226435,1,0,0:0:0:0:
192,192,226435,1,0,0:0:0:0:
320,192,226534,1,0,0:0:0:0:
448,192,226548,1,0,0:0:0:0:
64,192,226633,1,0,0:0:0:0:
192,192,226633,1,0,0:0:0:0:
64,192,226732,1,0,0:0:0:0:
448,192,226830,1,0,0:0:0:0:
320,192,226830,1,0,0:0:0:0:
192,192,226929,1,0,0:0:0:0:
64,192,227028,1,0,0:0:0:0:
320,192,227028,1,0,0:0:0:0:
192,192,227077,1,0,0:0:0:0:
64,192,227126,1,0,0:0:0:0:
320,192,227176,1,0,0:0:0:0:
192,192,227225,1,0,0:0:0:0:
320,192,227291,1,0,0:0:0:0:
448,192,227357,1,0,0:0:0:0:
448,192,227488,1,0,0:0:0:0:
320,192,227620,1,0,0:0:0:0:
448,192,227653,128,0,227784:0:0:0:0:
192,192,228212,128,0,228278:0:0:0:0:
64,192,228245,128,0,228376:0:0:0:0:
448,192,228409,1,0,0:0:0:0:
320,192,228442,128,0,228508:0:0:0:0:
192,192,228475,128,0,228541:0:0:0:0:
64,192,228541,128,0,228639:0:0:0:0:
192,192,228607,128,0,228672:0:0:0:0:
320,192,228639,128,0,228705:0:0:0:0:
448,192,228672,128,0,228738:0:0:0:0:
448,192,228804,128,0,229067:0:0:0:0:
192,192,228804,128,0,228935:0:0:0:0:
320,192,228837,128,0,229100:0:0:0:0:
64,192,228870,128,0,229133:0:0:0:0:
192,192,229199,128,0,229495:0:0:0:0:
448,192,229199,1,0,0:0:0:0:
320,192,229396,128,0,229528:0:0:0:0:
448,192,229528,128,0,229758:0:0:0:0:
192,192,229593,1,0,0:0:0:0:
320,192,229791,1,0,0:0:0:0:
192,192,229988,1,0,0:0:0:0:
448,192,230120,128,0,230185:0:0:0:0:
64,192,230185,128,0,230482:0:0:0:0:
192,192,230218,128,0,230547:0:0:0:0:
320,192,230251,128,0,230514:0:0:0:0:
64,192,230580,128,0,230646:0:0:0:0:
64,192,230712,128,0,230843:0:0:0:0:
64,192,230909,128,0,230975:0:0:0:0:
448,192,230975,128,0,231041:0:0:0:0:
64,192,231008,128,0,231074:0:0:0:0:
320,192,231172,128,0,231238:0:0:0:0:
192,192,231337,128,0,231468:0:0:0:0:
64,192,231370,128,0,231435:0:0:0:0:
320,192,231403,128,0,231501:0:0:0:0:
448,192,231435,128,0,231534:0:0:0:0:
192,192,231567,1,0,0:0:0:0:
64,192,231567,1,0,0:0:0:0:
320,192,231764,128,0,232291:0:0:0:0:
192,192,231764,128,0,232291:0:0:0:0:
448,192,231797,128,0,232093:0:0:0:0:
64,192,231830,128,0,232324:0:0:0:0:
448,192,232159,1,0,0:0:0:0:
448,192,232357,128,0,232455:0:0:0:0:
192,192,232389,128,0,232488:0:0:0:0:
64,192,232422,128,0,232653:0:0:0:0:
448,192,232554,1,0,0:0:0:0:
320,192,232685,128,0,232817:0:0:0:0:
448,192,232751,128,0,232883:0:0:0:0:
64,192,232817,128,0,232949:0:0:0:0:
192,192,232883,128,0,233014:0:0:0:0:
320,192,232949,128,0,233080:0:0:0:0:
192,192,233146,128,0,233212:0:0:0:0:
448,192,233179,128,0,233278:0:0:0:0:
64,192,233343,128,0,233672:0:0:0:0:
320,192,233343,128,0,233672:0:0:0:0:
192,192,233376,128,0,233639:0:0:0:0:
448,192,233409,128,0,233705:0:0:0:0:
192,192,233738,128,0,233837:0:0:0:0:
448,192,233935,128,0,234100:0:0:0:0:
192,192,233968,128,0,234034:0:0:0:0:
64,192,234001,128,0,234067:0:0:0:0:
320,192,234133,128,0,234199:0:0:0:0:
192,192,234232,1,0,0:0:0:0:
320,192,234264,1,0,0:0:0:0:
448,192,234330,128,0,234626:0:0:0:0:
64,192,234330,128,0,234626:0:0:0:0:
320,192,234363,128,0,234692:0:0:0:0:
192,192,234396,128,0,234659:0:0:0:0:
192,192,234725,128,0,234988:0:0:0:0:
448,192,234725,128,0,234988:0:0:0:0:
320,192,234758,128,0,234955:0:0:0:0:
64,192,234791,128,0,235021:0:0:0:0:
448,192,235054,128,0,235350:0:0:0:0:
320,192,235054,128,0,235251:0:0:0:0:
192,192,235087,128,0,235416:0:0:0:0:
64,192,235120,128,0,235383:0:0:0:0:
320,192,235317,1,0,0:0:0:0:
448,192,235449,1,0,0:0:0:0:
320,192,235712,1,0,0:0:0:0:
64,192,235712,1,0,0:0:0:0:
192,192,235909,1,0,0:0:0:0:
448,192,236107,1,0,0:0:0:0:
64,192,236107,1,0,0:0:0:0:
320,192,236238,128,0,236304:0:0:0:0:
192,192,236271,128,0,236337:0:0:0:0:
64,192,236304,128,0,236403:0:0:0:0:
448,192,236403,128,0,236468:0:0:0:0:
192,192,236501,128,0,236797:0:0:0:0:
64,192,236501,128,0,236797:0:0:0:0:
320,192,236534,128,0,236830:0:0:0:0:
448,192,236567,128,0,236863:0:0:0:0:
192,192,236896,128,0,236962:0:0:0:0:
64,192,236929,1,0,0:0:0:0:
64,192,237093,128,0,237192:0:0:0:0:
448,192,237093,1,0,0:0:0:0:
320,192,237192,128,0,237291:0:0:0:0:
192,192,237291,128,0,237357:0:0:0:0:
448,192,237422,128,0,237554:0:0:0:0:
320,192,237620,128,0,237784:0:0:0:0:
448,192,237653,128,0,237784:0:0:0:0:
64,192,237685,128,0,237784:0:0:0:0:
192,192,237685,128,0,237817:0:0:0:0:
448,192,237883,128,0,237949:0:0:0:0:
320,192,237883,128,0,237949:0:0:0:0:
192,192,237916,128,0,238014:0:0:0:0:
320,192,238080,128,0,238409:0:0:0:0:
64,192,238080,128,0,238574:0:0:0:0:
192,192,238113,128,0,238541:0:0:0:0:
448,192,238113,128,0,238607:0:0:0:0:
320,192,238475,1,0,0:0:0:0:
448,192,238672,128,0,238771:0:0:0:0:
192,192,238705,128,0,238804:0:0:0:0:
64,192,238738,128,0,238935:0:0:0:0:
448,192,238870,1,0,0:0:0:0:
192,192,239001,128,0,239133:0:0:0:0:
64,192,239067,128,0,239199:0:0:0:0:
448,192,239133,128,0,239264:0:0:0:0:
320,192,239199,128,0,239330:0:0:0:0:
192,192,239264,128,0,239396:0:0:0:0:
448,192,239396,128,0,239462:0:0:0:0:
64,192,239462,1,0,0:0:0:0:
320,192,239462,128,0,239528:0:0:0:0:
448,192,239528,128,0,239593:0:0:0:0:
192,192,239659,128,0,240218:0:0:0:0:
64,192,239659,128,0,240153:0:0:0:0:
320,192,239692,128,0,240185:0:0:0:0:
448,192,239725,128,0,240153:0:0:0:0:
448,192,240251,128,0,240580:0:0:0:0:
64,192,240251,128,0,240547:0:0:0:0:
320,192,240284,128,0,240613:0:0:0:0:
192,192,240317,128,0,240580:0:0:0:0:
192,192,240646,128,0,241008:0:0:0:0:
64,192,240646,128,0,240975:0:0:0:0:
320,192,240679,128,0,240975:0:0:0:0:
448,192,240712,128,0,240942:0:0:0:0:
64,192,241041,1,0,0:0:0:0:
320,192,241041,1,0,0:0:0:0:
448,192,241370,1,0,0:0:0:0:
64,192,241435,128,0,241699:0:0:0:0:
320,192,241435,128,0,241567:0:0:0:0:
192,192,241468,128,0,241732:0:0:0:0:
448,192,241501,128,0,241764:0:0:0:0:
320,192,241633,1,0,0:0:0:0:
320,192,241830,128,0,242126:0:0:0:0:
64,192,241830,1,0,0:0:0:0:
192,192,242028,128,0,242159:0:0:0:0:
64,192,242159,128,0,242389:0:0:0:0:
448,192,242225,1,0,0:0:0:0:
192,192,242422,1,0,0:0:0:0:
64,192,242620,1,0,0:0:0:0:
320,192,242620,1,0,0:0:0:0:
192,192,242751,1,0,0:0:0:0:
448,192,242817,128,0,243113:0:0:0:0:
64,192,242817,128,0,243113:0:0:0:0:
320,192,242850,128,0,243146:0:0:0:0:
192,192,242883,128,0,243179:0:0:0:0:
448,192,243212,128,0,243278:0:0:0:0:
448,192,243343,128,0,243409:0:0:0:0:
320,192,243409,1,0,0:0:0:0:
64,192,243409,128,0,243475:0:0:0:0:
448,192,243541,128,0,243607:0:0:0:0:
192,192,243607,1,0,0:0:0:0:
320,192,243738,1,0,0:0:0:0:
192,192,243804,128,0,243903:0:0:0:0:
64,192,244001,128,0,244100:0:0:0:0:
192,192,244034,128,0,244133:0:0:0:0:
448,192,244067,128,0,244166:0:0:0:0:
320,192,244199,1,0,0:0:0:0:
64,192,244199,1,0,0:0:0:0:
64,192,244396,128,0,244889:0:0:0:0:
192,192,244396,128,0,244692:0:0:0:0:
320,192,244429,128,0,244922:0:0:0:0:
448,192,244462,128,0,244857:0:0:0:0:
192,192,244791,1,0,0:0:0:0:
64,192,244988,128,0,245087:0:0:0:0:
320,192,245021,128,0,245120:0:0:0:0:
448,192,245054,128,0,245251:0:0:0:0:
192,192,245185,1,0,0:0:0:0:
320,192,245317,128,0,245383:0:0:0:0:
192,192,245383,128,0,245449:0:0:0:0:
64,192,245449,128,0,245580:0:0:0:0:
320,192,245580,128,0,245712:0:0:0:0:
320,192,245778,128,0,245843:0:0:0:0:
448,192,245778,128,0,245876:0:0:0:0:
320,192,245975,128,0,246337:0:0:0:0:
64,192,245975,128,0,246107:0:0:0:0:
192,192,246008,128,0,246304:0:0:0:0:
448,192,246041,128,0,246238:0:0:0:0:
64,192,246172,128,0,246337:0:0:0:0:
448,192,246370,128,0,246468:0:0:0:0:
320,192,246468,128,0,246567:0:0:0:0:
448,192,246567,1,0,0:0:0:0:
192,192,246567,128,0,246666:0:0:0:0:
320,192,246666,128,0,246764:0:0:0:0:
192,192,246764,128,0,246830:0:0:0:0:
64,192,246797,128,0,246863:0:0:0:0:
320,192,246896,128,0,247093:0:0:0:0:
448,192,246896,128,0,247126:0:0:0:0:
192,192,246929,128,0,247060:0:0:0:0:
64,192,246962,128,0,247093:0:0:0:0:
64,192,247159,128,0,247291:0:0:0:0:
192,192,247159,128,0,247258:0:0:0:0:
320,192,247192,128,0,247291:0:0:0:0:
448,192,247225,128,0,247324:0:0:0:0:
64,192,247357,128,0,247620:0:0:0:0:
320,192,247357,128,0,247554:0:0:0:0:
192,192,247389,128,0,247587:0:0:0:0:
448,192,247422,128,0,247620:0:0:0:0:
64,192,247685,128,0,247850:0:0:0:0:
448,192,247685,128,0,247817:0:0:0:0:
320,192,247718,128,0,247850:0:0:0:0:
192,192,247751,128,0,247883:0:0:0:0:
320,192,247949,128,0,248047:0:0:0:0:
448,192,247982,128,0,248080:0:0:0:0:
64,192,248146,128,0,248343:0:0:0:0:
448,192,248146,128,0,248343:0:0:0:0:
320,192,248179,128,0,248442:0:0:0:0:
192,192,248212,128,0,248442:0:0:0:0:
192,192,248541,128,0,248738:0:0:0:0:
448,192,248541,128,0,248804:0:0:0:0:
320,192,248574,128,0,248738:0:0:0:0:
64,192,248607,128,0,248804:0:0:0:0:
192,192,248870,128,0,249001:0:0:0:0:
64,192,248870,1,0,0:0:0:0:
448,192,248903,128,0,249001:0:0:0:0:
320,192,248903,128,0,249001:0:0:0:0:
192,192,249067,1,0,0:0:0:0:
320,192,249133,128,0,249429:0:0:0:0:
448,192,249133,128,0,249396:0:0:0:0:
192,192,249166,128,0,249396:0:0:0:0:
64,192,249199,128,0,249462:0:0:0:0:
320,192,249528,128,0,249593:0:0:0:0:
448,192,249560,1,0,0:0:0:0:
64,192,249725,1,0,0:0:0:0:
448,192,249725,128,0,249824:0:0:0:0:
192,192,249824,128,0,249922:0:0:0:0:
320,192,249922,128,0,249988:0:0:0:0:
64,192,250054,128,0,250185:0:0:0:0:
192,192,250251,128,0,250416:0:0:0:0:
64,192,250284,128,0,250416:0:0:0:0:
448,192,250317,128,0,250416:0:0:0:0:
320,192,250317,128,0,250449:0:0:0:0:
64,192,250514,128,0,250580:0:0:0:0:
192,192,250514,128,0,250580:0:0:0:0:
320,192,250547,128,0,250646:0:0:0:0:
448,192,250712,128,0,251205:0:0:0:0:
192,192,250712,128,0,251008:0:0:0:0:
320,192,250745,128,0,251172:0:0:0:0:
64,192,250778,128,0,251238:0:0:0:0:
192,192,251107,1,0,0:0:0:0:
320,192,251304,128,0,251435:0:0:0:0:
64,192,251337,128,0,251567:0:0:0:0:
448,192,251370,128,0,251567:0:0:0:0:
192,192,251501,1,0,0:0:0:0:
320,192,251633,128,0,251699:0:0:0:0:
192,192,251699,128,0,251764:0:0:0:0:
64,192,251764,128,0,251896:0:0:0:0:
320,192,251896,128,0,252028:0:0:0:0:
320,192,252093,128,0,252159:0:0:0:0:
448,192,252093,128,0,252192:0:0:0:0:
448,192,252291,128,0,253574:0:0:0:0:
192,192,252291,128,0,253376:0:0:0:0:
320,192,252324,128,0,253475:0:0:0:0:
64,192,252357,128,0,253278:0:0:0:0:
448,192,253672,1,0,0:0:0:0:
320,192,253672,1,0,0:0:0:0:
64,192,254067,1,0,0:0:0:0:
192,192,254067,1,0,0:0:0:0:
448,192,254067,1,0,0:0:0:0:
320,192,254264,1,0,0:0:0:0:
192,192,254462,1,0,0:0:0:0:
320,192,254462,1,0,0:0:0:0:
448,192,254462,1,0,0:0:0:0:
64,192,254659,1,0,0:0:0:0:
320,192,254791,1,0,0:0:0:0:
64,192,254857,1,0,0:0:0:0:
448,192,254988,1,0,0:0:0:0:
320,192,255054,1,0,0:0:0:0:
192,192,255054,1,0,0:0:0:0:
64,192,255251,1,0,0:0:0:0:
320,192,255251,1,0,0:0:0:0:
448,192,255251,1,0,0:0:0:0:
192,192,255449,1,0,0:0:0:0:
64,192,255449,1,0,0:0:0:0:
320,192,255646,1,0,0:0:0:0:
64,192,255778,1,0,0:0:0:0:
448,192,255843,1,0,0:0:0:0:
320,192,255843,1,0,0:0:0:0:
64,192,256041,1,0,0:0:0:0:
448,192,256041,1,0,0:0:0:0:
192,192,256041,1,0,0:0:0:0:
320,192,256238,1,0,0:0:0:0:
64,192,256370,1,0,0:0:0:0:
192,192,256435,1,0,0:0:0:0:
192,192,256567,1,0,0:0:0:0:
320,192,256633,1,0,0:0:0:0:
448,192,256633,1,0,0:0:0:0:
64,192,256830,1,0,0:0:0:0:
192,192,256830,1,0,0:0:0:0:
320,192,256830,1,0,0:0:0:0:
64,192,257028,1,0,0:0:0:0:
448,192,257159,1,0,0:0:0:0:
192,192,257225,1,0,0:0:0:0:
320,192,257225,1,0,0:0:0:0:
320,192,257422,1,0,0:0:0:0:
448,192,257620,1,0,0:0:0:0:
320,192,257620,1,0,0:0:0:0:
192,192,257620,1,0,0:0:0:0:
64,192,257817,1,0,0:0:0:0:
448,192,257949,1,0,0:0:0:0:
192,192,258014,1,0,0:0:0:0:
192,192,258146,1,0,0:0:0:0:
320,192,258212,1,0,0:0:0:0:
448,192,258212,1,0,0:0:0:0:
448,192,258409,1,0,0:0:0:0:
64,192,258409,1,0,0:0:0:0:
192,192,258409,1,0,0:0:0:0:
320,192,258607,1,0,0:0:0:0:
192,192,258607,1,0,0:0:0:0:
448,192,258804,1,0,0:0:0:0:
64,192,258935,1,0,0:0:0:0:
320,192,259001,1,0,0:0:0:0:
192,192,259001,1,0,0:0:0:0:
64,192,259199,1,0,0:0:0:0:
448,192,259199,1,0,0:0:0:0:
192,192,259199,1,0,0:0:0:0:
320,192,259396,1,0,0:0:0:0:
64,192,259528,1,0,0:0:0:0:
448,192,259593,1,0,0:0:0:0:
448,192,259725,1,0,0:0:0:0:
192,192,259791,1,0,0:0:0:0:
320,192,259791,1,0,0:0:0:0:
320,192,259988,1,0,0:0:0:0:
448,192,259988,1,0,0:0:0:0:
64,192,259988,1,0,0:0:0:0:
448,192,260185,1,0,0:0:0:0:
64,192,260317,1,0,0:0:0:0:
320,192,260383,1,0,0:0:0:0:
192,192,260383,1,0,0:0:0:0:
192,192,260580,1,0,0:0:0:0:
320,192,260778,1,0,0:0:0:0:
192,192,260778,1,0,0:0:0:0:
448,192,260778,1,0,0:0:0:0:
64,192,260975,1,0,0:0:0:0:
448,192,261107,1,0,0:0:0:0:
192,192,261172,1,0,0:0:0:0:
192,192,261304,1,0,0:0:0:0:
320,192,261370,1,0,0:0:0:0:
448,192,261370,1,0,0:0:0:0:
64,192,261567,1,0,0:0:0:0:
448,192,261567,1,0,0:0:0:0:
192,192,261567,1,0,0:0:0:0:
192,192,261764,1,0,0:0:0:0:
320,192,261764,1,0,0:0:0:0:
64,192,261962,1,0,0:0:0:0:
448,192,262093,1,0,0:0:0:0:
192,192,262159,1,0,0:0:0:0:
320,192,262159,1,0,0:0:0:0:
64,192,262357,1,0,0:0:0:0:
448,192,262357,1,0,0:0:0:0:
192,192,262357,1,0,0:0:0:0:
320,192,262554,1,0,0:0:0:0:
64,192,262685,1,0,0:0:0:0:
448,192,262751,1,0,0:0:0:0:
192,192,262883,1,0,0:0:0:0:
448,192,262949,1,0,0:0:0:0:
320,192,262949,1,0,0:0:0:0:
64,192,263146,1,0,0:0:0:0:
192,192,263146,1,0,0:0:0:0:
320,192,263146,1,0,0:0:0:0:
448,192,263343,1,0,0:0:0:0:
64,192,263475,1,0,0:0:0:0:
192,192,263541,1,0,0:0:0:0:
320,192,263541,1,0,0:0:0:0:
320,192,263738,1,0,0:0:0:0:
320,192,263935,1,0,0:0:0:0:
448,192,263935,1,0,0:0:0:0:
64,192,263935,1,0,0:0:0:0:
192,192,264133,1,0,0:0:0:0:
320,192,264264,1,0,0:0:0:0:
64,192,264330,1,0,0:0:0:0:
448,192,264462,1,0,0:0:0:0:
320,192,264528,1,0,0:0:0:0:
192,192,264528,1,0,0:0:0:0:
448,192,264725,1,0,0:0:0:0:
64,192,264725,1,0,0:0:0:0:
192,192,264725,1,0,0:0:0:0:
320,192,264922,1,0,0:0:0:0:
448,192,264922,1,0,0:0:0:0:
192,192,265120,1,0,0:0:0:0:
64,192,265251,1,0,0:0:0:0:
320,192,265317,1,0,0:0:0:0:
448,192,265317,1,0,0:0:0:0:
320,192,265514,1,0,0:0:0:0:
192,192,265514,1,0,0:0:0:0:
64,192,265514,1,0,0:0:0:0:
192,192,265712,1,0,0:0:0:0:
448,192,265843,1,0,0:0:0:0:
64,192,265909,1,0,0:0:0:0:
64,192,266041,1,0,0:0:0:0:
192,192,266107,1,0,0:0:0:0:
320,192,266107,1,0,0:0:0:0:
64,192,266304,1,0,0:0:0:0:
448,192,266304,1,0,0:0:0:0:
192,192,266304,1,0,0:0:0:0:
320,192,266501,1,0,0:0:0:0:
192,192,266633,1,0,0:0:0:0:
448,192,266699,128,0,267028:0:0:0:0:
320,192,266699,128,0,266830:0:0:0:0:
64,192,266699,128,0,266896:0:0:0:0:
192,192,266896,1,0,0:0:0:0:
320,192,266896,1,0,0:0:0:0:
64,192,267093,1,0,0:0:0:0:
192,192,267093,1,0,0:0:0:0:
448,192,267093,1,0,0:0:0:0:
320,192,267291,1,0,0:0:0:0:
448,192,267422,1,0,0:0:0:0:
64,192,267488,1,0,0:0:0:0:
192,192,267685,1,0,0:0:0:0:
320,192,267883,1,0,0:0:0:0:
64,192,267883,1,0,0:0:0:0:
448,192,268080,1,0,0:0:0:0:
320,192,268080,1,0,0:0:0:0:
192,192,268475,1,0,0:0:0:0:
192,192,268672,1,0,0:0:0:0:
64,192,268672,1,0,0:0:0:0:
448,192,268870,1,0,0:0:0:0:
192,192,269001,1,0,0:0:0:0:
320,192,269264,1,0,0:0:0:0:
448,192,269264,1,0,0:0:0:0:
448,192,269462,1,0,0:0:0:0:
64,192,269462,1,0,0:0:0:0:
192,192,269659,1,0,0:0:0:0:
192,192,269857,1,0,0:0:0:0:
320,192,269857,1,0,0:0:0:0:
448,192,270054,1,0,0:0:0:0:
320,192,270251,1,0,0:0:0:0:
64,192,270251,1,0,0:0:0:0:
192,192,270449,1,0,0:0:0:0:
448,192,270580,1,0,0:0:0:0:
64,192,270843,1,0,0:0:0:0:
192,192,271041,1,0,0:0:0:0:
448,192,271041,1,0,0:0:0:0:
448,192,271238,1,0,0:0:0:0:
320,192,271238,1,0,0:0:0:0:
192,192,271435,1,0,0:0:0:0:
320,192,271633,1,0,0:0:0:0:
64,192,271830,1,0,0:0:0:0:
192,192,271830,1,0,0:0:0:0:
448,192,272028,1,0,0:0:0:0:
192,192,272159,1,0,0:0:0:0:
320,192,272422,1,0,0:0:0:0:
448,192,272422,1,0,0:0:0:0:
64,192,272620,1,0,0:0:0:0:
320,192,272620,1,0,0:0:0:0:
448,192,272817,1,0,0:0:0:0:
320,192,273014,1,0,0:0:0:0:
192,192,273014,1,0,0:0:0:0:
64,192,273212,1,0,0:0:0:0:
192,192,273409,1,0,0:0:0:0:
64,192,273409,1,0,0:0:0:0:
320,192,273607,1,0,0:0:0:0:
64,192,273738,1,0,0:0:0:0:
320,192,274001,1,0,0:0:0:0:
448,192,274199,1,0,0:0:0:0:
192,192,274199,1,0,0:0:0:0:
64,192,274396,1,0,0:0:0:0:
192,192,274396,1,0,0:0:0:0:
192,192,274791,1,0,0:0:0:0:
448,192,274988,1,0,0:0:0:0:
320,192,274988,1,0,0:0:0:0:
320,192,275185,1,0,0:0:0:0:
64,192,275317,1,0,0:0:0:0:
192,192,275580,1,0,0:0:0:0:
320,192,275580,1,0,0:0:0:0:
448,192,275778,1,0,0:0:0:0:
192,192,275778,1,0,0:0:0:0:
64,192,275975,1,0,0:0:0:0:
192,192,276172,1,0,0:0:0:0:
320,192,276172,1,0,0:0:0:0:
448,192,276370,1,0,0:0:0:0:
64,192,276567,1,0,0:0:0:0:
320,192,276567,1,0,0:0:0:0:
192,192,276764,1,0,0:0:0:0:
448,192,276896,1,0,0:0:0:0:
320,192,277159,1,0,0:0:0:0:
192,192,277357,1,0,0:0:0:0:
64,192,277357,1,0,0:0:0:0:
320,192,277554,128,0,279330:0:0:0:0:
64,192,277587,128,0,278935:0:0:0:0:
448,192,277620,128,0,279725:0:0:0:0:
