osu file format v14

[General]
AudioFilename: audio.mp3
AudioLeadIn: 0
PreviewTime: 64085
Countdown: 0
SampleSet: Soft
StackLeniency: 0.7
Mode: 0
LetterboxInBreaks: 0
WidescreenStoryboard: 1

[Editor]
Bookmarks: 14016,26648,51911,64542,77174,89806,102437,115072,127700,152963,165595,178227,190858,216121,228753,241384,254016
DistanceSpacing: 1
BeatDivisor: 6
GridSize: 32
TimelineZoom: 2.360001

[Metadata]
Title:Don't you want me feat. Such
TitleUnicode:Don't you want me feat. Such
Artist:PSYQUI
ArtistUnicode:PSYQUI
Creator:Mir
Version:Jellyfish
Source:
Tags:c94 megarex spd gar bass future swing dont lasse electric boogaloo 3 wobble
BeatmapID:1984424
BeatmapSetID:832309

[Difficulty]
HPDrainRate:4
CircleSize:3.8
OverallDifficulty:8.7
ApproachRate:9.5
SliderMultiplier:2.5
SliderTickRate:1

[Events]
//Background and Video events
0,0,"dont touch me!.jpg",0,0
//Break Periods
2,153363,165073
//Storyboard Layer 0 (Background)
//Storyboard Layer 1 (Fail)
//Storyboard Layer 2 (Pass)
//Storyboard Layer 3 (Foreground)
//Storyboard Sound Samples

[TimingPoints]
1388,394.736842105263,4,2,1,50,1,0
1388,-76.9230769230769,4,2,1,50,0,0
1782,-133.333333333333,4,2,1,50,0,0
14019,-76.9230769230769,4,2,1,60,0,0
14414,-125,4,2,1,60,0,0
26256,-333.333333333333,4,2,1,60,0,0
26651,-76.9230769230769,4,2,1,60,0,0
27045,-111.111111111111,4,2,1,60,0,0
39282,-76.9230769230769,4,2,1,60,0,0
39676,-111.111111111111,4,2,1,60,0,0
50137,-133.333333333333,4,2,1,60,0,0
51914,-200,4,2,0,60,0,0
56651,-200,4,2,4,60,0,0
58230,-133.333333333333,4,2,4,60,0,0
62572,-66.6666666666667,4,2,4,60,0,0
62769,-333.333333333333,4,2,1,60,0,0
64151,-50,4,2,1,80,0,1
64480,-50,4,2,1,80,0,0
64545,-50,4,2,1,70,0,1
64874,-50,4,2,1,5,0,1
64940,-200,4,2,1,80,0,0
65927,-50,4,2,1,80,0,1
66256,-50,4,2,1,5,0,1
66322,-200,4,2,1,80,0,0
67111,-50,4,2,1,80,0,1
67309,-200,4,2,1,80,0,0
67506,-55.5555555555556,4,2,1,80,0,1
68032,-55.5555555555556,4,2,1,5,0,1
68098,-200,4,2,1,80,0,0
69085,-62.5,4,2,1,80,0,1
69414,-62.5,4,2,1,5,0,1
69480,-200,4,2,1,80,0,0
70072,-62.5,4,2,1,80,0,1
70401,-62.5,4,2,1,5,0,0
70466,-71.4285714285714,4,2,1,80,0,1
70730,-71.4285714285714,4,2,1,5,0,0
70795,-50,4,2,1,80,0,1
71190,-50,4,2,1,5,0,1
71256,-200,4,2,1,80,0,0
71980,-100,4,2,1,80,0,0
72045,-100,4,2,1,5,0,0
72111,-100,4,2,1,80,0,0
72243,-55.5555555555556,4,2,1,80,0,1
72572,-55.5555555555556,4,2,1,5,0,1
72637,-200,4,2,1,80,0,0
73427,-66.6666666666667,4,2,1,80,0,1
73624,-200,4,2,1,80,0,0
73822,-55.5555555555556,4,2,1,80,0,1
74348,-55.5555555555556,4,2,1,5,0,1
74414,-200,4,2,1,80,0,0
75137,-200,4,2,1,5,0,0
75203,-200,4,2,1,80,0,0
75401,-66.6666666666667,4,2,1,80,0,1
75927,-66.6666666666667,4,2,1,5,0,1
75993,-66.6666666666667,4,2,1,80,0,1
76322,-66.6666666666667,4,2,1,5,0,1
76388,-66.6666666666667,4,2,1,80,0,1
76716,-66.6666666666667,4,2,1,5,0,1
76782,-66.6666666666667,4,2,1,80,0,0
77177,-50,4,2,1,80,0,1
77506,-50,4,2,1,5,0,1
77572,-200,4,2,1,80,0,0
78559,-50,4,2,1,80,0,1
78887,-50,4,2,1,5,0,1
78953,-200,4,2,1,80,0,0
79743,-50,4,2,1,80,0,1
79874,-50,4,2,1,5,0,1
79940,-200,4,2,1,80,0,0
80137,-55.5555555555556,4,2,1,80,0,1
80664,-55.5555555555556,4,2,1,5,0,1
80730,-200,4,2,1,80,0,0
81716,-62.5,4,2,1,80,0,1
82045,-62.5,4,2,1,5,0,1
82111,-200,4,2,1,80,0,0
82637,-62.5,4,2,1,80,0,1
82835,-62.5,4,2,1,5,0,1
82901,-62.5,4,2,1,80,0,1
83098,-71.4285714285714,4,2,1,80,0,1
83361,-71.4285714285714,4,2,1,5,0,0
83427,-50,4,2,1,80,0,1
83624,-50,4,2,1,5,0,1
83690,-100,4,2,1,80,0,0
84348,-66.6666666666667,4,2,1,80,0,1
84545,-66.6666666666667,4,2,1,5,0,1
84611,-200,4,2,1,80,0,0
84743,-200,4,2,1,5,0,0
84809,-200,4,2,1,80,0,0
84874,-55.5555555555556,4,2,1,80,0,1
85269,-200,4,2,1,80,0,0
85927,-200,4,2,1,5,0,0
85993,-200,4,2,1,80,0,0
86059,-66.6666666666667,4,2,1,80,0,1
86256,-200,4,2,1,80,0,0
86453,-55.5555555555556,4,2,1,80,0,1
86980,-55.5555555555556,4,2,1,5,0,1
87045,-200,4,2,1,80,0,0
88032,-83.3333333333333,4,2,1,80,0,1
89414,-83.3333333333333,4,2,1,80,0,0
89809,-66.6666666666667,4,2,1,80,0,1
90137,-66.6666666666667,4,2,1,5,0,1
90203,-125,4,2,1,80,0,0
91190,-66.6666666666667,4,2,1,80,0,1
91519,-66.6666666666667,4,2,1,5,0,1
91585,-125,4,2,1,80,0,0
91980,-66.6666666666667,4,2,1,80,0,1
92177,-125,4,2,1,80,0,0
92374,-66.6666666666667,4,2,1,80,0,1
92572,-125,4,2,1,80,0,0
92901,-66.6666666666667,4,2,1,80,0,1
93295,-66.6666666666667,4,2,1,5,0,1
93361,-125,4,2,1,80,0,0
94348,-66.6666666666667,4,2,1,80,0,1
94874,-66.6666666666667,4,2,1,5,0,0
94940,-71.4285714285714,4,2,1,80,0,1
95269,-71.4285714285714,4,2,1,5,0,0
95335,-76.9230769230769,4,2,1,80,0,1
95664,-76.9230769230769,4,2,1,5,0,0
95730,-71.4285714285714,4,2,1,80,0,1
95993,-71.4285714285714,4,2,1,5,0,0
96059,-250,4,2,1,80,0,1
96453,-250,4,2,1,5,0,1
96519,-125,4,2,1,80,0,0
97506,-166.666666666667,4,2,1,80,0,1
97835,-166.666666666667,4,2,1,5,0,1
97901,-125,4,2,1,80,0,0
99085,-100,4,2,1,80,0,1
99414,-100,4,2,1,5,0,1
99480,-125,4,2,1,80,0,0
100664,-100,4,2,1,80,0,0
101190,-100,4,2,1,5,0,0
101256,-125,4,2,1,80,0,0
101585,-125,4,2,1,5,0,0
101651,-166.666666666667,4,2,1,80,0,0
101980,-166.666666666667,4,2,1,5,0,0
102045,-250,4,2,1,80,0,0
102374,-250,4,2,1,5,0,0
102440,-100,4,2,1,50,0,0
115072,-66.6666666666667,4,2,4,60,0,0
115466,-125,4,2,4,70,0,0
121782,-62.5,4,2,4,70,0,0
121980,-125,4,2,4,70,0,0
122572,-62.5,4,2,4,70,0,0
122770,-125,4,2,4,70,0,0
123361,-62.5,4,2,4,70,0,0
123559,-125,4,2,4,70,0,0
124151,-62.5,4,2,4,70,0,0
124349,-125,4,2,4,70,0,0
126124,-333.333333333333,4,2,1,80,0,0
126519,-333.333333333333,4,2,0,80,0,0
126651,-200,4,2,0,80,0,0
127243,-40,4,2,4,80,0,0
127901,-66.6666666666667,4,2,4,80,0,0
128098,-100,4,2,2,80,0,0
140335,-500,4,2,2,80,0,0
140730,-100,4,2,2,80,0,0
146651,-40,4,2,2,80,0,0
147045,-100,4,2,2,80,0,0
151322,-133.333333333333,4,2,1,80,0,0
152572,-66.6666666666667,4,2,1,80,0,0
152769,-133.333333333333,4,2,1,80,0,0
152966,-76.9230769230769,4,2,1,80,0,0
165993,-125,4,2,5,60,0,0
178230,-500,4,2,1,50,0,0
179809,-250,4,2,1,60,0,0
181387,-166.666666666667,4,2,1,70,0,0
189282,-111.111111111111,4,2,4,80,0,0
190466,-500.000000000003,4,2,1,80,0,0
190861,-83.3333333333333,4,2,3,80,0,1
203427,-83.3333333333333,4,2,3,80,0,0
203493,-71.4285714285714,4,2,3,80,0,1
203887,-83.3333333333333,4,2,3,80,0,1
215335,-200,4,2,3,80,0,1
216124,-83.3333333333333,4,2,1,80,0,0
220861,-83.3333333333333,4,2,1,60,0,0
222440,-125,4,2,4,70,0,0
225598,-125,4,2,4,80,0,0
226782,-66.6666666666667,4,2,4,80,0,0
226980,-500,4,2,4,80,0,0
228361,-50,4,2,4,80,0,0
228756,-200,4,2,1,70,0,0
229085,-50,4,2,1,5,0,0
229151,-200,4,2,1,70,0,0
230203,-200,4,2,1,70,0,0
230467,-50,4,2,1,5,0,0
230533,-200,4,2,1,70,0,0
231322,-50,4,2,1,70,0,0
231520,-200,4,2,1,70,0,0
231716,-55.5555555555556,4,2,1,80,0,1
232243,-55.5555555555556,4,2,1,5,0,1
232309,-200,4,2,1,80,0,0
233295,-62.5,4,2,1,80,0,1
233625,-62.5,4,2,1,5,0,1
233690,-200,4,2,1,80,0,0
234282,-62.5,4,2,1,80,0,1
234611,-62.5,4,2,1,5,0,0
234677,-71.4285714285714,4,2,1,80,0,1
234940,-71.4285714285714,4,2,1,5,0,0
235006,-50,4,2,1,80,0,1
235401,-50,4,2,1,5,0,1
235466,-200,4,2,1,80,0,0
236190,-100,4,2,1,80,0,0
236256,-100,4,2,1,5,0,0
236322,-100,4,2,1,80,0,0
236453,-55.5555555555556,4,2,1,80,0,1
236783,-55.5555555555556,4,2,1,5,0,1
236848,-200,4,2,1,80,0,0
237637,-40,4,2,1,80,0,1
237835,-200,4,2,1,80,0,0
238032,-55.5555555555556,4,2,1,80,0,1
238559,-55.5555555555556,4,2,1,5,0,1
238624,-200,4,2,1,80,0,0
239348,-200,4,2,1,5,0,0
239414,-200,4,2,1,80,0,0
239611,-66.6666666666667,4,2,1,80,0,1
240138,-66.6666666666667,4,2,1,5,0,1
240204,-66.6666666666667,4,2,1,80,0,1
240533,-66.6666666666667,4,2,1,5,0,1
240599,-66.6666666666667,4,2,1,80,0,1
240927,-66.6666666666667,4,2,1,5,0,1
240993,-200,4,2,1,80,0,0
241387,-50,4,2,1,80,0,1
241717,-50,4,2,1,5,0,1
241782,-200,4,2,1,80,0,0
242769,-50,4,2,1,80,0,1
243098,-50,4,2,1,5,0,1
243164,-200,4,2,1,80,0,0
243953,-50,4,2,1,80,0,1
244085,-50,4,2,1,5,0,1
244151,-200,4,2,1,80,0,0
244348,-55.5555555555556,4,2,1,80,0,1
244875,-55.5555555555556,4,2,1,5,0,1
244940,-200,4,2,1,80,0,0
245927,-62.5,4,2,1,80,0,1
246256,-62.5,4,2,1,5,0,1
246322,-200,4,2,1,80,0,0
246848,-62.5,4,2,1,80,0,1
247046,-62.5,4,2,1,5,0,1
247112,-62.5,4,2,1,80,0,1
247309,-71.4285714285714,4,2,1,80,0,1
247572,-71.4285714285714,4,2,1,5,0,0
247637,-50,4,2,1,80,0,1
247835,-50,4,2,1,5,0,1
247901,-50,4,2,1,80,0,0
248098,-200,4,2,1,80,0,0
248559,-50,4,2,1,80,0,1
248756,-50,4,2,1,5,0,1
248822,-200,4,2,1,80,0,0
248954,-200,4,2,1,5,0,0
249020,-200,4,2,1,80,0,0
249085,-55.5555555555556,4,2,1,80,0,1
249414,-55.5555555555556,4,2,1,5,0,1
249480,-200,4,2,1,80,0,0
250138,-200,4,2,1,5,0,0
250204,-200,4,2,1,80,0,0
250269,-50,4,2,1,80,0,1
250466,-200,4,2,1,80,0,0
250664,-55.5555555555556,4,2,1,80,0,1
251191,-55.5555555555556,4,2,1,5,0,1
251256,-200,4,2,1,80,0,0
252243,-83.3333333333333,4,2,1,80,0,1
253624,-83.3333333333333,4,2,1,80,0,0
254019,-76.9230769230769,4,2,1,70,0,0
254414,-133.333333333333,4,2,1,70,0,0
266651,-76.9230769230769,4,2,1,60,0,0
267045,-133.333333333333,4,2,1,60,0,0
272966,-153.846153846153,4,2,1,60,0,0

[Colours]
Combo1 : 249,213,172
Combo2 : 227,149,244
Combo3 : 147,201,244
Combo4 : 132,230,215

[HitObjects]
81,46,1388,6,0,P|95:113|110:224,1,162.499992561341,4|2,3:2|0:0,0:0:0:0:
61,349,1782,2,0,P|92:327|155:306,1,93.7500035762788,8|0,0:1|0:0,0:0:0:0:
236,244,2111,1,8,0:1:0:0:
236,244,2177,2,0,L|249:358,1,93.7500035762788,0|2,0:0|0:0,0:0:0:0:
336,286,2572,1,8,0:1:0:0:
300,163,2769,1,2,0:0:0:0:
328,51,2966,5,0,0:0:0:0:
309,177,3164,1,2,0:0:0:0:
223,117,3361,2,0,P|187:106|105:101,1,93.7500035762788,8|2,0:1|0:0,0:0:0:0:
24,208,3690,1,8,0:1:0:0:
24,208,3756,2,0,P|27:160|33:95,2,93.7500035762788,0|2|8,0:0|0:0|0:1,0:0:0:0:
82,284,4348,1,2,0:0:0:0:
166,226,4545,6,0,P|212:216|275:207,1,93.7500035762788,0|2,0:0|0:0,0:0:0:0:
381,270,4940,1,8,0:1:0:0:
340,134,5137,1,2,0:0:0:0:
468,182,5269,1,8,0:1:0:0:
468,182,5335,5,0,0:0:0:0:
380,250,5532,1,2,0:0:0:0:
339,115,5730,1,8,0:1:0:0:
258,208,5927,1,2,0:0:0:0:
434,77,6124,5,0,0:0:0:0:
340,134,6322,1,2,0:0:0:0:
249,77,6519,2,0,P|181:71|129:68,1,93.7500035762788,8|2,0:1|0:0,0:0:0:0:
60,104,6848,1,8,0:1:0:0:
60,104,6914,5,0,0:0:0:0:
214,178,7111,1,2,0:0:0:0:
5,211,7309,2,0,P|73:205|125:202,1,93.7500035762788,8|2,0:1|0:0,0:0:0:0:
149,359,7703,6,0,P|160:313|192:252,1,93.7500035762788,0|2,0:0|0:0,0:0:0:0:
323,343,8098,2,0,P|303:300|292:255,1,93.7500035762788,8|2,0:1|0:0,0:0:0:0:
352,155,8427,1,8,0:1:0:0:
352,155,8493,2,0,L|459:159,1,93.7500035762788,0|2,0:0|0:0,0:0:0:0:
446,44,8887,1,8,0:1:0:0:
298,78,9085,1,2,0:0:0:0:
217,179,9282,5,0,0:0:0:0:
124,93,9480,1,2,0:0:0:0:
262,25,9677,2,0,P|284:72|297:131,1,93.7500035762788,8|2,0:1|0:0,0:0:0:0:
232,200,10006,1,8,0:1:0:0:
232,200,10072,2,0,P|179:190|137:186,2,93.7500035762788,0|2|8,0:0|0:0|0:1,0:0:0:0:
252,298,10664,1,2,0:0:0:0:
362,198,10861,6,0,P|349:261|342:312,1,93.7500035762788,0|2,0:0|0:0,0:0:0:0:
424,360,11256,1,8,0:1:0:0:
483,258,11453,1,2,0:0:0:0:
440,148,11585,1,8,0:1:0:0:
440,148,11651,5,0,0:0:0:0:
332,200,11848,1,2,0:0:0:0:
240,112,12045,1,8,0:1:0:0:
134,181,12243,1,2,0:0:0:0:
325,214,12440,5,0,0:0:0:0:
203,300,12637,1,2,0:0:0:0:
131,168,12835,2,0,P|145:120|167:58,1,93.7500035762788,8|2,0:1|0:0,0:0:0:0:
259,49,13164,1,8,0:1:0:0:
259,49,13230,5,0,0:0:0:0:
465,97,13427,1,2,0:0:0:0:
367,48,13624,2,0,P|355:99|346:143,1,93.7500035762788,8|2,0:1|0:0,0:0:0:0:
375,280,14019,6,0,B|330:267|308:242|308:242|259:255|225:291|225:291|190:258|115:271,1,270.833320935568,4|0,3:2|0:2,0:2:0:0:
110,285,14414,2,0,P|124:221|128:176,1,100,8|2,0:2|0:2,0:2:0:0:
83,100,14743,1,0,1:2:0:0:
83,100,14809,2,0,P|132:106|155:103,1,66.6666666666667,0|0,1:2|1:2,0:2:0:0:
166,88,15006,1,2,3:2:0:0:
375,53,15203,1,8,0:2:0:0:
276,14,15401,6,0,L|265:130,1,100,2|0,3:2|0:2,0:2:0:0:
361,172,15730,1,0,1:2:0:0:
361,172,15795,2,0,P|414:154|475:139,1,100,2|8,3:2|0:2,0:2:0:0:
284,256,16190,1,2,3:2:0:0:
204,219,16322,2,0,P|197:289|200:343,1,100,0|0,1:2|1:2,0:2:0:0:
201,341,16585,1,2,3:2:0:0:
292,348,16782,2,0,B|337:338|351:355|408:337,1,100,8|2,0:2|0:2,0:2:0:0:
493,330,17111,1,0,1:2:0:0:
493,330,17177,6,0,P|501:296|506:226,1,100,0|2,3:2|0:2,0:2:0:0:
398,102,17572,2,0,P|402:136|424:216,1,100,8|2,0:2|0:2,0:2:0:0:
512,73,17901,1,0,1:2:0:0:
512,73,17966,1,0,1:2:0:0:
435,11,18098,1,0,1:2:0:0:
435,11,18163,1,2,3:2:0:0:
323,144,18361,1,8,0:2:0:0:
223,14,18559,1,2,3:2:0:0:
323,40,18756,5,0,0:2:0:0:
229,115,18953,1,2,3:2:0:0:
126,76,19151,2,0,P|137:121|144:183,1,100,8|2,0:2|0:2,0:2:0:0:
161,352,19480,1,0,1:2:0:0:
161,352,19545,1,0,1:2:0:0:
87,267,19677,1,0,1:2:0:0:
87,267,19742,1,2,3:2:0:0:
207,245,19940,2,0,P|243:232|306:221,1,100,8|2,0:2|0:2,0:2:0:0:
410,311,20269,1,0,1:2:0:0:
410,311,20335,6,0,L|426:203,1,100,0|2,3:2|0:2,0:2:0:0:
449,104,20730,2,0,P|371:120|338:121,1,100,8|2,0:2|0:2,0:2:0:0:
246,63,21059,1,0,1:2:0:0:
246,63,21124,2,0,P|258:14|274:-1,1,66.6666666666667,0|0,1:2|1:2,0:2:0:0:
292,3,21322,1,2,3:2:0:0:
350,120,21519,1,8,0:2:0:0:
266,194,21716,6,0,P|205:170|89:147,1,166.666666666667,2|0,3:2|0:2,0:2:0:0:
90,166,22111,1,2,3:2:0:0:
72,294,22309,2,0,P|121:288|180:277,1,100,8|2,0:2|0:2,0:2:0:0:
260,309,22637,1,0,1:2:0:0:
260,309,22703,1,0,1:2:0:0:
245,206,22835,1,0,1:2:0:0:
245,206,22901,1,2,3:2:0:0:
348,251,23098,1,8,0:2:0:0:
354,93,23295,2,0,L|428:110,1,66.6666666666667,2|0,0:2|0:2,0:2:0:0:
439,96,23493,6,0,P|431:151|428:212,1,100,0|2,3:2|0:2,0:2:0:0:
358,350,23887,2,0,P|354:300|347:250,1,100,8|2,0:2|0:2,0:2:0:0:
266,154,24216,1,0,1:2:0:0:
266,154,24282,2,0,P|219:149|181:154,1,66.6666666666667,0|0,1:2|1:2,0:2:0:0:
186,170,24480,1,2,3:2:0:0:
232,57,24677,1,8,0:2:0:0:
228,261,24874,5,2,3:2:0:0:
114,263,26059,6,0,P|144:273|176:263,1,66.6666666666667,0|0,0:2|0:2,0:2:0:0:
181,233,26256,6,0,P|153:218|122:221,1,62.4999980926514,0|0,0:2|0:2,0:2:0:0:
84,152,26651,6,0,B|152:117|228:135|208:188|280:197|362:145,1,270.833320935568,4|0,3:2|0:2,0:2:0:0:
347,120,27045,1,8,0:2:0:0:
287,265,27243,2,0,P|342:289|369:307,1,74.9999977111817,2|0,0:2|1:2,0:2:0:0:
428,384,27440,2,0,P|448:311|471:275,1,112.499996566773,0|2,1:2|3:2,0:2:0:0:
392,214,27769,1,0,1:2:0:0:
392,214,27835,2,0,P|452:194|484:176,1,74.9999977111817,8|0,0:2|0:2,0:2:0:0:
354,296,28032,6,0,B|288:278|246:303|198:329|116:320,1,224.999993133545,0|2,3:2|0:2,0:2:0:0:
78,123,28624,2,0,P|95:168|102:244,1,112.499996566773,8|2,0:2|0:2,0:2:0:0:
27,355,28953,2,0,P|85:329|161:320,1,112.499996566773,0|0,1:2|1:2,0:2:0:0:
156,331,29216,1,2,3:2:0:0:
228,173,29414,2,0,P|214:220|220:257,1,74.9999977111817,8|0,0:2|0:2,0:2:0:0:
188,325,29611,2,0,P|211:368|241:390,1,74.9999977111817,2|0,0:2|0:2,0:2:0:0:
289,306,29809,6,0,P|317:293|423:278,1,112.499996566773,0|2,3:2|0:2,0:2:0:0:
489,197,30137,1,0,1:2:0:0:
489,197,30203,2,0,P|433:188|381:168,1,112.499996566773,8|2,0:2|0:2,0:2:0:0:
322,52,30532,1,0,1:2:0:0:
322,52,30598,1,0,1:2:0:0:
252,121,30730,1,0,1:2:0:0:
252,121,30796,1,2,3:2:0:0:
177,50,30993,1,8,0:2:0:0:
331,178,31190,1,2,3:2:0:0:
68,195,31387,5,0,0:2:0:0:
162,147,31585,1,2,0:2:0:0:
154,357,31782,2,0,P|148:298|152:219,1,112.499996566773,8|2,0:2|0:2,0:2:0:0:
268,272,32111,1,0,1:2:0:0:
268,272,32177,2,0,P|321:255|361:244,1,74.9999977111817,0|0,1:2|1:2,0:2:0:0:
345,162,32374,2,0,P|380:172|416:184,1,74.9999977111817,2|0,3:2|0:2,0:2:0:0:
492,240,32572,2,0,L|501:108,1,112.499996566773,8|2,0:2|0:2,0:2:0:0:
413,295,32966,5,0,3:2:0:0:
289,285,33164,1,2,0:2:0:0:
244,173,33361,1,8,0:2:0:0:
90,293,33559,2,0,P|155:277|178:269,1,74.9999977111817,2|0,0:2|1:2,0:2:0:0:
198,355,33756,2,0,P|193:297|199:213,1,112.499996566773,0|2,1:2|3:2,0:2:0:0:
180,134,34085,1,0,1:2:0:0:
180,134,34151,2,0,P|125:184|102:198,1,74.9999977111817,8|0,0:2|0:2,0:2:0:0:
263,180,34348,6,0,B|337:206|337:206|487:134,1,224.999993133545,0|2,3:2|0:2,0:2:0:0:
326,102,34940,1,8,0:2:0:0:
330,301,35137,2,0,L|408:269,1,74.9999977111817,2|0,0:2|1:2,0:2:0:0:
486,242,35335,2,0,P|476:304|472:369,1,112.499996566773,0|2,1:2|3:2,0:2:0:0:
379,378,35664,1,0,1:2:0:0:
379,378,35730,2,0,P|325:358|248:342,1,112.499996566773,8|2,0:2|0:2,0:2:0:0:
99,310,36124,6,0,L|225:277,1,112.499996566773,0|2,3:2|0:2,0:2:0:0:
239,77,36519,2,0,P|223:137|220:202,1,112.499996566773,8|2,0:2|0:2,0:2:0:0:
309,223,36848,1,0,1:2:0:0:
309,223,36914,1,0,1:2:0:0:
246,324,37111,2,0,P|302:313|333:312,1,74.9999977111817,2|0,3:2|0:2,0:2:0:0:
348,330,37309,1,8,0:2:0:0:
453,337,37506,6,0,B|434:278|434:278|437:228|437:228|396:138,1,187.499994277954,2|0,3:2|0:2,0:2:0:0:
372,167,37901,1,2,3:2:0:0:
308,57,38098,2,0,P|376:73|404:72,1,74.9999977111817,8|0,0:2|0:2,0:2:0:0:
292,138,38295,2,0,P|254:142|191:174,1,74.9999977111817,2|0,0:2|1:2,0:2:0:0:
206,187,38493,5,0,1:2:0:0:
224,287,38624,2,0,L|259:273,1,37.4999988555909,0|2,0:2|3:2,0:2:0:0:
307,354,38822,1,0,0:2:0:0:
296,351,38888,1,8,0:2:0:0:
354,273,39019,2,0,L|391:287,1,37.4999988555909,0|2,0:2|0:2,0:2:0:0:
211,349,39282,6,0,B|212:288|230:258|230:258|218:219|193:192|193:192|229:150|226:46,1,270.833320935568,4|0,3:2|0:2,0:2:0:0:
209,67,39677,2,0,P|266:92|332:66,1,112.499996566773,8|2,0:2|0:2,0:2:0:0:
416,27,40006,1,0,1:2:0:0:
416,27,40072,2,0,P|448:45|487:127,1,112.499996566773,0|2,1:2|3:2,0:2:0:0:
393,190,40401,1,0,1:2:0:0:
393,190,40466,2,0,P|390:147|398:100,1,74.9999977111817,8|0,0:2|0:2,0:2:0:0:
292,135,40664,6,0,B|204:108|160:127|61:93,1,224.999993133545,2|2,3:2|0:2,0:2:0:0:
31,235,41256,2,0,P|80:221|161:211,1,112.499996566773,8|2,0:2|0:2,0:2:0:0:
193,303,41585,2,0,P|217:258|267:194,1,112.499996566773,0|0,1:2|1:2,0:2:0:0:
287,203,41848,1,2,3:2:0:0:
397,300,42045,2,0,P|353:296|296:288,1,74.9999977111817,8|0,0:2|0:2,0:2:0:0:
310,371,42243,2,0,P|266:375|209:383,1,74.9999977111817,0|0,0:2|1:2,0:2:0:0:
193,303,42440,6,0,P|185:264|146:175,1,112.499996566773,0|2,3:2|0:2,0:2:0:0:
208,124,42703,2,0,P|261:92|287:77,1,74.9999977111817,0|8,0:2|0:2,0:2:0:0:
319,262,43032,1,2,1:2:0:0:
271,188,43164,2,0,P|330:177|403:178,1,112.499996566773,0|0,1:2|1:2,0:2:0:0:
404,201,43427,1,2,3:2:0:0:
502,109,43624,2,0,P|492:149|493:197,1,74.9999977111817,8|0,0:2|0:2,0:2:0:0:
500,215,43822,1,2,3:2:0:0:
469,352,44019,6,0,P|421:334|391:328,1,74.9999977111817,0|0,0:2|0:2,0:2:0:0:
322,310,44216,2,0,P|285:318|250:332,1,74.9999977111817,2|0,0:2|0:2,0:2:0:0:
166,369,44414,2,0,P|175:303|185:230,1,112.499996566773,8|2,0:2|0:2,0:2:0:0:
318,201,44743,1,0,1:2:0:0:
318,201,44809,2,0,P|270:193|230:180,1,74.9999977111817,0|0,1:2|1:2,0:2:0:0:
215,115,45006,2,0,P|179:124|142:130,1,74.9999977111817,2|0,3:2|0:2,0:2:0:0:
45,99,45203,2,0,P|72:187|76:238,1,112.499996566773,8|2,0:2|0:2,0:2:0:0:
445,336,45598,6,0,P|391:321|337:309,1,112.499996566773,0|2,3:2|0:2,0:2:0:0:
221,367,45993,1,8,0:2:0:0:
211,174,46190,2,0,P|240:228|256:272,1,74.9999977111817,2|0,0:2|1:2,0:2:0:0:
174,287,46387,2,0,P|130:272|55:261,1,112.499996566773,0|2,1:2|3:2,0:2:0:0:
90,175,46716,1,0,1:2:0:0:
90,175,46782,2,0,P|108:142|124:108,1,74.9999977111817,8|0,0:2|0:2,0:2:0:0:
96,23,46980,6,0,B|196:31|207:86|319:96,1,224.999993133545,0|2,3:2|0:2,0:2:0:0:
453,46,47572,1,8,0:2:0:0:
461,189,47769,2,0,P|413:168|365:154,1,74.9999977111817,2|0,0:2|1:2,0:2:0:0:
321,200,47966,2,0,P|303:257|292:315,1,112.499996566773,0|2,1:2|3:2,0:2:0:0:
400,347,48295,1,0,1:2:0:0:
400,347,48361,2,0,P|494:333|538:333,1,112.499996566773,8|2,0:2|0:2,0:2:0:0:
292,308,48756,6,0,P|235:304|180:293,1,112.499996566773,0|2,3:2|0:2,0:2:0:0:
49,99,49151,2,0,P|64:152|72:209,1,112.499996566773,8|2,0:2|0:2,0:2:0:0:
68,310,49480,1,0,1:2:0:0:
68,310,49545,1,0,1:2:0:0:
191,230,49677,1,0,1:2:0:0:
191,230,49742,1,2,3:2:0:0:
266,330,49940,1,8,0:2:0:0:
406,272,50137,6,0,P|342:258|292:238,1,93.7500035762788,6|0,3:2|0:2,0:2:0:0:
179,187,50532,2,0,P|243:173|293:153,1,93.7500035762788,2|0,0:2|0:2,0:2:0:0:
304,35,50927,1,2,0:2:0:0:
221,49,51059,2,0,P|265:63|353:73,1,125.000004768372,0|2,0:2|0:2,0:2:0:0:
445,41,51519,1,0,0:2:0:0:
502,125,51716,1,2,0:2:0:0:
287,221,51914,5,4,3:2:0:0:
289,243,52309,5,8,0:2:0:0:
292,267,52703,5,0,0:2:0:0:
296,288,53098,5,8,0:2:0:0:
199,257,53295,1,0,0:2:0:0:
318,366,53493,5,0,0:2:0:0:
365,212,53690,1,0,0:2:0:0:
259,132,53887,6,0,B|196:120|204:159|129:141,1,125,8|0,0:2|0:2,0:2:0:0:
85,73,54480,1,0,0:2:0:0:
134,227,54677,1,8,0:2:0:0:
230,51,54874,1,0,0:2:0:0:
315,192,55072,6,0,P|361:181|380:179,1,62.5,0|0,0:2|0:2,0:2:0:0:
452,225,55466,1,8,0:2:0:0:
344,97,55664,1,0,0:2:0:0:
294,275,55861,2,0,P|303:324|310:351,1,62.5,0|0,0:2|0:2,0:2:0:0:
222,176,56256,2,0,P|228:145|234:114,1,62.5,8|0,0:2|0:2,0:2:0:0:
156,263,56651,5,0,0:2:0:0:
353,177,56848,1,8,0:2:0:0:
353,177,56947,1,8,0:2:0:0:
353,177,57045,1,8,0:2:0:0:
130,93,57243,1,8,0:2:0:0:
199,177,57440,6,0,P|236:167|276:160,1,62.5,8|0,0:2|0:2,0:2:0:0:
314,79,57736,2,0,P|344:85|374:93,1,62.5,8|0,0:2|0:2,0:2:0:0:
439,166,58032,1,8,0:2:0:0:
307,325,58230,6,0,P|319:264|326:213,1,93.7500035762788,12|8,3:2|0:2,0:2:0:0:
230,61,58624,2,0,P|237:107|246:153,1,93.7500035762788,8|8,3:2|0:2,0:2:0:0:
185,278,59019,2,0,L|52:256,1,93.7500035762788,8|8,3:2|0:2,0:2:0:0:
141,182,59414,1,8,3:2:0:0:
223,365,59611,1,8,0:2:0:0:
323,232,59809,5,8,3:2:0:0:
185,278,60006,1,8,0:2:0:0:
341,342,60203,2,0,P|406:332|462:327,1,93.7500035762788,8|8,3:2|0:2,0:2:0:0:
185,174,60598,2,0,P|120:164|64:159,1,93.7500035762788,8|8,3:2|0:2,0:2:0:0:
102,263,60993,1,8,3:2:0:0:
245,87,61190,1,8,0:2:0:0:
399,239,61387,5,0,3:2:0:0:
355,259,61486,1,8,0:2:0:0:
311,253,61585,1,8,0:2:0:0:
274,229,61684,1,8,1:2:0:0:
221,228,61782,5,0,3:2:0:0:
253,208,61881,1,8,0:2:0:0:
280,172,61980,1,8,0:2:0:0:
289,129,62079,1,0,1:2:0:0:
315,125,62177,5,0,3:2:0:0:
270,111,62276,1,8,0:2:0:0:
243,75,62375,1,8,0:2:0:0:
234,32,62474,1,0,1:2:0:0:
205,71,62572,6,0,P|155:85|93:78,1,93.7500035762788,8|8,1:2|0:2,0:2:0:0:
92,304,62769,6,0,P|158:279|175:272,1,74.9999977111817,0|0,3:2|0:2,0:2:0:0:
255,338,63361,2,0,L|262:372,2,18.7499994277954,0|0|0,0:2|0:2|0:2,0:2:0:0:
162,277,63756,6,0,L|166:305,1,24.9999992370606
160,321,63953,1,0,0:0:0:0:
429,205,64151,6,0,P|326:75|298:239,1,416.666666666667,8|0,0:2|0:2,0:2:0:0:
380,308,64545,6,0,B|360:246|291:195|179:207|268:337|97:318|26:231|84:146,1,416.666666666667,4|0,3:2|0:2,0:2:0:0:
0,133,64940,6,0,P|21:110|48:96,1,62.5,8|2,0:2|0:2,0:2:0:0:
194,144,65269,1,0,0:2:0:0:
176,149,65335,2,0,P|148:134|132:122,1,41.6666666666667,0|0,0:2|0:2,0:2:0:0:
136,110,65532,1,2,3:2:0:0:
237,74,65730,1,8,0:2:0:0:
239,334,65861,1,0,0:2:0:0:
171,281,65927,6,0,B|144:260|105:253|105:253|183:195|302:224|257:297|355:326|473:214,1,416.666666666667,4|0,3:2|0:2,0:2:0:0:
355,195,66322,6,0,P|341:230|341:261,1,62.5,2|8,0:2|0:2,0:2:0:0:
295,357,66651,1,0,0:2:0:0:
280,345,66716,2,0,L|268:291,1,41.6666666666667,2|0,0:2|0:2,0:2:0:0:
278,286,66913,1,0,0:2:0:0:
99,299,67111,6,0,B|117:229|89:191|104:110,1,166.666666666667,6|0,3:2|0:2,0:2:0:0:
85,48,67309,1,8,0:2:0:0:
85,48,67506,6,0,B|60:77|21:93|-22:8|47:-26|102:-21|135:22|169:89|169:89|204:158|265:181|366:155|339:82|299:5|231:38|223:106|277:111,1,599.999981689454,6|0,3:2|0:2,0:2:0:0:
280,119,68098,6,0,P|339:122|358:117,1,62.5,8|2,0:2|0:2,0:2:0:0:
460,166,68427,1,0,0:2:0:0:
442,141,68493,2,0,P|427:108|424:88,1,41.6666666666667,0|0,0:2|0:2,0:2:0:0:
361,233,68690,2,0,P|367:213|377:195,1,41.6666666666667,2|0,0:2|0:2,0:2:0:0:
341,121,68887,1,8,0:2:0:0:
422,362,69085,6,0,B|341:333|202:307|329:378|202:365|98:321,1,333.333333333333,6|0,3:2|0:2,0:2:0:0:
19,362,69480,1,2,0:2:0:0:
110,296,69677,2,0,P|154:312|163:314,1,41.6666666666667,8|0,0:2|0:2,0:2:0:0:
239,269,69874,2,0,P|259:262|278:254,1,41.6666666666667,2|0,0:2|0:2,0:2:0:0:
86,126,70072,6,0,B|227:155|301:108|394:57|237:-27|216:31|241:89|276:117,1,333.333333333333,4|0,3:2|0:2,0:2:0:0:
261,201,70466,6,0,B|246:162|268:115|373:119|358:222|300:293,1,233.333326212565,12|0,3:2|0:2,0:2:0:0:
216,362,70795,6,0,B|177:405|89:360|130:239|215:256|269:283|311:305|312:302|310:309|360:340|439:351|486:327|518:252,1,500,4|0,3:2|0:2,0:2:0:0:
481,172,71256,5,0,0:2:0:0:
481,172,71453,1,2,0:2:0:0:
418,238,71651,2,0,B|376:240|345:221,1,62.5,0|2,0:2|0:2,0:2:0:0:
216,362,71980,6,0,P|189:364|158:357,1,41.6666666666667,0|0,0:2|0:2,0:2:0:0:
13,271,72177,1,0,0:2:0:0:
58,343,72243,6,0,B|132:314|183:220|139:99|139:99|140:155|103:190,1,374.999988555909,4|0,3:2|0:2,0:2:0:0:
42,246,72637,5,2,0:2:0:0:
42,246,72835,2,0,P|90:264|115:264,1,62.5,8|2,0:2|0:2,0:2:0:0:
181,253,73164,1,0,3:2:0:0:
396,294,73361,1,0,0:2:0:0:
410,306,73427,6,0,B|346:336|346:336|260:281,1,125.000004768372,4|0,3:2|0:2,0:2:0:0:
217,339,73624,2,0,B|221:363|221:363|224:367|224:367|226:379,1,41.6666666666667,8|0,0:2|0:2,0:2:0:0:
443,153,73822,6,0,B|276:183|322:78|171:89|171:89|67:91|65:195|172:215|187:140|171:89|171:89|159:65|135:43,1,599.999981689454,4|0,3:2|0:2,0:2:0:0:
67,0,74414,6,0,P|51:42|59:74,1,62.5,8|2,0:2|0:2,0:2:0:0:
256,15,74743,2,0,P|194:24|135:43,1,125,0|0,0:2|0:2,0:2:0:0:
111,121,75203,1,8,0:2:0:0:
427,332,75401,6,0,P|346:136|473:225,1,500.000019073487,4|0,3:2|0:2,0:2:0:0:
364,243,75993,6,0,B|267:263|183:175|183:175|173:258|137:302,1,312.500011920929,4|0,3:2|0:2,0:2:0:0:
0,251,76387,6,0,B|42:304|53:340|53:340|39:175|123:105,1,312.500011920929,4|0,3:2|0:2,0:2:0:0:
148,71,76782,5,8,0:2:0:0:
148,71,77111,1,0,1:2:0:0:
218,123,77177,6,0,B|273:118|419:-3|419:-3|364:131|360:179,1,416.666666666667,4|0,3:2|0:2,0:2:0:0:
354,265,77572,6,0,P|322:245|294:233,1,62.5,8|2,0:2|0:2,0:2:0:0:
250,312,77901,2,0,P|218:332|190:344,1,62.5,0|0,0:2|0:2,0:2:0:0:
160,347,78164,2,0,L|146:396,2,31.25,2|0|8,0:2|0:2|0:2,0:2:0:0:
96,61,78559,6,0,B|65:23|-29:44|-35:175|152:226|130:5|306:90,1,416.666666666667,4|0,3:2|0:2,0:2:0:0:
379,40,78953,5,2,0:2:0:0:
465,91,79085,2,0,L|461:70,1,20.8333333333333,0|8,0:2|0:2,0:2:0:0:
381,126,79282,2,0,L|375:163,1,20.8333333333333,0|2,0:2|0:2,0:2:0:0:
464,198,79480,1,0,1:2:0:0:
467,179,79545,1,0,1:2:0:0:
423,324,79743,6,0,B|363:314|333:340|193:298,1,166.666666666667,6|0,3:2|0:2,0:2:0:0:
33,195,79940,1,8,0:2:0:0:
33,195,80137,6,0,B|23:216|-23:210|-43:181|36:132|84:150|107:172|104:177|103:184|163:190|163:190|282:205|296:21|114:77|163:190|163:190|199:247|182:295,1,599.999981689454,4|0,3:2|0:2,0:2:0:0:
126,321,80730,6,0,P|126:357|116:323,1,104.166666666667,8|0,0:2|0:2,0:2:0:0:
129,296,81124,5,2,0:2:0:0:
97,218,81322,1,2,0:2:0:0:
141,146,81519,1,2,0:2:0:0:
485,119,81716,6,0,B|425:135|382:93|382:93|336:117|318:161|318:161|253:76|150:125,1,333.333333333333,4|0,3:2|0:2,0:2:0:0:
141,146,82111,2,0,L|151:192,1,31.25,2|0,0:2|0:2,0:2:0:0:
241,30,82309,2,0,P|256:31|271:35,2,31.25,8|0|2,0:2|0:2|0:2,0:2:0:0:
14,188,82637,6,0,B|72:165|94:94|94:94|111:135|155:153,1,200,4|0,3:2|0:2,0:2:0:0:
213,220,82901,2,0,B|244:234|255:267|255:267|252:232|282:207,1,133.333333333333,6|0,3:2|0:2,0:2:0:0:
339,79,83098,6,0,P|306:26|280:137,1,233.333326212565,12|0,0:2|0:2,0:2:0:0:
415,249,83427,6,0,B|462:222|462:222|407:172|346:169|282:208,1,250,4|0,3:2|0:2,0:2:0:0:
229,287,83690,6,0,P|193:308|155:324,1,83.3333333333333,2|0,0:2|0:2,0:2:0:0:
313,343,83887,2,0,P|373:357|430:383,1,125,8|2,0:2|0:2,0:2:0:0:
62,156,84282,5,0,3:2:0:0:
46,141,84348,2,0,B|114:126|114:126|156:139|156:139|276:115,1,187.500007152558,4|0,1:2|0:2,0:2:0:0:
314,97,84611,6,0,B|309:156,1,41.6666666666667,0|0,3:2|0:2,0:2:0:0:
357,325,84809,1,0,0:2:0:0:
284,271,84874,6,0,B|334:206|404:207|431:285|549:327|599:159|516:96|426:153|416:158,1,374.999988555909,4|0,3:2|0:2,0:2:0:0:
421,60,85269,6,0,P|427:29|437:-1,2,62.5,2|8|2,0:2|0:2|0:2,0:2:0:0:
452,145,85795,2,0,P|431:149|410:149,1,41.6666666666667,0|0,0:2|0:2,0:2:0:0:
258,68,85993,1,0,0:2:0:0:
267,50,86059,6,0,L|290:209,1,125.000004768372,6|0,3:2|0:2,0:2:0:0:
211,304,86256,2,0,B|214:288|214:288|212:281|212:281|218:251,1,41.6666666666667,8|0,0:2|0:2,0:2:0:0:
103,150,86453,6,0,B|79:152|27:123|-1:55|90:19|123:26|156:69|190:136|190:136|225:205|286:228|387:202|360:129|323:92|253:119|247:148|294:181,1,599.999981689454,4|0,3:2|0:2,0:2:0:0:
286,186,87045,6,0,P|342:202|389:198,1,104.166666666667,8|0,0:2|0:2,0:2:0:0:
406,187,87440,5,2,0:2:0:0:
452,112,87637,1,2,0:2:0:0:
405,43,87835,2,0,P|384:42|364:47,1,41.6666666666667,10|0,0:2|0:2,0:2:0:0:
12,258,88032,6,0,B|85:165|198:203|198:203|283:215|315:285|231:360|151:300|199:203|199:203|238:117|238:117|161:128|110:114|39:78|38:5|153:-16|162:30|161:79|113:82,1,899.99997253418,4|0,3:2|0:2,0:2:0:0:
113,280,89414,5,8,0:2:0:0:
421,77,89809,6,0,B|360:93|360:93|320:114|320:114|282:74|282:74|211:47|211:47|243:82|243:82|261:134,1,312.500011920929,4|0,3:2|0:2,0:2:0:0:
288,197,90203,1,8,0:2:0:0:
139,197,90401,6,0,P|176:219|228:225,1,66.6666666666667,2|0,0:2|0:2,0:2:0:0:
288,197,90598,2,0,L|308:313,1,100,0|2,1:2|3:2,0:2:0:0:
469,358,90927,1,0,0:2:0:0:
444,375,90993,2,0,P|413:366|385:348,1,66.6666666666667,8|0,0:2|0:2,0:2:0:0:
475,199,91190,6,0,B|408:197|408:197|351:200|351:200|330:158|330:158|291:120|291:120|264:124|264:124|184:109,1,312.500011920929,4|0,3:2|0:2,0:2:0:0:
121,107,91585,1,2,0:2:0:0:
87,309,91782,2,0,P|105:260|111:233,1,66.6666666666667,8|0,0:2|0:2,0:2:0:0:
34,177,91980,6,0,B|101:213|101:213|160:197|160:197|222:219,1,187.500007152558,4|0,3:2|0:2,0:2:0:0:
213,245,92374,6,0,B|260:228|260:228|319:244|319:244|386:208,1,187.500007152558,4|0,3:2|0:2,0:2:0:0:
302,145,92769,1,8,0:2:0:0:
407,210,92901,6,0,B|461:275|461:275|535:220|535:220|480:108|480:108|346:128,1,375.000014305115,4|0,3:2|0:2,0:2:0:0:
325,160,93361,6,0,P|263:150|214:144,1,100,8|2,0:2|0:2,0:2:0:0:
64,94,93690,2,0,P|126:84|175:78,1,100,0|0,1:2|1:2,0:2:0:0:
250,71,93953,1,2,3:2:0:0:
148,254,94151,2,0,P|152:215|153:186,1,66.6666666666667,8|0,0:2|0:2,0:2:0:0:
83,332,94348,6,0,B|15:274|15:274|108:279|108:279|161:301|161:301|205:296|205:296|198:302|198:302|261:295|261:295|306:317|306:317|343:310|343:310|353:313|353:313|439:299,1,500.000019073487,4|0,3:2|0:2,0:2:0:0:
491,284,94940,6,0,B|460:224|460:224|410:214|410:214|442:169|442:169|421:98|421:98|344:58,1,291.666657765707,12|0,3:2|0:2,0:2:0:0:
351,153,95335,6,0,B|320:179|320:179|304:214|304:214|285:148|285:148|241:140|241:140|234:127|234:127|150:106,1,270.833320935568,4|0,3:2|0:2,0:2:0:0:
79,141,95730,6,0,B|133:139|133:139|171:111|171:111|212:122|212:122|255:100|255:100|341:87,1,233.333326212565,12|0,3:2|0:2,0:2:0:0:
451,79,96059,6,0,B|445:95|448:109|448:109|453:120|452:129|452:129|448:135|444:142|444:142|443:153|443:153|442:165|442:165|432:181,1,100,4|0,3:2|0:2,0:2:0:0:
415,265,96519,5,8,0:2:0:0:
130,352,96716,2,0,P|146:308|155:282,1,66.6666666666667,2|0,0:2|1:2,0:2:0:0:
116,212,96914,2,0,P|61:214|-2:207,1,100,0|2,0:2|3:2,0:2:0:0:
188,151,97243,1,0,0:2:0:0:
209,172,97309,2,0,P|264:174|302:171,1,66.6666666666667,8|0,0:2|0:2,0:2:0:0:
412,337,97506,6,0,B|402:297|402:297|405:287|405:287|404:279|399:271|399:271|398:256|398:256|392:244|385:200,1,124.999996185303,4|0,3:2|0:2,0:2:0:0:
441,146,97901,1,2,0:2:0:0:
312,300,98098,5,8,0:2:0:0:
193,244,98295,2,0,P|246:227|276:221,1,66.6666666666667,2|0,0:2|1:2,0:2:0:0:
313,158,98493,2,0,P|329:108|335:54,1,100,0|2,0:2|3:2,0:2:0:0:
397,199,98822,1,0,0:2:0:0:
420,216,98887,2,0,P|471:205|503:197,1,66.6666666666667,8|0,0:2|0:2,0:2:0:0:
380,367,99085,6,0,B|338:344|326:349|326:349|317:346|303:335|303:335|276:343|251:353|251:353|229:346|227:340|227:340|216:340|160:324,1,208.333333333333,4|0,3:2|0:2,0:2:0:0:
108,352,99480,1,2,0:2:0:0:
40,129,99677,6,0,P|62:186|73:242,1,100,8|2,0:2|0:2,0:2:0:0:
187,199,100006,1,0,1:2:0:0:
209,179,100072,2,0,P|260:168|285:169,1,66.6666666666667,0|0,1:2|0:2,0:2:0:0:
353,202,100269,1,2,3:2:0:0:
164,40,100466,2,0,L|150:125,1,66.6666666666667,8|0,0:2|0:2,0:2:0:0:
71,224,100664,6,0,P|150:198|103:362,1,333.333333333333,4|0,3:2|0:2,0:2:0:0:
81,229,101256,6,0,P|126:206|206:296,1,166.666666666667,0|0,3:2|0:2,0:2:0:0:
93,232,101651,6,0,P|136:214|199:271,1,124.999996185303,0|0,3:2|0:2,0:2:0:0:
105,232,102045,6,0,P|150:223|186:250,1,83.3333333333333,0|0,3:2|0:2,0:2:0:0:
189,339,102440,6,0,P|270:328|324:299,1,125,4|0,3:2|0:2,0:2:0:0:
256,192,102835,5,0,3:2:0:0:
256,192,103230,1,0,3:2:0:0:
256,192,103624,1,0,3:2:0:0:
255,209,104019,5,0,3:2:0:0:
239,189,104414,1,0,3:2:0:0:
258,173,104809,1,0,3:2:0:0:
274,192,105203,1,0,3:2:0:0:
254,216,105598,5,0,3:2:0:0:
230,187,105993,1,0,3:2:0:0:
259,163,106388,1,0,3:2:0:0:
283,192,106782,1,0,3:2:0:0:
254,230,107177,5,0,3:2:0:0:
217,185,107572,1,0,3:2:0:0:
261,149,107967,1,0,3:2:0:0:
296,192,108361,1,0,3:2:0:0:
213,230,108756,5,0,3:2:0:0:
220,144,109151,1,0,3:2:0:0:
307,152,109546,1,0,3:2:0:0:
297,234,109940,1,0,3:2:0:0:
192,250,110335,5,0,3:2:0:0:
203,121,110730,1,0,3:2:0:0:
333,132,111125,1,0,3:2:0:0:
318,257,111519,1,0,3:2:0:0:
160,280,111914,5,0,3:2:0:0:
177,86,112309,1,0,3:2:0:0:
371,103,112704,1,0,3:2:0:0:
348,290,113098,1,0,3:2:0:0:
118,319,113493,5,0,3:2:0:0:
142,42,113888,1,0,3:2:0:0:
419,66,114283,1,0,3:2:0:0:
389,335,114677,1,0,3:2:0:0:
113,191,115072,6,0,B|194:224|271:218|259:157|347:150|431:206,1,312.500011920929,4|0,3:2|0:2,0:2:0:0:
463,189,115466,6,0,P|476:130|458:71,1,100,8|0,3:2|0:2,0:2:0:0:
352,34,115861,1,8,3:2:0:0:
352,34,115960,1,8,0:2:0:0:
352,34,116059,1,8,0:2:0:0:
259,179,116256,2,0,P|337:165|379:159,1,100,8|0,3:2|0:2,0:2:0:0:
146,69,116651,6,0,P|195:76|244:86,1,100,8|0,3:2|0:2,0:2:0:0:
75,154,116947,2,0,L|83:195,1,25,8|8,0:2|0:2,0:2:0:0:
68,190,117045,2,0,P|117:180|166:172,1,100,8|8,3:2|0:2,0:2:0:0:
252,230,117440,1,8,3:2:0:0:
249,254,117539,1,8,0:2:0:0:
246,278,117637,1,8,0:2:0:0:
243,302,117736,1,8,0:2:0:0:
240,326,117835,2,0,P|307:314|349:300,1,100,8|0,3:2|0:2,0:2:0:0:
469,210,118230,6,0,P|421:196|371:188,1,100,8|0,3:2|0:2,0:2:0:0:
259,204,118526,2,0,P|257:189|254:170,1,25,8|8,0:2|0:2,0:2:0:0:
255,167,118624,2,0,P|207:180|157:188,1,100,8|0,3:2|0:2,0:2:0:0:
70,107,119019,1,8,3:2:0:0:
70,107,119118,1,8,0:2:0:0:
70,107,119216,1,8,0:2:0:0:
147,42,119414,2,0,P|194:55|244:63,1,100,8|0,3:2|0:2,0:2:0:0:
379,25,119809,6,0,L|367:140,1,100,8|0,3:2|0:2,0:2:0:0:
431,229,120105,2,0,L|399:219,1,25,8|8,0:2|0:2,0:2:0:0:
387,212,120203,2,0,L|397:311,1,100,8|0,3:2|0:2,0:2:0:0:
298,262,120598,1,8,3:2:0:0:
273,260,120697,1,8,0:2:0:0:
249,258,120795,1,8,0:2:0:0:
224,256,120894,1,8,0:2:0:0:
199,255,120993,2,0,P|150:261|96:272,1,100,8|0,3:2|0:2,0:2:0:0:
109,125,121387,6,0,P|99:102|86:81,1,50,8|8,3:2|0:2,0:2:0:0:
133,121,121585,2,0,P|130:97|124:73,1,50,8|8,3:2|0:2,0:2:0:0:
156,128,121782,2,0,P|159:103|160:79,2,50,8|8|8,3:2|0:2|0:2,3:2:0:0:
174,146,121980,2,0,P|183:122|191:99,1,50,8|8,3:2|0:2,0:2:0:0:
343,184,122177,6,0,P|353:161|366:140,1,50,8|8,3:2|0:2,0:2:0:0:
318,181,122375,2,0,P|321:156|329:133,1,50,8|8,3:2|0:2,0:2:0:0:
295,188,122572,2,0,P|292:163|293:138,2,50,8|8|8,3:2|0:2|0:2,0:2:0:0:
277,206,122770,2,0,P|268:183|262:159,1,50,8|8,3:2|0:2,0:2:0:0:
202,307,122966,6,0,L|153:318,1,50,8|8,3:2|0:2,0:2:0:0:
173,297,123164,2,0,L|123:295,1,50,8|8,3:2|0:2,0:2:0:0:
147,280,123361,2,0,L|99:265,2,50,8|8|8,3:2|0:2|0:2,0:2:0:0:
127,257,123559,2,0,L|84:230,1,50,8|8,3:2|0:2,0:2:0:0:
310,307,123756,6,0,L|358:318,1,50,8|8,3:2|0:2,0:2:0:0:
339,297,123954,2,0,L|388:295,1,50,8|8,3:2|0:2,0:2:0:0:
365,280,124151,2,0,L|412:265,2,50,8|8|8,3:2|0:2|0:2,0:2:0:0:
385,257,124349,2,0,L|427:230,1,50,8|8,3:2|0:2,0:2:0:0:
277,83,124545,6,0,L|319:78,1,25,8|8,3:2|0:2,0:2:0:0:
273,99,124644,1,8,3:2:0:0:
269,113,124743,1,0,3:2:0:0:
266,127,124841,1,0,3:2:0:0:
262,141,124940,1,0,3:2:0:0:
259,155,125039,1,0,3:2:0:0:
256,169,125137,1,0,3:2:0:0:
252,183,125236,1,0,3:2:0:0:
216,194,125335,6,0,L|174:189,1,25,8|8,3:2|0:2,0:2:0:0:
220,210,125434,1,8,3:2:0:0:
224,224,125533,1,0,3:2:0:0:
227,238,125631,1,0,3:2:0:0:
231,252,125730,1,0,3:2:0:0:
234,266,125829,1,0,3:2:0:0:
237,280,125927,1,0,3:2:0:0:
241,294,126026,1,0,3:2:0:0:
274,366,126124,6,0,P|308:354|351:348,1,74.9999977111817,0|8,3:2|0:2,0:2:0:0:
440,343,126651,6,0,P|433:317|425:274,1,62.5,0|0,0:2|0:2,0:2:0:0:
434,263,126914,1,8,0:2:0:0:
317,221,127045,2,0,P|322:231|327:240,2,20.8333333333333,0|0|0,0:2|0:2|0:2,0:2:0:0:
305,111,127243,6,0,B|335:116|335:116|355:117|355:117|366:126|366:126|385:129|385:129|452:137,1,104.166666666667,0|0,0:2|0:2,0:2:0:0:
424,134,127506,1,0,0:2:0:0:
88,118,127703,5,0,0:2:0:0:
88,118,127901,2,0,B|146:123|146:123|151:136|151:136|219:142,1,125.000004768372,0|0,0:2|0:2,0:2:0:0:
291,193,128098,6,0,P|301:152|306:93,1,83.3333333333333,12|0,0:2|0:2,0:2:0:0:
405,174,128295,2,0,P|395:133|390:74,1,83.3333333333333,2|0,0:2|0:2,0:2:0:0:
343,262,128493,2,0,P|396:274|475:314,1,125,0|2,0:2|3:2,0:2:0:0:
259,357,128822,1,0,0:2:0:0:
233,330,128887,2,0,P|234:277|256:200,1,125,8|0,0:2|3:2,0:2:0:0:
146,233,129216,5,0,0:2:0:0:
136,258,129282,1,0,0:2:0:0:
60,176,129414,1,0,0:2:0:0:
67,199,129480,1,2,0:2:0:0:
181,110,129677,2,0,P|112:97|53:77,1,125,8|2,0:2|0:2,0:2:0:0:
267,40,130006,5,0,0:2:0:0:
271,66,130072,1,0,0:2:0:0:
239,235,130203,1,0,0:2:0:0:
260,159,130269,2,0,B|328:178|373:201,1,83.3333333333333,2|0,3:2|0:2,0:2:0:0:
343,282,130466,2,0,B|353:274|421:255,1,83.3333333333333,8|0,0:2|0:2,0:2:0:0:
494,311,130664,1,2,3:2:0:0:
281,361,130861,5,0,0:2:0:0:
281,361,131059,1,2,0:2:0:0:
176,249,131256,2,0,P|176:314|179:347,1,83.3333333333333,8|0,0:2|0:2,0:2:0:0:
87,273,131453,2,0,P|89:231|88:189,1,83.3333333333333,2|0,0:2|0:2,0:2:0:0:
180,156,131651,6,0,P|233:157|292:120,1,125,0|2,0:2|3:2,0:2:0:0:
137,44,131980,1,0,0:2:0:0:
124,78,132045,2,0,P|71:79|12:42,1,125,8|2,0:2|3:2,0:2:0:0:
235,29,132374,5,0,0:2:0:0:
243,65,132440,1,0,0:2:0:0:
342,4,132572,1,0,0:2:0:0:
334,40,132638,1,2,0:2:0:0:
450,127,132835,2,0,P|387:126|320:149,1,125,8|2,0:2|0:2,0:2:0:0:
291,260,133164,5,0,3:2:0:0:
300,296,133230,1,0,0:2:0:0:
470,245,133361,1,0,0:2:0:0:
471,328,133427,2,0,P|424:313|373:299,1,83.3333333333333,2|0,3:2|0:2,0:2:0:0:
300,296,133624,2,0,P|259:307|220:320,1,83.3333333333333,8|0,0:2|0:2,0:2:0:0:
126,380,133822,1,2,3:2:0:0:
345,209,134019,5,0,0:0:0:0:
345,209,134216,1,0,0:0:0:0:
123,78,134414,6,0,P|145:136|157:180,1,83.3333333333333,12|0,0:2|0:2,0:2:0:0:
223,236,134611,2,0,P|235:196|251:157,1,83.3333333333333,2|0,0:2|0:2,0:2:0:0:
130,243,134809,2,0,P|77:260|11:295,1,125,0|2,0:2|3:2,0:2:0:0:
246,318,135137,1,0,0:2:0:0:
277,299,135203,2,0,P|330:316|396:351,1,125,8|2,0:2|0:2,0:2:0:0:
398,180,135532,5,0,0:2:0:0:
391,217,135598,1,0,0:2:0:0:
273,157,135730,1,0,0:2:0:0:
280,194,135796,1,2,0:2:0:0:
186,240,135993,2,0,P|122:230|41:212,1,125,8|2,0:2|0:2,0:2:0:0:
81,86,136322,5,0,0:2:0:0:
91,121,136387,1,0,0:2:0:0:
204,60,136519,1,0,0:2:0:0:
206,149,136585,2,0,P|256:132|283:103,1,83.3333333333333,2|0,3:2|0:2,0:2:0:0:
332,31,136782,2,0,P|382:48|409:77,1,83.3333333333333,8|0,0:2|0:2,0:2:0:0:
377,149,136980,1,2,3:2:0:0:
225,306,137177,5,0,0:2:0:0:
225,306,137374,1,2,0:2:0:0:
322,267,137572,2,0,P|369:273|424:283,1,83.3333333333333,8|0,0:2|0:2,0:2:0:0:
225,306,137769,2,0,P|178:312|123:322,1,83.3333333333333,2|0,0:2|0:2,0:2:0:0:
234,212,137966,2,0,P|229:159|232:78,1,125,0|2,0:2|3:2,0:2:0:0:
333,177,138295,1,0,0:2:0:0:
349,144,138361,2,0,P|425:142|485:169,1,125,8|2,0:2|3:2,0:2:0:0:
285,37,138690,5,0,0:2:0:0:
279,74,138756,1,0,0:2:0:0:
186,70,138887,1,0,0:2:0:0:
192,107,138953,1,2,0:2:0:0:
234,212,139151,2,0,P|176:215|100:231,1,125,8|2,0:2|0:2,0:2:0:0:
101,372,139480,5,0,3:2:0:0:
107,335,139545,1,0,0:2:0:0:
277,358,139677,1,0,0:2:0:0:
214,292,139743,2,0,P|224:241|240:192,1,83.3333333333333,2|0,3:2|0:2,0:2:0:0:
322,187,139940,2,0,P|333:227|341:268,1,83.3333333333333,8|0,0:2|0:2,0:2:0:0:
393,357,140137,2,0,P|447:327|481:316,1,83.3333333333333,2|0,3:2|0:2,0:2:0:0:
494,227,140335,6,0,P|467:222|454:217,1,41.6666666666667,4|0,0:2|0:2,0:2:0:0:
322,187,140730,6,0,P|280:199|220:229,1,83.3333333333333,8|0,0:2|0:2,0:2:0:0:
313,92,140927,2,0,P|352:107|389:128,1,83.3333333333333,2|0,0:2|0:2,0:2:0:0:
227,124,141124,2,0,P|191:91|107:72,1,125,0|2,0:2|3:2,0:2:0:0:
104,246,141453,1,0,0:2:0:0:
135,267,141519,2,0,P|195:253|243:214,1,125,8|2,0:2|3:2,0:2:0:0:
343,153,141848,5,0,0:2:0:0:
378,164,141914,1,0,0:2:0:0:
347,267,142045,1,0,0:2:0:0:
312,278,142111,1,2,0:2:0:0:
443,258,142309,2,0,P|472:320|490:382,1,125,8|2,0:2|0:2,0:2:0:0:
312,278,142637,5,0,0:2:0:0:
298,242,142703,1,0,0:2:0:0:
181,283,142835,1,0,0:2:0:0:
195,195,142901,2,0,P|136:192|95:187,1,83.3333333333333,2|0,3:2|0:2,0:2:0:0:
0,276,143098,2,0,P|41:271|83:270,1,83.3333333333333,8|0,0:2|0:2,0:2:0:0:
23,180,143295,2,0,P|23:138|28:97,1,83.3333333333333,2|0,3:2|0:2,0:2:0:0:
192,108,143493,5,0,0:2:0:0:
192,108,143690,1,2,0:2:0:0:
318,206,143887,2,0,P|324:147|332:107,1,83.3333333333333,8|0,0:2|0:2,0:2:0:0:
412,201,144085,2,0,P|418:242|422:283,1,83.3333333333333,2|0,0:2|0:2,0:2:0:0:
408,382,144282,2,0,P|333:344|260:322,1,125,0|2,0:2|3:2,0:2:0:0:
89,348,144611,1,0,0:2:0:0:
110,312,144677,2,0,P|185:274|258:252,1,125,8|2,0:2|3:2,0:2:0:0:
121,141,145006,5,0,0:2:0:0:
112,181,145072,1,0,0:2:0:0:
224,117,145203,1,0,0:2:0:0:
233,157,145269,1,2,0:2:0:0:
327,205,145466,2,0,P|387:190|455:184,1,125,8|2,0:2|0:2,0:2:0:0:
224,117,145795,5,0,3:2:0:0:
233,157,145861,1,0,0:2:0:0:
114,45,145993,1,0,0:2:0:0:
52,113,146059,2,0,P|103:133|141:151,1,83.3333333333333,2|0,3:2|0:2,0:2:0:0:
175,223,146256,2,0,P|124:243|86:261,1,83.3333333333333,8|0,0:2|0:2,0:2:0:0:
54,329,146453,1,2,3:2:0:0:
250,282,146651,6,0,B|275:288|275:288|278:293|278:293|313:300,6,52.0833333333333,0|0|0|0|0|0|2,3:2|3:2|3:2|3:2|3:2|3:2|3:2,3:2:0:0:
156,198,147045,6,0,P|192:190|257:178,1,83.3333333333333,8|0,0:2|0:2,0:2:0:0:
274,103,147243,2,0,P|314:110|355:119,1,83.3333333333333,2|0,0:2|0:2,0:2:0:0:
407,212,147440,2,0,P|402:260|394:356,1,125,0|2,0:2|3:2,0:2:0:0:
483,157,147769,1,0,0:2:0:0:
509,124,147835,2,0,P|503:61|497:0,1,125,8|2,0:2|3:2,0:2:0:0:
395,101,148164,5,0,0:2:0:0:
354,95,148230,1,0,0:2:0:0:
261,26,148361,1,0,0:2:0:0:
302,20,148427,1,2,0:2:0:0:
272,161,148624,2,0,P|265:212|256:314,1,125,8|2,0:2|0:2,0:2:0:0:
72,262,148953,5,0,0:2:0:0:
113,257,149019,1,0,0:2:0:0:
181,168,149151,1,0,0:2:0:0:
98,140,149216,2,0,P|91:89|88:26,1,83.3333333333333,2|0,3:2|0:2,0:2:0:0:
198,0,149414,2,0,P|194:41|188:82,1,83.3333333333333,8|0,0:2|0:2,0:2:0:0:
285,190,149611,2,0,P|279:148|275:107,1,83.3333333333333,2|0,3:2|0:2,0:2:0:0:
358,47,149809,5,0,0:2:0:0:
358,47,150006,1,2,0:2:0:0:
507,163,150203,2,0,P|445:154|398:145,1,83.3333333333333,8|0,0:2|0:2,0:2:0:0:
347,207,150401,2,0,P|305:212|264:219,1,83.3333333333333,2|0,0:2|0:2,0:2:0:0:
257,314,150598,2,0,P|327:327|391:340,1,125,0|2,0:2|3:2,0:2:0:0:
156,365,150927,1,0,0:2:0:0:
129,332,150993,2,0,P|61:303|36:293,1,83.3333333333333,8|0,0:2|0:2,0:2:0:0:
10,305,151190,1,2,3:2:0:0:
96,226,151322,6,0,P|108:183|121:110,1,93.7500035762788,0|0,0:2|0:2,0:2:0:0:
113,103,151585,1,2,0:2:0:0:
16,204,151782,1,2,0:2:0:0:
204,167,151980,2,0,P|255:160|291:157,1,62.5000023841859,0|0,0:2|0:2,0:2:0:0:
341,105,152177,2,0,P|372:108|402:113,1,62.5000023841859,2|0,0:2|0:2,0:2:0:0:
466,182,152374,1,0,0:2:0:0:
379,317,152506,1,0,0:2:0:0:
411,289,152572,6,0,P|317:281|241:305,1,125.000004768372,2|0,0:2|0:2,0:2:0:0:
208,335,152769,2,0,P|259:322|295:310,1,62.5000023841859,2|0,0:2|0:2,0:2:0:0:
186,243,152966,6,0,B|158:176|171:135|130:31,1,162.499992561341,6|0,3:2|0:2,0:2:0:0:
73,140,165598,6,0,B|207:84|251:200|381:127,1,270.833320935568,4|0,3:2|0:2,0:2:0:0:
402,99,165993,2,0,P|388:163|384:208,1,100,8|2,0:2|0:2,0:2:0:0:
429,284,166322,1,0,1:2:0:0:
429,284,166388,2,0,P|380:278|357:281,1,66.6666666666667,0|0,1:2|1:2,0:2:0:0:
346,296,166585,1,2,3:2:0:0:
137,331,166782,1,8,0:2:0:0:
236,370,166980,6,0,L|247:254,1,100,2|0,3:2|0:2,0:2:0:0:
151,212,167309,1,0,1:2:0:0:
151,212,167374,2,0,P|98:230|37:245,1,100,2|8,3:2|0:2,0:2:0:0:
228,128,167769,1,2,3:2:0:0:
308,165,167901,2,0,P|315:95|312:41,1,100,0|0,1:2|1:2,0:2:0:0:
311,43,168164,1,2,3:2:0:0:
220,36,168361,2,0,B|175:46|161:29|104:47,1,100,8|2,0:2|0:2,0:2:0:0:
19,54,168690,1,0,1:2:0:0:
19,54,168756,6,0,P|11:88|6:158,1,100,0|2,3:2|0:2,0:2:0:0:
114,282,169151,2,0,P|110:248|88:168,1,100,8|2,0:2|0:2,0:2:0:0:
0,311,169480,1,0,1:2:0:0:
0,311,169545,1,0,1:2:0:0:
77,373,169677,1,0,1:2:0:0:
77,373,169742,1,2,3:2:0:0:
189,240,169940,1,8,0:2:0:0:
289,370,170138,1,2,3:2:0:0:
189,344,170335,5,0,0:2:0:0:
283,269,170532,1,2,3:2:0:0:
386,308,170730,2,0,P|375:263|368:201,1,100,8|2,0:2|0:2,0:2:0:0:
355,62,171059,1,0,1:2:0:0:
355,62,171124,1,0,1:2:0:0:
421,133,171256,1,0,1:2:0:0:
421,133,171321,1,2,3:2:0:0:
305,139,171519,2,0,P|269:152|206:163,1,100,8|2,0:2|0:2,0:2:0:0:
102,73,171848,1,0,1:2:0:0:
102,73,171914,6,0,L|86:181,1,100,0|2,3:2|0:2,0:2:0:0:
63,280,172309,2,0,P|141:264|174:263,1,100,8|2,0:2|0:2,0:2:0:0:
266,321,172638,1,0,1:2:0:0:
266,321,172703,2,0,P|254:370|238:385,1,66.6666666666667,0|0,1:2|1:2,0:2:0:0:
220,381,172901,1,2,3:2:0:0:
162,264,173098,1,8,0:2:0:0:
246,190,173295,6,0,P|307:214|423:237,1,166.666666666667,2|0,3:2|0:2,0:2:0:0:
422,218,173690,1,2,3:2:0:0:
440,90,173888,2,0,P|391:96|332:107,1,100,8|2,0:2|0:2,0:2:0:0:
252,75,174216,1,0,1:2:0:0:
252,75,174282,1,0,1:2:0:0:
267,178,174414,1,0,1:2:0:0:
267,178,174480,1,2,3:2:0:0:
164,133,174677,1,8,0:2:0:0:
158,291,174874,2,0,L|84:274,1,66.6666666666667,2|0,0:2|0:2,0:2:0:0:
73,288,175072,6,0,P|81:233|84:172,1,100,0|2,3:2|0:2,0:2:0:0:
154,34,175466,2,0,P|158:84|165:134,1,100,8|2,0:2|0:2,0:2:0:0:
232,217,175795,1,0,1:2:0:0:
232,217,175861,2,0,P|279:222|317:217,1,66.6666666666667,0|0,1:2|1:2,0:2:0:0:
326,214,176059,1,2,3:2:0:0:
424,259,176256,1,8,0:2:0:0:
155,284,176453,5,2,3:2:0:0:
209,214,177045,5,8,0:2:0:0:
331,327,177440,5,0,0:2:0:0:
470,208,177835,5,8,0:2:0:0:
132,22,178230,6,0,P|126:36|123:50,1,25,4|0,3:2|0:2,0:2:0:0:
101,36,178624,2,0,P|98:51|99:65,1,25,0|0,3:2|0:2,0:2:0:0:
76,58,179019,2,0,P|77:73|82:86,1,25,0|0,3:2|0:2,0:2:0:0:
57,86,179414,2,0,P|62:100|70:112,1,25,0|0,3:2|0:2,0:2:0:0:
21,181,179809,6,0,P|46:191|72:197,1,50,0|0,3:2|0:2,0:2:0:0:
46,234,180203,2,0,P|73:237|99:236,1,50,0|0,3:2|0:2,0:2:0:0:
86,280,180598,2,0,P|113:276|138:268,1,50,0|0,3:2|0:2,0:2:0:0:
137,315,180993,2,0,P|162:304|184:290,1,50,0|0,3:2|0:2,0:2:0:0:
253,384,181387,6,0,P|269:346|277:308,1,74.9999977111817,0|0,3:2|0:2,0:2:0:0:
303,349,181782,2,0,P|308:308|306:270,1,74.9999977111817,0|0,3:2|0:2,0:2:0:0:
342,305,182176,2,0,P|337:264|325:227,1,74.9999977111817,0|0,3:2|0:2,0:2:0:0:
374,255,182571,2,0,P|358:217|337:184,1,74.9999977111817,0|0,3:2|0:2,0:2:0:0:
253,32,182966,6,0,P|225:58|206:90,1,74.9999977111817,0|0,3:2|0:2,0:2:0:0:
82,168,183361,2,0,P|108:196|140:215,1,74.9999977111817,0|0,3:2|0:2,0:2:0:0:
219,339,183756,2,0,P|247:313|266:281,1,74.9999977111817,0|0,3:2|0:2,0:2:0:0:
388,203,184151,2,0,P|363:175|331:156,1,74.9999977111817,0|0,3:2|0:2,0:2:0:0:
202,190,184545,5,0,3:2:0:0:
221,209,184743,1,0,3:2:0:0:
240,162,184940,1,0,3:2:0:0:
158,177,185137,1,0,3:2:0:0:
231,264,185335,5,0,3:2:0:0:
293,181,185532,1,0,3:2:0:0:
188,123,185730,1,0,3:2:0:0:
149,264,185927,1,0,3:2:0:0:
319,264,186124,5,0,3:2:0:0:
274,85,186322,1,0,3:2:0:0:
101,186,186519,1,0,3:2:0:0:
224,302,186716,1,0,3:2:0:0:
175,90,186914,5,0,3:2:0:0:
116,312,187111,1,0,3:2:0:0:
355,187,187309,1,0,3:2:0:0:
61,106,187506,1,0,3:2:0:0:
234,333,187703,5,0,3:2:0:0:
237,314,187802,1,0,3:2:0:0:
240,295,187901,1,0,3:2:0:0:
243,276,187999,1,0,3:2:0:0:
247,257,188098,1,0,3:2:0:0:
251,238,188197,1,0,3:2:0:0:
255,219,188295,1,0,3:2:0:0:
259,201,188394,1,0,3:2:0:0:
216,185,188493,5,0,3:2:0:0:
213,166,188592,1,0,3:2:0:0:
210,147,188691,1,0,3:2:0:0:
207,128,188789,1,0,3:2:0:0:
203,109,188888,1,0,3:2:0:0:
199,90,188987,1,0,3:2:0:0:
195,71,189085,1,0,3:2:0:0:
191,53,189184,1,0,3:2:0:0:
269,9,189282,5,0,3:2:0:0:
387,171,189480,6,0,P|401:105|407:84,1,56.2499982833863,8|0,0:2|0:2,0:2:0:0:
301,197,189677,2,0,P|305:218|311:263,1,56.2499982833863,8|0,0:2|0:2,0:2:0:0:
252,325,189874,1,0,1:2:0:0:
252,325,189973,1,0,1:2:0:0:
252,325,190072,6,0,L|171:311,1,56.2499982833863,8|8,0:2|1:2,0:2:0:0:
101,248,190269,1,0,1:2:0:0:
113,349,190368,1,0,1:2:0:0:
202,229,190466,6,0,L|209:183,1,37.5,8|0,0:2|0:2,0:2:0:0:
148,107,190861,6,0,P|225:90|272:90,1,99.9999969482423,4|0,3:2|0:2,0:0:0:0:
450,194,191059,2,0,P|348:186|300:173,1,149.999995422363,2|8,0:2|0:2,0:0:0:0:
238,68,191387,1,0,0:0:0:0:
245,89,191453,1,2,0:0:0:0:
142,132,191585,1,0,1:2:0:0:
148,107,191651,6,0,P|91:100|24:127,1,99.9999969482423,0|0,3:2|0:2,0:0:0:0:
34,136,191848,1,2,0:2:0:0:
3,225,191980,2,0,P|14:253|30:273,1,49.9999984741211,0|8,0:2|0:2,0:0:0:0:
230,259,192177,1,0,0:2:0:0:
215,246,192243,2,0,P|158:228|103:221,1,99.9999969482423,2|0,0:2|1:2,0:0:0:0:
194,360,192440,6,0,P|267:363|308:374,1,99.9999969482423,0|0,3:2|0:2,0:0:0:0:
366,318,192637,2,0,P|332:253|321:212,1,99.9999969482423,2|0,0:2|0:2,0:0:0:0:
359,145,192835,1,8,0:2:0:0:
236,153,192966,1,0,0:0:0:0:
242,173,193032,6,0,P|202:234|130:294,1,149.999995422363,2|0,0:2|3:2,0:0:0:0:
1,79,193361,1,0,0:2:0:0:
26,67,193427,2,0,P|76:75|124:87,1,99.9999969482423,2|0,0:2|0:2,0:0:0:0:
129,176,193624,1,8,0:2:0:0:
228,132,193756,1,0,0:0:0:0:
236,153,193822,1,2,0:0:0:0:
218,36,193953,1,0,1:2:0:0:
235,28,194019,6,0,B|315:23|283:84|402:76,1,149.999995422363,0|2,3:2|0:2,0:0:0:0:
475,79,194282,2,0,P|472:117|451:141,1,49.9999984741211
439,204,194414,2,0,P|378:188|303:187,1,99.9999969482423,8|0,0:0|0:0,0:0:0:0:
242,150,194611,6,0,P|191:157|140:185,1,99.9999969482423,2|0,0:0|0:0,0:0:0:0:
130,209,194809,1,0,3:2:0:0:
235,242,194940,1,0,0:2:0:0:
251,260,195006,2,0,L|262:390,1,99.9999969482423,2|0,0:2|0:2,0:0:0:0:
122,375,195203,2,0,P|136:327|146:278,1,99.9999969482423,8|0,0:2|0:0,0:0:0:0:
51,152,195401,2,0,P|99:168|148:178,1,99.9999969482423,2|0,0:2|1:2,0:0:0:0:
408,175,195598,5,0,3:2:0:0:
337,240,195730,1,0,0:2:0:0:
347,256,195796,1,2,0:2:0:0:
410,325,195927,1,0,0:2:0:0:
400,341,195993,2,0,B|326:373|319:318|241:342,1,149.999995422363,8|2,0:2|0:2,0:0:0:0:
85,326,196322,5,0,1:2:0:0:
102,308,196387,1,0,3:2:0:0:
71,212,196519,1,0,0:2:0:0:
96,212,196584,1,2,0:2:0:0:
141,118,196716,1,0,0:2:0:0:
158,135,196781,1,8,0:2:0:0:
254,103,196914,1,0,0:2:0:0:
254,129,196980,2,0,P|318:145|380:152,1,99.9999969482423,2|0,0:2|1:2,0:0:0:0:
503,97,197177,6,0,P|478:151|459:221,1,99.9999969482423,0|0,3:2|0:2,0:0:0:0:
402,340,197374,2,0,P|395:290|381:241,1,99.9999969482423,2|0,0:2|0:2,0:0:0:0:
352,150,197572,1,8,0:2:0:0:
273,214,197703,1,0,0:0:0:0:
279,237,197769,1,2,0:0:0:0:
241,327,197901,1,0,1:2:0:0:
264,338,197966,6,0,P|322:323|423:313,1,149.999995422363,0|2,3:2|0:2,0:0:0:0:
193,215,198295,1,0,0:2:0:0:
178,237,198361,2,0,P|129:250|11:262,1,149.999995422363,8|2,0:2|0:2,0:0:0:0:
183,131,198690,1,0,1:2:0:0:
195,113,198756,6,0,L|209:12,1,99.9999969482423,0|0,3:2|0:2,0:0:0:0:
292,138,198953,2,0,L|312:278,1,99.9999969482423,2|0,0:2|0:2,0:0:0:0:
298,268,199151,1,8,0:2:0:0:
441,333,199348,1,2,0:2:0:0:
476,249,199480,1,0,1:2:0:0:
451,242,199546,1,0,3:2:0:0:
391,167,199677,1,0,0:2:0:0:
416,160,199743,1,2,0:2:0:0:
352,270,199874,5,0,0:2:0:0:
328,262,199940,2,0,P|258:249|204:243,1,99.9999969482423,8|0,0:2|0:0,0:0:0:0:
154,348,200137,2,0,P|224:335|278:329,1,99.9999969482423,2|0,0:2|1:2,0:0:0:0:
142,256,200335,6,0,P|124:200|100:131,1,99.9999969482423,0|2,3:2|0:2,0:0:0:0:
88,148,200532,1,2,0:2:0:0:
158,73,200664,1,0,0:2:0:0:
181,61,200730,2,0,P|231:92|266:166,1,99.9999969482423,8|0,0:2|0:2,0:0:0:0:
278,208,200927,1,2,0:2:0:0:
338,101,201059,1,0,1:2:0:0:
339,84,201124,6,0,P|402:60|464:68,1,99.9999969482423,0|0,3:2|0:0,0:0:0:0:
512,185,201322,2,0,P|449:161|387:169,1,99.9999969482423,2|0,0:2|0:2,0:0:0:0:
363,241,201519,2,0,P|354:319|319:395,1,149.999995422363,8|2,0:2|0:2,0:0:0:0:
132,181,201848,1,0,1:2:0:0:
118,201,201914,6,0,P|217:209|283:190,1,149.999995422363,0|2,3:2|0:2,0:0:0:0:
326,37,202243,1,0,0:2:0:0:
320,61,202309,1,8,0:2:0:0:
400,111,202440,1,0,0:2:0:0:
406,135,202506,1,2,0:2:0:0:
266,198,202637,5,0,1:2:0:0:
301,190,202703,1,0,3:2:0:0:
382,281,202835,1,0,0:2:0:0:
345,271,202901,1,2,0:2:0:0:
197,378,203098,6,0,P|212:324|233:207,1,149.999995422363,8|2,0:2|0:2,0:0:0:0:
50,169,203427,1,0,1:2:0:0:
24,244,203493,6,0,P|117:188|153:185,1,116.666663106283,4|0,3:2|0:0,0:0:0:0:
142,96,203690,2,0,P|196:115|240:153,1,116.666663106283,2|0,0:2|0:2,0:0:0:0:
343,178,203887,2,0,P|330:113|338:36,1,99.9999969482423,8|0,0:2|0:2,0:0:0:0:
352,63,204085,1,2,0:2:0:0:
479,133,204216,1,0,1:2:0:0:
456,143,204282,6,0,P|429:210|414:276,1,99.9999969482423,0|0,3:2|0:2,0:0:0:0:
437,261,204480,1,2,0:2:0:0:
359,319,204611,2,0,P|362:342|370:367,1,49.9999984741211,0|8,0:2|0:2,0:0:0:0:
264,302,204809,1,0,0:2:0:0:
248,295,204874,2,0,P|200:306|152:321,1,99.9999969482423,2|0,0:2|1:2,0:0:0:0:
54,363,205072,6,0,L|67:249,1,99.9999969482423,0|0,3:2|0:2,0:0:0:0:
133,115,205269,2,0,L|144:214,1,99.9999969482423,2|0,0:2|0:2,0:0:0:0:
162,221,205466,1,8,0:2:0:0:
222,103,205598,1,0,0:0:0:0:
221,72,205664,6,0,P|166:20|64:39,1,149.999995422363,2|0,0:2|3:2,0:0:0:0:
109,124,205993,1,0,0:2:0:0:
133,115,206059,1,2,0:2:0:0:
267,194,206190,1,0,0:2:0:0:
243,185,206256,1,8,0:2:0:0:
138,230,206387,1,0,0:2:0:0:
162,221,206453,1,2,0:2:0:0:
251,363,206585,1,0,1:2:0:0:
232,347,206651,6,0,P|153:328|70:347,1,149.999995422363,0|2,3:2|0:2,0:0:0:0:
138,230,206914,2,0,P|162:231|199:248,1,49.9999984741211,0|0,0:0|0:2,0:0:0:0:
280,270,207045,2,0,P|279:220|275:171,1,99.9999969482423,8|0,0:2|0:0,0:0:0:0:
376,249,207243,2,0,P|371:299|371:349,1,99.9999969482423,2|0,0:2|1:2,0:0:0:0:
390,352,207440,5,0,3:2:0:0:
506,280,207572,1,0,0:2:0:0:
512,265,207637,2,0,P|486:211|411:218,1,99.9999969482423,2|0,0:2|0:2,0:0:0:0:
261,78,207835,2,0,P|257:127|278:172,1,99.9999969482423,8|0,0:2|0:2,0:0:0:0:
377,157,208032,2,0,P|380:107|359:62,1,99.9999969482423,2|0,0:2|1:2,0:0:0:0:
296,0,208230,5,0,3:2:0:0:
164,97,208361,1,0,0:2:0:0:
181,111,208427,1,2,0:2:0:0:
278,172,208559,1,0,0:2:0:0:
257,189,208624,2,0,P|195:201|85:189,1,149.999995422363,8|2,0:2|0:2,0:0:0:0:
296,0,208953,5,0,1:2:0:0:
311,19,209019,1,0,3:2:0:0:
412,38,209151,1,0,0:2:0:0:
409,62,209217,1,2,0:2:0:0:
487,132,209348,1,0,0:2:0:0:
468,147,209414,1,8,0:2:0:0:
462,240,209546,1,0,0:2:0:0:
439,246,209611,2,0,P|381:241|334:225,1,99.9999969482423,2|0,0:0|0:0,0:0:0:0:
240,273,209809,6,0,P|241:223|253:174,1,99.9999969482423,0|0,3:2|0:2,0:0:0:0:
387,106,210006,2,0,P|333:104|288:87,1,99.9999969482423,2|0,0:2|0:2,0:0:0:0:
272,60,210203,1,8,0:2:0:0:
173,71,210335,1,0,0:0:0:0:
165,93,210401,1,2,0:0:0:0:
56,120,210532,1,0,1:2:0:0:
78,121,210598,6,0,P|122:223|131:286,1,149.999995422363,0|2,3:2|0:2,0:0:0:0:
164,372,210927,1,0,0:2:0:0:
180,352,210993,2,0,P|230:333|300:330,1,99.9999969482423,8|0,0:2|0:0,0:0:0:0:
298,335,211190,1,2,0:2:0:0:
429,261,211322,1,0,1:2:0:0:
413,271,211387,6,0,P|393:338|390:385,1,99.9999969482423,0|0,3:2|0:2,0:0:0:0:
325,241,211585,2,0,P|341:193|356:109,1,99.9999969482423,2|0,0:2|0:2,0:0:0:0:
338,105,211782,1,8,0:0:0:0:
102,87,211980,5,2,0:2:0:0:
160,165,212111,1,0,1:2:0:0:
136,171,212177,1,0,3:2:0:0:
48,231,212309,1,0,0:2:0:0:
72,237,212375,1,2,0:2:0:0:
139,333,212506,1,0,0:2:0:0:
148,309,212572,2,0,P|195:283|323:277,1,149.999995422363,8|2,0:2|0:2,0:0:0:0:
413,192,212901,1,0,1:2:0:0:
432,199,212966,6,0,P|453:281|456:321,1,99.9999969482423,0|0,3:2|0:2,0:0:0:0:
331,180,213164,2,0,P|352:98|355:58,1,99.9999969482423,2|0,0:2|0:2,0:0:0:0:
289,270,213361,2,0,P|239:262|135:227,1,149.999995422363,8|2,0:2|0:2,0:0:0:0:
31,80,213690,1,0,1:2:0:0:
50,63,213756,6,0,P|103:46|171:143,1,149.999995422363,0|2,3:2|0:2,0:0:0:0:
172,190,214019,2,0,P|161:211|137:238,1,49.9999984741211,0|0,0:0|0:2,0:0:0:0:
56,254,214151,2,0,P|38:313|28:377,1,99.9999969482423,8|0,0:2|0:2,0:0:0:0:
284,296,214348,6,0,B|208:291|220:352|125:338,1,149.999995422363,2|2,0:2|3:2,0:0:0:0:
144,339,214743,1,0,0:2:0:0:
165,350,214940,1,2,0:2:0:0:
186,351,215137,1,0,0:2:0:0:
383,317,215335,6,0,P|376:293|366:276,1,41.6666666666667,2|0,0:0|0:0,0:0:0:0:
405,294,215532,2,0,P|383:281|363:277,1,41.6666666666667
349,195,215730,6,0,P|329:201|311:211,1,41.6666666666667,2|0,0:0|0:0,0:0:0:0:
327,174,215927,2,0,P|317:191|311:211,1,41.6666666666667
284,296,216124,5,6,3:2:0:0:
256,192,216190,12,0,220466,0:2:0:0:
143,201,220861,5,2,0:2:0:0:
143,201,221256,1,2,0:2:0:0:
143,201,221651,1,2,0:2:0:0:
143,201,222045,1,2,0:2:0:0:
362,246,222440,6,0,P|329:235|246:227,1,100,12|8,0:2|0:2,0:2:0:0:
232,316,222835,2,0,P|182:321|134:335,1,100,8|8,0:2|0:2,0:2:0:0:
29,165,223230,2,0,P|52:224|65:269,1,100,8|8,0:2|0:2,0:2:0:0:
44,361,223624,1,8,0:2:0:0:
151,231,223822,1,8,0:2:0:0:
325,354,224019,5,8,0:2:0:0:
269,239,224216,1,8,0:2:0:0:
136,356,224414,2,0,P|191:340|244:331,1,100,8|8,0:2|0:2,0:2:0:0:
405,299,224809,1,8,0:2:0:0:
344,358,225006,1,8,0:2:0:0:
210,243,225203,1,8,0:2:0:0:
367,210,225401,1,8,0:2:0:0:
327,53,225598,5,0,3:2:0:0:
283,33,225697,1,8,0:2:0:0:
239,39,225796,1,8,0:2:0:0:
202,63,225895,1,8,1:2:0:0:
149,64,225993,5,0,3:2:0:0:
181,84,226092,1,8,0:2:0:0:
208,120,226191,1,8,0:2:0:0:
217,163,226288,1,0,1:2:0:0:
243,167,226388,5,0,3:2:0:0:
198,181,226487,1,8,0:2:0:0:
171,217,226584,1,8,0:2:0:0:
162,260,226683,1,0,1:2:0:0:
133,221,226783,6,0,P|83:207|21:214,1,93.7500035762788,8|8,1:2|0:2,0:2:0:0:
108,370,226980,6,0,P|163:353|260:335,1,150,0|0,0:2|0:2,0:2:0:0:
401,327,228361,6,0,B|302:233|277:129|306:62|474:43|451:163|440:196|402:223,1,416.666666666667,0|0,0:2|0:2,0:2:0:0:
346,260,228756,6,0,L|218:250,1,125,4|0,3:2|0:2,0:2:0:0:
219,261,229480,1,0,0:2:0:0:
215,277,229743,2,0,P|214:304|209:342,1,62.5,0|2,0:2|0:2,0:2:0:0:
96,218,230072,1,0,0:2:0:0:
23,269,230203,6,0,P|64:250|132:239,1,104.166666666667,0|0,0:2|0:2,0:2:0:0:
199,295,230664,2,0,P|227:276|253:256,1,62.5,0|0,0:2|0:2,0:2:0:0:
270,261,230927,1,0,0:2:0:0:
36,134,231124,1,0,0:2:0:0:
14,151,231322,6,0,P|148:164|225:159,1,166.666666666667,2|0,0:2|0:2,0:2:0:0:
287,101,231519,1,8,0:2:0:0:
287,101,231716,6,0,B|230:61|240:10|269:-32|324:-24|372:-18|421:47|366:173|325:249|235:275|120:223|83:153|88:109|178:79|192:132|176:188,1,599.999981689454,4|0,3:2|0:2,0:2:0:0:
194,216,232309,6,0,P|223:226|253:233,1,62.5,8|2,0:2|0:2,0:2:0:0:
344,242,232637,1,0,0:2:0:0:
363,260,232703,2,0,P|370:300|370:338,1,62.5,0|2,0:2|0:2,0:2:0:0:
427,183,233098,1,8,0:2:0:0:
48,268,233295,6,0,B|90:299|125:343|125:343|90:182|159:82,1,333.333333333333,4|0,3:2|0:2,0:2:0:0:
210,50,233690,2,0,L|264:37,1,41.6666666666667,2|0,0:2|0:2,0:2:0:0:
198,133,233887,2,0,L|129:120,1,62.5,8|2,0:2|0:2,0:2:0:0:
235,323,234216,1,0,0:2:0:0:
329,362,234282,6,0,B|372:227|230:268|271:87|319:75|406:87,1,333.333333333333,4|0,3:2|0:2,0:2:0:0:
385,177,234677,6,0,B|253:170|299:268|160:248,1,233.333326212565,12|0,0:2|0:2,0:2:0:0:
121,334,235006,6,0,P|272:215|80:208,1,500,4|0,3:2|0:2,0:2:0:0:
50,295,235466,5,0,0:2:0:0:
50,295,235664,1,2,0:2:0:0:
121,334,235861,2,0,P|161:340|193:342,1,62.5,0|2,0:2|0:2,0:2:0:0:
403,286,236190,6,0,L|349:277,1,41.6666666666667,0|0,0:2|0:2,0:2:0:0:
210,128,236387,1,0,0:2:0:0:
195,211,236453,6,0,B|175:239|134:249|134:249|270:282|273:144|433:205,1,374.999988555909,4|0,3:2|0:2,0:2:0:0:
492,265,236848,6,0,P|503:210|507:198,2,62.5,2|8|0,0:2|0:2|0:2,0:2:0:0:
415,325,237374,2,0,P|407:306|403:286,1,41.6666666666667,0|0,0:2|0:2,0:2:0:0:
460,121,237572,1,0,0:2:0:0:
452,107,237637,6,0,B|403:105|387:94|387:94|354:100|354:100|357:105|357:105|333:106|333:106|300:85|246:90,1,208.333333333333,6|0,3:2|0:2,0:2:0:0:
143,42,237835,2,0,B|163:58|163:58|163:62|163:62|170:72,1,41.6666666666667,8|0,0:2|0:2,0:2:0:0:
266,238,238032,6,0,B|296:306|379:279|372:130|236:183|197:214|174:233|174:233|142:252|115:293|5:316|-99:187|43:107|108:139|125:183|84:242|28:241,1,599.999981689454,4|0,3:2|0:2,0:2:0:0:
81,212,238624,6,0,P|72:254|62:285,1,62.5,8|2,0:2|0:2,0:2:0:0:
100,349,238953,1,0,0:2:0:0:
117,347,239019,2,0,P|167:333|213:310,1,104.166666666667,0|0,0:2|0:2,0:2:0:0:
288,350,239414,5,8,0:2:0:0:
107,82,239611,6,0,B|40:54|-38:117|3:238|88:221|142:194|184:172|185:175|183:168|233:137|312:126|359:150|391:225,1,500.000019073487,4|0,3:2|0:2,0:2:0:0:
392,266,240203,6,0,B|484:194|484:194|292:236,1,312.500011920929,4|0,3:2|0:2,0:2:0:0:
223,311,240598,6,0,B|179:330|147:376|147:376|169:249|130:136,1,312.500011920929,4|0,3:2|0:2,0:2:0:0:
129,78,240993,6,0,P|109:44|106:83,1,104.166666666667,8|0,0:2|1:2,0:2:0:0:
236,171,241387,6,0,B|288:202|342:179|341:175|341:172|393:127|475:177|489:258|445:329|371:343|301:283,1,416.666666666667,4|0,3:2|0:2,0:2:0:0:
227,291,241782,6,0,P|222:322|221:354,1,62.5,8|2,0:2|0:2,0:2:0:0:
310,332,242111,2,0,P|340:340|369:350,1,62.5,0|0,0:2|0:2,0:2:0:0:
441,300,242374,2,0,L|484:290,2,31.25,2|0|8,0:2|0:2|0:2,0:2:0:0:
81,114,242769,6,0,B|54:87|3:71|3:71|67:58|188:80|134:135|231:164|350:112,1,416.666666666667,4|0,3:2|0:2,0:2:0:0:
400,96,243164,5,2,0:2:0:0:
384,179,243295,2,0,L|358:204,1,20.8333333333333,0|8,0:2|0:2,0:2:0:0:
470,147,243493,2,0,L|505:158,1,20.8333333333333,0|2,0:2|0:2,0:2:0:0:
400,96,243690,1,0,0:2:0:0:
389,73,243756,1,0,0:2:0:0:
384,179,243953,6,0,B|297:174|317:254|211:230,1,166.666666666667,4|0,3:2|0:2,0:2:0:0:
43,242,244151,1,8,0:2:0:0:
43,242,244348,6,0,B|30:278|-1:306|-71:243|-19:186|34:171|80:199|136:250|136:250|193:302|258:301|343:241|292:182|227:125|175:180|192:246|244:232,1,599.999981689454,6|0,3:2|0:2,0:2:0:0:
262,287,244940,6,0,P|311:274|338:273,1,62.5,8|0,0:2|0:2,0:2:0:0:
402,334,245269,1,0,0:2:0:0:
416,318,245335,2,0,P|428:268|432:244,2,62.5,0|0|0,0:2|0:2|0:2,0:2:0:0:
423,131,245927,6,0,B|345:88|224:122|316:180|196:231|72:171,1,333.333333333333,4|0,3:2|0:2,0:2:0:0:
35,151,246322,2,0,P|65:115|93:103,1,62.5,2|8,0:2|0:2,0:2:0:0:
192,98,246651,1,0,0:2:0:0:
175,84,246716,1,2,0:2:0:0:
91,245,246848,6,0,P|161:221|316:239,1,200,4|0,3:2|0:2,0:2:0:0:
363,323,247111,6,0,P|379:253|398:195,1,133.333333333333,4|0,3:2|0:2,0:2:0:0:
427,68,247309,6,0,P|414:168|321:129,1,233.333326212565,12|0,0:2|0:2,0:2:0:0:
272,13,247637,6,0,B|342:37|342:37|120:77,1,250,4|0,3:2|0:2,0:2:0:0:
14,142,247901,6,0,L|207:160,1,166.666666666667,2|0,0:2|0:2,0:2:0:0:
279,188,248098,2,0,P|242:244|236:254,1,62.5,0|2,0:2|0:2,0:2:0:0:
476,27,248493,5,0,3:2:0:0:
491,46,248559,2,0,P|412:106|268:50,1,250,4|0,1:2|0:2,0:2:0:0:
193,58,248822,6,0,P|190:37|188:17,1,41.6666666666667,0|0,3:2|0:2,0:2:0:0:
128,242,249019,1,0,0:2:0:0:
62,165,249085,6,0,B|101:127|224:124|177:191|265:243|447:261|308:27|271:192,1,374.999988555909,6|0,3:2|0:2,0:2:0:0:
257,219,249480,6,0,P|263:262|269:282,2,62.5,2|8|2,0:2|0:2|0:2,0:2:0:0:
250,136,250006,2,0,L|209:143,1,41.6666666666667,0|0,0:2|0:2,0:2:0:0:
466,146,250203,1,0,0:2:0:0:
388,194,250269,6,0,B|379:133|379:133|389:89|389:89|366:-38,1,166.666666666667,4|0,3:2|0:2,0:2:0:0:
290,32,250466,2,0,B|267:24|267:24|259:25|259:25|249:22,1,41.6666666666667,8|0,0:2|0:2,0:2:0:0:
60,188,250664,6,0,B|205:275|199:161|336:225|336:225|433:264|397:362|290:342|303:267|336:225|336:225|356:207|388:195,1,599.999981689454,4|0,3:2|0:2,0:2:0:0:
466,146,251256,6,0,P|479:197|471:219,1,62.5,8|0,0:2|0:2,0:2:0:0:
386,115,251585,1,0,0:2:0:0:
387,93,251651,2,0,P|397:62|418:29,1,62.5,0|0,0:2|0:2,0:2:0:0:
476,205,252045,1,8,0:2:0:0:
272,71,252243,6,0,B|204:80|184:139|184:139|157:203|23:209|-25:92|142:49|184:139|184:139|199:187|212:236|188:293|188:293|234:236|308:155|384:175|414:261|351:322|303:272|330:231,1,899.99997253418,4|0,3:2|0:2,0:2:0:0:
323,253,253624,5,8,0:2:0:0:
70,348,254019,6,0,L|265:329,1,162.499992561341,4|2,3:2|0:2,0:2:0:0:
400,356,254414,2,0,P|414:294|433:239,1,93.7500035762788,8|2,0:2|0:2,0:2:0:0:
482,187,254743,1,8,0:1:0:0:
482,187,254809,2,0,L|396:171,1,62.5000023841859,0|0,1:0|1:0,0:0:0:0:
389,168,255006,1,2,3:2:0:0:
267,125,255203,1,8,0:0:0:0:
379,81,255401,1,2,3:2:0:0:
319,243,255598,5,0,0:2:0:0:
267,125,255730,1,0,1:2:0:0:
267,125,255795,2,0,P|215:126|180:131,1,62.5000023841859,0|0,3:0|0:0,0:0:0:0:
181,149,255993,2,0,P|169:203|162:249,1,93.7500035762788,8|2,0:2|0:2,0:2:0:0:
142,338,256322,5,8,0:1:0:0:
142,338,256387,2,0,P|92:335|54:337,1,62.5000023841859,0|0,0:0|1:0,0:0:0:0:
27,271,256585,2,0,P|35:215|34:189,1,62.5000023841859,0|0,3:0|0:0,0:0:0:0:
96,153,256782,2,0,P|78:106|57:48,1,93.7500035762788,8|2,0:2|0:2,0:2:0:0:
192,38,257111,1,0,1:2:0:0:
192,38,257177,6,0,P|245:45|298:54,1,93.7500035762788,0|2,3:2|0:2,0:2:0:0:
421,88,257572,1,8,0:2:0:0:
301,170,257769,1,2,0:2:0:0:
396,230,257901,1,8,0:1:0:0:
396,230,257966,2,0,P|393:277|392:312,1,62.5000023841859,0|0,1:0|1:0,0:0:0:0:
316,383,258164,2,0,P|314:351|312:320,1,62.5000023841859,2|0,3:2|0:0,0:0:0:0:
287,295,258361,1,8,0:2:0:0:
326,153,258559,1,2,3:2:0:0:
512,322,258756,6,0,P|461:333|428:337,1,62.5000023841859
422,321,258953,1,2,3:2:0:0:
320,329,259151,2,0,B|273:339|266:320|207:331,1,93.7500035762788,8|2,0:2|0:2,0:2:0:0:
172,253,259480,1,8,0:1:0:0:
172,253,259545,6,0,P|188:192|189:181,1,62.5000023841859,0|0,1:0|0:0,0:0:0:0:
194,162,259742,1,2,3:2:0:0:
11,159,259940,2,0,P|47:183|107:196,1,93.7500035762788,8|2,0:2|0:2,0:2:0:0:
202,66,260269,1,0,1:2:0:0:
202,66,260335,6,0,P|266:52|313:55,1,93.7500035762788,0|2,3:2|0:2,0:2:0:0:
463,146,260730,2,0,P|399:132|352:135,1,93.7500035762788,8|2,0:2|0:2,0:2:0:0:
298,221,261059,1,8,0:1:0:0:
298,221,261124,2,0,P|313:276|318:306,1,62.5000023841859,0|0,1:0|1:0,1:0:0:0:
311,313,261322,1,0,3:0:0:0:
247,380,261519,5,8,0:2:0:0:
445,304,261716,1,2,3:2:0:0:
296,216,261914,1,0,0:2:0:0:
213,289,262045,1,0,1:0:0:0:
213,289,262111,2,0,P|172:302|155:311,1,62.5000023841859,0|0,3:0|0:0,0:0:0:0:
117,225,262309,2,0,P|103:177|96:125,1,93.7500035762788,8|2,0:2|0:2,0:2:0:0:
64,42,262637,1,8,0:1:0:0:
64,42,262703,6,0,P|113:46|155:41,1,62.5000023841859,0|0,0:0|1:0,0:0:0:0:
155,33,262901,1,2,3:2:0:0:
362,79,263098,1,8,0:2:0:0:
274,203,263295,1,2,0:2:0:0:
247,111,263427,1,0,1:0:0:0:
247,111,263493,6,0,P|251:60|262:8,1,93.7500035762788,0|2,3:2|0:2,0:2:0:0:
265,238,263887,1,8,0:2:0:0:
358,98,264085,1,2,0:2:0:0:
452,147,264216,1,8,0:1:0:0:
452,147,264282,2,0,P|467:107|477:69,1,62.5000023841859,0|0,0:0|1:0,0:0:0:0:
362,183,264480,2,0,P|371:212|382:241,1,62.5000023841859,0|0,3:0|0:0,0:0:0:0:
447,292,264677,1,8,0:2:0:0:
348,84,264874,1,2,3:2:0:0:
188,156,265072,5,0,0:2:0:0:
283,230,265203,1,0,1:2:0:0:
283,230,265269,1,2,3:2:0:0:
252,333,265466,2,0,P|208:323|134:310,1,93.7500035762788,8|2,0:2|0:2,0:2:0:0:
50,343,265795,5,8,0:1:0:0:
50,343,265861,2,0,P|57:291|57:263,1,62.5000023841859,0|0,1:0|1:0,1:0:0:0:
58,249,266059,1,2,3:2:0:0:
94,131,266256,2,0,P|29:150|-9:163,1,93.7500035762788,8|2,0:2|0:2,0:2:0:0:
158,31,266585,1,8,0:1:0:0:
201,110,266651,6,0,P|287:129|408:129,1,162.499992561341,0|2,3:2|0:2,0:2:0:0:
512,213,267045,2,0,P|450:213|390:205,1,93.7500035762788,8|2,0:2|0:2,0:2:0:0:
328,345,267374,1,8,0:1:0:0:
328,345,267440,2,0,P|329:314|323:235,1,93.7500035762788,0|2,0:2|0:2,0:2:0:0:
232,182,267835,1,8,0:2:0:0:
93,286,268032,6,0,P|161:290|199:301,1,93.7500035762788,2|0,3:2|0:2,0:2:0:0:
224,164,268427,2,0,P|156:168|118:179,1,93.7500035762788,2|8,0:2|0:2,0:2:0:0:
68,29,268822,1,2,0:2:0:0:
12,98,268953,2,0,L|36:217,1,93.7500035762788,8|0,0:1|0:2,0:2:0:0:
21,223,269216,1,2,3:2:0:0:
131,174,269414,1,8,0:2:0:0:
79,323,269611,1,2,0:2:0:0:
215,266,269809,6,0,P|258:249|313:236,1,93.7500035762788,0|2,3:2|0:2,0:2:0:0:
471,346,270203,2,0,P|425:334|381:317,1,93.7500035762788,8|2,0:2|0:2,0:2:0:0:
386,176,270532,1,8,0:1:0:0:
386,176,270598,1,0,0:2:0:0:
466,243,270795,1,2,0:2:0:0:
364,76,270993,1,8,0:2:0:0:
270,142,271190,1,2,3:2:0:0:
457,144,271387,5,0,0:2:0:0:
313,232,271585,1,2,0:2:0:0:
260,33,271782,1,8,0:2:0:0:
109,215,271980,1,2,0:2:0:0:
77,127,272111,2,0,P|161:140|185:150,1,93.7500035762788,8|0,0:1|0:2,0:2:0:0:
191,165,272374,1,2,3:2:0:0:
288,265,272572,2,0,P|284:195|287:158,1,93.7500035762788,8|2,0:2|0:2,0:2:0:0:
332,69,272966,6,0,P|372:73|428:75,1,81.2499962806703,0|2,3:2|0:2,0:2:0:0:
506,130,273361,2,0,P|486:173|470:226,1,81.2499962806703,8|2,0:2|0:2,0:2:0:0:
453,303,273690,2,0,P|413:299|338:302,1,108.333328374227,8|2,0:1|0:2,0:2:0:0:
238,353,274151,1,8,0:2:0:0:
131,276,274348,6,0,L|230:250,1,81.2499962806703,2|0,3:2|0:2,0:2:0:0:
261,158,274743,2,0,L|339:178,1,81.2499962806703,2|8,0:2|0:2,0:2:0:0:
75,73,275137,1,2,0:2:0:0:
173,35,275269,2,0,P|169:83|164:128,1,81.2499962806703,8|0,0:1|0:2,0:2:0:0:
146,146,275532,1,2,3:2:0:0:
212,239,275730,1,8,0:2:0:0:
136,307,275927,1,2,0:2:0:0:
225,232,276124,6,0,P|287:219|316:215,1,81.2499962806703,0|2,3:2|0:2,0:2:0:0:
466,303,276519,2,0,P|446:246|436:159,1,135.416660467784,8|8,0:2|0:1,0:2:0:0:
191,318,277111,1,2,0:2:0:0:
276,128,277309,1,8,0:2:0:0:
258,232,277506,6,0,L|73:207,1,162.499992561341,4|0,3:2|0:2,0:2:0:0:
85,221,278098,5,2,0:2:0:0:
192,135,278493,5,2,0:2:0:0:
306,308,278887,5,2,0:2:0:0:
