osu file format v14

[General]
AudioFilename: audio.mp3
AudioLeadIn: 0
PreviewTime: 54146
Countdown: 1
SampleSet: Soft
StackLeniency: 0.3
Mode: 0
LetterboxInBreaks: 0
WidescreenStoryboard: 1

[Editor]
Bookmarks: 23414,27804,35121
DistanceSpacing: 1
BeatDivisor: 4
GridSize: 8
TimelineZoom: 1

[Metadata]
Title:Be There
TitleUnicode:Be There
Artist:PSYQUI
ArtistUnicode:PSYQUI
Creator:thiev
Version:soala
Source:
Tags:
BeatmapID:1818021
BeatmapSetID:869915

[Difficulty]
HPDrainRate:5
CircleSize:4
OverallDifficulty:8.6
ApproachRate:9.3
SliderMultiplier:1.7
SliderTickRate:1

[Events]
//Background and Video events
0,0,"IMG_20180925_101343.jpg",0,0
//Break Periods
//Storyboard Layer 0 (Background)
//Storyboard Layer 1 (Fail)
//Storyboard Layer 2 (Pass)
//Storyboard Layer 3 (Foreground)
//Storyboard Sound Samples

[TimingPoints]
0,365.853658536585,4,2,0,71,1,0
10975,-200,4,2,0,71,0,0
11707,-100,4,2,0,71,0,0
16189,-133.333333333333,4,2,0,71,0,0
16463,-153.846153846153,4,2,0,71,0,0
16829,-181.818181818181,4,2,0,71,0,0
17560,-50,4,2,0,71,0,1
19756,-45.4545454545455,4,2,0,71,0,1
26707,-45.4545454545455,4,2,0,71,0,0
27804,-45.4545454545455,4,2,0,71,0,1
29451,-133.333333333333,4,2,0,71,0,0
29817,-45.4545454545455,4,2,0,71,0,1
38048,-45.4545454545455,4,2,0,71,0,0
39512,-50,4,2,0,71,0,1
40975,-83.3333333333333,4,2,0,71,0,0
43170,-57.1428571428571,4,2,0,71,0,0
43902,-83.3333333333333,4,2,0,71,0,0
46097,-57.1428571428571,4,2,0,71,0,0
46829,-100,4,2,0,71,0,0
47195,-133.333333333333,4,2,0,71,0,0
47560,-83.3333333333333,4,2,0,71,0,0
47926,-133.333333333333,4,2,0,71,0,0
48292,-71.4285714285714,4,2,0,71,0,0
48658,-133.333333333333,4,2,0,71,0,0
49024,-62.5,4,2,0,71,0,0
49390,-133.333333333333,4,2,0,71,0,0
49756,-55.5555555555556,4,2,0,71,0,0
51219,-1000,4,2,0,71,0,0
53414,-100,4,2,0,71,0,0
54146,-50,4,2,0,71,0,0
54512,-45.4545454545455,4,2,0,71,0,0
55518,-50,4,2,0,71,0,0
55975,-43.4782608695652,4,2,0,71,0,0
56249,-55.5555555555556,4,2,0,71,0,0
56524,-62.5,4,2,0,71,0,0
57073,-37.037037037037,4,2,0,71,0,0
57439,-45.4545454545455,4,2,0,71,0,0
57713,-50,4,2,0,71,0,0
58170,-45.4545454545455,4,2,0,71,0,0
58445,-50,4,2,0,71,0,0
59908,-55.5555555555556,4,2,0,71,0,0
60365,-45.4545454545455,4,2,0,71,0,0
61371,-50,4,2,0,71,0,0
61829,-41.6666666666667,4,2,0,71,0,0
62103,-50,4,2,0,71,0,0
62560,-41.6666666666667,4,2,0,71,0,0
62926,-37.037037037037,4,2,0,71,0,0
63292,-45.4545454545455,4,2,0,71,0,0
63567,-50,4,2,0,71,0,0
64024,-45.4545454545455,4,2,0,71,0,0
64390,-133.333333333333,4,2,0,71,0,0
64756,-80,4,2,0,71,0,0
65121,-57.1428571428571,4,2,0,71,0,0
65487,-44.4444444444445,4,2,0,71,0,0
65853,-40,4,2,0,71,0,1
67957,-37.037037037037,4,2,0,71,0,1
68231,-40,4,2,0,71,0,1
69146,-37.037037037037,4,2,0,71,0,1
69420,-34.4827586206897,4,2,0,71,0,1
69695,-40,4,2,0,71,0,1
70609,-50,4,2,0,71,0,1
71615,-40,4,2,0,71,0,1
73536,-37.037037037037,4,2,0,71,0,1
73810,-40,4,2,0,71,0,1
74999,-37.037037037037,4,2,0,71,0,1
75274,-34.4827586206897,4,2,0,71,0,1
75548,-40,4,2,0,71,0,1
76097,-44.4444444444445,4,2,0,71,0,0
76463,-57.1428571428571,4,2,0,71,0,0
76829,-80,4,2,0,71,0,0
77195,-133.333333333333,4,2,0,71,0,0
87804,-100,4,2,0,71,0,0
102439,-50,4,2,0,71,0,0
103170,-45.4545454545455,4,2,0,71,0,0

[Colours]
Combo1 : 227,56,241
Combo2 : 14,141,218
Combo3 : 205,119,234

[HitObjects]
97,110,0,6,0,L|86:128,2,21.25
104,91,182,1,0,0:0:0:0:
174,61,365,1,0,0:0:0:0:
272,69,548,1,0,0:0:0:0:
357,155,731,6,0,P|359:203|341:235,1,85
268,378,1096,2,0,P|266:330|284:298,1,85
441,322,1463,6,0,L|423:324,2,17.5
475,317,1645,1,0,0:0:0:0:
448,151,1829,2,0,P|435:191|446:231,1,85
492,83,2194,2,0,P|504:42|493:2,1,85
226,118,2560,2,0,L|353:109,1,127.5
388,111,2926,6,0,L|409:113,2,21.25
374,119,3109,1,0,0:0:0:0:
337,187,3292,1,0,0:0:0:0:
360,283,3474,1,0,0:0:0:0:
466,332,3657,1,0,0:0:0:0:
466,332,4390,6,0,P|493:251|405:193,1,170
353,213,4939,2,0,P|326:294|414:352,1,170
499,301,5487,2,0,P|510:257|478:202,1,85
246,285,5853,6,0,L|221:370,1,85
138,198,6219,2,0,L|224:177,1,85
117,336,6585,2,0,L|55:271,1,85
51,252,6859,2,0,L|109:313,1,85
187,366,7134,1,0,0:0:0:0:
344,162,7408,5,0,0:0:0:0:
344,162,7499,2,0,L|396:150,1,42.5
220,177,7682,2,0,L|371:140,1,127.5
477,115,8048,2,0,L|452:199,1,85
433,225,8323,2,0,L|457:309,1,85
489,336,8597,1,0,0:0:0:0:
364,78,8780,6,0,L|253:60,1,85
313,240,9146,2,0,L|384:152,1,85
198,114,9512,2,0,L|237:219,1,85
223,211,9786,2,0,L|192:131,1,85
159,49,10060,1,0,0:0:0:0:
280,327,10335,5,0,0:0:0:0:
280,327,10426,2,0,L|227:333,1,42.5
400,298,10609,2,0,L|245:315,1,127.5
166,299,10975,2,0,L|88:307,1,63.75
92,307,11341,1,0,0:0:0:0:
134,57,11707,6,0,P|187:41|236:57,1,85
135,232,12073,2,0,P|94:194|83:143,1,85
287,144,12439,2,0,P|274:197|235:232,1,85
238,81,12713,2,0,P|291:65|340:81,1,85
206,157,12987,1,0,0:0:0:0:
415,195,13262,5,0,0:0:0:0:
489,246,13353,2,0,P|502:215|495:170,1,42.5
408,283,13536,2,0,P|445:323|496:334,1,85
194,231,13902,2,0,P|138:234|98:265,1,85
261,294,14176,2,0,P|285:244|278:193,1,85
174,315,14451,1,0,0:0:0:0:
239,72,14634,5,0,0:0:0:0:
236,84,14725,1,0,0:0:0:0:
237,96,14817,1,0,0:0:0:0:
243,107,14908,1,0,0:0:0:0:
255,118,14999,1,0,0:0:0:0:
270,124,15091,1,0,0:0:0:0:
291,124,15182,1,0,0:0:0:0:
312,121,15274,1,0,0:0:0:0:
336,113,15365,5,0,0:0:0:0:
365,108,15457,1,0,0:0:0:0:
398,111,15548,1,0,0:0:0:0:
431,130,15640,1,0,0:0:0:0:
453,165,15731,1,0,0:0:0:0:
456,211,15823,1,0,0:0:0:0:
438,258,15914,1,0,0:0:0:0:
389,284,16006,1,0,0:0:0:0:
330,274,16097,6,0,P|325:249|329:232,1,31.8750012159348
198,158,16280,2,0,P|203:183|199:200,1,31.8750012159348
323,271,16463,6,0,P|318:246|322:229,1,27.6249987354279
205,161,16646,2,0,P|210:186|206:203,1,27.6249987354279
317,269,16829,6,0,P|312:244|316:227,1,23.3750007133484
211,163,17012,2,0,P|216:188|212:205,1,23.3750007133484
180,327,17195,5,0,0:0:0:0:
34,290,17560,6,2,B|80:266|145:277|180:327|180:327|212:282|294:301|294:301|375:322|430:255|414:181|351:129|284:150|257:198,1,595
76,207,18292,6,0,P|64:157|90:105,1,85
206,8,18475,1,0,0:0:0:0:
226,57,18567,1,0,0:0:0:0:
223,111,18658,2,0,P|185:146|127:149,1,85
67,32,18841,2,0,P|116:46|148:95,1,85
153,238,19024,5,0,0:0:0:0:
228,287,19115,1,0,0:0:0:0:
228,287,19207,2,0,P|279:290|326:255,1,85
293,47,19390,2,0,P|248:114|258:205,1,170
343,155,19664,5,0,0:0:0:0:
430,113,19756,2,0,P|380:187|391:288,1,187.000005706787
510,351,20030,1,0,0:0:0:0:
510,351,20121,2,0,B|460:361|460:361|380:346,1,93.5000028533936
302,304,20304,2,0,B|252:294|252:294|172:309,1,93.5000028533936
71,350,20487,6,0,B|64:293|64:293|66:274|66:274|10:216|42:127|81:108,1,255
343,88,20853,2,0,B|298:121|298:121|280:128|280:128|258:206|164:223|128:198,1,255
179,113,21219,5,0,0:0:0:0:
252,58,21310,2,0,P|303:54|350:89,1,85
408,163,21493,2,0,P|363:96|374:6,1,170
512,150,21768,5,0,0:0:0:0:
496,165,21859,1,0,0:0:0:0:
473,179,21951,2,0,P|427:176|370:144,1,85
310,95,22134,2,0,P|282:57|270:-7,1,85
171,344,22317,6,0,P|196:305|252:272,1,85
325,244,22500,2,0,P|370:238|432:260,1,85
178,0,22682,6,0,P|198:41|199:106,1,85
188,182,22865,2,0,P|169:224|120:266,1,85
267,360,23048,6,0,L|374:341,1,85
491,261,23231,2,0,L|384:242,1,85
225,205,23414,6,0,B|190:168|214:82|287:76|320:93|320:93|353:111|406:87,1,255
463,249,23780,2,0,B|448:296|361:319|320:259|318:221|318:221|317:184|270:150,1,255
420,2,24146,2,0,P|469:42|477:94,1,85
400,211,24329,1,0,0:0:0:0:
360,173,24420,1,0,0:0:0:0:
353,118,24512,2,0,B|397:113|397:113|411:117|411:117|436:112,1,85
289,201,24695,2,0,B|245:206|245:206|231:202|231:202|186:209,1,85
120,236,24878,5,0,0:0:0:0:
196,289,24969,1,0,0:0:0:0:
196,289,25060,2,0,B|255:295|255:295|294:274,1,85
148,120,25243,2,0,B|94:176|120:236|120:236|40:196|-4:257,1,255
167,319,25609,6,0,P|246:337|318:239,1,170
315,203,25884,1,0,0:0:0:0:
250,139,25975,2,0,L|123:116,1,85
384,262,26158,2,0,L|510:239,1,85
500,178,26341,5,0,0:0:0:0:
123,226,26524,1,0,0:0:0:0:
404,133,26707,5,0,0:0:0:0:
416,131,26798,1,0,0:0:0:0:
428,129,26890,1,0,0:0:0:0:
500,178,26981,6,0,B|521:224|521:224|424:191|372:230|372:230|328:222,1,170
299,172,27256,2,0,L|196:157,1,85
123,226,27439,5,0,0:0:0:0:
123,226,27621,1,0,0:0:0:0:
500,178,27804,6,0,L|365:204,1,93.5000028533936
123,226,27987,2,0,L|258:200,1,93.5000028533936
500,178,28170,6,0,L|376:238,1,93.5000028533936
123,226,28353,2,0,L|207:185,1,93.5000028533936
500,178,28536,6,0,L|396:268,1,93.5000028533936
123,226,28719,2,0,L|193:164,1,93.5000028533936
500,178,28902,6,0,L|422:291,1,93.5000028533936
123,226,29085,2,0,L|175:148,1,93.5000028533936
297,338,29268,5,0,0:0:0:0:
375,239,29451,2,0,L|360:234,2,15.9375006079674
281,242,29634,1,0,0:0:0:0:
270,238,29725,1,0,0:0:0:0:
260,236,29817,5,0,0:0:0:0:
291,157,29908,1,0,0:0:0:0:
270,79,29999,2,0,P|229:29|177:21,1,93.5000028533936
98,245,30182,1,0,0:0:0:0:
176,265,30274,2,0,P|238:254|272:213,1,93.5000028533936
118,33,30456,1,0,0:0:0:0:
61,90,30548,2,0,B|13:146|73:229|73:229|98:184,1,187.000005706787
237,103,30823,5,0,0:0:0:0:
317,81,30914,2,0,P|374:94|423:164,1,93.5000028533936,0|0,2:0|2:0,2:0:0:0:
325,340,31097,2,0,B|269:296|302:214|354:197|354:197|403:179|423:127|371:53,1,280.500008560181
479,28,31463,6,0,P|415:33|372:3,1,93.5000028533936
463,236,31646,1,0,0:0:0:0:
463,236,31737,2,0,P|489:178|537:156,1,93.5000028533936
290,118,31920,1,0,0:0:0:0:
290,118,32011,2,0,P|326:170|322:222,1,93.5000028533936
153,303,32195,6,0,B|119:316|119:316|96:317|96:317|58:332|58:332|13:354|-29:320|-41:243|119:231,1,280.500008560181
253,241,32560,2,0,B|281:263|281:263|293:283|293:283|325:308|325:308|367:336|358:390|298:439|207:306,1,280.500008560181
150,186,32926,5,0,0:0:0:0:
223,144,33018,1,0,0:0:0:0:
306,150,33109,1,0,0:0:0:0:
375,213,33201,2,0,P|329:153|339:44,1,187.000005706787,0|0,2:0|2:0,2:0:0:0:
501,91,33475,5,0,0:0:0:0:
507,108,33567,1,0,0:0:0:0:
512,125,33658,2,0,L|414:134,1,93.5000028533936
310,183,33841,5,0,0:0:0:0:
386,224,33932,2,0,L|288:215,1,93.5000028533936
156,132,34115,5,0,0:0:0:0:
232,91,34206,2,0,L|134:100,1,93.5000028533936
25,220,34390,6,0,B|103:225|103:225|134:246|134:246|208:253,1,187.000005706787
323,234,34664,1,0,0:0:0:0:
403,181,34756,2,0,P|367:144|289:148,1,93.5000028533936
408,277,34939,2,0,P|457:263|492:194,1,93.5000028533936
323,234,35121,6,0,B|270:237|248:282|248:282|195:214|118:257|132:348|197:338,1,280.500008560181
408,277,35487,2,0,B|433:231|407:187|407:187|493:180|499:92|415:54|388:114,1,280.500008560181
336,337,35853,6,0,P|380:368|446:358,1,93.5000028533936
499,241,36036,1,0,0:0:0:0:
409,189,36128,2,0,B|361:179|361:179|339:186|339:186|310:157|252:146|202:193,1,187.000005706787
157,253,36402,2,0,P|90:261|34:224,1,93.5000028533936
0,180,36585,5,0,0:0:0:0:
59,104,36676,1,0,0:0:0:0:
59,104,36768,2,0,P|67:37|30:-19,1,93.5000028533936
286,59,36951,2,0,B|231:42|191:70|165:112|180:171|180:171|191:214|170:261|127:285|88:258,1,280.500008560181
76,340,37317,6,0,B|102:322|102:322|207:360,1,93.5000028533936
104,166,37499,1,0,0:0:0:0:
104,166,37591,2,0,B|105:197|105:197|21:269,1,93.5000028533936
240,277,37774,1,0,0:0:0:0:
240,277,37866,2,0,B|211:262|211:262|191:153,1,93.5000028533936
269,30,38048,5,0,0:0:0:0:
220,135,38231,1,0,0:0:0:0:
217,121,38322,1,0,0:0:0:0:
214,108,38413,1,0,0:0:0:0:
212,95,38505,1,0,0:0:0:0:
269,30,38597,6,0,B|304:20|304:20|341:30|341:30|401:18,1,93.5000028533936
428,144,38780,1,0,0:0:0:0:
355,112,38871,2,0,B|390:102|390:102|427:112|427:112|481:100|481:100|517:119|517:119|449:137,1,187.000005706787
498,208,39146,1,0,0:0:0:0:
429,324,39329,5,0,0:0:0:0:
433,338,39420,1,0,0:0:0:0:
436,351,39512,2,0,P|398:323|334:311,1,85
257,310,39695,2,0,P|211:321|160:362,1,85
310,30,39878,6,0,P|304:75|325:137,1,85
364,206,40061,2,0,P|394:239|456:262,1,85
94,298,40243,6,0,P|135:279|178:230,1,85
219,165,40426,2,0,P|231:120|220:56,1,85
78,82,40609,6,0,L|95:188,1,93.5000028533936
257,310,40792,2,0,L|274:204,1,93.5000028533936
394,51,40975,5,0,0:0:0:0:
473,330,41341,1,0,0:0:0:0:
394,51,41707,5,0,0:0:0:0:
377,53,41798,1,0,0:0:0:0:
360,55,41890,1,0,0:0:0:0:
343,57,41981,1,0,0:0:0:0:
327,57,42073,2,0,L|256:63,1,50.9999984436036
299,177,42256,2,0,L|337:119,1,50.9999984436036
209,120,42439,5,0,0:0:0:0:
191,160,42530,1,0,0:0:0:0:
191,160,42621,2,0,P|186:197|206:244,1,50.9999984436036
248,284,42804,2,0,P|176:255|120:268,1,101.999996887207
43,307,43079,1,0,0:0:0:0:
117,337,43170,2,0,B|133:290|102:250|102:250|75:211|106:154,1,148.750001418591
146,118,43445,1,0,0:0:0:0:
169,141,43536,1,0,0:0:0:0:
0,203,43719,1,0,0:0:0:0:
179,347,43902,5,0,0:0:0:0:
130,23,44268,1,0,0:0:0:0:
179,347,44634,5,0,0:0:0:0:
196,345,44725,1,0,0:0:0:0:
213,343,44817,1,0,0:0:0:0:
242,317,44908,2,0,L|317:323,1,50.9999984436036
364,372,45091,1,0,0:0:0:0:
393,349,45182,2,0,L|464:343,1,50.9999984436036
498,247,45365,5,0,0:0:0:0:
465,217,45457,1,0,0:0:0:0:
465,217,45548,2,0,P|422:200|388:200,1,50.9999984436036
333,242,45731,2,0,P|369:213|368:121,1,101.999996887207
276,30,46006,1,0,0:0:0:0:
248,108,46097,2,0,B|295:124|335:93|335:93|374:66|431:97,1,148.750001418591
471,141,46371,1,0,0:0:0:0:
504,127,46463,1,0,0:0:0:0:
393,349,46646,1,0,0:0:0:0:
155,246,46829,6,0,P|150:187|187:131,1,127.5
327,123,47195,1,0,0:0:0:0:
129,264,47560,6,0,P|123:192|168:123,1,152.999995330811
341,112,47926,1,0,0:0:0:0:
112,276,48292,6,0,P|105:193|158:112,1,178.499994552612
358,100,48658,1,0,0:0:0:0:
97,287,49024,6,0,P|89:193|148:103,1,204
373,89,49390,1,0,0:0:0:0:
85,284,49756,5,0,0:0:0:0:
76,239,49847,1,0,0:0:0:0:
80,193,49939,2,0,P|96:149|134:107,1,76.4999976654053
76,306,50121,5,0,0:0:0:0:
59,263,50212,1,0,0:0:0:0:
55,217,50304,2,0,P|63:170|93:122,1,76.4999976654053
70,327,50487,5,0,0:0:0:0:
45,288,50578,1,0,0:0:0:0:
34,244,50670,2,0,P|33:196|54:143,1,76.4999976654053
67,349,50853,5,0,0:0:0:0:
36,315,50944,1,0,0:0:0:0:
18,274,51036,2,0,P|9:227|21:171,1,76.4999976654053
75,66,51220,5,0,0:0:0:0:
224,86,51859,1,0,0:0:0:0:
373,106,52408,2,0,L|416:111,1,42.5
467,171,53414,5,0,0:0:0:0:
477,173,53506,1,0,0:0:0:0:
457,258,53597,5,0,0:0:0:0:
376,270,53689,1,0,0:0:0:0:
296,281,53780,1,0,0:0:0:0:
218,340,53871,5,0,0:0:0:0:
120,354,53963,1,0,0:0:0:0:
36,303,54054,1,0,0:0:0:0:
103,217,54146,6,0,B|97:162|97:162|108:148|108:148|102:95|102:95|108:83|108:83|99:4|99:4|88:56,1,255
194,223,54512,6,0,B|251:239|251:239|283:225|283:225|336:244|395:222,1,187.000005706787
452,176,54786,1,0,0:0:0:0:
480,86,54878,1,0,0:0:0:0:
404,32,54969,1,0,0:0:0:0:
312,47,55060,1,0,0:0:0:0:
224,82,55152,1,0,0:0:0:0:
132,66,55243,2,0,B|91:62|66:116|91:155|91:155|114:196|84:242,1,187.000005706787
8,311,55518,6,0,P|51:266|193:282,1,170
312,320,55792,2,0,B|272:329|272:329|192:312,1,85
291,123,55975,2,0,P|317:218|205:199,1,195.500003728867
184,174,56249,6,0,P|159:95|185:22,1,152.999995330811
153,257,56524,2,0,B|113:266|113:266|33:249,1,85
243,240,56707,2,0,B|244:226|288:236|314:285|267:332|185:329|159:274,1,204
51,363,57073,6,0,B|106:341|168:356|168:356|186:345|186:345|259:367|299:317|299:317|349:301|404:331,1,344.25000131321
512,374,57439,2,0,B|471:378|446:324|471:285|471:285|494:244|464:198,1,187.000005706787
374,86,57713,2,0,P|287:99|272:200,1,170
397,244,57987,2,0,B|384:204|384:204|330:144,1,85
140,245,58170,2,0,B|211:249|211:249|232:241|232:241|297:247|297:247|196:280,1,187.000005706787
123,350,58445,6,0,P|45:309|52:215,1,170
227,297,58719,2,0,B|219:335|219:335|224:348|224:348|219:388,1,85
140,245,58902,2,0,B|148:207|148:207|143:194|143:194|148:154,1,85
242,101,59085,5,0,0:0:0:0:
316,85,59176,1,0,0:0:0:0:
391,69,59268,2,0,L|380:177,1,85
298,253,59451,2,0,L|306:168,1,85
477,29,59634,1,0,0:0:0:0:
469,105,59725,1,0,0:0:0:0:
461,181,59816,1,0,0:0:0:0:
453,257,59908,2,0,B|433:321|367:344|305:308|290:258|290:258|280:220|232:190|186:216,1,305.999990661621
169,264,60365,6,0,P|185:140|116:78,1,187.000005706787
51,14,60640,1,0,0:0:0:0:
135,52,60731,1,0,0:0:0:0:
227,32,60823,1,0,0:0:0:0:
314,0,60914,1,0,0:0:0:0:
407,9,61006,1,0,0:0:0:0:
484,60,61097,2,0,B|510:85|496:124|440:143|441:112|441:66|358:83|322:116,1,187.000005706787
299,146,61371,6,0,P|271:200|383:303,1,170
485,279,61646,2,0,B|445:270|445:270|365:287,1,85
229,329,61829,2,0,B|187:326|208:379|261:349|261:349|311:318|374:354,1,203.999993774414
352,207,62103,6,0,P|373:110|332:41,1,170
415,291,62378,2,0,B|455:289|455:289|528:252,1,85
312,304,62560,2,0,B|345:329|392:329|427:308|427:308|505:340|552:262|496:195|425:241,1,305.999990661621
249,252,62926,6,0,B|246:282|118:260|160:140|216:89|330:125|352:209,1,344.25000131321
384,372,63292,2,0,B|346:354|351:295|392:274|392:274|433:250|430:195,1,187.000005706787
325,135,63567,6,0,P|265:115|152:182,1,170
259,294,63841,2,0,B|262:242|262:242|229:192,1,93.5000028533936
14,298,64024,2,0,B|79:269|79:269|101:270|101:270|160:242|160:242|54:245,1,187.000005706787
106,43,64298,5,0,0:0:0:0:
131,63,64390,2,0,P|186:78|242:63,1,95.6250036478044
371,93,64756,6,0,P|300:60|222:71,1,159.375
10,57,65121,6,0,P|114:94|221:71,1,223.125002127886
393,187,65487,6,0,P|354:60|221:71,1,286.875010943413
63,229,65853,6,0,B|27:249|-35:188|7:152|85:142|151:184|110:180|166:248|276:177,1,318.75
401,194,66219,6,0,P|405:132|274:166,1,212.5
287,252,66493,5,0,0:0:0:0:
383,276,66585,1,0,0:0:0:0:
419,198,66676,1,0,0:0:0:0:
419,113,66768,1,0,0:0:0:0:
378,38,66859,1,0,0:0:0:0:
284,67,66951,2,0,B|237:80|237:80|194:65|194:65|130:97|83:50,1,212.5
51,148,67225,6,0,P|72:233|246:185,1,212.5
244,118,67499,2,0,P|189:131|139:184,1,106.25
265,376,67682,2,0,B|286:337|286:337|265:317|265:317|301:278|290:218|236:191,1,212.5
119,93,67957,6,0,B|89:96|74:142|148:149|224:110|149:110|248:76|327:121,1,229.500000875473
404,168,68231,1,0,0:0:0:0:
424,240,68323,1,0,0:0:0:0:
394,307,68414,2,0,B|331:338|291:265|291:265|266:218|187:225,1,212.5
167,310,68689,1,0,0:0:0:0:
187,332,68780,6,0,B|158:356|83:371|22:282|69:211|69:211|86:183|78:149|55:115,1,318.75
141,43,69146,2,0,B|193:31|193:31|213:35|213:35|251:26|329:82|262:166,1,229.500000875473
158,259,69420,2,0,P|159:182|297:243,1,246.500007522583
334,375,69695,2,0,P|300:308|328:237,1,106.25
374,195,69878,5,0,0:0:0:0:
400,126,69969,1,0,0:0:0:0:
373,56,70060,1,0,0:0:0:0:
310,15,70152,2,0,B|244:-16|185:36|185:36|150:69|106:47,1,212.5
45,143,70426,2,0,P|24:196|44:256,1,106.25
168,330,70609,6,0,L|320:343,1,85
354,345,70792,2,0,L|506:358,1,85
276,23,70975,6,0,L|188:148,1,85
170,176,71158,2,0,L|82:301,1,85
487,269,71341,6,0,L|422:130,1,85
408,101,71524,1,0,0:0:0:0:
419,110,71615,2,0,B|374:157|276:130|266:59|266:59|257:-15|190:-42|101:13|139:91|196:116,1,425
73,189,72073,6,0,P|62:246|186:197,1,212.5
164,164,72347,5,0,0:0:0:0:
88,105,72439,1,0,0:0:0:0:
40,176,72530,1,0,0:0:0:0:
34,261,72621,1,0,0:0:0:0:
76,336,72713,1,0,0:0:0:0:
142,261,72804,2,0,B|197:239|236:272|236:272|269:255|269:255|312:291|403:239,1,212.5
411,340,73079,6,0,P|379:247|463:196,1,212.5
290,72,73353,2,0,P|304:122|279:167,1,106.25
460,68,73536,2,0,B|386:80|350:16|350:16|324:26|324:26|282:1|229:43,1,229.500000875473
198,180,73810,2,0,P|282:115|163:49,1,212.5
25,171,74085,1,0,0:0:0:0:
0,241,74176,1,0,0:0:0:0:
30,306,74268,2,0,B|90:334|133:285|133:285|168:239|242:254,1,212.5
324,286,74542,1,0,0:0:0:0:
297,317,74634,6,0,B|334:309|365:329|365:329|382:322|382:322|415:327|487:262|427:171|425:226|392:160|458:84,1,318.75
269,154,74999,2,0,P|231:89|366:117,1,229.500000875473
343,207,75274,2,0,B|310:214|282:191|282:191|261:201|261:201|174:160|108:250,1,246.500007522583
294,384,75548,2,0,P|329:323|279:231,1,106.25
291,113,75731,5,0,0:0:0:0:
230,71,75822,1,0,0:0:0:0:
155,77,75914,1,0,0:0:0:0:
98,126,76005,1,0,0:0:0:0:
74,196,76097,2,0,P|113:322|246:312,1,286.875010943413
458,326,76463,6,0,P|355:289|247:312,1,223.125002127886
96,289,76829,6,0,P|168:322|246:310,1,159.375
337,320,77195,6,0,P|292:305|245:311,1,95.6250036478044
142,355,77560,5,0,0:0:0:0:
142,355,77926,1,0,0:0:0:0:
232,232,78292,6,0,P|241:181|205:100,1,127.500004863739
368,37,79024,2,0,P|343:81|349:170,1,127.500004863739
417,243,79756,1,0,0:0:0:0:
460,149,80121,2,0,B|388:127|328:175|328:175|266:219|195:171,1,255.000009727478
129,93,81219,5,0,0:0:0:0:
129,93,81585,1,0,0:0:0:0:
150,296,81951,6,0,P|193:328|258:290,1,127.500004863739
205,208,82499,2,0,P|153:228|155:304,1,127.500004863739
253,300,83048,2,0,L|395:288,1,127.500004863739
381,290,83780,1,0,0:0:0:0:
452,188,84146,6,0,P|464:117|428:59,2,127.500004863739
381,290,85243,2,0,P|316:263|253:280,1,127.500004863739
165,357,85975,2,0,B|210:299|167:246|167:246|115:185|176:122,1,255.000009727478
270,63,87073,5,0,0:0:0:0:
270,63,87439,1,0,0:0:0:0:
123,202,87804,6,0,P|113:129|200:81,1,170
260,196,88352,2,0,P|201:240|115:188,1,170
187,79,88902,2,0,L|342:87,1,127.5
334,88,89268,5,0,0:0:0:0:
375,162,89451,1,0,0:0:0:0:
336,237,89634,1,0,0:0:0:0:
336,237,89999,5,0,0:0:0:0:
259,202,90182,1,0,0:0:0:0:
259,202,90274,1,0,0:0:0:0:
259,202,90365,1,0,0:0:0:0:
180,231,90548,1,0,0:0:0:0:
107,188,90731,1,0,0:0:0:0:
107,188,91097,5,0,0:0:0:0:
107,188,91463,5,0,0:0:0:0:
63,115,91646,1,0,0:0:0:0:
63,115,91737,1,0,0:0:0:0:
63,115,91829,1,0,0:0:0:0:
151,61,92012,1,0,0:0:0:0:
263,101,92195,1,0,0:0:0:0:
263,101,92560,5,0,0:0:0:0:
263,101,92926,5,0,0:0:0:0:
341,67,93109,1,0,0:0:0:0:
341,67,93201,1,0,0:0:0:0:
341,67,93292,1,0,0:0:0:0:
416,107,93475,1,0,0:0:0:0:
493,69,93658,5,0,0:0:0:0:
493,69,94024,5,0,0:0:0:0:
467,149,94207,1,0,0:0:0:0:
501,227,94390,1,0,0:0:0:0:
463,302,94573,1,0,0:0:0:0:
391,258,94756,2,0,L|298:264,1,85
264,265,95030,1,0,0:0:0:0:
223,269,95121,1,0,0:0:0:0:
223,269,95487,5,0,0:0:0:0:
223,269,95853,5,0,0:0:0:0:
141,243,96036,1,0,0:0:0:0:
141,243,96128,1,0,0:0:0:0:
141,243,96219,1,0,0:0:0:0:
72,293,96402,1,0,0:0:0:0:
90,150,96585,6,0,P|80:77|166:30,1,170
227,145,97133,2,0,P|169:188|84:137,1,170
162,33,97682,2,0,L|259:38,1,85
387,93,98048,1,0,0:0:0:0:
387,93,98414,5,0,0:0:0:0:
387,93,98780,5,0,0:0:0:0:
354,171,98963,1,0,0:0:0:0:
354,171,99054,1,0,0:0:0:0:
354,171,99146,1,0,0:0:0:0:
392,246,99329,1,0,0:0:0:0:
315,338,99512,5,0,0:0:0:0:
216,320,100060,1,0,0:0:0:0:
117,302,100609,1,0,0:0:0:0:
62,229,100975,2,0,L|24:218,2,21.25
139,183,101341,2,0,L|177:172,2,21.25
66,129,101707,1,0,0:0:0:0:
242,56,102073,1,0,0:0:0:0:
382,95,102439,6,0,B|340:116|275:105|240:55|240:55|208:100|126:81|126:81|45:60|-9:127|6:201|69:253|136:232|149:202,1,595
