osu file format v14

[General]
AudioFilename: audio.mp3
AudioLeadIn: 0
PreviewTime: 102529
Countdown: 0
SampleSet: None
StackLeniency: 0.7
Mode: 2
LetterboxInBreaks: 0
EpilepsyWarning: 1
WidescreenStoryboard: 1

[Editor]
Bookmarks: 102529
DistanceSpacing: 1.5
BeatDivisor: 4
GridSize: 4
TimelineZoom: 1.7

[Metadata]
Title:Be There
TitleUnicode:Be There
Artist:PSYQUI
ArtistUnicode:PSYQUI
Creator:GiGas
Version:cyanine's Cup
Source:Arcaea
Tags:future bass hardcore such qsyqui be there luminate kuro usagi cyanine californian your voice so... c94 comiket 94 megarex mrx-026 [_Kuro Usagi_] Liyac -Luminate
BeatmapID:2082851
BeatmapSetID:800670

[Difficulty]
HPDrainRate:3
CircleSize:2.3
OverallDifficulty:6
ApproachRate:6
SliderMultiplier:1.4
SliderTickRate:1

[Events]
//Background and Video events
0,0,"4c7ee8a2-7b32-4e50-b626-cdad51df2057.jpg",0,0
//Break Periods
2,77850,82454
//Storyboard Layer 0 (Background)
//Storyboard Layer 1 (Fail)
//Storyboard Layer 2 (Pass)
//Storyboard Layer 3 (Foreground)
//Storyboard Sound Samples

[TimingPoints]
90,365.853658536585,4,2,1,30,1,0
90,-133.333333333333,4,2,1,30,0,0
4390,-114.285714285714,4,2,1,30,0,0
11707,-100,4,2,1,30,0,0
16097,-100,4,2,2,70,0,0
16463,-100,4,2,2,60,0,0
16829,-100,4,2,2,50,0,0
17560,-88.4955752212389,4,2,1,80,0,1
17652,-66.6666666666667,4,2,1,70,0,1
18201,-66.6666666666667,4,2,1,30,0,0
18292,-66.6666666666667,4,3,3,70,0,1
18475,-66.6666666666667,4,3,1,70,0,1
18567,-100,4,3,1,70,0,1
26981,-100,4,3,1,70,0,1
33658,-133.333333333333,4,3,1,70,0,1
35121,-100,4,3,1,70,0,1
38231,-100,4,3,1,30,0,1
38323,-100,4,3,1,50,0,1
38414,-100,4,3,1,70,0,1
40975,-100,4,2,1,50,0,0
53414,-100,4,3,2,60,0,0
54512,-100,4,3,2,70,0,1
59634,-100,4,3,1,70,0,1
59908,-100,4,3,1,70,0,1
60365,-100,4,3,2,70,0,1
64390,-100,4,3,1,30,0,0
64756,-100,4,3,1,40,0,0
65121,-100,4,3,1,50,0,0
65487,-76.9230769230769,4,3,1,60,0,0
65853,-100,4,3,1,70,0,1
70609,-117.647058823529,4,3,1,70,0,1
72347,-100,4,3,1,70,0,1
75823,-100,4,3,1,60,0,1
75914,-100,4,3,1,50,0,1
76006,-100,4,3,1,40,0,1
76097,-100,4,3,1,70,0,0
76463,-100,4,3,1,60,0,0
76829,-100,4,3,1,50,0,0
77195,-100,4,3,1,40,0,0
77560,-100,4,2,1,40,0,0
102439,-88.4955752212389,4,2,1,80,0,1
102804,-100,4,2,1,70,0,1
103260,-100,4,3,3,70,0,0
103352,-100,4,3,1,80,0,1
114146,-100,4,3,2,65,0,0
114785,-100,4,3,3,80,0,1
114876,-100,4,3,1,80,0,1
117439,-66.6666666666667,4,3,2,90,0,1
117804,-100,4,3,1,80,0,1
122195,-66.6666666666667,4,3,1,80,0,1
122743,-100,4,3,2,80,0,1
123109,-100,4,3,1,50,0,1
123201,-100,4,3,1,60,0,1
123292,-100,4,3,1,70,0,1
123384,-100,4,3,1,80,0,1
125853,-100,4,2,3,100,0,0
126036,-100,4,2,3,60,0,0

[Colours]
Combo1 : 128,255,128
Combo2 : 255,128,192
Combo3 : 0,128,255
Combo4 : 128,128,255

[HitObjects]
376,296,90,5,0,0:0:0:0:
176,360,821,2,0,L|169:255,1,105.000004005432
320,200,1553,2,0,P|344:144|272:8,1,210.000008010864
96,304,3016,6,0,L|111:78,1,210.000008010865
336,40,4480,2,0,L|152:27,2,183.750001752377
480,6,5943,6,0,P|485:71|454:130,1,122.500001168251,4|0,0:0|0:0,0:0:0:0:
320,224,6675,2,0,P|385:219|444:250,2,122.500001168251,0|0|4,0:0|0:0|0:0,0:0:0:0:
182,304,7772,1,0,0:0:0:0:
44,384,8138,2,0,P|24:340|112:240,1,183.750001752377
172,236,8870,5,0,0:0:0:0:
324,276,9236,2,0,L|332:148,1,122.500001168251
167,157,9968,2,0,L|159:29,1,122.500001168251,0|4,0:0|0:0,0:0:0:0:
231,26,10516,1,0,0:0:0:0:
303,18,10699,2,0,L|175:10,1,122.500001168251,0|4,0:0|0:0,0:0:0:0:
64,88,11431,1,0,0:0:0:0:
264,64,11797,6,0,P|332:43|406:64,1,140,4|0,0:0|0:0,0:0:0:0:
231,223,12529,2,0,P|210:154|230:85,1,140
390,255,13260,2,0,P|321:276|252:257,1,140,4|0,0:0|0:0,0:0:0:0:
88,348,13992,2,0,P|154:327|220:346,1,140
368,356,14724,6,0,L|380:212,1,140,6|0,0:0|0:0,0:0:0:0:
242,156,15455,2,0,L|241:-4,1,140,6|0,0:0|0:0,0:0:0:0:
376,44,16187,1,0,0:0:0:0:
256,192,16461,12,0,17285,0:0:0:0:
192,328,17650,6,0,P|164:288|278:78,1,316.400000965576,0|12,0:0|0:0,0:0:0:0:
356,82,18565,1,0,0:0:0:0:
452,28,18748,2,0,L|441:168,1,140,8|0,0:0|0:0,0:0:0:0:
300,216,19480,5,2,0:0:0:0:
440,372,19846,2,0,P|460:332|428:240,1,140,8|0,0:0|0:0,0:0:0:0:
268,308,20577,6,0,L|128:297,1,140,8|2,0:0|0:0,0:0:0:0:
304,208,21309,2,0,P|328:148|244:28,1,210,8|0,0:0|0:0,0:0:0:0:
192,28,22041,5,8,0:0:0:0:
44,144,22407,2,0,P|108:124|184:148,2,140,0|2|0,0:0|0:0|0:0,0:0:0:0:
212,272,23504,6,0,P|280:284|348:268,1,140,8|0,0:0|0:0,0:0:0:0:
496,28,24236,2,0,L|485:168,1,140,2|0,0:0|0:0,0:0:0:0:
352,236,24968,5,8,0:0:0:0:
220,316,25333,2,0,L|231:176,1,140,0|2,0:0|0:0,0:0:0:0:
380,120,26065,1,0,0:0:0:0:
240,32,26431,6,0,L|236:108,1,70,8|0,0:0|0:0,0:0:0:0:
416,268,27071,2,0,L|422:153,1,105,8|0,0:0|0:0,0:0:0:0:
208,108,27894,6,0,P|142:126|76:106,2,140,8|0|2,0:0|0:0|0:0,0:0:0:0:
344,192,28992,2,0,L|351:52,1,140,0|8,0:0|0:0,0:0:0:0:
128,256,29907,6,0,P|104:204|206:107,1,210,8|0,0:0|0:0,0:0:0:0:
340,47,30821,2,0,B|268:63|268:63|192:39,1,140,0|8,0:0|0:0,0:0:0:0:
76,252,31553,6,0,B|140:233|140:233|212:249,1,140,2|0,0:0|0:0,0:0:0:0:
293,246,32102,1,0,0:0:0:0:
376,244,32285,6,0,P|396:200|352:112,1,140,8|2,0:0|0:0,0:0:0:0:
172,8,33016,2,0,L|180:147,1,140,8|0,0:0|0:0,0:0:0:0:
320,52,33748,6,0,P|343:41|369:39,1,52.5000020027161,8|0,0:0|0:0,0:0:0:0:
229,160,34297,2,0,P|205:149|179:147,1,52.5000020027161,8|2,0:0|0:0,0:0:0:0:
332,44,34846,1,0,0:0:0:0:
492,168,35211,6,0,L|484:307,1,140,8|0,0:0|0:0,0:0:0:0:
296,360,35943,2,0,P|200:324|85:336,1,210,2|0,0:0|0:0,0:0:0:0:
304,124,37041,6,0,P|368:100|444:108,2,140,0|2|0,0:0|0:0|0:0,0:0:0:0:
124,204,38138,6,0,P|108:176|176:24,1,210,8|8,0:0|0:0,0:0:0:0:
276,27,38961,1,8,0:0:0:0:
444,108,39602,6,0,L|304:124,2,140,8|0|8,0:0|0:0|0:0,0:0:0:0:
288,124,40699,1,2,0:0:0:0:
128,76,41065,6,0,L|136:216,1,140,4|0,0:0|0:0,0:0:0:0:
304,312,41797,2,0,P|324:268|220:144,1,210
40,0,42894,2,0,L|48:140,1,140
199,194,43626,1,0,0:0:0:0:
363,244,43992,6,0,L|355:384,1,140,4|0,0:0|0:0,0:0:0:0:
176,272,44724,2,0,P|156:228|260:104,1,210
451,168,45821,2,0,L|443:308,1,140
283,262,46553,1,0,0:0:0:0:
116,356,46919,6,0,P|171:312|240:309,1,140,4|0,0:0|0:0,0:0:0:0:
376,356,47650,2,0,P|387:287|354:226,1,140,4|0,0:0|0:0,0:0:0:0:
220,132,48382,2,0,P|275:88|344:85,1,140,4|0,0:0|0:0,0:0:0:0:
480,132,49114,2,0,P|491:63|458:3,1,140,4|0,0:0|0:0,0:0:0:0:
342,84,49846,5,2,0:0:0:0:
219,131,50211,1,2,0:0:0:0:
115,355,50577,1,2,0:0:0:0:
238,308,50943,1,2,0:0:0:0:
377,255,51309,5,8,0:0:0:0:
256,192,51675,12,0,54236,0:0:0:0:
358,347,54602,6,0,P|380:216|274:136,1,280
126,70,55699,2,0,L|282:62,1,140,0|2,0:0|0:0,0:0:0:0:
384,36,56431,2,0,L|228:28,1,140,0|2,0:0|0:0,0:0:0:0:
72,172,57163,6,0,L|64:16,1,140,8|2,0:0|0:0,0:0:0:0:
228,280,57894,1,0,0:0:0:0:
231,210,58077,1,0,0:0:0:0:
235,140,58260,1,2,0:0:0:0:
68,128,58626,1,8,0:0:0:0:
256,340,58992,6,0,P|308:312|184:132,1,350
125,86,60089,2,0,L|281:78,1,140,0|2,0:0|0:0,0:0:0:0:
436,152,60821,6,0,L|428:-4,1,140,0|2,0:0|0:0,0:0:0:0:
248,96,61553,2,0,L|109:104,1,140,0|2,0:0|0:0,0:0:0:0:
254,21,62285,2,0,L|394:29,1,140,0|2,0:0|0:0,0:0:0:0:
252,128,63016,6,0,P|226:191|254:253,1,140,8|2,0:0|0:0,0:0:0:0:
396,340,63748,1,0,0:0:0:0:
326,343,63931,1,0,0:0:0:0:
256,347,64114,1,2,0:0:0:0:
140,384,64480,5,8,0:0:0:0:
197,302,64846,1,0,0:0:0:0:
191,202,65211,1,8,0:0:0:0:
125,127,65577,1,0,0:0:0:0:
28,109,65943,6,0,L|172:104,1,140,8|2,0:0|0:0,0:0:0:0:
324,292,66583,2,0,P|344:248|276:136,1,175
182,101,67315,1,8,0:0:0:0:
346,53,67772,2,0,P|408:82|476:71,2,140,2|0|2,0:0|0:0|0:0,0:0:0:0:
204,340,68870,6,0,L|192:194,1,140,8|2,0:0|0:0,0:0:0:0:
320,204,69510,2,0,L|335:21,1,175,8|2,0:0|0:0,0:0:0:0:
220,20,70242,1,8,0:0:0:0:
444,360,70699,6,0,P|472:320|352:136,1,297.500005674362
284,116,71797,2,0,L|404:116,1,119.000002269745
296,24,72437,6,0,P|248:36|120:4,1,175
256,0,73169,1,8,0:0:0:0:
160,320,73626,2,0,L|152:152,1,140
296,156,74358,1,0,0:0:0:0:
152,128,74724,6,0,P|86:106|19:122,1,140,8|2,0:0|0:0,0:0:0:0:
162,8,75364,2,0,P|245:31|329:11,1,175,8|2,0:0|0:0,0:0:0:0:
464,16,76187,5,2,0:0:0:0:
395,72,76553,1,0,0:0:0:0:
370,157,76919,1,8,0:0:0:0:
397,243,77285,1,0,0:0:0:0:
468,297,77650,5,0,0:0:0:0:
180,304,83504,5,4,0:0:0:0:
412,332,84236,2,0,P|436:296|336:113,1,280,0|12,0:0|0:0,0:0:0:0:
208,108,85699,1,0,0:0:0:0:
32,72,86431,6,0,B|110:88|165:44|165:44|224:3|312:21,1,280,4|0,0:0|0:0,0:0:0:0:
452,132,87894,2,0,L|236:108,2,210,4|0|0,0:0|0:0|0:0,0:0:0:0:
312,116,89358,6,0,P|296:68|328:-28,1,140,4|0,0:0|0:0,0:0:0:0:
464,168,90089,2,0,P|486:233|470:300,1,140
324,372,90821,2,0,P|258:349|191:365,1,140,4|0,0:0|0:0,0:0:0:0:
60,240,91553,2,0,P|127:255|192:232,1,140
368,272,92285,6,0,P|392:232|288:56,1,280,4|0,0:0|0:0,0:0:0:0:
172,144,93382,2,0,L|164:4,1,140,0|4,0:0|0:0,0:0:0:0:
328,28,94114,1,0,0:0:0:0:
188,184,94480,2,0,L|180:44,1,140
32,20,95211,5,4,0:0:0:0:
256,36,95943,2,0,P|292:48|396:24,1,140
208,380,96675,6,0,P|192:340|260:196,1,210,4|0,0:0|0:0,0:0:0:0:
464,136,97772,2,0,P|428:124|324:148,1,140,0|6,0:0|0:0,0:0:0:0:
188,96,98504,5,0,0:0:0:0:
324,380,98870,2,0,L|316:240,1,140,6|0,0:0|0:0,0:0:0:0:
132,176,99602,1,12,0:0:0:0:
256,192,99968,12,0,102163,0:0:0:0:
300,328,102529,6,0,P|328:288|208:69,1,316.400000965576,0|4,0:0|0:0,0:0:0:0:
136,82,103443,1,0,0:0:0:0:
40,28,103626,2,0,L|51:168,1,140,2|8,0:0|0:0,0:0:0:0:
216,240,104358,6,0,P|283:260|350:242,2,140,2|8|2,0:0|0:0|0:0,0:0:0:0:
400,144,105455,6,0,P|420:96|384:16,1,140,8|0,0:0|0:0,0:0:0:0:
248,344,106187,2,0,P|228:300|304:160,1,210,8|0,0:0|0:0,0:0:0:0:
388,164,106919,6,0,L|244:160,1,140,8|2,0:0|0:0,0:0:0:0:
72,60,107650,2,0,L|216:56,1,140,8|2,0:0|0:0,0:0:0:0:
380,340,108382,6,0,L|388:192,1,140,8|2,0:0|0:0,0:0:0:0:
211,215,109114,2,0,P|187:175|259:39,1,210,8|0,0:0|0:0,0:0:0:0:
315,30,109846,5,8,0:0:0:0:
448,32,110211,2,0,P|382:50|315:30,1,140,2|8,0:0|0:0,0:0:0:0:
144,56,110943,1,2,0:0:0:0:
305,149,111309,6,0,L|308:80,1,70,8|2,0:0|0:0,0:0:0:0:
112,176,111949,2,0,L|106:291,1,105,8|8,0:0|0:0,0:0:0:0:
276,256,112772,6,0,P|344:272|410:253,1,140,8|2,0:0|0:0,0:0:0:0:
228,364,113504,2,0,P|167:332|98:337,2,140,8|2|8,0:0|0:0|0:0,0:0:0:0:
444,360,114785,6,0,P|464:324|388:180,1,210,4|0,0:0|0:0,0:0:0:0:
251,147,115699,2,0,L|243:-5,1,140,8|8,0:0|0:0,0:0:0:0:
408,256,116431,6,0,L|416:104,1,140,2|0,0:0|0:0,0:0:0:0:
324,68,116980,1,0,0:0:0:0:
236,24,117163,6,0,L|92:16,1,140,8|2,0:0|0:0,0:0:0:0:
268,136,117894,2,0,P|288:180|252:272,1,140,8|8,0:0|0:0,0:0:0:0:
116,364,118626,6,0,L|187:336,1,70,8|8,0:0|0:0,0:0:0:0:
356,68,119175,2,0,L|284:40,1,70,8|2,0:0|0:0,0:0:0:0:
84,300,120089,6,0,P|64:256|100:164,1,140,8|2,0:0|0:0,0:0:0:0:
272,136,120821,2,0,L|421:119,1,140,8|2,0:0|0:0,0:0:0:0:
328,96,121370,1,0,0:0:0:0:
108,164,121919,6,0,L|116:8,1,140,2|8,0:0|0:0,0:0:0:0:
283,168,122650,1,2,0:0:0:0:
452,312,123016,6,8,P|476:280|400:152,1,210
300,152,123839,1,8,0:0:0:0:
60,271,124480,6,0,L|200:264,2,140,8|2|8,0:0|0:0|0:0,0:0:0:0:
230,260,125577,1,2,0:0:0:0:
401,250,125943,5,4,0:0:0:0:
256,192,126309,12,0,131614,0:0:0:0:
