osu file format v14

[General]
AudioFilename: audio.mp3
AudioLeadIn: 0
PreviewTime: 102529
Countdown: 0
SampleSet: Soft
StackLeniency: 0.7
Mode: 2
LetterboxInBreaks: 0
EpilepsyWarning: 1
WidescreenStoryboard: 1

[Editor]
Bookmarks: 56614,65211,102529
DistanceSpacing: 1.8
BeatDivisor: 4
GridSize: 4
TimelineZoom: 2.2

[Metadata]
Title:Be There
TitleUnicode:Be There
Artist:PSYQUI
ArtistUnicode:PSYQUI
Creator:GiGas
Version:Salad
Source:Arcaea
Tags:future bass hardcore such qsyqui be there luminate kuro usagi cyanine californian [_Kuro Usagi_] Liyac -Luminate
BeatmapID:1711479
BeatmapSetID:800670

[Difficulty]
HPDrainRate:4
CircleSize:2.5
OverallDifficulty:7.3
ApproachRate:7.3
SliderMultiplier:2.1
SliderTickRate:1

[Events]
//Background and Video events
0,0,"4c7ee8a2-7b32-4e50-b626-cdad51df2057.jpg",0,0
//Break Periods
//Storyboard Layer 0 (Background)
//Storyboard Layer 1 (Fail)
//Storyboard Layer 2 (Pass)
//Storyboard Layer 3 (Foreground)
//Storyboard Sound Samples

[TimingPoints]
90,365.853658536585,4,2,1,30,1,0
5943,-100,4,2,1,50,0,0
16187,-100,4,2,2,70,0,0
16553,-100,4,2,2,60,0,0
16919,-100,4,2,2,50,0,0
17650,-83.3333333333333,4,2,1,80,0,1
17742,-83.3333333333333,4,2,1,70,0,1
18291,-83.3333333333333,4,2,1,30,0,0
18382,-83.3333333333333,4,3,3,70,0,1
18565,-83.3333333333333,4,3,1,70,0,1
18657,-100,4,3,1,70,0,1
19846,-76.9230769230769,4,3,1,70,0,1
20211,-100,4,3,1,70,0,1
27071,-100,4,3,1,70,0,1
38321,-100,4,3,1,30,0,1
38413,-100,4,3,1,50,0,1
38504,-100,4,3,1,70,0,1
41065,-100,4,2,1,50,0,0
53504,-100,4,3,2,60,0,0
54602,-100,4,3,2,70,0,1
59724,-100,4,3,1,70,0,1
59998,-100,4,3,1,70,0,1
60455,-100,4,3,2,70,0,1
64480,-100,4,3,1,30,0,0
64846,-100,4,3,1,40,0,0
65211,-100,4,3,1,50,0,0
65577,-76.9230769230769,4,3,1,60,0,0
65943,-100,4,3,1,70,0,1
75913,-76.9230769230769,4,3,1,60,0,1
76004,-76.9230769230769,4,3,1,50,0,1
76096,-76.9230769230769,4,3,1,40,0,1
76187,-76.9230769230769,4,3,1,70,0,0
76553,-76.9230769230769,4,3,1,60,0,0
76919,-76.9230769230769,4,3,1,50,0,0
77285,-76.9230769230769,4,3,1,40,0,0
77650,-100,4,2,1,40,0,0
102529,-100,4,2,1,80,0,1
102894,-100,4,2,1,70,0,1
103169,-100,4,2,1,70,0,0
103260,-100,4,3,2,80,0,1
111675,-100,4,3,1,80,0,1
114236,-100,4,3,2,65,0,0
114785,-100,4,3,3,80,0,1
114876,-100,4,3,1,80,0,1
117529,-66.6666666666667,4,3,2,90,0,1
117894,-100,4,3,1,80,0,1
122833,-100,4,3,2,80,0,1
123199,-100,4,3,1,50,0,1
123291,-100,4,3,1,60,0,1
123382,-100,4,3,1,70,0,1
123474,-100,4,3,1,80,0,1
125943,-100,4,2,3,100,0,0
126126,-100,4,2,3,60,0,0

[Colours]
Combo1 : 128,255,128
Combo2 : 255,128,192
Combo3 : 0,128,255
Combo4 : 128,128,255

[HitObjects]
204,216,5943,6,0,L|48:56,1,210,4|0,0:0|0:0,0:0:0:0:
57,65,6492,1,0,0:0:0:0:
176,68,6675,2,0,L|300:212,2,157.5,4|0|0,0:0|0:0|0:0,0:0:0:0:
64,72,7407,2,0,L|32:148,1,52.5,4|0,0:0|0:0,0:0:0:0:
43,120,7589,1,0,0:0:0:0:
172,124,7772,1,0,0:0:0:0:
300,128,8138,5,4,0:0:0:0:
132,128,8413,1,0,0:0:0:0:
232,128,8687,1,0,0:0:0:0:
440,256,8870,6,0,P|496:192|420:112,1,210,4|0,0:0|0:0,0:0:0:0:
348,112,9419,1,0,0:0:0:0:
228,112,9602,2,0,L|116:264,2,157.5,4|0|0,0:0|0:0|0:0,0:0:0:0:
308,112,10333,1,4,0:0:0:0:
192,112,10516,6,0,P|120:184|200:248,1,210
280,248,11065,1,4,0:0:0:0:
108,244,11431,1,0,0:0:0:0:
376,264,11797,6,0,L|472:36,1,210,4|0,0:0|0:0,0:0:0:0:
284,76,12529,2,0,L|404:200,2,157.5,4|0|0,0:0|0:0|0:0,0:0:0:0:
160,72,13260,2,0,L|120:24,2,52.5,4|0|0,0:0|0:0|0:0,0:0:0:0:
328,72,13626,1,0,0:0:0:0:
180,80,13992,2,0,L|308:184,2,157.5,4|0|0,0:0|0:0|0:0,0:0:0:0:
68,84,14724,6,0,L|68:224,1,105,2|0,0:0|0:0,0:0:0:0:
184,196,15089,2,0,L|184:336,1,105
289,296,15455,2,0,L|405:168,2,157.5,2|0|0,0:0|0:0|0:0,0:0:0:0:
164,348,16187,5,4,0:0:0:0:
125,312,16278,1,0,0:0:0:0:
97,268,16369,1,0,0:0:0:0:
82,218,16461,1,0,0:0:0:0:
81,166,16553,5,0,0:0:0:0:
93,115,16644,1,0,0:0:0:0:
119,69,16735,1,0,0:0:0:0:
156,32,16827,1,0,0:0:0:0:
228,32,16919,1,0,0:0:0:0:
112,28,17285,1,0,0:0:0:0:
382,326,17650,6,0,B|444:286|475:254|446:198|347:106|226:24,1,377.999988464356
150,53,18382,2,0,L|81:188,1,125.999996154785,12|0,0:0|0:0,0:0:0:0:
220,168,18748,2,0,L|288:40,1,105,2|0,0:0|0:0,0:0:0:0:
164,68,19114,5,8,0:0:0:0:
119,92,19205,1,0,0:0:0:0:
117,142,19297,1,0,0:0:0:0:
157,171,19388,1,0,0:0:0:0:
240,176,19480,6,0,L|324:56,1,105,2|0,0:0|0:0,0:0:0:0:
108,104,19846,2,0,P|68:188|108:288,1,204.749990627289,8|0,0:0|0:0,0:0:0:0:
160,288,20211,1,2,0:0:0:0:
264,284,20394,1,0,0:0:0:0:
160,280,20577,6,0,L|92:148,1,105,8|0,0:0|0:0,0:0:0:0:
244,164,20943,2,0,L|348:60,1,105,2|0,0:0|0:0,0:0:0:0:
200,136,21309,6,0,L|104:-4,2,157.5,8|2|2,0:0|0:0|0:0,0:0:0:0:
392,195,22041,6,0,P|436:155|348:43,1,210,8|2,0:0|0:0,0:0:0:0:
300,43,22589,1,0,0:0:0:0:
184,48,22772,2,0,L|188:184,1,105,8|0,0:0|0:0,0:0:0:0:
324,120,23138,2,0,L|328:256,1,105,2|0,0:0|0:0,0:0:0:0:
117,242,23504,6,0,P|74:162|130:30,1,210,8|2,0:0|0:0,0:0:0:0:
201,54,24053,1,0,0:0:0:0:
320,200,24236,5,8,0:0:0:0:
356,164,24327,1,0,0:0:0:0:
357,113,24418,1,0,0:0:0:0:
321,77,24510,1,0,0:0:0:0:
236,72,24602,2,0,L|188:20,2,52.5,2|0|0,0:0|0:0|0:0,0:0:0:0:
336,188,24968,6,0,L|248:288,1,105,8|0,0:0|0:0,0:0:0:0:
328,268,25333,1,2,0:0:0:0:
328,268,25516,1,0,0:0:0:0:
207,277,25699,2,0,P|159:189|203:69,1,210,8|2,0:0|0:0,0:0:0:0:
235,89,26248,1,0,0:0:0:0:
424,88,26431,6,0,L|484:204,1,105,8|0,0:0|0:0,0:0:0:0:
376,184,26797,2,0,L|332:144,1,52.5,4|4,0:0|0:0,0:0:0:0:
316,96,26980,1,4,0:0:0:0:
400,192,27071,6,0,L|400:20,1,157.5,8|0,0:0|0:0,0:0:0:0:
308,36,27529,2,0,L|240:144,1,105,2|0,0:0|0:0,0:0:0:0:
64,132,27894,6,0,P|8:216|72:316,1,210,8|2,0:0|0:0,0:0:0:0:
156,304,28443,1,0,0:0:0:0:
260,304,28626,2,0,L|260:148,1,105,8|0,0:0|0:0,0:0:0:0:
156,304,28992,2,0,L|156:172,1,105,2|0,0:0|0:0,0:0:0:0:
336,200,29358,5,0,0:0:0:0:
440,204,29541,2,0,P|464:148|416:92,1,105
416,84,29815,1,0,0:0:0:0:
336,84,29907,5,8,0:0:0:0:
192,96,30089,2,0,L|152:8,2,52.5,2|0|0,0:0|0:0|0:0,0:0:0:0:
276,104,30364,1,8,0:0:0:0:
116,108,30638,1,8,0:0:0:0:
292,136,31004,2,0,L|208:48,1,105,8|0,0:0|0:0,0:0:0:0:
440,304,31553,6,0,P|424:216|344:224,1,157.5,2|0,0:0|0:0,0:0:0:0:
284,204,31919,2,0,L|232:136,2,52.5
432,252,32285,6,0,L|432:136,1,105,8|0,0:0|0:0,0:0:0:0:
308,248,32650,2,0,L|308:124,1,105,2|0,0:0|0:0,0:0:0:0:
112,164,33016,2,0,L|24:32,2,157.5,8|0|0,0:0|0:0|0:0,0:0:0:0:
228,164,33748,5,8,0:0:0:0:
136,156,33931,2,0,L|124:84,1,52.5,8|0,0:0|0:0,0:0:0:0:
224,100,34205,2,0,L|236:28,1,52.5,8|0,0:0|0:0,0:0:0:0:
52,36,34480,1,2,0:0:0:0:
200,288,34846,6,0,L|264:160,1,105
144,192,35211,2,0,P|88:140|164:32,1,210,8|2,0:0|0:0,0:0:0:0:
412,268,35943,2,0,L|504:120,2,157.5,8|2|8,0:0|0:0|0:0,0:0:0:0:
224,272,36858,5,8,0:0:0:0:
124,272,37041,2,0,L|52:148,1,105,8|0,0:0|0:0,0:0:0:0:
272,104,37407,2,0,P|320:168|276:288,1,210,2|0,0:0|0:0,0:0:0:0:
236,288,37955,1,0,0:0:0:0:
128,288,38138,1,2,0:0:0:0:
36,284,38321,5,4,0:0:0:0:
31,234,38412,1,4,0:0:0:0:
64,195,38503,1,4,0:0:0:0:
115,194,38595,1,4,0:0:0:0:
184,192,38687,2,0,L|72:36,1,157.5,8|8,0:0|0:0,0:0:0:0:
216,96,39236,6,0,L|232:32,3,52.5
312,296,39602,6,0,P|348:180|288:84,1,210,8|2,0:0|0:0,0:0:0:0:
248,104,40150,1,0,0:0:0:0:
152,104,40333,2,0,L|152:244,1,105,8|0,0:0|0:0,0:0:0:0:
276,108,40699,2,0,L|276:248,1,105,2|0,0:0|0:0,0:0:0:0:
104,240,41065,6,0,P|52:160|132:68,1,210,4|0,0:0|0:0,0:0:0:0:
292,60,41797,1,0,0:0:0:0:
329,95,41888,1,0,0:0:0:0:
332,146,41979,1,0,0:0:0:0:
300,185,42071,1,0,0:0:0:0:
220,192,42163,2,0,L|220:324,1,105
336,300,42529,6,0,L|396:168,1,105,4|0,0:0|0:0,0:0:0:0:
256,188,42894,2,0,L|196:56,1,105
392,76,43260,2,0,P|416:140|376:248,1,157.5
344,224,43626,1,0,0:0:0:0:
248,224,43809,1,0,0:0:0:0:
344,224,43992,6,0,L|488:48,1,210,4|0,0:0|0:0,0:0:0:0:
296,64,44724,6,0,L|268:12,2,52.5
380,64,44998,2,0,P|412:124|356:216,1,157.5
268,200,45455,6,0,L|200:104,1,105,4|0,0:0|0:0,0:0:0:0:
300,120,45821,2,0,L|300:4,1,105
124,24,46187,2,0,P|80:92|120:144,1,157.5
164,144,46553,1,0,0:0:0:0:
264,144,46736,1,0,0:0:0:0:
88,236,46919,6,0,L|60:12,1,210,4|0,0:0|0:0,0:0:0:0:
204,196,47650,2,0,L|320:12,1,210
116,32,48382,2,0,P|76:104|116:220,1,210,4|0,0:0|0:0,0:0:0:0:
316,104,49114,2,0,P|372:180|320:276,1,210
168,300,49846,6,0,L|168:156,1,105,4|0,0:0|0:0,0:0:0:0:
244,256,50211,2,0,L|244:112,1,105
160,212,50577,2,0,L|160:68,1,105,4|0,0:0|0:0,0:0:0:0:
260,168,50943,2,0,L|260:24,1,105
80,64,51309,1,8,0:0:0:0:
256,192,51675,12,0,53138,0:0:0:0:
376,192,53504,6,0,L|444:92,2,105
268,192,54053,1,0,0:0:0:0:
160,192,54236,2,0,L|108:88,1,105
304,80,54602,5,2,0:0:0:0:
160,72,54876,2,0,P|124:132|176:216,1,157.5,8|8,0:0|0:0,0:0:0:0:
256,204,55333,1,2,0:0:0:0:
400,204,55608,6,0,L|496:24,1,157.5,8|8,0:0|0:0,0:0:0:0:
400,204,56065,1,2,0:0:0:0:
260,216,56339,2,0,L|180:60,1,157.5,8|8,0:0|0:0,0:0:0:0:
284,68,56797,2,0,L|284:196,1,105,2|0,0:0|0:0,0:0:0:0:
88,160,57163,6,0,L|-12:60,2,105,10|0|2,0:0|0:0|0:0,0:0:0:0:
204,152,57803,2,0,L|112:8,1,157.5,8|8,0:0|0:0,0:0:0:0:
196,20,58260,1,2,0:0:0:0:
320,24,58535,1,8,0:0:0:0:
220,24,58809,1,8,0:0:0:0:
324,176,58992,6,0,L|377:58,1,105,2|0,0:0|0:0,0:0:0:0:
269,74,59358,1,8,0:0:0:0:
240,117,59449,1,0,0:0:0:0:
240,169,59540,1,0,0:0:0:0:
268,212,59632,1,0,0:0:0:0:
336,216,59724,2,0,L|336:128,1,52.5,2|0,0:0|0:0,0:0:0:0:
212,236,59998,6,0,L|132:84,1,157.5,2|0,0:0|0:0,0:0:0:0:
344,88,60455,1,2,0:0:0:0:
224,92,60730,2,0,L|216:276,1,157.5,8|8,0:0|0:0,0:0:0:0:
340,256,61187,1,2,0:0:0:0:
244,248,61461,6,0,L|348:80,1,157.5,8|8,0:0|0:0,0:0:0:0:
244,108,61919,1,2,0:0:0:0:
96,112,62193,2,0,P|56:164|136:244,1,157.5,8|8,0:0|0:0,0:0:0:0:
180,232,62650,2,0,L|264:120,1,105,2|0,0:0|0:0,0:0:0:0:
424,140,63016,6,0,L|508:40,2,105,8|0|2,0:0|0:0|0:0,0:0:0:0:
272,156,63657,2,0,L|176:16,1,157.5,8|8,0:0|0:0,0:0:0:0:
284,20,64114,1,2,0:0:0:0:
392,32,64388,5,0,0:0:0:0:
448,56,64480,2,0,P|492:116|444:256,1,210,8|0,0:0|0:0,0:0:0:0:
260,80,65211,2,0,L|148:276,1,210,8|0,0:0|0:0,0:0:0:0:
472,280,65943,6,0,P|464:208|380:208,1,157.5,8|0,0:0|0:0,0:0:0:0:
336,200,66309,1,2,0:0:0:0:
208,204,66583,2,0,P|172:128|228:72,1,157.5,8|8,0:0|0:0,0:0:0:0:
332,168,67041,2,0,L|448:56,2,157.5,2|8|8,0:0|0:0|0:0,0:0:0:0:
228,168,67772,6,0,L|152:64,1,105,2|0,0:0|0:0,0:0:0:0:
236,72,68047,2,0,P|272:140|224:248,1,157.5,2|0,0:0|0:0,0:0:0:0:
140,216,68504,2,0,L|136:80,1,105,8|2,0:0|0:0,0:0:0:0:
336,224,68870,6,0,L|420:104,2,105,8|0|2,0:0|0:0|0:0,0:0:0:0:
200,232,69510,2,0,L|116:72,1,157.5,8|8,0:0|0:0,0:0:0:0:
220,88,69968,2,0,L|260:28,2,52.5,2|0|0,0:0|0:0|0:0,0:0:0:0:
148,96,70242,6,0,P|152:172|240:160,1,157.5,8|0,0:0|0:0,0:0:0:0:
267,184,70608,1,0,0:0:0:0:
220,328,70699,5,2,0:0:0:0:
174,305,70790,1,0,0:0:0:0:
139,265,70881,1,0,0:0:0:0:
124,216,70973,1,0,0:0:0:0:
129,164,71065,5,8,0:0:0:0:
155,118,71156,1,0,0:0:0:0:
196,87,71247,1,0,0:0:0:0:
247,75,71339,1,0,0:0:0:0:
304,72,71431,2,0,L|304:4,1,52.5,2|0,0:0|0:0,0:0:0:0:
184,140,71705,6,0,P|180:56|272:48,1,157.5,8|0,0:0|0:0,0:0:0:0:
430,41,72163,1,2,0:0:0:0:
268,216,72437,2,0,L|164:52,1,157.5,8|8,0:0|0:0,0:0:0:0:
252,72,72894,1,2,0:0:0:0:
372,76,73077,2,0,L|400:16,1,52.5,8|0,0:0|0:0,0:0:0:0:
272,80,73443,1,8,0:0:0:0:
152,80,73626,6,0,L|120:32,2,52.5,2|0|0,0:0|0:0|0:0,0:0:0:0:
220,84,73900,2,0,L|92:196,1,157.5,2|0,0:0|0:0,0:0:0:0:
212,192,74358,2,0,L|304:64,1,157.5,2|0,0:0|0:0,0:0:0:0:
252,64,74724,5,8,0:0:0:0:
108,84,75089,1,2,0:0:0:0:
248,80,75364,1,8,0:0:0:0:
180,84,75638,1,8,0:0:0:0:
280,88,75821,5,2,0:0:0:0:
313,126,75912,1,0,0:0:0:0:
317,178,76003,1,0,0:0:0:0:
287,220,76095,1,0,0:0:0:0:
224,244,76187,6,0,P|184:196|220:4,1,272.999987503052,2|0,0:0|0:0,0:0:0:0:
408,256,76919,2,0,L|484:-12,1,272.999987503052
304,296,77650,6,0,P|216:204|316:40,1,315,4|0,0:0|0:0,0:0:0:0:
376,44,78382,1,0,0:0:0:0:
152,256,79114,2,0,P|116:192|284:92,1,315,4|0,0:0|0:0,0:0:0:0:
348,92,79846,1,0,0:0:0:0:
220,12,80577,6,0,P|328:156|248:256,1,315,4|0,0:0|0:0,0:0:0:0:
168,248,81309,1,0,0:0:0:0:
384,320,82041,2,0,L|228:16,1,315,4|0,0:0|0:0,0:0:0:0:
320,36,82772,1,0,0:0:0:0:
144,292,83504,6,0,P|80:220|192:56,1,315,4|0,0:0|0:0,0:0:0:0:
272,56,84236,1,0,0:0:0:0:
480,324,84968,2,0,L|316:24,1,315,4|0,0:0|0:0,0:0:0:0:
232,56,85699,1,0,0:0:0:0:
352,56,86431,5,4,0:0:0:0:
448,88,86613,1,0,0:0:0:0:
495,180,86796,1,0,0:0:0:0:
465,278,86979,1,0,0:0:0:0:
375,327,87162,1,0,0:0:0:0:
276,299,87345,1,0,0:0:0:0:
225,210,87528,1,0,0:0:0:0:
250,111,87711,1,0,0:0:0:0:
372,272,87894,6,0,P|404:212|228:104,1,315,4|0,0:0|0:0,0:0:0:0:
152,100,88626,1,0,0:0:0:0:
244,92,88992,1,0,0:0:0:0:
436,252,89358,6,0,P|496:168|420:104,1,210,4|0,0:0|0:0,0:0:0:0:
252,104,90089,2,0,L|156:260,1,157.5
304,248,90638,2,0,L|308:184,1,52.5
180,168,91004,5,0,0:0:0:0:
288,168,91187,2,0,L|356:68,1,105
279,79,91461,2,0,P|235:131|295:203,1,157.5
343,203,91919,1,0,0:0:0:0:
407,203,92102,1,0,0:0:0:0:
219,203,92285,6,0,L|107:11,1,210,4|0,0:0|0:0,0:0:0:0:
267,55,93016,2,0,L|155:203,1,157.5
307,195,93565,2,0,L|307:139,1,52.5
188,168,93931,6,0,L|104:60,1,105
236,200,94388,2,0,P|268:128|208:60,1,157.5
136,196,94846,2,0,L|128:160,4,26.25
216,232,95211,6,0,L|348:48,1,210,4|0,0:0|0:0,0:0:0:0:
144,204,95943,2,0,L|276:20,1,210
440,236,96675,6,0,L|200:20,2,315,4|0|0,0:0|0:0|0:0,0:0:0:0:
256,248,98138,2,0,L|160:32,1,210,4|0,0:0|0:0,0:0:0:0:
372,88,98870,2,0,L|492:216,2,157.5,4|0|0,0:0|0:0|0:0,0:0:0:0:
168,264,99602,6,0,L|168:36,1,210,8|0,0:0|0:0,0:0:0:0:
296,264,100333,2,0,L|296:36,1,210
136,180,101065,6,0,L|136:60,1,105,2|0,0:0|0:0,0:0:0:0:
224,160,101431,2,0,L|224:40,1,105
340,48,101797,2,0,P|368:120|328:204,1,157.5,2|0,0:0|0:0,0:0:0:0:
276,192,102163,1,0,0:0:0:0:
104,280,102529,6,0,B|38:245|4:215|28:157|119:57|175:22,1,315
336,296,103260,2,0,P|376:248|312:120,1,210,8|2,0:0|0:0,0:0:0:0:
248,128,103809,1,0,0:0:0:0:
144,124,103992,6,0,L|72:12,1,105,8|0,0:0|0:0,0:0:0:0:
176,176,104358,2,0,L|312:12,1,210,2|8,0:0|0:0,0:0:0:0:
232,16,104907,1,0,0:0:0:0:
320,128,105089,2,0,L|324:0,1,105,2|0,0:0|0:0,0:0:0:0:
204,40,105455,6,0,P|140:120|192:200,1,210,8|2,0:0|0:0,0:0:0:0:
280,196,106004,1,0,0:0:0:0:
380,192,106187,2,0,L|500:72,2,157.5,8|2|2,0:0|0:0|0:0,0:0:0:0:
196,320,106919,6,0,P|140:264|220:164,1,210,8|2,0:0|0:0,0:0:0:0:
284,164,107468,1,0,0:0:0:0:
400,168,107650,2,0,L|400:40,1,105,8|0,0:0|0:0,0:0:0:0:
276,164,108016,2,0,L|276:40,1,105,2|0,0:0|0:0,0:0:0:0:
92,304,108382,6,0,P|48:232|160:172,1,210,8|2,0:0|0:0,0:0:0:0:
292,256,109114,1,8,0:0:0:0:
329,221,109205,1,0,0:0:0:0:
331,170,109296,1,0,0:0:0:0:
296,133,109388,1,0,0:0:0:0:
200,128,109480,2,0,L|152:76,2,52.5,2|0|0,0:0|0:0|0:0,0:0:0:0:
408,176,109846,6,0,L|408:44,1,105,8|0,0:0|0:0,0:0:0:0:
332,176,110211,2,0,L|332:44,1,105,2|0,0:0|0:0,0:0:0:0:
212,104,110577,2,0,P|168:164|212:240,1,157.5,8|0,0:0|0:0,0:0:0:0:
268,232,110943,1,2,0:0:0:0:
364,232,111126,1,0,0:0:0:0:
200,232,111309,6,0,L|112:112,1,105,8|2,0:0|0:0,0:0:0:0:
220,140,111675,2,0,L|268:92,1,52.5,4|4,0:0|0:0,0:0:0:0:
280,48,111858,1,4,0:0:0:0:
216,48,111949,2,0,L|216:232,1,157.5,8|0,0:0|0:0,0:0:0:0:
332,204,112407,2,0,L|248:100,1,105,2|0,0:0|0:0,0:0:0:0:
440,112,112772,6,0,P|496:176|444:288,1,210,8|2,0:0|0:0,0:0:0:0:
372,280,113321,1,0,0:0:0:0:
268,280,113504,2,0,L|192:168,1,105,8|0,0:0|0:0,0:0:0:0:
304,168,113870,2,0,L|304:56,1,105,2|0,0:0|0:0,0:0:0:0:
140,60,114236,5,0,0:0:0:0:
216,152,114419,2,0,P|240:96|192:40,1,105
192,32,114693,1,0,0:0:0:0:
120,36,114785,5,4,0:0:0:0:
280,44,114968,2,0,L|312:88,2,52.5,2|0|0,0:0|0:0|0:0,0:0:0:0:
204,40,115242,1,8,0:0:0:0:
340,40,115516,2,0,P|400:100|336:208,1,210,8|8,0:0|0:0,0:0:0:0:
264,204,116065,2,0,L|184:80,1,105,8|0,0:0|0:0,0:0:0:0:
408,284,116431,6,0,P|408:220|312:136,1,157.5,2|0,0:0|0:0,0:0:0:0:
280,152,116797,2,0,L|228:96,1,52.5
236,68,116980,1,0,0:0:0:0:
344,64,117163,6,0,L|344:208,1,105,8|0,0:0|0:0,0:0:0:0:
256,168,117529,2,0,L|160:316,1,157.500006008148,2|0,0:0|0:0,0:0:0:0:
368,304,117894,2,0,L|500:176,2,157.5,8|2|2,0:0|0:0|0:0,0:0:0:0:
256,308,118626,5,8,0:0:0:0:
364,252,118809,2,0,L|360:184,1,52.5,8|0,0:0|0:0,0:0:0:0:
252,180,119083,2,0,L|256:112,1,52.5,8|0,0:0|0:0,0:0:0:0:
428,332,119358,2,0,P|444:260|272:120,1,315,2|0,0:0|0:0,0:0:0:0:
96,104,120089,6,0,P|64:168|92:252,1,157.5,8|0,0:0|0:0,0:0:0:0:
176,244,120455,2,0,L|248:128,1,105,2|0,0:0|0:0,0:0:0:0:
144,144,120821,2,0,L|100:96,2,52.5,8|0|0,0:0|0:0|0:0,0:0:0:0:
220,144,121096,2,0,L|104:0,1,157.5,2|0,0:0|0:0,0:0:0:0:
232,20,121736,5,8,0:0:0:0:
432,32,121919,2,0,P|456:96|420:136,1,105,2|0,0:0|0:0,0:0:0:0:
348,128,122285,2,0,L|260:20,1,105,8|0,0:0|0:0,0:0:0:0:
380,44,122650,2,0,L|420:88,2,52.5,2|0|0,0:0|0:0|0:0,0:0:0:0:
200,44,123016,5,8,0:0:0:0:
124,48,123199,1,4,0:0:0:0:
85,81,123290,1,4,0:0:0:0:
84,132,123381,1,4,0:0:0:0:
121,168,123473,1,4,0:0:0:0:
184,172,123565,6,0,L|88:28,1,157.5,8|8,0:0|0:0,0:0:0:0:
216,96,124114,6,0,L|232:32,3,52.5
304,48,124480,6,0,L|424:240,1,210,8|2,0:0|0:0,0:0:0:0:
360,228,125029,1,0,0:0:0:0:
260,224,125211,2,0,L|260:92,1,105,8|0,0:0|0:0,0:0:0:0:
372,168,125577,2,0,L|372:36,1,105,2|0,0:0|0:0,0:0:0:0:
191,54,125943,5,4,0:0:0:0:
256,192,126309,12,0,131614,0:0:0:0:
