osu file format v14

[General]
AudioFilename: audio.mp3
AudioLeadIn: 0
PreviewTime: 102529
Countdown: 0
SampleSet: Soft
StackLeniency: 0.7
Mode: 2
LetterboxInBreaks: 0
EpilepsyWarning: 1
WidescreenStoryboard: 1

[Editor]
Bookmarks: 102529
DistanceSpacing: 0.9
BeatDivisor: 8
GridSize: 4
TimelineZoom: 2.2

[Metadata]
Title:Be There
TitleUnicode:Be There
Artist:PSYQUI
ArtistUnicode:PSYQUI
Creator:GiGas
Version:Overdose
Source:Arcaea
Tags:future bass hardcore such qsyqui be there luminate kuro usagi cyanine californian [_Kuro Usagi_] Liyac -Luminate
BeatmapID:1711477
BeatmapSetID:800670

[Difficulty]
HPDrainRate:6
CircleSize:4
OverallDifficulty:9.4
ApproachRate:9.4
SliderMultiplier:2.4
SliderTickRate:2

[Events]
//Background and Video events
0,0,"4c7ee8a2-7b32-4e50-b626-cdad51df2057.jpg",0,0
//Break Periods
//Storyboard Layer 0 (Background)
//Storyboard Layer 1 (Fail)
//Storyboard Layer 2 (Pass)
//Storyboard Layer 3 (Foreground)
//Storyboard Sound Samples

[TimingPoints]
90,365.853658536585,4,2,1,30,1,0
5943,-100,4,2,1,50,0,0
16187,-100,4,2,2,70,0,0
16553,-100,4,2,2,60,0,0
16919,-100,4,2,2,50,0,0
17650,-66.6666666666667,4,2,1,80,0,1
17696,-66.6666666666667,4,2,1,70,0,1
18291,-66.6666666666667,4,2,1,30,0,0
18382,-66.6666666666667,4,3,3,70,0,1
18565,-66.6666666666667,4,3,1,70,0,1
18657,-100,4,3,1,70,0,1
19846,-76.9230769230769,4,3,1,70,0,1
20211,-100,4,3,1,70,0,1
27071,-100,4,3,1,70,0,1
38321,-100,4,3,1,30,0,1
38413,-100,4,3,1,50,0,1
38504,-100,4,3,1,70,0,1
41065,-100,4,2,1,50,0,0
53504,-100,4,3,2,60,0,0
54602,-100,4,3,2,70,0,1
58535,-66.6666666666667,4,3,2,70,0,1
58809,-100,4,3,2,70,0,1
59724,-66.6666666666667,4,3,1,70,0,1
60730,-100,4,3,1,70,0,1
64480,-100,4,3,1,30,0,0
64846,-100,4,3,1,40,0,0
65211,-100,4,3,1,50,0,0
65577,-76.9230769230769,4,3,1,60,0,0
65943,-100,4,3,1,70,0,1
72163,-76.9230769230769,4,3,1,70,0,1
75913,-76.9230769230769,4,3,1,60,0,1
76004,-76.9230769230769,4,3,1,50,0,1
76096,-76.9230769230769,4,3,1,40,0,1
76187,-76.9230769230769,4,3,1,70,0,0
76553,-76.9230769230769,4,3,1,60,0,0
76919,-76.9230769230769,4,3,1,50,0,0
77285,-76.9230769230769,4,3,1,40,0,0
77650,-100,4,2,1,40,0,0
102529,-100,4,2,1,80,0,1
102894,-100,4,2,1,70,0,1
103169,-100,4,2,1,70,0,0
103260,-100,4,3,1,80,0,1
114236,-100,4,3,2,65,0,0
114785,-100,4,3,3,80,0,1
114876,-100,4,3,1,80,0,1
117529,-66.6666666666667,4,3,2,90,0,1
117894,-100,4,3,1,80,0,1
122285,-66.6666666666667,4,3,1,80,0,1
122833,-100,4,3,2,80,0,1
123199,-100,4,3,1,50,0,1
123291,-100,4,3,1,60,0,1
123382,-100,4,3,1,70,0,1
123474,-100,4,3,1,80,0,1
125943,-100,4,2,3,100,0,0
126126,-100,4,2,3,60,0,0

[Colours]
Combo1 : 128,255,128
Combo2 : 255,128,192
Combo3 : 0,128,255
Combo4 : 128,128,255

[HitObjects]
164,232,90,6,0,L|140:200,1,30,8|0,0:0|0:0,0:0:0:0:
164,232,181,2,0,P|244:172|132:56,1,300
280,68,821,1,0,0:0:0:0:
164,64,1553,5,8,0:0:0:0:
137,63,1599,1,0,0:0:0:0:
108,63,1644,2,0,P|50:179|177:206,1,300
48,216,2285,1,0,0:0:0:0:
164,224,3016,6,0,L|140:192,1,30,8|0,0:0|0:0,0:0:0:0:
164,224,3108,2,0,P|248:184|116:84,1,300
0,68,3748,1,0,0:0:0:0:
232,196,4480,5,8,0:0:0:0:
232,196,4526,1,0,0:0:0:0:
232,196,4571,2,0,B|232:88|232:88|160:88|160:88|168:144|168:144|244:120,1,300
372,124,5211,1,0,0:0:0:0:
212,216,5943,6,0,L|136:180,2,60,4|0|0,0:0|0:0|0:0,0:0:0:0:
76,120,6309,2,0,L|0:84,2,60
264,176,6675,2,0,L|316:52,1,120,4|0,0:0|0:0,0:0:0:0:
232,64,6949,2,0,L|348:172,1,120
444,144,7224,1,0,0:0:0:0:
315,206,7407,6,0,L|240:156,1,60,4|0,0:0|0:0,0:0:0:0:
356,140,7589,2,0,L|396:84,1,60
284,76,7772,2,0,P|224:128|280:136,1,180
360,136,8138,2,0,P|404:196|352:228,1,120,4|0,0:0|0:0,0:0:0:0:
136,136,8413,2,0,L|220:24,1,120
140,40,8687,2,0,L|84:120,1,60
268,80,8870,6,0,L|328:36,2,60,4|0|0,0:0|0:0|0:0,0:0:0:0:
392,80,9236,2,0,L|452:36,2,60
248,80,9602,2,0,P|208:120|244:160,1,120,4|0,0:0|0:0,0:0:0:0:
336,156,9876,2,0,L|424:60,1,120
344,56,10150,1,0,0:0:0:0:
192,60,10333,5,4,0:0:0:0:
324,136,10516,2,0,L|284:184,1,60
384,188,10699,2,0,P|444:224|352:244,1,180
308,192,11065,2,0,P|276:272|348:336,1,180,4|0,0:0|0:0,0:0:0:0:
436,328,11431,1,0,0:0:0:0:
232,208,11797,6,0,L|208:124,1,60,4|0,0:0|0:0,0:0:0:0:
308,136,11980,1,0,0:0:0:0:
192,132,12163,2,0,L|168:48,1,60,4|0,0:0|0:0,0:0:0:0:
268,60,12346,1,0,0:0:0:0:
140,48,12529,2,0,L|236:152,1,120,4|0,0:0|0:0,0:0:0:0:
222,137,12803,2,0,L|85:109,1,120
188,180,13077,2,0,L|224:128,1,60,4|0,0:0|0:0,0:0:0:0:
56,160,13260,5,8,0:0:0:0:
12,113,13351,1,0,0:0:0:0:
12,54,13442,1,0,0:0:0:0:
56,160,13534,1,0,0:0:0:0:
388,192,13626,2,0,P|420:132|368:104,1,120,4|0,0:0|0:0,0:0:0:0:
260,104,13992,6,0,P|212:180|296:244,1,180,8|0,0:0|0:0,0:0:0:0:
348,248,14358,1,4,0:0:0:0:
168,248,14541,1,0,0:0:0:0:
272,176,14724,6,0,L|344:116,1,60,6|0,0:0|0:0,0:0:0:0:
272,176,14907,2,0,L|328:132,1,60
124,144,15089,6,0,L|52:84,1,60,6|0,0:0|0:0,0:0:0:0:
124,144,15272,2,0,L|68:100,1,60
280,100,15455,6,0,L|336:32,2,60,6|0|0,0:0|0:0|0:0,0:0:0:0:
128,96,15730,2,0,L|72:28,2,60,6|0|0,0:0|0:0|0:0,0:0:0:0:
340,108,16004,2,0,L|408:60,1,60,6|0,0:0|0:0,0:0:0:0:
108,256,16187,5,4,0:0:0:0:
63,219,16278,1,0,0:0:0:0:
61,161,16369,1,0,0:0:0:0:
105,122,16461,1,0,0:0:0:0:
268,256,16553,1,0,0:0:0:0:
312,219,16644,1,0,0:0:0:0:
314,161,16735,1,0,0:0:0:0:
270,122,16827,1,0,0:0:0:0:
432,144,16919,2,0,P|500:208|416:252,1,180
356,256,17285,1,0,0:0:0:0:
96,320,17650,5,0,0:0:0:0:
94,275,17695,1,0,0:0:0:0:
95,230,17741,1,0,0:0:0:0:
105,186,17787,1,0,0:0:0:0:
142,163,17832,1,0,0:0:0:0:
187,163,17878,1,0,0:0:0:0:
232,165,17924,1,0,0:0:0:0:
277,164,17970,1,0,0:0:0:0:
322,165,18015,1,0,0:0:0:0:
367,164,18061,1,0,0:0:0:0:
412,162,18107,1,0,0:0:0:0:
456,155,18153,1,0,0:0:0:0:
488,126,18198,1,0,0:0:0:0:
496,82,18244,1,0,0:0:0:0:
496,37,18290,1,0,0:0:0:0:
212,216,18382,6,0,L|144:128,3,90.0000034332277,12|0|0|0,0:0|0:0|0:0|0:0,0:0:0:0:
256,124,18748,2,0,L|328:48,1,60,2|0,0:0|0:0,0:0:0:0:
128,60,18931,1,0,0:0:0:0:
216,72,19114,6,0,L|260:24,1,60,8|0,0:0|0:0,0:0:0:0:
180,96,19297,2,0,L|120:28,1,60
224,112,19480,2,0,P|288:28|208:8,1,180,2|0,0:0|0:0,0:0:0:0:
416,128,19846,2,0,P|492:52|388:16,1,233.999989288331,8|0,0:0|0:0,0:0:0:0:
312,12,20211,2,0,L|256:72,1,60,2|0,0:0|0:0,0:0:0:0:
376,56,20394,6,0,L|401:40,2,30
168,168,20577,2,0,P|80:120|88:12,1,180,8|0,0:0|0:0,0:0:0:0:
376,248,20943,1,2,0:0:0:0:
402,234,20989,1,0,0:0:0:0:
421,211,21034,1,0,0:0:0:0:
428,182,21080,1,0,0:0:0:0:
422,153,21125,1,0,0:0:0:0:
406,128,21171,1,0,0:0:0:0:
380,113,21217,1,0,0:0:0:0:
224,96,21309,6,0,L|152:148,2,60,8|0|0,0:0|0:0|0:0,0:0:0:0:
380,96,21583,2,0,L|452:148,2,60,2|0|0,0:0|0:0|0:0,0:0:0:0:
483,92,21858,2,0,L|419:44,1,60,2|0,0:0|0:0,0:0:0:0:
188,244,22041,6,0,P|152:176|204:56,1,180,8|0,0:0|0:0,0:0:0:0:
288,76,22407,2,0,P|364:112|280:180,1,180,2|0,0:0|0:0,0:0:0:0:
240,184,22772,1,8,0:0:0:0:
191,214,22863,1,0,0:0:0:0:
191,272,22954,1,0,0:0:0:0:
239,303,23046,1,0,0:0:0:0:
344,96,23138,2,0,L|404:40,1,60,2|0,0:0|0:0,0:0:0:0:
152,96,23321,2,0,L|92:40,1,60,2|0,0:0|0:0,0:0:0:0:
408,248,23504,6,0,L|348:128,1,120,8|0,0:0|0:0,0:0:0:0:
288,140,23779,1,0,0:0:0:0:
448,144,23870,2,0,P|496:88|404:52,1,180,2|0,0:0|0:0,0:0:0:0:
328,44,24236,2,0,L|244:44,3,60,8|0|0|0,0:0|0:0|0:0|0:0,0:0:0:0:
104,56,24602,2,0,L|188:56,1,60,2|0,0:0|0:0,0:0:0:0:
348,56,24785,1,0,0:0:0:0:
444,120,24968,6,0,L|344:120,1,60,8|0,0:0|0:0,0:0:0:0:
204,132,25150,2,0,L|160:68,1,60
272,80,25333,1,2,0:0:0:0:
315,118,25424,1,0,0:0:0:0:
310,175,25515,1,0,0:0:0:0:
260,204,25607,1,0,0:0:0:0:
88,200,25699,6,0,B|28:160|32:144|32:116|40:104|64:92|80:88|96:88|88:24,1,180,8|0,0:0|0:0,0:0:0:0:
184,56,26065,2,0,L|240:116,1,60,2|0,0:0|0:0,0:0:0:0:
120,108,26248,2,0,L|92:88,2,30
288,128,26431,6,0,L|348:48,1,60,8|0,0:0|0:0,0:0:0:0:
88,128,26614,2,0,L|28:48,1,60,2|0,0:0|0:0,0:0:0:0:
144,56,26797,5,4,0:0:0:0:
316,56,26888,1,4,0:0:0:0:
492,60,26980,1,4,0:0:0:0:
288,140,27071,2,0,L|208:88,2,60,8|0|0,0:0|0:0|0:0,0:0:0:0:
496,140,27346,1,8,0:0:0:0:
380,88,27529,5,0,0:0:0:0:
476,88,27711,1,0,0:0:0:0:
312,88,27894,6,0,P|280:136|320:168,1,120,8|0,0:0|0:0,0:0:0:0:
392,168,28169,1,0,0:0:0:0:
320,168,28260,2,0,P|288:216|328:248,1,120,2|0,0:0|0:0,0:0:0:0:
400,248,28535,1,0,0:0:0:0:
128,256,28626,2,0,P|92:200|140:180,1,120,8|0,0:0|0:0,0:0:0:0:
184,176,28900,1,0,0:0:0:0:
288,176,28992,2,0,L|360:104,1,60,2|0,0:0|0:0,0:0:0:0:
120,104,29175,2,0,L|64:56,1,60
260,48,29358,5,0,0:0:0:0:
176,48,29541,2,0,L|152:16,2,30,8|0|0,0:0|0:0|0:0,0:0:0:0:
272,88,29724,2,0,L|344:44,1,60
496,140,29907,6,0,L|432:72,1,60,8|0,0:0|0:0,0:0:0:0:
236,80,30089,2,0,L|156:32,2,60,2|0|0,0:0|0:0|0:0,0:0:0:0:
352,172,30364,1,8,0:0:0:0:
396,136,30455,1,0,0:0:0:0:
386,79,30546,1,0,0:0:0:0:
332,61,30638,1,8,0:0:0:0:
228,144,30730,6,0,P|184:92|232:44,1,120
309,49,31004,2,0,L|401:13,1,60,8|0,0:0|0:0,0:0:0:0:
105,269,31187,2,0,P|85:197|117:153,1,120,8|0,0:0|0:0,0:0:0:0:
176,156,31461,1,0,0:0:0:0:
404,228,31553,6,0,P|456:196|372:128,1,180,2|0,0:0|0:0,0:0:0:0:
304,116,31919,2,0,L|220:44,1,60
348,72,32102,2,0,L|388:36,2,30,8|0|0,0:0|0:0|0:0,0:0:0:0:
160,200,32285,6,0,L|308:48,1,180,8|0,0:0|0:0,0:0:0:0:
80,184,32650,1,2,0:0:0:0:
51,175,32695,1,0,0:0:0:0:
32,152,32741,1,0,0:0:0:0:
27,123,32787,1,0,0:0:0:0:
38,96,32832,1,0,0:0:0:0:
62,78,32878,1,0,0:0:0:0:
92,76,32924,1,0,0:0:0:0:
352,132,33016,6,0,L|424:108,2,60,8|0|0,0:0|0:0|0:0,0:0:0:0:
188,144,33291,2,0,L|156:60,1,60,2|0,0:0|0:0,0:0:0:0:
252,72,33474,1,0,0:0:0:0:
166,87,33565,2,0,L|134:3,1,60,2|0,0:0|0:0,0:0:0:0:
440,80,33748,5,8,0:0:0:0:
320,152,33931,2,0,L|404:152,1,60,8|0,0:0|0:0,0:0:0:0:
248,92,34205,2,0,L|164:92,2,60,8|0|0,0:0|0:0|0:0,0:0:0:0:
512,176,34480,6,0,L|436:176,3,60,2|0|0|0,0:0|0:0|0:0|0:0,0:0:0:0:
176,184,34846,2,0,L|248:140,1,60
312,144,35029,2,0,L|344:112,2,30,2|0|0,0:0|0:0|0:0,0:0:0:0:
160,288,35211,6,0,P|96:244|160:180,1,180,8|0,0:0|0:0,0:0:0:0:
240,176,35577,2,0,P|284:120|224:28,1,180,2|0,0:0|0:0,0:0:0:0:
76,40,35943,2,0,L|8:56,2,60,8|0|0,0:0|0:0|0:0,0:0:0:0:
304,44,36218,1,2,0:0:0:0:
244,44,36309,1,0,0:0:0:0:
184,44,36400,1,0,0:0:0:0:
384,188,36492,6,0,P|428:148|368:88,1,120,8|0,0:0|0:0,0:0:0:0:
336,84,36766,1,0,0:0:0:0:
120,92,36858,2,0,L|72:48,1,60,8|0,0:0|0:0,0:0:0:0:
168,48,37041,2,0,P|204:84|168:144,1,120,8|0,0:0|0:0,0:0:0:0:
104,140,37315,1,0,0:0:0:0:
360,272,37407,5,2,0:0:0:0:
404,235,37498,1,0,0:0:0:0:
403,177,37589,1,0,0:0:0:0:
356,144,37681,1,0,0:0:0:0:
272,128,37772,2,0,L|224:72,1,60
320,72,37955,2,0,L|368:24,1,60
88,128,38138,1,2,0:0:0:0:
0,60,38321,5,4,0:0:0:0:
164,60,38413,1,4,0:0:0:0:
324,64,38504,1,4,0:0:0:0:
488,68,38596,1,4,0:0:0:0:
244,200,38687,6,0,L|172:168,2,60,8|0|0,0:0|0:0|0:0,0:0:0:0:
408,244,38961,2,0,P|452:188|400:164,1,120
228,108,39236,2,0,L|192:72,2,30,2|0|0,0:0|0:0|0:0,0:0:0:0:
304,108,39419,1,0,0:0:0:0:
232,112,39510,1,0,0:0:0:0:
432,292,39602,6,0,P|464:216|432:200,1,120,8|0,0:0|0:0,0:0:0:0:
376,200,39876,1,0,0:0:0:0:
264,196,39968,2,0,P|232:120|264:104,1,120,2|0,0:0|0:0,0:0:0:0:
320,104,40242,1,0,0:0:0:0:
104,220,40333,6,0,P|56:172|132:80,1,180,8|0,0:0|0:0,0:0:0:0:
280,84,40699,2,0,L|336:12,1,60,2|0,0:0|0:0,0:0:0:0:
116,76,40882,2,0,L|60:4,1,60,2|0,0:0|0:0,0:0:0:0:
372,104,41065,6,0,L|400:72,2,30,4|0|0,0:0|0:0|0:0,0:0:0:0:
272,104,41248,1,0,0:0:0:0:
416,164,41431,2,0,L|504:56,1,120
348,68,41797,5,4,0:0:0:0:
296,91,41888,1,0,0:0:0:0:
294,148,41979,1,0,0:0:0:0:
344,176,42071,1,0,0:0:0:0:
448,180,42163,1,0,0:0:0:0:
364,180,42346,1,0,0:0:0:0:
196,176,42529,6,0,L|152:140,2,30,4|0|0,0:0|0:0|0:0,0:0:0:0:
284,176,42711,1,0,0:0:0:0:
412,180,42894,1,0,0:0:0:0:
348,176,43077,1,0,0:0:0:0:
200,200,43260,6,0,L|344:40,1,180,4|0,0:0|0:0,0:0:0:0:
256,64,43626,1,0,0:0:0:0:
344,64,43809,1,0,0:0:0:0:
196,64,43992,6,0,L|164:36,2,30,4|0|0,0:0|0:0|0:0,0:0:0:0:
272,64,44175,1,0,0:0:0:0:
88,184,44358,2,0,L|188:72,1,120
324,88,44724,6,0,L|396:40,2,60,4|0|0,0:0|0:0|0:0,0:0:0:0:
220,92,44998,2,0,P|160:144|240:200,1,180
360,208,45455,6,0,L|380:172,2,30,4|0|0,0:0|0:0|0:0,0:0:0:0:
264,208,45638,1,0,0:0:0:0:
128,204,45821,2,0,L|36:112,1,120
192,104,46187,2,0,P|252:136|168:200,1,180,4|0,0:0|0:0,0:0:0:0:
120,212,46553,1,0,0:0:0:0:
260,212,46736,1,0,0:0:0:0:
152,212,46919,6,0,P|96:164|164:80,1,180,12|0,0:0|0:0,0:0:0:0:
240,72,47285,2,0,P|272:132|232:188,1,120
128,184,47650,2,0,L|256:32,1,180,12|0,0:0|0:0,0:0:0:0:
156,132,48016,2,0,L|244:36,1,120
376,64,48382,6,0,P|440:116|356:160,1,180,12|0,0:0|0:0,0:0:0:0:
292,164,48748,2,0,L|404:64,1,120
268,76,49114,2,0,L|148:220,1,180,12|0,0:0|0:0,0:0:0:0:
248,208,49480,2,0,P|276:260|228:312,1,120
124,184,49846,5,2,0:0:0:0:
172,184,49937,1,0,0:0:0:0:
220,184,50029,1,0,0:0:0:0:
268,184,50120,1,0,0:0:0:0:
268,184,50211,1,2,0:0:0:0:
208,184,50303,1,0,0:0:0:0:
148,184,50394,1,0,0:0:0:0:
88,184,50486,1,0,0:0:0:0:
88,116,50577,5,2,0:0:0:0:
160,116,50669,1,0,0:0:0:0:
232,116,50760,1,0,0:0:0:0:
304,120,50852,1,0,0:0:0:0:
308,48,50943,1,2,0:0:0:0:
224,44,51035,1,0,0:0:0:0:
140,44,51126,1,0,0:0:0:0:
56,44,51218,1,0,0:0:0:0:
388,52,51309,5,8,0:0:0:0:
256,192,51492,12,0,53321,0:0:0:0:
88,216,53504,6,0,L|40:152,1,60,8|0,0:0|0:0,0:0:0:0:
352,112,53687,1,2,0:0:0:0:
256,112,53870,2,0,L|208:88,2,30,8|0|0,0:0|0:0|0:0,0:0:0:0:
360,112,54053,2,0,L|436:56,1,60,2|0,0:0|0:0,0:0:0:0:
164,268,54236,5,8,0:0:0:0:
137,254,54281,1,0,0:0:0:0:
118,231,54327,1,0,0:0:0:0:
112,202,54373,1,0,0:0:0:0:
118,173,54418,1,0,0:0:0:0:
136,150,54464,1,0,0:0:0:0:
163,136,54510,1,0,0:0:0:0:
404,228,54602,6,0,P|452:176|368:92,1,180,2|0,0:0|0:0,0:0:0:0:
316,88,54968,2,0,L|212:60,2,60,8|0|0,0:0|0:0|0:0,0:0:0:0:
388,88,55242,1,0,0:0:0:0:
112,288,55333,6,0,L|28:176,1,120,2|0,0:0|0:0,0:0:0:0:
120,176,55608,2,0,L|120:40,1,120,8|0,0:0|0:0,0:0:0:0:
216,128,55882,2,0,L|216:24,1,60,8|0,0:0|0:0,0:0:0:0:
460,272,56065,6,0,P|496:224|440:200,1,120,2|0,0:0|0:0,0:0:0:0:
356,196,56339,2,0,P|364:268|416:276,1,120,8|0,0:0|0:0,0:0:0:0:
300,276,56614,2,0,L|232:208,1,60,8|0,0:0|0:0,0:0:0:0:
452,180,56797,2,0,P|504:140|436:84,1,180,2|0,0:0|0:0,0:0:0:0:
112,160,57163,6,0,L|264:40,1,180,2|0,0:0|0:0,0:0:0:0:
88,56,57529,2,0,L|8:176,1,120,2|0,0:0|0:0,0:0:0:0:
120,168,57803,2,0,L|120:32,1,120,8|0,0:0|0:0,0:0:0:0:
224,168,58077,2,0,L|224:88,1,60,8|0,0:0|0:0,0:0:0:0:
52,164,58260,6,0,P|24:120|72:72,1,120,2|0,0:0|0:0,0:0:0:0:
160,72,58535,1,8,0:0:0:0:
201,86,58580,1,0,0:0:0:0:
219,125,58626,1,0,0:0:0:0:
204,166,58672,1,0,0:0:0:0:
163,183,58717,1,0,0:0:0:0:
80,200,58809,2,0,L|168:252,1,60,8|0,0:0|0:0,0:0:0:0:
356,268,58992,6,0,P|392:208|316:192,1,120,2|0,0:0|0:0,0:0:0:0:
280,180,59266,1,0,0:0:0:0:
124,172,59358,6,0,L|32:176,3,60,8|0|0|0,0:0|0:0|0:0|0:0,0:0:0:0:
260,176,59724,2,0,L|348:104,2,90.0000034332277,2|0|0,0:0|0:0|0:0,0:0:0:0:
84,284,59998,5,8,0:0:0:0:
56,273,60043,1,0,0:0:0:0:
34,253,60089,1,0,0:0:0:0:
20,226,60135,1,0,0:0:0:0:
18,197,60180,1,0,0:0:0:0:
26,168,60226,1,0,0:0:0:0:
45,145,60272,1,0,0:0:0:0:
71,130,60318,1,0,0:0:0:0:
100,125,60363,1,0,0:0:0:0:
328,224,60455,6,0,P|384:184|312:140,1,180.000006866455,2|0,0:0|0:0,0:0:0:0:
220,136,60730,2,0,L|148:84,2,60,8|0|0,0:0|0:0|0:0,0:0:0:0:
320,140,61004,2,0,L|372:84,1,60,8|0,0:0|0:0,0:0:0:0:
92,240,61187,2,0,P|52:192|120:136,1,120,2|0,0:0|0:0,0:0:0:0:
188,136,61461,2,0,L|188:292,1,120,8|0,0:0|0:0,0:0:0:0:
284,128,61736,2,0,L|284:212,1,60,8|0,0:0|0:0,0:0:0:0:
104,144,61919,6,0,L|216:32,1,120,2|0,0:0|0:0,0:0:0:0:
112,56,62193,2,0,P|92:104|148:140,1,120,8|0,0:0|0:0,0:0:0:0:
244,144,62468,2,0,L|308:80,1,60,8|0,0:0|0:0,0:0:0:0:
80,260,62650,6,0,P|80:138|160:108,1,180,2|0,0:0|0:0,0:0:0:0:
336,192,63016,1,2,0:0:0:0:
363,181,63061,1,0,0:0:0:0:
382,158,63107,1,0,0:0:0:0:
388,129,63153,1,0,0:0:0:0:
378,100,63198,1,0,0:0:0:0:
356,80,63244,1,0,0:0:0:0:
328,73,63290,1,0,0:0:0:0:
112,72,63382,6,0,P|80:124|136:152,1,120,2|0,0:0|0:0,0:0:0:0:
216,212,63657,2,0,L|212:60,1,120,8|0,0:0|0:0,0:0:0:0:
396,156,63931,2,0,L|392:72,1,60,8|0,0:0|0:0,0:0:0:0:
140,92,64114,5,2,0:0:0:0:
272,92,64388,1,0,0:0:0:0:
108,280,64480,6,0,P|72:208|120:104,1,180,8|0,0:0|0:0,0:0:0:0:
168,120,64846,2,0,P|212:192|136:268,1,180
96,128,65211,2,0,P|48:172|143:242,1,180,8|0,0:0|0:0,0:0:0:0:
188,120,65577,2,0,P|268:188|136:216,1,233.999989288331
384,224,65943,6,0,P|440:160|360:152,1,180,8|0,0:0|0:0,0:0:0:0:
180,152,66309,2,0,P|116:112|124:36,1,120,2|0,0:0|0:0,0:0:0:0:
212,64,66583,2,0,L|272:64,4,60,8|0|0|8|0,0:0|0:0|0:0|0:0|0:0,0:0:0:0:
388,80,67041,2,0,L|480:192,1,120,2|0,0:0|0:0,0:0:0:0:
152,220,67315,1,8,0:0:0:0:
125,207,67360,1,0,0:0:0:0:
112,180,67406,1,0,0:0:0:0:
117,151,67452,1,0,0:0:0:0:
139,132,67497,1,0,0:0:0:0:
232,120,67589,2,0,L|316:64,1,60,8|0,0:0|0:0,0:0:0:0:
128,72,67772,6,0,L|64:44,2,60,2|0|0,0:0|0:0|0:0,0:0:0:0:
332,208,68047,2,0,P|364:144|328:120,1,120,2|0,0:0|0:0,0:0:0:0:
240,116,68321,2,0,L|176:56,1,60,8|0,0:0|0:0,0:0:0:0:
424,280,68504,6,0,P|452:224|416:188,1,120,2|0,0:0|0:0,0:0:0:0:
344,188,68779,1,0,0:0:0:0:
128,184,68870,1,8,0:0:0:0:
101,171,68915,1,0,0:0:0:0:
83,147,68961,1,0,0:0:0:0:
77,118,69007,1,0,0:0:0:0:
85,89,69052,1,0,0:0:0:0:
104,67,69098,1,0,0:0:0:0:
132,56,69144,1,0,0:0:0:0:
332,92,69236,6,0,L|440:216,1,120,2|0,0:0|0:0,0:0:0:0:
320,192,69510,2,0,L|188:196,1,120,8|0,0:0|0:0,0:0:0:0:
260,192,69785,2,0,L|180:196,1,60,8|0,0:0|0:0,0:0:0:0:
360,96,69968,6,0,L|444:36,2,60,2|0|0,0:0|0:0|0:0,0:0:0:0:
164,100,70242,1,8,0:0:0:0:
136,108,70287,1,0,0:0:0:0:
120,133,70333,1,0,0:0:0:0:
125,162,70379,1,0,0:0:0:0:
148,180,70424,1,0,0:0:0:0:
244,184,70516,2,0,L|304:112,1,60,8|0,0:0|0:0,0:0:0:0:
120,88,70699,6,0,L|68:44,1,60,2|0,0:0|0:0,0:0:0:0:
272,72,70882,2,0,L|328:20,1,60,2|0,0:0|0:0,0:0:0:0:
128,84,71065,2,0,L|28:88,3,60,8|0|8|0,0:0|0:0|0:0|0:0,0:0:0:0:
220,120,71431,2,0,L|292:72,2,60,2|0|0,0:0|0:0|0:0,0:0:0:0:
424,256,71705,5,8,0:0:0:0:
452,245,71750,1,0,0:0:0:0:
474,225,71796,1,0,0:0:0:0:
486,198,71842,1,0,0:0:0:0:
487,169,71887,1,0,0:0:0:0:
477,141,71933,1,0,0:0:0:0:
456,119,71979,1,0,0:0:0:0:
429,107,72025,1,0,0:0:0:0:
399,107,72070,1,0,0:0:0:0:
160,228,72163,6,0,P|120:140|156:104,1,155.999992858887,2|0,0:0|0:0,0:0:0:0:
252,96,72437,2,0,L|328:48,4,77.9999964294435,8|0|0|8|0,0:0|0:0|0:0|0:0|0:0,0:0:0:0:
72,176,72894,2,0,P|24:100|76:64,1,155.999992858887,2|0,0:0|0:0,0:0:0:0:
316,272,73169,2,0,P|376:200|316:152,1,155.999992858887,8|0,0:0|0:0,0:0:0:0:
256,160,73443,2,0,L|192:92,1,77.9999964294435,8|0,0:0|0:0,0:0:0:0:
396,80,73626,6,0,L|464:16,2,77.9999964294435,2|0|0,0:0|0:0|0:0,0:0:0:0:
192,244,73900,2,0,P|144:168|208:128,1,155.999992858887,2|0,0:0|0:0,0:0:0:0:
280,112,74175,2,0,L|356:28,1,77.9999964294435,8|0,0:0|0:0,0:0:0:0:
88,200,74358,2,0,P|52:104|104:72,1,155.999992858887,2|0,0:0|0:0,0:0:0:0:
160,76,74632,1,0,0:0:0:0:
392,264,74724,5,8,0:0:0:0:
426,247,74769,1,0,0:0:0:0:
449,216,74815,1,0,0:0:0:0:
455,177,74861,1,0,0:0:0:0:
443,141,74906,1,0,0:0:0:0:
415,114,74952,1,0,0:0:0:0:
378,104,74998,1,0,0:0:0:0:
192,68,75089,6,0,P|152:120|204:200,1,155.999992858887,2|0,0:0|0:0,0:0:0:0:
280,192,75364,2,0,L|400:52,1,155.999992858887,8|0,0:0|0:0,0:0:0:0:
292,63,75638,2,0,L|228:135,1,77.9999964294435,8|0,0:0|0:0,0:0:0:0:
40,128,75821,2,0,L|128:64,3,77.9999964294435,2|0|0|0,0:0|0:0|0:0|0:0,0:0:0:0:
368,232,76187,6,0,P|440:172|348:88,1,233.999989288331,2|0,0:0|0:0,0:0:0:0:
272,228,76553,2,0,P|212:136|304:40,1,233.999989288331
360,236,76919,2,0,P|408:116|340:24,1,233.999989288331,2|0,0:0|0:0,0:0:0:0:
280,244,77285,2,0,P|248:136|300:0,1,233.999989288331
480,104,77650,6,0,L|516:56,2,40,4|0|0,0:0|0:0|0:0,0:0:0:0:
360,108,78016,1,0,0:0:0:0:
184,104,78382,2,0,L|48:316,1,240,8|0,0:0|0:0,0:0:0:0:
304,288,79114,6,0,L|336:248,2,40,4|0|0,0:0|0:0|0:0,0:0:0:0:
188,292,79480,1,0,0:0:0:0:
372,312,79846,2,0,L|516:104,1,240
260,104,80577,5,4,0:0:0:0:
240,104,80638,1,0,0:0:0:0:
220,104,80699,1,0,0:0:0:0:
84,104,80943,1,0,0:0:0:0:
264,256,81309,2,0,P|320:204|224:68,1,240
136,80,82041,6,0,L|104:40,2,40,4|0|0,0:0|0:0|0:0,0:0:0:0:
280,84,82407,1,0,0:0:0:0:
120,84,82772,2,0,P|76:128|132:280,1,240
356,80,83504,6,0,L|392:40,2,40,4|0|0,0:0|0:0|0:0,0:0:0:0:
256,80,83870,1,0,0:0:0:0:
132,88,84236,2,0,P|80:128|104:288,1,240
368,276,84968,6,0,L|408:216,2,40,4|0|0,0:0|0:0|0:0,0:0:0:0:
204,276,85333,1,0,0:0:0:0:
316,276,85699,1,0,0:0:0:0:
136,276,86065,1,0,0:0:0:0:
324,268,86431,6,0,L|356:220,2,40,4|0|0,0:0|0:0|0:0,0:0:0:0:
256,268,86614,1,0,0:0:0:0:
186,179,86796,1,0,0:0:0:0:
251,88,86979,1,0,0:0:0:0:
404,208,87163,1,0,0:0:0:0:
510,180,87345,1,0,0:0:0:0:
498,71,87528,1,0,0:0:0:0:
389,67,87711,1,0,0:0:0:0:
192,72,87894,6,0,L|168:44,1,30,8|0,0:0|0:0,0:0:0:0:
192,72,87986,2,0,P|284:160|88:180,1,420
216,200,88992,1,0,0:0:0:0:
108,148,89358,6,0,L|184:112,2,60,4|0|0,0:0|0:0|0:0,0:0:0:0:
244,52,89724,2,0,L|320:16,2,60
116,88,90089,1,4,0:0:0:0:
56,188,90181,2,0,P|24:144|60:84,1,120
140,88,90455,1,0,0:0:0:0:
232,96,90638,2,0,L|180:36,1,60
320,228,91004,6,0,L|244:164,1,60,4|0,0:0|0:0,0:0:0:0:
380,164,91187,2,0,P|412:108|368:84,1,120
288,72,91461,2,0,P|264:132|272:188,1,120
352,192,91736,2,0,L|400:136,1,60
288,128,91919,2,0,L|232:64,1,60,4|0,0:0|0:0,0:0:0:0:
452,80,92102,2,0,L|516:24,1,60
268,144,92285,6,0,L|192:108,2,60,4|0|0,0:0|0:0|0:0,0:0:0:0:
132,48,92651,2,0,L|56:12,2,60
304,224,93016,2,0,L|392:116,1,120,4|0,0:0|0:0,0:0:0:0:
300,124,93291,1,0,0:0:0:0:
164,120,93565,2,0,L|256:60,1,60
416,200,93931,6,0,L|464:120,1,60,4|0,0:0|0:0,0:0:0:0:
352,136,94114,2,0,P|316:96|376:44,1,120
428,52,94388,2,0,P|488:104|404:160,1,180,4|0,0:0|0:0,0:0:0:0:
360,168,94754,1,0,0:0:0:0:
264,176,94846,5,8,0:0:0:0:
237,161,94891,1,0,0:0:0:0:
220,137,94937,1,0,0:0:0:0:
215,108,94983,1,0,0:0:0:0:
222,79,95028,1,0,0:0:0:0:
242,56,95074,1,0,0:0:0:0:
269,44,95120,1,0,0:0:0:0:
444,44,95211,5,4,0:0:0:0:
340,44,95394,2,0,L|340:140,1,60
428,112,95577,1,0,0:0:0:0:
324,112,95760,2,0,L|324:208,1,60
420,176,95943,2,0,L|508:68,1,120,4|0,0:0|0:0,0:0:0:0:
396,76,96218,2,0,L|360:8,1,60
196,52,96492,2,0,L|252:8,1,60
416,168,96675,6,0,B|472:104|364:52|316:64|252:40|272:-8|264:40,1,240,4|0,0:0|0:0,0:0:0:0:
412,32,97224,2,0,P|496:108|388:168,1,240,4|0,0:0|0:0,0:0:0:0:
336,176,97772,2,0,L|236:80,1,120,4|0,0:0|0:0,0:0:0:0:
368,88,98138,5,2,0:0:0:0:
411,127,98229,1,0,0:0:0:0:
416,185,98320,1,0,0:0:0:0:
379,230,98412,1,0,0:0:0:0:
276,92,98504,1,2,0:0:0:0:
229,126,98595,1,0,0:0:0:0:
223,184,98686,1,0,0:0:0:0:
263,226,98778,1,0,0:0:0:0:
360,216,98870,2,0,L|432:168,2,60,2|0|0,0:0|0:0|0:0,0:0:0:0:
180,204,99144,6,0,P|152:144|196:108,1,120,4|0,0:0|0:0,0:0:0:0:
280,100,99419,2,0,L|352:40,1,60,8|0,0:0|0:0,0:0:0:0:
160,64,99602,6,0,P|92:156|168:260,1,240,12|0,0:0|0:0,0:0:0:0:
296,248,100150,2,0,P|364:180|276:88,1,240
180,92,100699,2,0,P|124:152|208:184,1,180
280,196,101065,6,0,L|256:156,4,30,6|0|0|0|0,0:0|0:0|0:0|0:0|0:0,0:0:0:0:
180,190,101431,2,0,L|148:166,4,30
312,288,101797,2,0,P|364:252|268:184,1,180,6|0,0:0|0:0,0:0:0:0:
156,172,102163,1,8,0:0:0:0:
3,324,102529,5,0,0:0:0:0:
1,279,102574,1,0,0:0:0:0:
2,234,102620,1,0,0:0:0:0:
12,190,102666,1,0,0:0:0:0:
49,167,102711,1,0,0:0:0:0:
94,167,102757,1,0,0:0:0:0:
139,169,102803,1,0,0:0:0:0:
184,168,102849,1,0,0:0:0:0:
229,169,102894,1,0,0:0:0:0:
274,168,102940,1,0,0:0:0:0:
319,166,102986,1,0,0:0:0:0:
363,159,103032,1,0,0:0:0:0:
395,130,103077,1,0,0:0:0:0:
403,86,103123,1,0,0:0:0:0:
403,41,103169,1,0,0:0:0:0:
160,224,103260,6,0,P|120:172|180:104,1,120,8|0,0:0|0:0,0:0:0:0:
220,120,103535,1,0,0:0:0:0:
400,104,103626,2,0,L|480:84,3,60,2|0|0|0,0:0|0:0|0:0|0:0,0:0:0:0:
348,48,103992,2,0,L|284:104,2,60,8|0|0,0:0|0:0|0:0,0:0:0:0:
448,40,104266,1,0,0:0:0:0:
196,256,104358,6,0,P|148:200|204:188,1,120,2|0,0:0|0:0,0:0:0:0:
252,172,104632,1,0,0:0:0:0:
420,144,104724,2,0,P|468:84|416:4,1,180,8|0,0:0|0:0,0:0:0:0:
328,16,105089,2,0,L|276:68,1,60,2|0,0:0|0:0,0:0:0:0:
380,68,105272,2,0,L|416:40,2,30
176,160,105455,6,0,P|140:96|192:64,1,120,8|0,0:0|0:0,0:0:0:0:
248,64,105730,1,0,0:0:0:0:
80,68,105821,2,0,L|40:12,1,60,2|0,0:0|0:0,0:0:0:0:
264,60,106004,2,0,L|304:4,1,60
112,164,106187,6,0,L|40:120,3,60,8|0|0|0,0:0|0:0|0:0|0:0,0:0:0:0:
264,168,106553,2,0,L|336:96,1,60,2|0,0:0|0:0,0:0:0:0:
140,144,106736,2,0,L|112:76,1,60
276,280,106919,6,0,P|344:216|264:176,1,180,8|0,0:0|0:0,0:0:0:0:
148,168,107285,2,0,L|72:120,1,60,2|0,0:0|0:0,0:0:0:0:
192,124,107468,2,0,L|268:76,1,60
84,184,107650,5,8,0:0:0:0:
37,150,107741,1,0,0:0:0:0:
41,93,107832,1,8,0:0:0:0:
92,66,107924,1,0,0:0:0:0:
320,116,108016,2,0,L|372:52,1,60,2|0,0:0|0:0,0:0:0:0:
188,76,108199,2,0,L|124:32,1,60,2|0,0:0|0:0,0:0:0:0:
364,256,108382,6,0,P|416:208|336:156,1,180,8|0,0:0|0:0,0:0:0:0:
128,144,108748,2,0,L|92:88,1,60,2|0,0:0|0:0,0:0:0:0:
288,128,108931,2,0,L|300:56,1,60
80,88,109114,2,0,L|-16:76,3,60,8|0|0|0,0:0|0:0|0:0|0:0,0:0:0:0:
216,96,109480,6,0,L|248:64,2,30,2|0|0,0:0|0:0|0:0,0:0:0:0:
128,96,109663,2,0,L|72:44,1,60
332,100,109846,2,0,L|348:32,1,60,8|0,0:0|0:0,0:0:0:0:
264,40,110029,2,0,L|260:128,1,60
440,216,110211,2,0,P|476:164|404:152,1,120,2|0,0:0|0:0,0:0:0:0:
360,132,110486,1,0,0:0:0:0:
168,136,110577,6,0,L|80:-8,1,120,8|0,0:0|0:0,0:0:0:0:
176,28,110852,1,0,0:0:0:0:
368,72,110943,2,0,L|420:24,1,60,2|0,0:0|0:0,0:0:0:0:
332,24,111126,2,0,L|292:48,2,30
484,80,111309,6,0,L|520:24,1,60,8|0,0:0|0:0,0:0:0:0:
280,84,111492,2,0,L|232:24,1,60,2|0,0:0|0:0,0:0:0:0:
328,44,111675,1,4,0:0:0:0:
172,44,111766,1,4,0:0:0:0:
16,44,111858,1,4,0:0:0:0:
336,172,111949,6,0,L|400:120,2,60,8|0|0,0:0|0:0|0:0,0:0:0:0:
168,172,112224,2,0,L|116:112,1,60,8|0,0:0|0:0,0:0:0:0:
336,104,112407,1,2,0:0:0:0:
236,108,112589,1,0,0:0:0:0:
400,280,112772,5,8,0:0:0:0:
451,254,112863,1,0,0:0:0:0:
453,197,112954,1,0,0:0:0:0:
403,169,113046,1,0,0:0:0:0:
160,176,113138,2,0,L|140:112,1,60,2|0,0:0|0:0,0:0:0:0:
228,108,113321,2,0,L|248:40,1,60
68,56,113504,5,8,0:0:0:0:
30,99,113595,1,0,0:0:0:0:
41,156,113686,1,0,0:0:0:0:
93,183,113778,1,0,0:0:0:0:
280,188,113870,2,0,L|348:120,1,60,2|0,0:0|0:0,0:0:0:0:
140,128,114053,2,0,L|84:56,1,60
372,73,114236,5,4,0:0:0:0:
278,72,114419,2,0,L|249:45,2,30
360,72,114602,1,0,0:0:0:0:
278,72,114693,1,0,0:0:0:0:
476,160,114785,6,0,L|532:76,1,60,4|0,0:0|0:0,0:0:0:0:
272,120,114968,2,0,L|348:64,3,60,2|0|0|0,0:0|0:0|0:0|0:0,0:0:0:0:
168,120,115333,2,0,L|112:64,1,60
216,64,115516,2,0,P|248:116|204:168,1,120,8|0,0:0|0:0,0:0:0:0:
148,164,115791,1,0,0:0:0:0:
312,172,115882,2,0,L|364:108,1,60,8|0,0:0|0:0,0:0:0:0:
108,220,116065,2,0,P|64:152|120:64,1,180,8|0,0:0|0:0,0:0:0:0:
376,216,116431,6,0,P|432:176|352:116,1,180,2|0,0:0|0:0,0:0:0:0:
176,92,116797,2,0,L|236:40,1,60,8|0,0:0|0:0,0:0:0:0:
128,48,116980,2,0,L|88:24,2,30,2|0|0,0:0|0:0|0:0,0:0:0:0:
372,244,117163,5,8,0:0:0:0:
396,227,117208,1,0,0:0:0:0:
412,201,117254,1,0,0:0:0:0:
415,172,117300,1,0,0:0:0:0:
407,143,117345,1,0,0:0:0:0:
387,121,117391,1,0,0:0:0:0:
360,109,117437,1,0,0:0:0:0:
168,256,117529,5,2,0:0:0:0:
130,231,117574,1,0,0:0:0:0:
107,193,117620,1,0,0:0:0:0:
100,149,117666,1,0,0:0:0:0:
112,106,117711,1,0,0:0:0:0:
140,71,117757,1,0,0:0:0:0:
179,50,117803,1,0,0:0:0:0:
384,136,117894,6,0,L|312:92,2,60,8|0|0,0:0|0:0|0:0,0:0:0:0:
148,128,118169,2,0,L|64:84,2,60,2|0|0,0:0|0:0|0:0,0:0:0:0:
252,132,118443,2,0,L|296:72,1,60,2|0,0:0|0:0,0:0:0:0:
56,252,118626,6,0,P|24:196|92:160,1,120,8|0,0:0|0:0,0:0:0:0:
148,152,118900,2,0,L|236:40,1,120,2|0,0:0|0:0,0:0:0:0:
132,56,119175,2,0,L|52:-8,1,60,2|0,0:0|0:0,0:0:0:0:
464,264,119358,2,0,B|480:168|480:136|464:116|424:108|280:168|224:48,1,360,8|0,0:0|0:0,0:0:0:0:
392,288,120089,6,0,P|412:232|344:180,1,120,8|0,0:0|0:0,0:0:0:0:
296,180,120364,1,0,0:0:0:0:
104,188,120455,1,2,0:0:0:0:
61,148,120546,1,0,0:0:0:0:
62,89,120637,1,0,0:0:0:0:
105,51,120729,1,0,0:0:0:0:
316,64,120821,6,0,L|380:112,2,60,8|0|0,0:0|0:0|0:0,0:0:0:0:
224,60,121096,1,0,0:0:0:0:
64,104,121187,2,0,P|24:164|80:204,1,120,2|0,0:0|0:0,0:0:0:0:
120,196,121461,1,0,0:0:0:0:
272,196,121553,6,0,L|188:180,1,60,8|0,0:0|0:0,0:0:0:0:
272,196,121736,2,0,L|340:176,1,60
144,116,121919,2,0,L|48:88,3,60,2|0|0|0,0:0|0:0|0:0|0:0,0:0:0:0:
304,268,122285,2,0,P|368:196|288:144,1,180.000006866455,8|0,0:0|0:0,0:0:0:0:
244,144,122559,1,0,0:0:0:0:
88,116,122650,2,0,L|28:40,1,90.0000034332277,2|0,0:0|0:0,0:0:0:0:
256,140,122833,2,0,L|312:60,1,60
96,68,123016,1,0,0:0:0:0:
12,72,123199,5,4,0:0:0:0:
176,72,123291,1,4,0:0:0:0:
336,76,123382,1,4,0:0:0:0:
500,80,123474,1,4,0:0:0:0:
220,192,123565,6,0,L|140:160,2,60,8|0|0,0:0|0:0|0:0,0:0:0:0:
416,240,123839,2,0,P|448:188|400:124,1,120,2|0,0:0|0:0,0:0:0:0:
264,136,124114,2,0,L|220:108,2,30,8|0|0,0:0|0:0|0:0,0:0:0:0:
344,136,124297,1,0,0:0:0:0:
264,136,124388,1,0,0:0:0:0:
440,276,124480,6,0,P|480:224|424:184,1,120,8|0,0:0|0:0,0:0:0:0:
376,188,124754,1,0,0:0:0:0:
136,204,124846,2,0,P|96:152|152:112,1,120,2|0,0:0|0:0,0:0:0:0:
200,116,125120,1,0,0:0:0:0:
296,116,125211,6,0,L|372:104,3,60,8|0|8|0,0:0|0:0|0:0|0:0,0:0:0:0:
88,116,125577,2,0,L|12:116,3,60,2|0|2|0,0:0|0:0|0:0|0:0,0:0:0:0:
264,132,125943,5,4,0:0:0:0:
256,192,126126,12,0,131614,0:0:0:0:
