osu file format v14

[General]
AudioFilename: audio.mp3
AudioLeadIn: 0
PreviewTime: 102482
Countdown: 0
SampleSet: Normal
StackLeniency: 0.2
Mode: 1
LetterboxInBreaks: 0
WidescreenStoryboard: 0

[Editor]
Bookmarks: 17605,41020,54191,65897,77604,77605,102482,125896
DistanceSpacing: 1.1
BeatDivisor: 2
GridSize: 32
TimelineZoom: 2.85

[Metadata]
Title:Be There
TitleUnicode:Be There
Artist:PSYQUI
ArtistUnicode:PSYQUI
Creator:Genjuro
Version:Kantan
Source:
Tags:future core arcaea groove coaster your voice so... megarex mrx-026 c94
BeatmapID:2177468
BeatmapSetID:1039984

[Difficulty]
HPDrainRate:8
CircleSize:2
OverallDifficulty:3
ApproachRate:9
SliderMultiplier:1.4
SliderTickRate:1

[Events]
//Background and Video events
0,0,"lemon.jpg",0,-69
//Break Periods
//Storyboard Layer 0 (Background)
//Storyboard Layer 1 (Fail)
//Storyboard Layer 2 (Pass)
//Storyboard Layer 3 (Foreground)
//Storyboard Layer 4 (Overlay)
//Storyboard Sound Samples

[TimingPoints]
45,365.853658536585,4,1,0,40,1,0
5898,-100,4,1,0,70,0,0
11386,-100,4,1,0,60,0,0
11752,-100,4,1,0,80,0,0
16508,-100,4,1,0,70,0,0
17240,-100,4,1,0,60,0,0
17605,-100,4,1,0,80,0,0
18337,-100,4,1,0,100,0,1
29313,-100,4,1,0,100,0,0
29496,-100,4,1,0,80,0,0
29862,-100,4,1,0,100,0,1
41020,-100,4,1,0,100,0,0
41386,-100,4,1,0,70,0,0
46874,-100,4,1,0,80,0,0
49801,-100,4,1,0,85,0,0
50532,-100,4,1,0,90,0,0
51447,-100,4,1,0,40,0,0
53276,-100,4,1,0,60,0,0
54190,365.853658536585,4,1,0,60,1,0
54555,-100,4,1,0,80,0,0
64799,-100,4,1,0,60,0,0
65165,-100,4,1,0,70,0,0
65531,-100,4,1,0,80,0,0
65897,-100,4,1,0,100,0,1
71659,-100,4,1,0,100,0,0
72116,-100,4,1,0,100,0,1
76141,-100,4,1,0,100,0,0
76507,-100,4,1,0,90,0,0
76872,-100,4,1,0,80,0,0
77238,-100,4,1,0,70,0,0
77604,-100,4,1,0,60,0,0
89311,-100,4,1,0,70,0,0
101019,-100,4,1,0,60,0,0
102482,365.853658536585,4,1,0,80,1,0
103213,-100,4,1,0,100,0,1
114189,-100,4,1,0,100,0,0
114372,-100,4,1,0,80,0,0
114738,-100,4,1,0,100,0,1
119494,-100,4,1,0,80,0,0
120042,-100,4,1,0,100,0,1
125896,-100,4,1,0,100,0,0

[HitObjects]
256,192,5898,5,4,0:0:0:0:
256,192,6630,1,8,0:0:0:0:
256,192,7179,1,8,0:0:0:0:
256,192,8093,1,8,0:0:0:0:
256,192,8825,1,0,0:0:0:0:
256,192,9557,1,8,0:0:0:0:
256,192,10105,1,8,0:0:0:0:
256,192,10654,1,0,0:0:0:0:
256,192,11752,1,4,0:0:0:0:
256,192,12484,1,8,0:0:0:0:
256,192,13032,1,8,0:0:0:0:
256,192,13581,1,0,0:0:0:0:
256,192,13947,1,8,0:0:0:0:
256,192,14679,1,0,0:0:0:0:
256,192,15044,1,0,0:0:0:0:
256,192,15410,1,8,0:0:0:0:
256,192,15776,1,8,0:0:0:0:
256,192,16142,1,0,0:0:0:0:
256,192,17605,1,12,0:0:0:0:
256,192,18337,1,0,0:0:0:0:
256,192,18703,1,8,0:0:0:0:
256,192,19252,1,8,0:0:0:0:
256,192,19801,1,8,0:0:0:0:
256,192,20532,1,0,0:0:0:0:
256,192,21264,1,0,0:0:0:0:
256,192,21538,1,8,0:0:0:0:
256,192,21996,1,4,0:0:0:0:
256,192,22727,1,4,0:0:0:0:
256,192,23459,1,12,0:0:0:0:
256,192,24557,1,0,0:0:0:0:
256,192,25105,1,8,0:0:0:0:
256,192,25654,1,8,0:0:0:0:
256,192,26020,1,0,0:0:0:0:
256,192,26386,1,8,0:0:0:0:
256,192,27026,1,0,0:0:0:0:
256,192,27301,1,0,0:0:0:0:
256,192,27849,1,12,0:0:0:0:
256,192,28581,1,4,0:0:0:0:
256,192,29313,1,8,0:0:0:0:
256,192,29862,1,4,0:0:0:0:
256,192,30776,1,8,0:0:0:0:
256,192,31142,1,0,0:0:0:0:
256,192,31508,1,8,0:0:0:0:
256,192,32240,1,0,0:0:0:0:
256,192,32971,1,8,0:0:0:0:
256,192,33703,1,0,0:0:0:0:
256,192,33977,1,0,0:0:0:0:
256,192,34435,1,8,0:0:0:0:
256,192,35166,1,4,0:0:0:0:
256,192,35898,1,8,0:0:0:0:
256,192,36630,1,0,0:0:0:0:
256,192,36996,1,0,0:0:0:0:
256,192,37362,1,8,0:0:0:0:
256,192,38093,1,8,0:0:0:0:
256,192,38642,1,0,0:0:0:0:
256,192,38916,1,0,0:0:0:0:
256,192,39557,1,12,0:0:0:0:
256,192,40288,1,4,0:0:0:0:
256,192,41020,1,12,0:0:0:0:
256,192,42484,1,0,0:0:0:0:
256,192,43215,1,8,0:0:0:0:
256,192,43947,1,0,0:0:0:0:
256,192,45410,1,8,0:0:0:0:
256,192,46142,1,8,0:0:0:0:
256,192,46874,1,0,0:0:0:0:
256,192,47605,1,8,0:0:0:0:
256,192,47971,1,0,0:0:0:0:
256,192,48337,1,8,0:0:0:0:
256,192,49069,1,8,0:0:0:0:
256,192,49801,1,0,0:0:0:0:
256,192,50166,1,0,0:0:0:0:
256,192,50532,1,8,0:0:0:0:
256,192,50898,1,8,0:0:0:0:
256,192,51264,1,0,0:0:0:0:
256,192,54190,1,0,0:0:0:0:
256,192,54555,1,12,0:0:0:0:
256,192,55287,1,8,0:0:0:0:
256,192,55561,1,0,0:0:0:0:
256,192,56019,1,8,0:0:0:0:
256,192,56750,1,8,0:0:0:0:
256,192,57116,1,0,0:0:0:0:
256,192,57757,1,0,0:0:0:0:
256,192,58214,1,8,0:0:0:0:
256,192,58488,1,0,0:0:0:0:
256,192,58946,1,8,0:0:0:0:
256,192,59952,1,0,0:0:0:0:
256,192,60409,1,12,0:0:0:0:
256,192,61141,1,8,0:0:0:0:
256,192,61415,1,0,0:0:0:0:
256,192,61873,1,8,0:0:0:0:
256,192,62604,1,8,0:0:0:0:
256,192,62970,1,0,0:0:0:0:
256,192,63611,1,0,0:0:0:0:
256,192,64068,1,8,0:0:0:0:
256,192,64433,1,0,0:0:0:0:
256,192,65897,1,4,0:0:0:0:
256,192,66263,1,8,0:0:0:0:
256,192,66537,1,0,0:0:0:0:
256,192,66994,1,8,0:0:0:0:
256,192,67726,1,8,0:0:0:0:
256,192,68000,1,0,0:0:0:0:
256,192,68458,1,8,0:0:0:0:
256,192,68824,1,0,0:0:0:0:
256,192,69189,1,8,0:0:0:0:
256,192,69921,1,8,0:0:0:0:
256,192,70196,1,8,0:0:0:0:
256,192,70653,1,0,0:0:0:0:
256,192,71019,1,8,0:0:0:0:
256,192,71385,1,8,0:0:0:0:
256,192,71659,1,0,0:0:0:0:
256,192,72116,1,12,0:0:0:0:
256,192,72848,1,8,0:0:0:0:
256,192,73580,1,8,0:0:0:0:
256,192,73854,1,0,0:0:0:0:
256,192,74312,1,8,0:0:0:0:
256,192,74678,1,0,0:0:0:0:
256,192,75043,1,8,0:0:0:0:
256,192,76141,1,8,0:0:0:0:
256,192,76507,1,8,0:0:0:0:
256,192,76873,1,0,0:0:0:0:
256,192,77239,1,0,0:0:0:0:
256,192,77604,1,12,0:0:0:0:
256,192,78336,1,0,0:0:0:0:
256,192,79068,1,8,0:0:0:0:
256,192,79799,1,0,0:0:0:0:
256,192,80165,1,8,0:0:0:0:
256,192,80897,1,8,0:0:0:0:
256,192,81994,1,8,0:0:0:0:
256,160,82543,1,0,0:0:0:0:
256,160,83092,1,0,0:0:0:0:
256,192,83458,1,8,0:0:0:0:
256,192,84189,1,0,0:0:0:0:
256,192,84921,1,8,0:0:0:0:
256,192,85653,1,0,0:0:0:0:
256,192,86019,1,8,0:0:0:0:
256,192,86385,1,0,0:0:0:0:
256,192,87848,1,8,0:0:0:0:
256,192,88397,1,0,0:0:0:0:
256,192,88946,1,8,0:0:0:0:
256,192,89311,1,4,0:0:0:0:
256,192,90043,1,8,0:0:0:0:
256,192,90775,1,0,0:0:0:0:
256,192,91141,1,8,0:0:0:0:
256,192,91507,1,8,0:0:0:0:
256,192,92238,1,0,0:0:0:0:
256,192,92970,1,8,0:0:0:0:
256,192,93702,1,0,0:0:0:0:
256,192,94068,1,0,0:0:0:0:
256,192,94433,1,8,0:0:0:0:
256,192,95165,1,4,0:0:0:0:
256,192,95897,1,8,0:0:0:0:
256,192,96629,1,8,0:0:0:0:
256,192,97177,1,0,0:0:0:0:
256,192,97726,1,0,0:0:0:0:
256,192,98092,1,8,0:0:0:0:
256,192,98824,1,0,0:0:0:0:
256,192,99189,1,8,0:0:0:0:
256,192,99555,1,0,0:0:0:0:
256,192,102482,1,12,0:0:0:0:
256,192,103213,1,0,0:0:0:0:
256,192,103579,1,8,0:0:0:0:
256,192,104311,1,8,0:0:0:0:
256,192,104677,1,8,0:0:0:0:
256,192,105408,1,0,0:0:0:0:
256,192,106140,1,0,0:0:0:0:
256,192,106506,1,8,0:0:0:0:
256,192,106872,1,4,0:0:0:0:
256,192,107603,1,4,0:0:0:0:
256,192,108335,1,12,0:0:0:0:
256,192,109433,1,8,0:0:0:0:
256,192,109981,1,8,0:0:0:0:
256,192,110530,1,8,0:0:0:0:
256,192,110896,1,0,0:0:0:0:
256,192,111262,1,8,0:0:0:0:
256,192,111902,1,0,0:0:0:0:
256,192,112177,1,0,0:0:0:0:
256,192,112725,1,12,0:0:0:0:
256,192,113457,1,4,0:0:0:0:
256,192,114189,1,8,0:0:0:0:
256,192,114738,1,4,0:0:0:0:
256,192,115652,1,8,0:0:0:0:
256,192,116018,1,0,0:0:0:0:
256,192,116384,1,8,0:0:0:0:
256,192,117116,1,0,0:0:0:0:
256,192,117847,1,8,0:0:0:0:
256,192,118579,1,0,0:0:0:0:
256,192,118853,1,0,0:0:0:0:
256,192,119311,1,8,0:0:0:0:
256,192,120042,1,4,0:0:0:0:
256,192,121140,1,8,0:0:0:0:
256,192,121506,1,0,0:0:0:0:
256,192,121872,1,8,0:0:0:0:
256,192,122238,1,0,0:0:0:0:
256,192,122969,1,8,0:0:0:0:
256,192,123518,1,0,0:0:0:0:
256,192,123792,1,0,0:0:0:0:
256,192,124433,1,12,0:0:0:0:
256,192,125164,1,4,0:0:0:0:
256,192,125896,1,12,0:0:0:0:
