osu file format v14

[General]
AudioFilename: audio.mp3
AudioLeadIn: 0
PreviewTime: 138193
Countdown: 0
SampleSet: Soft
StackLeniency: 0
Mode: 0
LetterboxInBreaks: 1
EpilepsyWarning: 1
WidescreenStoryboard: 0

[Editor]
Bookmarks: 773,27716,38502,49289,54682,60075,65469,70862,74907,97828,103390,108952,114008,124794,138278,162547,173334,182772,184120,188165,216480,227266
DistanceSpacing: 0.7
BeatDivisor: 4
GridSize: 4
TimelineZoom: 5.383997

[Metadata]
Title:Rewrite
TitleUnicode:Rewrite
Artist:PSYCHIC LOVER
ArtistUnicode:PSYCHIC LOVER
Creator:CyberX
Version:Terra
Source:Rewrite
Tags:Opening Key full size PSYCHIC LOVER anime Visual Novel
BeatmapID:2012606
BeatmapSetID:961354

[Difficulty]
HPDrainRate:4
CircleSize:4
OverallDifficulty:7
ApproachRate:9.5
SliderMultiplier:3.59999990463257
SliderTickRate:1

[Events]
//Background and Video events
0,0,"SB075.JPG",0,0
//Break Periods
//Storyboard Layer 0 (Background)
//Storyboard Layer 1 (Fail)
//Storyboard Layer 2 (Pass)
//Storyboard Layer 3 (Foreground)
//Storyboard Sound Samples

[TimingPoints]
773,335.195530726257,4,2,1,50,1,0
773,-166.666666666667,4,2,1,50,0,0
1275,-125,4,2,1,50,0,0
1778,-100,4,2,1,50,0,0
2281,-125,4,2,1,50,0,0
4795,337.078651685393,4,2,1,50,1,0
4795,-166.666666666667,4,2,1,50,0,0
9008,-200,4,2,1,50,0,0
11536,-125,4,2,1,50,0,0
27712,-125,4,2,1,70,0,0
27716,-100,4,2,1,70,0,0
35802,-100,4,2,1,60,0,0
36143,-83.3333333333333,4,2,1,60,0,0
36480,-71.4285714285714,4,2,1,60,0,0
36817,-62.5,4,2,1,60,0,0
37154,-55.5555555555556,4,2,1,60,0,0
37491,-50,4,2,1,60,0,0
38165,-66.6666666666667,4,2,1,60,0,0
38498,-66.6666666666667,4,2,1,50,0,0
39176,-500,4,2,1,50,0,0
40862,-66.6666666666667,4,2,1,50,0,0
41873,-500,4,2,1,50,0,0
43558,-66.6666666666667,4,2,1,50,0,0
44233,-500,4,2,1,50,0,0
48952,-66.6666666666667,4,2,1,50,0,0
49626,-76.9230769230769,4,2,1,50,0,0
54682,-66.6666666666667,4,2,1,50,0,1
55272,-66.6666666666667,4,2,1,50,0,0
55356,-66.6666666666667,4,2,1,50,0,1
55778,-66.6666666666667,4,2,1,50,0,0
55862,-66.6666666666667,4,2,1,50,0,1
56368,-76.9230769230769,4,2,1,50,0,0
58896,-142.857142857143,4,2,1,50,0,0
59064,-71.4285714285714,4,2,1,50,0,0
59233,-142.857142857143,4,2,1,50,0,0
59401,-71.4285714285715,4,2,1,50,0,0
59570,-142.857142857143,4,2,1,50,0,0
59738,-71.4285714285714,4,2,1,50,0,0
60075,-100,4,2,1,50,0,0
64120,-50,4,2,1,50,0,0
65132,-100,4,2,1,50,0,0
68165,-50,4,2,1,50,0,0
70188,-100,4,2,1,50,0,0
73554,-100,4,2,1,60,0,0
74907,-66.6666666666667,4,2,1,60,0,1
75328,-66.6666666666667,4,2,1,60,0,0
75412,-66.6666666666667,4,2,1,60,0,1
75834,-66.6666666666667,4,2,1,60,0,0
75918,-66.6666666666667,4,2,1,60,0,1
76171,-66.6666666666667,4,2,1,60,0,0
76251,-66.6666666666667,4,2,1,70,0,0
76255,-66.6666666666667,4,2,1,70,0,1
77603,-76.9230769230769,4,2,1,70,0,1
81311,-76.9230769230769,4,2,1,70,0,0
81648,-76.9230769230769,4,2,1,70,0,1
84008,-76.9230769230769,4,2,1,70,0,0
84345,-76.9230769230769,4,2,1,70,0,1
84935,-76.9230769230769,4,2,1,70,0,0
85019,-76.9230769230769,4,2,1,70,0,1
85441,-76.9230769230769,4,2,1,70,0,0
85525,-76.9230769230769,4,2,1,70,0,1
86705,-76.9230769230769,4,2,1,70,0,0
87042,-76.9230769230769,4,2,1,70,0,1
89486,-76.9230769230769,4,2,1,70,0,0
89570,-76.9230769230769,4,2,1,70,0,1
89991,-76.9230769230769,4,2,1,70,0,0
90075,-76.9230769230769,4,2,1,70,0,1
90328,-76.9230769230769,4,2,1,70,0,0
90412,-76.9230769230769,4,2,1,70,0,1
90750,-76.9230769230769,4,2,1,70,0,0
90918,-76.9230769230769,4,2,1,70,0,1
92098,-76.9230769230769,4,2,1,70,0,0
92435,-76.9230769230769,4,2,1,70,0,1
94963,-76.9230769230769,4,2,1,70,0,0
95300,-76.9230769230769,4,2,1,70,0,1
97828,-66.6666666666667,4,2,1,70,0,0
103221,-125,4,2,1,70,0,0
105745,-125,4,2,1,60,0,0
106929,-166.666666666667,4,2,1,60,0,0
108952,-142.857142857143,4,2,1,60,0,0
113671,-500,4,2,1,60,0,0
114004,-500,4,2,1,50,0,0
114008,-71.4285714285714,4,2,1,50,0,0
114514,-100,4,2,1,50,0,0
114682,-142.857142857143,4,2,1,50,0,0
114851,-200,4,2,1,50,0,0
115019,-100,4,2,1,50,0,0
115188,-125,4,2,1,50,0,0
115356,-66.6666666666667,4,2,1,50,0,0
115693,-83.3333333333333,4,2,1,50,0,0
115862,-125,4,2,1,50,0,0
116199,-66.6666666666667,4,2,1,50,0,0
116705,-76.9230769230769,4,2,1,50,0,0
117210,-100,4,2,1,50,0,0
117379,-125,4,2,1,50,0,0
117547,-166.666666666667,4,2,1,50,0,0
117716,-100,4,2,1,50,0,0
117884,-125,4,2,1,50,0,0
118053,-66.6666666666667,4,2,1,50,0,0
118390,-76.9230769230769,4,2,1,50,0,0
118559,-66.6666666666667,4,2,1,50,0,0
118896,-100,4,2,1,50,0,0
119064,-66.6666666666667,4,2,1,50,0,0
119401,-76.9230769230769,4,2,1,50,0,1
119991,-76.9230769230769,4,2,1,50,0,0
120075,-66.6666666666667,4,2,1,50,0,1
120497,-66.6666666666667,4,2,1,50,0,0
120581,-76.9230769230769,4,2,1,50,0,1
121087,-76.9230769230769,4,2,1,50,0,0
121255,-100,4,2,1,50,0,0
121424,-66.6666666666667,4,2,1,50,0,0
121761,-76.9230769230769,4,2,1,50,0,0
121929,-66.6666666666667,4,2,1,50,0,0
122266,-90.9090909090909,4,2,1,50,0,0
122772,-71.4285714285714,4,2,1,50,0,0
122941,-83.3333333333333,4,2,1,50,0,0
123109,-71.4285714285714,4,2,1,50,0,0
123278,-62.5,4,2,1,50,0,0
123615,-55.5555555555556,4,2,1,50,0,0
123783,-66.6666666666667,4,2,1,50,0,0
123952,-90.9090909090909,4,2,1,50,0,0
124120,-66.6666666666667,4,2,1,50,0,0
124289,-76.9230769230769,4,2,1,50,0,0
124457,-100,4,2,1,50,0,0
124794,-66.6666666666667,4,2,1,50,0,0
125132,-66.6666666666667,4,2,1,50,0,0
125469,-58.8235294117647,4,2,1,50,0,0
125806,-66.6666666666667,4,2,1,50,0,0
126143,-83.3333333333333,4,2,1,50,0,0
126480,-58.8235294117647,4,2,1,50,0,0
127154,-66.6666666666667,4,2,1,50,0,0
128165,-58.8235294117647,4,2,1,50,0,0
128671,-76.9230769230769,4,2,1,50,0,0
128839,-83.3333333333333,4,2,1,50,0,0
129177,-58.8235294117647,4,2,1,50,0,0
129851,-71.4285714285714,4,2,1,50,0,0
131199,-83.3333333333333,4,2,1,50,0,0
131536,-58.8235294117647,4,2,1,50,0,0
132042,-66.6666666666667,4,2,1,50,0,0
132379,-83.3333333333333,4,2,1,50,0,0
135581,-66.6666666666667,4,2,1,50,0,0
136761,-76.9230769230769,4,2,1,50,0,0
138274,-76.9230769230769,4,2,1,60,0,0
138616,-200,4,2,1,60,0,0
139457,-58.8235294117647,4,2,1,60,0,0
139626,-58.8235294117647,4,2,1,60,0,1
140047,-58.8235294117647,4,2,1,60,0,0
140132,-58.8235294117647,4,2,1,60,0,1
140553,-58.8235294117647,4,2,1,60,0,0
140637,-58.8235294117647,4,2,1,60,0,1
140890,-58.8235294117647,4,2,1,60,0,0
140970,-58.8235294117647,4,2,1,70,0,0
140974,-58.8235294117647,4,2,1,70,0,1
141311,-142.857142857143,4,2,1,70,0,1
141480,-66.6666666666667,4,2,1,70,0,1
141648,-58.8235294117647,4,2,1,70,0,1
141817,-83.3333333333333,4,2,1,70,0,1
141986,-142.857142857143,4,2,1,70,0,1
142154,-66.6666666666667,4,2,1,70,0,1
142660,-142.857142857143,4,2,1,70,0,1
142828,-200,4,2,1,70,0,1
142997,-100,4,2,1,70,0,1
143165,-66.6666666666667,4,2,1,70,0,1
143334,-58.8235294117647,4,2,1,70,0,1
143839,-100,4,2,1,70,0,1
144008,-200,4,2,1,70,0,1
144177,-66.6666666666667,4,2,1,70,0,1
144345,-58.8235294117647,4,2,1,70,0,1
144514,-66.6666666666667,4,2,1,70,0,1
144682,-200,4,2,1,70,0,1
144851,-100,4,2,1,70,0,1
145019,-66.6666666666667,4,2,1,70,0,1
145188,-58.8235294117647,4,2,1,70,0,1
145356,-100,4,2,1,70,0,1
145525,-200,4,2,1,70,0,1
145693,-100,4,2,1,70,0,1
145862,-66.6666666666667,4,2,1,70,0,1
146030,-58.8235294117647,4,2,1,70,0,0
146199,-100,4,2,1,70,0,0
146368,-100,4,2,1,70,0,1
146705,-200,4,2,1,70,0,1
146873,-100,4,2,1,70,0,1
147042,-66.6666666666667,4,2,1,70,0,1
147210,-58.8235294117647,4,2,1,70,0,1
147379,-66.6666666666667,4,2,1,70,0,1
147547,-100,4,2,1,70,0,1
148053,-200,4,2,1,70,0,1
148221,-100,4,2,1,70,0,1
148390,-66.6666666666667,4,2,1,70,0,1
148559,-58.8235294117647,4,2,1,70,0,1
148727,-100,4,2,1,70,0,1
148896,-58.8235294117647,4,2,1,70,0,1
148980,-58.8235294117647,4,2,1,70,0,0
149064,-58.8235294117647,4,2,1,70,0,1
149401,-100,4,2,1,70,0,1
149570,-50,4,2,1,70,0,1
149654,-50,4,2,1,70,0,0
149738,-50,4,2,1,70,0,1
150075,-66.6666666666667,4,2,1,70,0,1
150160,-66.6666666666667,4,2,1,70,0,0
150244,-66.6666666666667,4,2,1,70,0,1
150581,-200,4,2,1,70,0,1
150750,-100,4,2,1,70,0,1
150918,-66.6666666666667,4,2,1,70,0,1
151087,-58.8235294117647,4,2,1,70,0,1
151255,-100,4,2,1,70,0,1
151424,-200,4,2,1,70,0,1
151592,-66.6666666666667,4,2,1,70,0,0
151761,-66.6666666666667,4,2,1,70,0,1
152098,-200,4,2,1,70,0,1
152266,-100,4,2,1,70,0,1
152435,-58.8235294117647,4,2,1,70,0,1
152603,-66.6666666666667,4,2,1,70,0,1
152772,-100,4,2,1,70,0,1
152941,-58.8235294117647,4,2,1,70,0,1
153446,-200,4,2,1,70,0,1
153615,-66.6666666666667,4,2,1,70,0,1
153783,-58.8235294117647,4,2,1,70,0,1
153952,-100,4,2,1,70,0,1
154120,-50,4,2,1,70,0,1
154205,-50,4,2,1,70,0,0
154289,-50,4,2,1,70,0,1
154710,-50,4,2,1,70,0,0
154794,-50,4,2,1,70,0,1
155047,-50,4,2,1,70,0,0
155132,-200,4,2,1,70,0,1
155300,-100,4,2,1,70,0,1
155469,-66.6666666666667,4,2,1,70,0,1
155553,-66.6666666666667,4,2,1,70,0,0
155637,-58.8235294117647,4,2,1,70,0,1
155974,-200,4,2,1,70,0,1
156143,-100,4,2,1,70,0,1
156311,-66.6666666666667,4,2,1,70,0,1
156480,-100,4,2,1,70,0,1
156648,-200,4,2,1,70,0,1
156817,-66.6666666666667,4,2,1,70,0,0
156986,-58.8235294117647,4,2,1,70,0,0
157154,-58.8235294117647,4,2,1,70,0,1
157491,-100,4,2,1,70,0,1
157660,-200,4,2,1,70,0,1
157828,-66.6666666666667,4,2,1,70,0,1
157997,-58.8235294117647,4,2,1,70,0,1
158165,-100,4,2,1,70,0,1
158334,-58.8235294117647,4,2,1,70,0,1
159345,-100,4,2,1,70,0,1
159514,-66.6666666666667,4,2,1,70,0,1
159682,-58.8235294117647,4,2,1,70,0,0
160019,-100,4,2,1,70,0,1
162547,-100,4,2,1,70,0,0
163727,-200,4,2,1,70,0,0
163896,-66.6666666666667,4,2,1,70,0,0
164148,-83.3333333333333,4,2,1,70,0,0
164401,-100,4,2,1,70,0,0
165244,-58.8235294117647,4,2,1,70,0,1
165665,-58.8235294117647,4,2,1,70,0,0
166335,-58.8235294117647,4,2,1,50,0,0
166592,-222.222222222221,4,2,1,50,0,0
166925,-222.222222222221,4,2,1,70,0,0
166929,-66.6666666666667,4,2,1,70,0,0
167684,-66.6666666666667,4,2,1,50,0,0
167937,-66.6666666666667,4,2,1,70,0,0
168021,-66.6666666666667,4,2,1,50,0,0
168274,-66.6666666666667,4,2,1,70,0,0
168358,-66.6666666666667,4,2,1,50,0,0
168611,-66.6666666666667,4,2,1,70,0,0
168615,-166.666666666667,4,2,1,70,0,1
168952,-166.666666666667,4,2,1,70,0,0
169032,-166.666666666667,4,2,1,50,0,0
169036,-100,4,2,1,50,0,0
169457,-66.6666666666667,4,2,1,50,0,0
169622,-66.6666666666667,4,2,1,70,0,0
169706,-66.6666666666667,4,2,1,50,0,0
169959,-66.6666666666667,4,2,1,70,0,0
169963,-71.4285714285714,4,2,1,70,0,0
170717,-71.4285714285714,4,2,1,50,0,0
170970,-71.4285714285714,4,2,1,70,0,0
171054,-71.4285714285714,4,2,1,50,0,0
171143,-142.857142857143,4,2,1,50,0,0
171307,-142.857142857143,4,2,1,70,0,0
171392,-142.857142857143,4,2,1,50,0,0
171644,-142.857142857143,4,2,1,70,0,0
171729,-142.857142857143,4,2,1,50,0,0
171981,-142.857142857143,4,2,1,70,0,0
172066,-142.857142857143,4,2,1,50,0,0
172319,-142.857142857143,4,2,1,70,0,0
172403,-142.857142857143,4,2,1,50,0,0
172656,-142.857142857143,4,2,1,70,0,0
172740,-142.857142857143,4,2,1,50,0,0
172993,-142.857142857143,4,2,1,60,0,0
173330,-142.857142857143,4,2,1,40,0,0
173334,-333.333333333333,4,2,1,40,0,1
173502,-333.333333333333,4,2,1,40,0,0
174510,-333.333333333333,4,2,1,5,0,0
174678,-333.333333333333,4,2,1,20,0,0
175858,-333.333333333333,4,2,1,5,0,0
176026,-333.333333333333,4,2,1,20,0,0
177206,-333.333333333333,4,2,1,5,0,0
177375,-333.333333333333,4,2,1,20,0,0
178554,-333.333333333333,4,2,1,5,0,0
178723,-333.333333333333,4,2,1,20,0,0
179903,-333.333333333333,4,2,1,5,0,0
180071,-333.333333333333,4,2,1,20,0,0
181251,-333.333333333333,4,2,1,5,0,0
181420,-333.333333333333,4,2,1,20,0,0
182599,-333.333333333333,4,2,1,5,0,0
182768,-333.333333333333,4,2,1,20,0,0
184116,-333.333333333333,4,2,1,75,0,0
187824,-333.333333333333,4,2,1,5,0,0
187993,-333.333333333333,4,2,1,60,0,0
188165,-100,4,2,1,60,0,1
188587,-100,4,2,1,60,0,0
188671,-100,4,2,1,60,0,1
189092,-100,4,2,1,60,0,0
189177,-100,4,2,1,60,0,1
189429,-100,4,2,1,60,0,0
189510,-333.333333333333,4,2,1,70,0,0
189514,-83.3333333333333,4,2,1,70,0,1
194570,-83.3333333333333,4,2,1,70,0,0
194907,-83.3333333333333,4,2,1,70,0,1
197519,-83.3333333333333,4,2,1,70,0,0
197603,-111.111111111111,4,2,1,70,0,1
198193,-111.111111111111,4,2,1,70,0,0
198278,-111.111111111111,4,2,1,70,0,1
198699,-111.111111111111,4,2,1,70,0,0
198783,-100,4,2,1,70,0,1
199963,-100,4,2,1,70,0,0
200300,-100,4,2,1,70,0,1
201648,-83.3333333333333,4,2,1,70,0,1
202744,-83.3333333333333,4,2,1,70,0,0
202828,-83.3333333333333,4,2,1,70,0,1
203250,-83.3333333333333,4,2,1,70,0,0
203334,-83.3333333333333,4,2,1,70,0,1
203587,-83.3333333333333,4,2,1,70,0,0
203671,-83.3333333333333,4,2,1,70,0,1
204092,-83.3333333333333,4,2,1,70,0,0
204177,-83.3333333333333,4,2,1,70,0,1
205356,-83.3333333333333,4,2,1,70,0,0
205693,-83.3333333333333,4,2,1,70,0,1
208221,-83.3333333333333,4,2,1,70,0,0
208559,-83.3333333333333,4,2,1,70,0,1
210750,-83.3333333333333,4,2,1,70,0,0
211087,-125,4,2,1,70,0,1
211424,-125,4,2,1,70,0,1
213530,-125,4,2,1,70,0,0
213615,-76.9230769230769,4,2,1,70,0,1
213868,-76.9230769230769,4,2,1,70,0,0
213952,-66.6666666666667,4,2,1,70,0,1
214289,-125,4,2,1,70,0,1
216480,-83.3333333333333,4,2,1,70,0,0
221873,-66.6666666666667,4,2,1,70,0,1
221957,-66.6666666666667,4,2,1,70,0,0
224570,-66.6666666666667,4,2,1,70,0,1
224654,-66.6666666666667,4,2,1,70,0,0
225918,-66.6666666666667,4,2,1,70,0,1
227266,-100,4,2,1,70,0,0
229120,-100,4,2,1,70,0,1
229205,-100,4,2,1,70,0,0

[Colours]
Combo1 : 191,255,255
Combo2 : 138,255,138
Combo3 : 157,201,255
Combo4 : 255,189,157
Combo5 : 255,174,174
Combo6 : 214,172,255
Combo7 : 243,243,243

[HitObjects]
34,320,773,6,0,L|75:216,2,107.999993843079,2|0|0,0:0|0:0|0:0,0:0:0:0:
137,133,1275,6,0,L|234:260,2,143.999996185303,2|0|0,0:0|0:0|0:0,0:0:0:0:
317,313,1778,6,0,L|135:339,2,179.999995231629,2|0|0,0:0|0:0|0:0,0:0:0:0:
433,221,2281,6,0,L|415:379,2,143.999996185303,2|0|0,0:0|0:0|0:0,0:0:0:0:
492,134,2784,5,2,0:0:0:0:
438,54,2951,1,0,0:0:0:0:
342,18,3119,1,0,0:0:0:0:
220,8,3286,1,2,0:0:0:0:
309,108,3454,5,2,0:0:0:0:
293,238,3622,1,2,0:0:0:0:
172,327,3789,1,0,0:0:0:0:
26,330,3957,1,2,0:0:0:0:
89,172,4124,5,2,0:0:0:0:
188,245,4292,1,0,0:0:0:0:
349,282,4460,1,2,0:0:0:0:
512,250,4627,1,0,0:0:0:0:
431,156,4795,6,0,L|450:402,1,215.999987686158,4|0,0:0|0:0,0:0:0:0:
281,367,5300,2,0,L|262:121,1,215.999987686158,2|0,0:0|0:0,0:0:0:0:
199,74,5806,2,0,P|170:119|169:173,1,107.999993843079,2|0,0:0|0:0,0:0:0:0:
329,92,6143,6,0,P|401:17|503:38,1,215.999987686158,2|0,0:0|0:0,0:0:0:0:
432,111,6817,1,0,0:0:0:0:
27,99,7154,2,0,P|110:128|181:187,1,161.999990764618,0|0,0:0|0:0,0:0:0:0:
264,151,7491,6,0,L|276:381,1,215.999987686158,2|0,0:0|0:0,0:0:0:0:
395,320,7997,5,0,0:0:0:0:
154,354,8165,2,0,P|90:275|36:260,1,107.999993843079,0|0,0:0|0:0,0:0:0:0:
66,364,8502,5,0,0:0:0:0:
21,195,8671,2,0,P|106:232|161:213,1,107.999993843079,0|2,0:0|0:0,0:0:0:0:
254,18,9008,6,0,B|308:59|292:118|292:118|239:135|188:113|188:113|299:161|262:228|277:270|262:299|262:299|277:270|262:229|328:193,1,539.999985694885,0|12,0:0|3:3,0:0:0:0:
388,357,11030,6,0,P|422:325|476:310,2,89.9999976158143,0|0|0,0:0|0:0|0:0,0:0:0:0:
462,311,11536,6,0,P|442:194|432:23,1,287.999992370606,2|0,0:0|0:0,0:0:0:0:
355,88,12210,5,0,0:0:0:0:
512,159,12547,1,0,0:0:0:0:
362,208,12884,6,0,B|202:164|273:279|68:234,1,287.999992370606,2|0,0:0|0:0,0:0:0:0:
27,86,13390,2,0,P|53:198|71:393,1,287.999992370606,0|0,0:0|0:0,0:0:0:0:
117,119,13896,2,0,P|165:44|230:44,1,143.999996185303,0|0,0:0|0:0,0:0:0:0:
315,17,14233,6,0,P|508:72|500:273,1,431.999988555908,4|0,0:3|0:0,0:0:0:0:
246,238,14907,2,0,P|302:115|438:124,1,287.999992370606,4|0,0:3|0:0,0:0:0:0:
288,378,15412,2,0,P|401:311|345:192,1,287.999992370606,0|0,0:0|0:0,0:0:0:0:
317,287,15918,5,0,0:0:0:0:
211,349,16255,1,0,0:0:0:0:
0,325,16592,2,0,P|65:367|137:363,1,143.999996185303,0|0,0:0|0:0,0:0:0:0:
129,365,16929,6,0,P|117:251|85:79,1,287.999992370606,4|0,0:0|0:0,0:0:0:0:
44,0,17603,1,0,0:0:0:0:
0,178,17941,2,0,P|62:146|85:80,1,143.999996185303,0|0,0:0|0:0,0:0:0:0:
0,178,18278,6,0,B|147:172|147:172|145:164|145:164|267:159|267:159|274:149|274:149|428:142,1,431.999988555908,2|0,0:0|0:0,0:0:0:0:
491,221,18952,2,0,L|307:231,1,143.999996185303,0|0,0:0|0:0,0:0:0:0:
254,293,19289,5,0,0:0:0:0:
180,364,19457,2,0,P|173:261|145:74,1,287.999992370606,0|0,0:0|0:0,0:0:0:0:
341,2,19963,2,0,P|327:65|318:152,1,143.999996185303,0|0,0:0|0:0,0:0:0:0:
334,363,20300,5,0,0:0:0:0:
431,293,20469,1,0,0:0:0:0:
468,161,20637,5,0,0:0:0:0:
453,21,20806,2,0,B|452:40|471:45|471:45|297:37|297:37|279:42|279:42|117:33|117:33|175:57|167:152|81:164|52:125|62:77,1,575.999984741211,0|0,0:0|0:0,0:0:0:0:
208,193,21817,2,0,P|285:133|343:132,2,143.999996185303,0|0|0,0:0|0:0|0:0,0:0:0:0:
111,319,22323,6,0,P|255:305|400:295,1,287.999992370606,2|0,0:0|0:0,0:0:0:0:
465,356,22828,1,0,0:0:0:0:
495,263,22997,1,0,0:0:0:0:
22,333,23334,1,0,0:0:0:0:
77,89,23671,6,0,B|113:319|113:319|102:383,1,287.999992370606,2|0,0:0|0:0,0:0:0:0:
98,0,24176,2,0,P|188:109|170:252,1,287.999992370606,0|0,0:0|0:0,0:0:0:0:
3,252,24682,1,0,0:0:0:0:
3,252,24851,6,0,P|53:180|96:229,1,143.999996185303,0|2,0:0|0:0,0:0:0:0:
0,384,25188,5,0,0:0:0:0:
256,192,25356,12,0,27547,0:0:0:0:
324,8,27716,5,12,0:1:0:0:
389,18,27800,1,0,0:0:0:0:
435,69,27884,2,0,P|467:91|517:98,1,89.9999976158143,2|0,0:2|0:0,0:0:0:0:
347,91,28053,5,8,0:1:0:0:
385,146,28137,1,0,0:0:0:0:
381,213,28221,2,0,P|388:252|418:291,1,89.9999976158143,2|0,0:2|0:0,0:0:0:0:
302,165,28390,5,10,0:1:0:0:
292,232,28474,1,0,0:0:0:0:
241,276,28558,2,0,P|219:308|212:358,1,89.9999976158143,2|0,0:2|0:0,0:0:0:0:
218,186,28727,5,8,0:1:0:0:
164,225,28811,1,0,0:0:0:0:
96,221,28895,2,0,P|57:227|17:258,1,89.9999976158143,2|0,0:2|0:0,0:0:0:0:
76,6,29064,5,10,0:1:0:0:
47,55,29148,1,0,0:0:0:0:
43,117,29232,1,0,0:0:0:0:
59,174,29316,1,0,0:0:0:0:
95,220,29401,6,0,P|116:260|122:304,1,89.9999976158143,10|0,0:1|0:0,0:0:0:0:
333,356,29570,2,0,P|423:367|512:382,1,179.999995231629,2|8,0:2|0:1,0:0:0:0:
269,298,29907,1,2,0:2:0:0:
34,383,30075,2,0,P|121:364|211:357,1,179.999995231629,10|0,0:1|0:0,0:0:0:0:
449,292,30412,5,8,0:1:0:0:
431,224,30496,1,0,0:0:0:0:
433,156,30581,2,0,P|463:92|464:51,1,89.9999976158143,2|0,0:2|0:0,0:0:0:0:
269,298,30749,5,8,0:1:0:0:
304,239,30833,1,0,0:0:0:0:
352,192,30918,2,0,P|417:168|448:140,1,89.9999976158143,2|0,0:2|0:0,0:0:0:0:
141,176,31087,5,10,0:1:0:0:
207,158,31171,1,0,0:0:0:0:
274,160,31256,2,0,P|337:190|378:191,1,89.9999976158143,2|0,0:2|0:0,0:0:0:0:
133,0,31424,5,8,0:1:0:0:
192,33,31508,1,0,0:0:0:0:
238,82,31593,2,0,P|261:147|289:178,1,89.9999976158143,2|0,0:2|0:0,0:0:0:0:
3,338,31761,5,10,0:1:0:0:
53,298,31845,1,0,0:0:0:0:
108,270,31929,1,0,0:0:0:0:
171,255,32013,1,0,0:0:0:0:
232,249,32098,6,0,P|278:262|326:299,1,89.9999976158143,10|0,0:1|0:0,0:0:0:0:
248,384,32266,2,0,P|280:291|258:203,1,179.999995231629,2|8,0:2|0:1,0:0:0:0:
165,384,32603,2,0,P|254:367|356:360,2,179.999995231629,2|8|2,0:2|0:1|0:2,0:0:0:0:
61,35,33109,5,8,0:1:0:0:
66,97,33193,1,0,0:0:0:0:
38,155,33278,2,0,P|57:202|106:240,1,89.9999976158143,2|0,0:2|0:0,0:0:0:0:
218,58,33446,5,10,0:1:0:0:
202,119,33530,1,0,0:0:0:0:
155,164,33615,2,0,P|156:208|174:249,1,89.9999976158143,2|0,0:2|0:0,0:0:0:0:
358,134,33783,5,10,0:1:0:0:
321,188,33867,1,0,0:0:0:0:
263,213,33952,2,0,P|247:261|260:322,1,89.9999976158143,2|0,0:2|0:0,0:0:0:0:
463,253,34120,5,8,0:1:0:0:
410,291,34204,1,0,0:0:0:0:
347,295,34289,2,0,P|316:335|307:397,1,89.9999976158143,2|0,0:2|0:0,0:0:0:0:
165,384,34457,5,10,0:1:0:0:
105,371,34541,1,0,0:0:0:0:
60,333,34625,1,2,0:2:0:0:
37,278,34709,1,0,0:0:0:0:
42,218,34795,6,0,L|31:123,1,89.9999976158143,10|0,0:1|0:0,0:0:0:0:
14,33,34963,2,0,L|237:48,1,179.999995231629,2|8,0:2|0:1,0:0:0:0:
255,138,35300,2,0,L|275:51,1,89.9999976158143,2|0,0:2|0:0,0:0:0:0:
512,141,35469,2,0,L|320:173,1,179.999995231629,10|0,0:1|0:0,0:0:0:0:
453,370,35806,6,0,P|411:320|405:270,3,89.9999976158143,8|0|0|0,0:1|0:0|0:0|0:0,0:0:0:0:
233,334,36143,6,0,P|234:304|267:227,3,107.999993843079,8|0|0|0,0:1|0:0|0:0|0:0,0:0:0:0:
20,218,36480,6,0,P|41:197|148:162,3,125.999992816925,8|0|8|0,0:1|0:0|0:2|0:0,0:0:0:0:
0,0,36817,6,0,P|29:1|144:56,3,143.999996185303,8|0|8|0,0:1|0:0|0:2|0:0,0:0:0:0:
309,0,37154,6,0,P|234:156|221:165,3,161.999990764618,8|0|8|8,0:1|0:0|0:2|0:2,0:0:0:0:
489,301,37491,6,0,P|326:359|289:357,1,179.999995231629,8|0,0:1|0:0,0:0:0:0:
114,374,37660,6,0,P|1:242|-9:207,1,179.999995231629,2|0,0:2|0:0,0:0:0:0:
0,0,37828,5,8,0:2:0:0:
27,67,37912,1,0,0:0:0:0:
91,112,37996,1,8,0:1:0:0:
167,116,38080,1,0,0:0:0:0:
247,145,38165,6,0,P|350:46|487:31,2,270.000003147125,8|8|4,0:1|0:2|0:0,0:0:0:0:
469,246,38839,5,8,0:1:0:0:
386,283,39008,1,0,0:0:0:0:
303,321,39176,2,0,L|309:358,1,35.9999990463257,8|8,0:0|0:0,0:0:0:0:
27,340,39514,2,0,L|20:302,1,35.9999990463257,8|0,0:1|0:0,0:0:0:0:
0,37,39851,6,0,L|6:72,1,35.9999990463257,8|2,0:0|0:1,0:0:0:0:
251,32,40188,1,8,0:1:0:0:
330,94,40356,2,0,L|336:129,1,35.9999990463257,8|2,0:0|0:1,0:0:0:0:
20,304,40693,1,8,0:0:0:0:
106,254,40862,6,0,B|165:259|165:259|172:250|172:250|390:268,2,270.000003147125,8|2|12,0:1|0:0|0:1,0:0:0:0:
481,359,41536,5,8,0:1:0:0:
456,267,41705,1,0,0:0:0:0:
431,175,41873,6,0,L|394:184,1,35.9999990463257,8|8,0:0|0:0,0:0:0:0:
44,146,42210,2,0,L|7:155,1,35.9999990463257,8|0,0:1|0:0,0:0:0:0:
253,23,42547,6,0,L|262:59,1,35.9999990463257,8|2,0:0|0:1,0:0:0:0:
276,248,42884,1,8,0:1:0:0:
253,338,43053,2,0,L|262:374,1,35.9999990463257,8|2,0:0|0:1,0:0:0:0:
307,162,43390,1,8,0:0:0:0:
392,103,43558,6,0,B|387:162|387:162|396:169|396:169|378:387,2,270.000003147125,8|2|12,0:1|0:0|0:1,0:0:0:0:
22,361,44233,6,0,L|59:354,1,35.9999990463257,8|2,0:1|0:0,0:0:0:0:
18,8,44570,2,0,L|55:1,1,35.9999990463257,8|2,0:0|0:0,0:0:0:0:
76,245,44907,5,8,0:1:0:0:
147,303,45075,1,2,0:0:0:0:
218,361,45244,2,0,L|260:354,1,35.9999990463257,8|2,0:1|0:0,0:0:0:0:
203,7,45581,5,8,0:1:0:0:
274,65,45750,2,0,L|316:58,1,35.9999990463257,8|2,0:0|0:0,0:0:0:0:
400,384,46087,1,8,0:0:0:0:
471,326,46256,2,0,L|513:333,1,35.9999990463257,8|2,0:1|0:0,0:0:0:0:
500,16,46592,6,0,L|494:57,1,35.9999990463257,8|0,0:1|0:0,0:0:0:0:
285,48,46929,1,8,0:1:0:0:
206,100,47098,2,0,L|200:141,1,35.9999990463257,2|8,0:0|0:1,0:0:0:0:
36,282,47434,1,8,0:0:0:0:
115,334,47603,6,0,L|121:375,1,35.9999990463257,8|0,0:1|0:0,0:0:0:0:
351,384,47941,5,8,0:0:0:0:
422,377,48109,1,8,0:0:0:0:
494,371,48278,1,8,0:1:0:0:
417,279,48446,6,0,L|418:291,10,8.99999976158142,10|0|0|0|0|0|0|0|8|0|0,0:0|0:0|0:0|0:0|0:0|0:0|0:0|0:0|0:0|0:0|0:0,0:0:0:0:
422,377,48952,6,0,B|427:318|427:318|418:311|418:311|436:93,2,270.000003147125,8|10|12,0:1|0:0|0:1,0:0:0:0:
21,8,49626,6,0,P|36:106|50:273,1,233.999983089448,8|2,0:1|0:0,0:0:0:0:
43,283,49963,2,0,P|113:186|227:184,1,233.999983089448,8|2,0:0|0:0,0:0:0:0:
243,145,50300,2,0,P|231:238|228:384,1,233.999983089448,8|0,0:1|0:0,0:0:0:0:
182,359,50637,6,0,B|307:347|307:347|338:349|338:349|449:339,1,233.999983089448,10|0,0:1|0:0,0:0:0:0:
482,379,50974,5,8,0:1:0:0:
489,301,51143,1,8,0:0:0:0:
420,248,51311,5,2,0:0:0:0:
427,170,51480,1,8,0:0:0:0:
358,117,51648,5,8,0:1:0:0:
365,39,51817,1,2,0:0:0:0:
276,138,51985,6,0,P|173:158|24:173,1,233.999983089448,12|0,0:1|0:0,0:0:0:0:
0,31,52491,5,2,0:0:0:0:
61,96,52660,2,0,B|56:173|56:173|67:207|67:207|59:340,1,233.999983089448,8|8,0:0|0:0,0:0:0:0:
9,360,52997,2,0,L|258:343,1,233.999983089448,8|0,0:1|0:0,0:0:0:0:
324,361,53334,6,0,B|314:280|314:280|323:277|323:277|304:100,1,233.999983089448,10|0,0:1|0:0,0:0:0:0:
266,69,53671,2,0,L|280:219,1,116.999991544724,2|0,0:0|0:0,0:0:0:0:
224,215,53839,2,0,L|515:185,1,233.999983089448,8|2,0:1|0:0,0:0:0:0:
442,50,54176,5,2,0:0:0:0:
325,62,54345,1,8,0:1:0:0:
209,74,54514,1,0,0:0:0:0:
92,86,54682,6,0,B|106:197|106:197|199:189|199:189|209:200|209:200|380:187|380:187|387:254|387:254|398:269|398:269|405:335|405:335|260:347|260:347|247:354|247:354|117:364,1,810.000009441377,12|0,0:1|0:0,0:0:0:0:
141,362,55356,6,0,B|134:290|134:290|488:256|488:256|473:74|473:74|390:81,1,675.000007867814,12|0,0:1|0:0,0:0:0:0:
408,79,55862,6,0,B|48:108|48:108|42:24|42:24|149:16,1,540.000006294251,12|8,0:1|0:0,0:0:0:0:
233,11,56368,2,0,P|227:112|148:240,1,233.999983089448,8|0,0:1|0:0,0:0:0:0:
119,255,56705,6,0,L|361:233,1,233.999983089448,8|8,0:0|0:0,0:0:0:0:
393,210,57042,2,0,P|378:264|314:324,1,116.999991544724,8|0,0:1|0:0,0:0:0:0:
309,332,57210,2,0,L|50:355,1,233.999983089448,12|0,0:1|0:0,0:0:0:0:
4,363,57547,1,10,0:1:0:0:
29,282,57716,6,0,B|50:184|50:184|40:159|40:159|58:43,1,233.999983089448,8|8,0:1|0:1,0:0:0:0:
106,19,58053,2,0,B|85:117|85:117|95:142|95:142|77:258,1,233.999983089448,10|8,0:0|0:0,0:0:0:0:
193,384,58390,6,0,P|258:351|376:346,1,116.999991544724,10|0,0:1|0:0,0:0:0:0:
275,158,58558,1,2,0:0:0:0:
275,158,58643,2,0,P|258:186|254:224,4,58.499995772362,0|0|8|0|0,0:0|0:0|0:0|0:0|0:0,0:0:0:0:
294,278,58896,2,0,P|338:287|364:281,1,62.9999964084627,8|0,0:1|0:0,0:0:0:0:
423,258,59064,6,0,P|442:138|427:114,1,125.999992816925,8|0,0:0|0:0,0:0:0:0:
392,140,59233,2,0,P|382:110|384:78,1,62.9999964084627,0|0,0:0|0:0,0:0:0:0:
396,31,59401,6,0,P|315:78|254:63,1,125.999992816925,8|0,0:1|0:0,0:0:0:0:
236,130,59570,2,0,P|205:107|186:69,1,62.9999964084627,2|2,0:0|0:0,0:0:0:0:
170,22,59738,6,0,P|160:87|21:55,2,251.999985633851,8|10|12,0:1|0:0|0:1,0:0:0:0:
31,279,60244,5,8,0:0:0:0:
120,281,60412,1,10,0:1:0:0:
119,370,60581,5,2,0:0:0:0:
208,371,60749,1,2,0:0:0:0:
209,282,60918,5,8,0:0:0:0:
300,283,61087,2,0,L|494:287,1,179.999995231629,10|10,0:1|0:0,0:0:0:0:
388,376,61424,6,0,L|188:372,1,179.999995231629,10|8,0:0|0:0,0:0:0:0:
478,377,61761,6,0,L|376:374,1,89.9999976158143,10|0,0:1|0:0,0:0:0:0:
27,368,61929,2,0,L|231:372,1,179.999995231629,10|2,0:1|0:0,0:0:0:0:
32,189,62266,1,8,0:0:0:0:
121,100,62435,5,10,0:1:0:0:
214,102,62603,1,2,0:0:0:0:
301,194,62772,2,0,L|486:196,1,179.999995231629,12|8,0:1|0:0,0:0:0:0:
33,99,63109,5,10,0:1:0:0:
121,100,63278,1,2,0:0:0:0:
36,5,63446,6,0,L|215:7,2,179.999995231629,2|8|10,0:0|0:0|0:1,0:0:0:0:
121,100,63952,1,10,0:0:0:0:
122,188,64120,6,0,L|482:197,1,359.999990463257,10|8,0:1|0:0,0:0:0:0:
390,285,64457,6,0,L|12:277,1,359.999990463257,10|8,0:1|0:0,0:0:0:0:
125,7,64794,6,0,L|502:15,1,359.999990463257,2|8,0:0|0:0,0:0:0:0:
482,103,65132,5,10,0:1:0:0:
393,104,65300,1,2,0:0:0:0:
301,194,65469,6,0,L|299:373,1,179.999995231629,12|8,0:1|0:0,0:0:0:0:
211,191,65806,5,10,0:1:0:0:
209,282,65974,1,2,0:0:0:0:
305,13,66143,5,2,0:0:0:0:
303,103,66311,1,8,0:0:0:0:
121,100,66480,5,10,0:1:0:0:
121,188,66648,1,8,0:0:0:0:
394,15,66817,6,0,L|391:215,2,179.999995231629,10|8|10,0:0|0:0|0:1,0:0:0:0:
477,377,67323,2,0,L|481:194,1,179.999995231629,8|2,0:0|0:0,0:0:0:0:
390,285,67660,1,8,0:0:0:0:
388,376,67828,5,10,0:1:0:0:
301,194,67997,1,2,0:0:0:0:
298,373,68165,6,0,L|305:1,1,359.999990463257,12|8,0:1|0:0,0:0:0:0:
215,9,68502,5,8,0:1:0:0:
211,191,68671,1,0,0:0:0:0:
118,368,68839,6,0,L|126:8,1,359.999990463257,8|8,0:0|0:0,0:0:0:0:
395,15,69176,5,8,0:1:0:0:
390,285,69345,1,0,0:0:0:0:
476,376,69514,6,0,L|486:14,1,359.999990463257,12|0,0:1|3:0,0:0:0:0:
118,368,69851,5,8,0:1:0:0:
125,8,70019,1,0,0:0:0:0:
255,191,70188,5,8,0:0:0:0:
255,191,70300,1,8,0:0:0:0:
255,191,70412,1,8,0:0:0:0:
255,191,70525,5,8,0:1:0:0:
255,191,70637,1,8,0:0:0:0:
255,191,70749,1,8,0:1:0:0:
296,371,70862,5,12,0:1:0:0:
476,376,71030,6,0,L|297:372,2,179.999995231629,2|8|2,0:0|0:1|0:0,0:0:0:0:
390,285,71536,1,8,0:1:0:0:
479,287,71705,6,0,B|479:107|479:107|120:99,1,539.999985694885,8|10,0:0|0:1,0:0:0:0:
118,366,72379,5,8,0:1:0:0:
118,280,72547,1,2,0:0:0:0:
120,187,72716,5,8,0:0:0:0:
120,99,72884,1,8,0:1:0:0:
36,4,73053,6,0,B|34:96|34:96|482:103,1,539.999985694885,2|12,0:0|0:1,0:0:0:0:
486,15,73727,6,0,L|480:306,1,269.999992847443,2|0,0:0|0:0,0:0:0:0:
475,375,74064,5,8,0:0:0:0:
387,375,74233,1,8,0:1:0:0:
27,367,74401,5,10,0:0:0:0:
118,366,74570,2,0,L|300:370,1,179.999995231629,8|10,0:1|0:0,0:0:0:0:
240,220,74907,6,0,B|203:253|223:308|287:330|337:297|369:247|351:144|278:137|229:116|217:93|217:93|229:116|278:136|323:53|324:3,1,540.000006294251,12|8,0:1|0:0,0:0:0:0:
26,158,75412,6,0,B|-2:159|-4:187|-48:183|-48:183|33:190|87:233|66:282|66:282|42:335|104:457|176:423|203:356|140:313|100:327|68:419,1,540.000006294251,12|8,0:1|0:0,0:0:0:0:
13,74,75918,6,0,B|88:95|67:9|291:27,1,270.000003147125,12|0,0:1|0:0,0:0:0:0:
269,161,76255,6,0,B|408:119|421:1|512:17,1,270.000003147125,12|0,0:1|0:0,0:0:0:0:
113,146,76592,5,8,0:1:0:0:
170,225,76761,1,2,0:0:0:0:
281,288,76929,1,8,0:0:0:0:
416,292,77098,1,8,0:0:0:0:
337,373,77266,6,0,B|457:349|384:198|510:175,1,270.000003147125,8|0,0:1|0:0,0:0:0:0:
135,338,77603,6,0,B|101:390|-25:393|-77:328|21:51|91:306|218:274|185:93|131:77,1,467.999966178896,8|8,0:1|0:1,0:0:0:0:
31,26,78109,6,0,P|47:140|144:204,2,233.999983089448,2|8|8,0:0|0:0|0:0,0:0:0:0:
255,191,78615,6,0,P|298:145|348:120,1,116.999991544724,8|0,0:1|0:0,0:0:0:0:
271,380,78783,2,0,B|229:281|369:280|298:164,1,233.999983089448,12|0,0:1|0:0,0:0:0:0:
44,383,79120,6,0,B|36:328|61:321|61:321|83:227|83:227|93:256|118:283|118:283|134:281|134:281|151:293|151:293|167:295|167:295|199:329|199:329|278:117|59:169|143:8|143:8|297:10|299:166|299:166|421:110|517:158|528:308|458:384|304:338|319:220|401:237,1,1403.99989853669,8|2,0:0|0:0,0:0:0:0:
27,28,80300,5,8,0:1:0:0:
49,127,80469,1,8,0:0:0:0:
62,316,80637,6,0,P|52:193|-2:88,1,233.999983089448,10|2,0:1|0:0,0:0:0:0:
380,38,80974,5,10,0:0:0:0:
301,161,81143,1,8,0:0:0:0:
315,384,81311,6,0,P|252:318|217:175,1,233.999983089448,8|2,0:1|0:0,0:0:0:0:
463,266,81648,6,0,B|348:175|253:293|253:293|107:462|-73:306|4:149|163:221|80:331,1,701.999949268344,12|2,0:1|0:0,0:0:0:0:
35,43,82323,5,8,0:0:0:0:
97,121,82491,1,8,0:0:0:0:
220,234,82660,6,0,P|204:127|78:138,1,233.999983089448,10|2,0:1|0:0,0:0:0:0:
400,384,82997,6,0,B|409:285|333:244|333:244|268:354|155:358|94:235|143:189,1,467.999966178896,12|8,0:1|0:1,0:0:0:0:
339,0,83502,6,0,B|298:48|352:80|262:98|262:98|301:129|333:163|333:163|300:129|217:119|156:157|205:300|262:214,1,467.999966178896,12|8,0:1|0:0,0:0:0:0:
28,68,84008,6,0,B|68:87|108:-23|249:23,1,233.999983089448,8|2,0:1|0:0,0:0:0:0:
413,4,84345,6,0,B|505:-5|628:138|601:260|185:408|417:85|259:-32|79:177|114:257,1,701.999949268344,12|8,0:1|0:0,0:0:0:0:
260,322,85019,6,0,B|284:360|295:380|335:382|358:372|375:363|397:346|397:346|376:274|433:202|433:202|484:196|482:159|489:126|415:109,1,467.999966178896,12|8,0:1|0:1,0:0:0:0:
230,42,85525,6,0,B|226:8|188:5|162:22|138:57|144:97|195:129|195:129|160:180|187:258|187:258|155:263|155:263|169:339|115:385,1,467.999966178896,12|8,0:1|0:0,0:0:0:0:
40,44,86030,5,8,0:1:0:0:
193,130,86199,1,2,0:0:0:0:
309,85,86368,6,0,P|411:118|517:47,1,233.999983089448,8|8,0:1|0:0,0:0:0:0:
95,188,86705,2,0,P|114:84|224:20,1,233.999983089448,8|2,0:1|0:0,0:0:0:0:
95,188,87042,6,0,B|52:163|-8:189|-5:235|-2:273|18:296|56:314|94:302|124:260|124:260|183:294|258:231|258:231|257:265|257:265|330:239|409:339|349:391|281:414|242:380|248:311,1,701.999949268344,12|2,0:1|0:0,0:0:0:0:
173,354,87716,5,8,0:0:0:0:
259,230,87884,1,8,0:0:0:0:
408,154,88053,6,0,P|427:237|357:370,1,233.999983089448,8|0,0:1|0:0,0:0:0:0:
13,371,88390,6,0,B|96:368|80:287|177:359|177:359|173:294|178:232|178:232|174:295|264:375|370:307|382:204|318:133|234:152,1,701.999949268344,12|2,0:1|0:0,0:0:0:0:
200,62,89064,2,0,P|329:67|420:127,1,233.999983089448,8|8,0:0|0:0,0:0:0:0:
62,174,89401,5,8,0:1:0:0:
27,24,89570,6,0,B|7:138|143:210|35:358|35:358|82:294|179:300,1,467.999966178896,12|8,0:1|0:0,0:0:0:0:
35,354,90075,6,0,P|121:301|258:343,1,233.999983089448,12|8,0:1|0:0,0:0:0:0:
410,360,90412,6,0,B|345:364|320:299|300:226|186:235,2,233.999983089448,12|8|8,0:1|0:0|0:1,0:0:0:0:
55,209,90918,6,0,B|181:292|251:132|321:-33|448:55,1,467.999966178896,12|8,0:1|0:0,0:0:0:0:
380,146,91424,6,0,P|286:94|151:90,1,233.999983089448,8|2,0:1|0:0,0:0:0:0:
356,257,91761,5,8,0:0:0:0:
406,364,91929,1,8,0:0:0:0:
458,274,92098,6,0,P|471:127|431:35,1,233.999983089448,8|2,0:1|0:0,0:0:0:0:
284,296,92435,6,0,B|310:267|355:255|355:255|236:280|236:280|230:286|230:286|221:282|221:282|214:288|214:288|203:282|203:282|181:293|181:293|102:259|38:357|153:417|194:337,1,467.999966178896,12|8,0:1|0:1,0:0:0:0:
126,197,92941,1,2,0:0:0:0:
24,379,93109,6,0,P|48:248|134:196,1,233.999983089448,12|8,0:1|0:0,0:0:0:0:
379,92,93446,2,0,B|333:127|213:42|134:126,1,233.999983089448,8|2,0:1|0:0,0:0:0:0:
13,13,93783,6,0,B|51:133|197:6|357:158|363:286|202:296|199:169|276:167,1,467.999966178896,12|8,0:1|0:0,0:0:0:0:
208,329,94289,6,0,B|159:310|120:241|120:241|211:400|332:305|428:370,1,467.999966178896,10|8,0:1|0:1,0:0:0:0:
477,297,94794,5,8,0:1:0:0:
489,7,94963,2,0,P|416:63|414:265,1,233.999983089448,12|0,0:1|0:0,0:0:0:0:
512,384,95300,5,12,0:1:0:0:
256,192,95384,12,0,96311,0:0:0:0:
33,23,96480,5,8,0:1:0:0:
34,81,96564,1,8,0:0:0:0:
54,135,96648,1,8,0:0:0:0:
64,263,96817,5,8,0:0:0:0:
192,360,96986,5,8,0:1:0:0:
193,244,97070,1,8,0:0:0:0:
247,141,97154,1,8,0:0:0:0:
314,59,97323,5,8,0:0:0:0:
201,34,97491,1,8,0:1:0:0:
483,234,97828,5,10,0:1:0:0:
483,234,97912,1,0,0:0:0:0:
483,234,97997,2,0,L|498:424,1,135.000001573563,2|0,0:0|0:0,0:0:0:0:
400,324,98165,1,10,0:1:0:0:
400,324,98249,1,0,0:0:0:0:
400,324,98334,2,0,L|227:241,1,135.000001573563,2|0,0:0|0:0,0:0:0:0:
363,207,98502,5,10,0:1:0:0:
363,207,98586,1,0,0:0:0:0:
363,207,98671,2,0,L|520:99,1,135.000001573563,2|0,0:0|0:0,0:0:0:0:
386,75,98839,1,8,0:1:0:0:
386,75,98923,1,0,0:0:0:0:
386,75,99009,2,0,L|203:20,1,135.000001573563,2|0,0:0|0:0,0:0:0:0:
204,232,99177,1,10,0:1:0:0:
204,232,99261,1,0,0:0:0:0:
204,232,99346,2,0,L|140:52,1,135.000001573563,2|0,0:0|0:0,0:0:0:0:
26,41,99514,5,10,0:1:0:0:
26,41,99598,1,0,0:0:0:0:
26,41,99682,2,0,P|19:106|38:176,1,135.000001573563,2|0,0:0|0:0,0:0:0:0:
62,283,99851,2,0,P|32:224|24:152,1,135.000001573563,8|0,0:1|0:0,0:0:0:0:
171,117,100019,2,0,P|139:174|127:245,1,135.000001573563,2|0,0:0|0:0,0:0:0:0:
106,353,100188,2,0,P|102:288|125:219,1,135.000001573563,10|0,0:1|0:0,0:0:0:0:
238,272,100356,2,0,P|281:223|346:190,1,135.000001573563,0|0,0:0|0:0,0:0:0:0:
342,365,100525,5,8,0:1:0:0:
342,365,100609,1,0,0:0:0:0:
342,365,100693,2,0,L|161:377,1,135.000001573563,2|0,0:0|0:0,0:0:0:0:
350,281,100862,1,10,0:1:0:0:
350,281,100946,1,0,0:0:0:0:
350,281,101030,2,0,L|531:293,1,135.000001573563,2|0,0:0|0:0,0:0:0:0:
289,27,101199,5,10,0:1:0:0:
289,27,101283,1,0,0:0:0:0:
289,27,101367,2,0,L|277:208,1,135.000001573563,2|0,0:0|0:0,0:0:0:0:
509,109,101536,1,8,0:1:0:0:
509,109,101620,1,0,0:0:0:0:
509,109,101705,2,0,L|328:97,1,135.000001573563,2|0,0:0|0:0,0:0:0:0:
176,112,101873,5,10,0:1:0:0:
176,112,101957,1,0,0:0:0:0:
176,112,102042,2,0,P|98:90|27:47,1,135.000001573563,8|0,0:1|0:0,0:0:0:0:
58,161,102210,2,0,P|78:225|113:284,1,135.000001573563,2|0,0:0|0:0,0:0:0:0:
213,374,102379,2,0,P|230:308|261:248,1,135.000001573563,10|8,0:0|0:1,0:0:0:0:
293,197,102547,6,0,P|313:261|347:319,1,135.000001573563,8|0,0:1|0:0,0:0:0:0:
455,299,102716,2,0,P|485:239|502:173,1,135.000001573563,8|8,0:0|0:0,0:0:0:0:
381,0,102884,2,0,P|415:58|435:122,1,135.000001573563,8|8,0:1|0:0,0:0:0:0:
365,159,103053,2,0,P|306:193|242:213,1,135.000001573563,8|8,0:0|0:0,0:0:0:0:
78,159,103221,5,8,0:1:0:0:
14,16,103390,5,8,0:1:0:0:
291,152,105750,5,8,0:0:0:0:
270,83,105834,1,8,0:0:0:0:
225,27,105918,1,8,0:1:0:0:
277,356,106087,5,8,0:1:0:0:
66,25,106929,6,0,P|30:45|-28:43,2,71.9999958953859,0|0|0,0:0|0:0|0:0,0:0:0:0:
10,130,107266,5,8,0:1:0:0:
88,121,107378,1,2,0:0:0:0:
166,112,107490,1,2,0:0:0:0:
224,138,107603,5,8,0:0:0:0:
146,146,107715,1,2,0:0:0:0:
68,154,107827,1,2,0:0:0:0:
1,221,107941,5,8,0:0:0:0:
109,209,108053,1,8,0:0:0:0:
216,198,108165,1,8,0:0:0:0:
250,217,108278,5,8,0:0:0:0:
316,210,108390,1,0,0:0:0:0:
383,202,108502,1,0,0:0:0:0:
131,316,108615,5,8,0:1:0:0:
307,318,108952,6,0,B|347:314|347:314|357:308|357:308|453:300,2,125.999992816925,12|2|8,0:1|0:0|0:1,0:0:0:0:
498,355,109457,1,8,0:0:0:0:
465,139,109626,2,0,P|497:220|489:281,1,125.999992816925,8|8,0:1|0:0,0:0:0:0:
309,117,109963,6,0,L|502:90,1,188.999989225388,8|0,0:1|0:0,0:0:0:0:
496,90,110300,1,2,0:0:0:0:
378,22,110469,2,0,L|405:215,1,188.999989225388,12|0,0:1|0:0,0:0:0:0:
256,188,110806,5,8,0:0:0:0:
256,188,110974,1,8,0:1:0:0:
134,22,111311,6,0,L|107:215,1,188.999989225388,12|0,0:1|0:0,0:0:0:0:
15,90,111648,1,0,0:0:0:0:
203,117,111817,2,0,L|10:90,1,188.999989225388,8|0,0:0|0:0,0:0:0:0:
14,355,112154,5,8,0:0:0:0:
205,318,112323,2,0,B|164:314|164:314|154:308|154:308|59:300,1,125.999992816925,2|0,0:0|0:0,0:0:0:0:
47,139,112660,2,0,P|15:220|23:281,2,125.999992816925,8|0|8,0:1|0:0|0:0,0:0:0:0:
288,136,113165,5,8,0:0:0:0:
225,136,113250,1,8,0:0:0:0:
193,81,113334,1,8,0:0:0:0:
225,26,113418,1,8,0:0:0:0:
288,26,113502,1,8,0:0:0:0:
319,81,113587,1,0,0:0:0:0:
256,80,113671,6,0,L|256:92,6,8.99999976158142,10|0|0|0|0|0|0,0:1|0:0|0:0|0:0|0:0|0:0|0:0,0:0:0:0:
17,349,114008,6,0,B|0:299|27:421|76:419|16:219|118:262|118:262|119:370|170:293|170:293|201:453|384:396|399:281|255:219|254:352,1,692.999960493089,12|0,0:1|0:0,0:0:0:0:
411,334,114514,6,0,B|411:327|410:301|410:301|421:341|432:352,1,89.9999976158143,0|0,0:0|0:0,0:0:0:0:
379,224,114682,6,0,B|375:220|361:207|361:207|387:222|397:221,1,62.9999964084627,8|0,0:0|0:0,0:0:0:0:
261,176,114851,6,0,B|256:176|241:176|241:176|265:170|269:164,1,44.9999988079071,8|0,0:0|0:0,0:0:0:0:
79,190,115019,6,0,B|65:176|82:161|53:133|50:91,1,89.9999976158143,8|0,0:1|0:0,0:0:0:0:
79,190,115188,6,0,B|54:192|67:208|67:208|0:225,1,71.9999980926514,2|0,0:0|0:0,0:0:0:0:
79,190,115356,6,0,B|96:173|76:168|76:168|146:159|64:94|64:94|8:50|74:-32|128:8|128:8|225:87,1,405.000004720688,10|0,0:1|0:0,0:0:0:0:
369,25,115693,6,0,B|396:47|417:22|417:22|503:33,1,107.999993843079,10|0,0:1|0:0,0:0:0:0:
439,99,115862,6,0,B|433:133|465:139|465:139|538:197|506:294,1,215.999994277954,8|0,0:0|0:0,0:0:0:0:
432,218,116199,6,0,B|413:195|391:212|391:212|304:317|267:201|267:201|223:163|149:244|197:278|197:278|248:321|248:321|273:343|227:398|201:383|201:383|142:331,1,540.000006294251,8|2,0:0|0:0,0:0:0:0:
47,360,116620,1,0,0:0:0:0:
63,284,116705,6,0,B|123:254|91:119|207:59|351:101|362:111|362:111|320:132|334:185,1,467.999966178896,12|8,0:1|0:1,0:0:0:0:
456,247,117126,1,0,0:0:0:0:
456,247,117210,6,0,P|476:192|418:210,1,89.9999976158143,0|0,0:0|0:0,0:0:0:0:
365,44,117379,6,0,P|345:99|403:81,1,89.9999976158143,8|0,0:0|0:0,0:0:0:0:
475,334,117547,6,0,P|421:315|418:305,1,53.9999969215394,8|0,0:0|0:0,0:0:0:0:
426,358,117716,6,0,P|361:333|341:298,1,89.9999976158143,8|0,0:1|0:0,0:0:0:0:
332,360,117884,6,0,P|295:284|308:253,1,71.9999980926514,2|0,0:0|0:0,0:0:0:0:
222,309,118053,6,0,B|170:298|196:218|196:218|218:141|319:180|297:253|297:253|258:376,1,405.000004720688,10|0,0:1|0:0,0:0:0:0:
110,364,118390,6,0,B|106:316|89:298|89:298|106:329|103:369,1,116.999991544724,8|0,0:1|0:0,0:0:0:0:
80,194,118559,6,0,B|128:173|196:79|196:79|197:195|-94:273,1,405.000004720688,8|0,0:0|0:0,0:0:0:0:
50,84,118896,6,0,P|74:52|78:65,1,89.9999976158143,8|0,0:0|0:0,0:0:0:0:
264,161,119064,6,0,B|253:141|253:141|225:152|203:115|255:87|255:87|305:61|275:0|230:17|230:17|172:42,1,270.000003147125,8|0,0:1|0:0,0:0:0:0:
112,265,119317,1,0,0:0:0:0:
160,329,119401,6,0,B|209:406|152:449|81:321|52:179|209:80|322:108|464:193|479:321|372:442|244:385|266:251,1,701.999949268344,12|0,0:1|0:0,0:0:0:0:
417,31,119991,1,0,0:0:0:0:
473,54,120075,6,0,B|536:78|521:259|353:287|252:263|335:156|335:156|411:172|414:69,1,540.000006294251,12|8,0:1|0:1,0:0:0:0:
105,189,120497,1,0,0:0:0:0:
28,159,120581,6,0,B|2:137|2:137|87:211|27:11|117:189|117:189|142:97|181:85|181:85|212:245|214:-39|410:73|266:11|265:144,1,584.99995772362,12|0,0:1|0:0,0:0:0:0:
333,357,121087,6,0,B|309:339|296:313|296:313|314:342|311:372,1,116.999991544724,8|0,0:1|0:0,0:0:0:0:
333,357,121255,6,0,B|315:380|289:392|289:392|318:375|348:378,1,89.9999976158143,2|0,0:0|0:0,0:0:0:0:
333,357,121424,6,0,B|270:306|292:259|292:259|323:213|257:160|257:160|347:185|311:206,1,270.000003147125,10|8,0:0|0:0,0:0:0:0:
372,95,121677,1,0,0:0:0:0:
441,114,121761,6,0,B|416:39|416:39|336:17,1,116.999991544724,8|0,0:1|0:0,0:0:0:0:
297,10,121929,6,0,B|294:56|330:41|321:84|321:84|351:68|428:109|398:161|496:91|496:91|452:153|490:226,1,405.000004720688,12|0,0:1|0:0,0:0:0:0:
403,320,122266,6,0,B|433:326|418:373|418:373|405:419|345:396|354:351|354:351|379:249|379:249|401:252|425:222|416:184|393:177|393:177|381:208|355:213|335:197|342:165|342:165|354:100,1,495.00000199318,8|0,0:0|0:0,0:0:0:0:
36,36,122772,6,0,B|81:58|85:104|85:104|101:68,1,125.999992816925,8|0,0:1|0:0,0:0:0:0:
114,49,122941,6,0,B|130:96|104:129|104:129|137:117,1,107.999993843079,10|0,0:0|0:0,0:0:0:0:
179,228,123109,6,0,B|144:210|144:210|189:208|211:163,1,125.999992816925,10|0,0:1|0:0,0:0:0:0:
43,272,123278,6,0,B|24:241|22:223|22:223|61:218,6,71.9999980926514,2|0|0|0|8|0|0,0:0|0:0|0:0|0:0|0:0|0:0|0:0,0:0:0:0:
138,383,123615,6,0,P|160:326|176:397,1,161.999990764618,10|2,0:0|0:0,0:0:0:0:
291,367,123783,6,0,P|266:311|327:350,1,135.000001573563,10|0,0:1|0:0,0:0:0:0:
387,247,123952,6,0,P|330:225|389:207,1,99.0000003986359,8|8,0:0|0:0,0:0:0:0:
346,69,124120,6,0,P|402:90|343:114,1,135.000001573563,8|2,0:1|0:0,0:0:0:0:
243,151,124289,6,0,P|267:206|208:183,1,116.999991544724,10|0,0:0|0:0,0:0:0:0:
112,136,124457,6,0,P|90:192|44:124,2,179.999995231629,8|2|12,0:1|0:0|0:1,0:0:0:0:
87,44,124963,1,8,0:0:0:0:
88,339,125132,6,0,B|98:300|98:300|91:361|91:361|89:384|44:379|48:352|48:352|65:228,1,270.000003147125,10|2,0:1|0:0,0:0:0:0:
252,182,125469,6,0,B|192:149|167:212|145:202|145:202|124:192|124:192|122:198|122:198|143:208|143:208|210:271|181:355,1,305.999997730255,2|8,0:0|0:0,0:0:0:0:
270,262,125721,1,0,0:0:0:0:
289,346,125806,6,0,B|296:378|296:378|300:400|354:391|350:367|350:367|417:309|394:188,1,270.000003147125,10|10,0:1|0:0,0:0:0:0:
483,164,126143,6,0,B|510:133|510:133|543:147|543:147|510:133|510:133|461:134|461:134|444:145|444:145|280:135,1,323.999981529237,10|0,0:0|0:0,0:0:0:0:
269,143,126480,6,0,L|514:159,1,229.499998297691,10|0,0:1|0:0,0:0:0:0:
415,63,126648,5,10,0:1:0:0:
313,56,126817,1,2,0:0:0:0:
211,49,126986,1,8,0:0:0:0:
109,42,127154,6,0,L|391:60,1,270.000003147125,10|2,0:1|0:0,0:0:0:0:
144,138,127491,6,0,B|159:166|159:166|152:154|152:154|111:192|106:260|-20:255|0:120|65:157,1,270.000003147125,12|8,0:1|0:0,0:0:0:0:
20,295,127744,1,0,0:0:0:0:
103,306,127828,6,0,B|158:311|173:248|173:248|200:276|263:243|275:198|263:154|225:138,1,270.000003147125,10|2,0:1|0:0,0:0:0:0:
149,384,128081,1,0,0:0:0:0:
238,365,128165,6,0,B|229:338|229:338|373:287|326:105,2,305.999997730255,2|8|10,0:0|0:0|0:1,0:0:0:0:
202,0,128671,2,0,B|216:16|216:16|267:-4|300:48,1,116.999991544724,10|0,0:0|0:0,0:0:0:0:
440,31,128839,6,0,B|430:81|430:81|483:73|483:73|456:291,1,323.999981529237,10|0,0:1|0:0,0:0:0:0:
430,354,129177,6,0,L|461:76,1,229.499998297691,10|0,0:1|0:0,0:0:0:0:
354,170,129345,5,8,0:0:0:0:
252,174,129514,1,2,0:0:0:0:
150,179,129682,1,8,0:0:0:0:
48,184,129851,6,0,L|308:174,1,251.999985633851,10|2,0:1|0:0,0:0:0:0:
22,326,130188,6,0,B|13:375|83:394|100:349|100:349|133:382|188:371|177:300,1,251.999985633851,12|8,0:1|0:0,0:0:0:0:
96,264,130441,1,0,0:0:0:0:
255,347,130525,6,0,B|278:296|252:257|252:257|351:273|385:171,1,251.999985633851,10|2,0:1|0:0,0:0:0:0:
360,332,130778,1,0,0:0:0:0:
439,288,130862,6,0,B|478:254|478:254|458:239|458:239|478:176|460:103|373:98,1,251.999985633851,2|8,0:0|0:0,0:0:0:0:
298,28,131199,6,0,B|288:73|288:73|300:84|300:84|314:83|314:83|293:181|293:181|143:151,1,323.999981529237,10|0,0:1|0:0,0:0:0:0:
58,181,131536,6,0,B|84:61|84:61|191:82,1,229.499998297691,10|0,0:0|0:0,0:0:0:0:
256,257,131705,5,8,0:0:0:0:
231,363,131873,1,10,0:1:0:0:
128,347,132042,6,0,B|397:382,1,270.000003147125,8|2,0:0|0:0,0:0:0:0:
371,166,132379,6,0,B|354:269|354:269|340:288|340:288|325:380,2,215.999987686158,8|10|2,0:0|0:1|0:0,0:0:0:0:
469,256,132884,5,12,0:1:0:0:
451,203,133053,1,8,0:0:0:0:
332,29,133221,5,8,0:1:0:0:
310,104,133390,1,0,0:0:0:0:
325,374,133558,5,8,0:0:0:0:
261,283,133727,1,8,0:0:0:0:
147,47,133896,5,8,0:1:0:0:
90,170,134064,1,0,0:0:0:0:
39,358,134233,5,12,0:1:0:0:
27,319,134345,1,0,0:0:0:0:
58,323,134457,5,0,0:0:0:0:
84,336,134570,1,8,0:1:0:0:
115,363,134682,5,0,0:0:0:0:
124,331,134794,1,0,0:0:0:0:
158,366,134907,5,8,0:1:0:0:
187,352,135019,1,8,0:0:0:0:
208,325,135132,5,8,0:0:0:0:
219,356,135244,1,8,0:0:0:0:
249,313,135356,5,8,0:0:0:0:
281,337,135469,1,0,0:0:0:0:
332,363,135581,6,0,B|317:351|317:351|328:359|328:359|350:308|327:244|444:197|483:320|425:319,1,270.000003147125,12|2,0:1|0:0,0:0:0:0:
253,233,135834,1,0,0:0:0:0:
288,242,135918,6,0,B|269:220|269:220|288:243|288:243|366:135|498:202,1,270.000003147125,8|2,0:1|0:0,0:0:0:0:
161,273,136171,1,0,0:0:0:0:
149,246,136255,6,0,B|160:263|160:263|159:244|159:244|159:198|176:162|176:162|158:150|176:162|176:162|200:126|251:110|302:131,2,270.000003147125,8|8|2,0:1|0:0|0:0,0:0:0:0:
394,33,136761,1,2,0:0:0:0:
146,19,136929,6,0,B|172:66|221:46|221:46|202:36|202:36|276:13|318:92,1,233.999983089448,10|8,0:1|0:1,0:0:0:0:
61,23,137182,1,0,0:0:0:0:
19,94,137266,6,0,B|24:135|24:135|29:131|29:131|30:161|66:166|66:166|66:154|66:154|117:111|173:162,1,233.999983089448,2|8,0:0|0:0,0:0:0:0:
232,295,137519,1,0,0:0:0:0:
245,276,137603,6,0,B|266:276|266:276|264:271|264:271|302:272|302:248|302:248|314:262|314:262|392:283|427:189,2,233.999983089448,8|2|8,0:1|0:0|0:0,0:0:0:0:
404,375,138109,6,0,B|405:362|405:362|405:368|405:368|345:385|320:336,1,116.999991544724,2|0,0:0|0:0,0:0:0:0:
178,365,138278,6,0,B|187:350|187:350|207:360|207:360|79:373|28:323|29:256|92:190|151:249|124:283,1,350.999974634172,12|0,0:1|0:0,0:0:0:0:
200,229,138616,6,0,L|198:206,7,22.4999994039536,8|0|0|0|0|0|0|0,0:1|0:0|0:0|0:0|0:0|0:0|0:0|0:0,0:0:0:0:
289,228,138952,6,0,L|287:205,3,22.4999994039536,8|0|0|0,0:1|0:0|0:0|0:0,0:0:0:0:
379,227,139120,6,0,L|377:204,3,22.4999994039536,10|0|0|0,0:0|0:0|0:0|0:0,0:0:0:0:
469,226,139289,6,0,L|467:203,2,22.4999994039536,8|0|0,0:1|0:0|0:0,0:0:0:0:
490,19,139457,6,0,P|416:11|359:64,1,152.999998865128,10|0,0:0|0:0,0:0:0:0:
334,137,139626,5,12,0:1:0:0:
334,137,139668,1,0,0:0:0:0:
334,137,139710,1,0,0:0:0:0:
334,137,139752,1,0,0:0:0:0:
334,137,139794,1,8,0:0:0:0:
236,382,139963,6,0,P|266:310|245:239,1,152.999998865128,8|0,0:0|0:0,0:0:0:0:
126,185,140132,5,12,0:1:0:0:
126,185,140174,1,0,0:0:0:0:
126,185,140216,1,0,0:0:0:0:
126,185,140258,1,0,0:0:0:0:
126,185,140300,1,8,0:0:0:0:
39,2,140469,6,0,P|75:65|155:92,1,152.999998865128,8|0,0:0|0:0,0:0:0:0:
255,44,140637,5,12,0:1:0:0:
255,44,140679,1,0,0:0:0:0:
255,44,140721,1,0,0:0:0:0:
255,44,140764,1,0,0:0:0:0:
255,44,140806,1,0,0:0:0:0:
469,132,140974,6,0,B|463:33|463:33|461:6|416:-11|379:13|381:39|381:39|387:135,1,305.999997730255,12|0,0:1|0:0,0:0:0:0:
492,309,141311,6,0,L|486:230,1,62.9999964084627,8|0,0:1|0:0,0:0:0:0:
425,214,141480,2,0,L|433:358,1,135.000001573563,2|0,0:0|0:0,0:0:0:0:
343,354,141648,6,0,L|335:169,1,152.999998865128,8|0,0:0|0:0,0:0:0:0:
242,162,141817,2,0,P|192:180|159:233,1,107.999993843079,8|0,0:0|0:0,0:0:0:0:
152,370,141986,6,0,P|193:354|213:323,1,62.9999964084627,8|0,0:1|0:0,0:0:0:0:
13,228,142154,2,0,P|64:285|119:290,1,135.000001573563,0|0,0:0|0:0,0:0:0:0:
252,246,142323,5,8,0:1:0:0:
252,246,142365,1,0,0:0:0:0:
252,246,142407,1,0,0:0:0:0:
252,246,142449,1,0,0:0:0:0:
252,246,142491,1,2,0:0:0:0:
336,201,142660,6,0,P|367:170|373:146,1,62.9999964084627,8|0,0:1|0:0,0:0:0:0:
395,66,142828,2,0,P|392:38|382:24,1,44.9999988079071,2|0,0:0|0:0,0:0:0:0:
222,25,142997,6,0,P|210:70|218:135,1,89.9999976158143,8|0,0:0|0:0,0:0:0:0:
309,100,143165,2,0,P|287:40|219:27,1,135.000001573563,8|0,0:0|0:0,0:0:0:0:
133,223,143334,6,0,P|204:174|208:101,1,152.999998865128,8|0,0:1|0:0,0:0:0:0:
89,35,143502,5,12,0:1:0:0:
89,35,143544,1,0,0:0:0:0:
89,35,143587,1,0,0:0:0:0:
89,35,143629,1,0,0:0:0:0:
89,35,143671,1,0,0:0:0:0:
27,125,143839,6,0,L|141:120,1,89.9999976158143,8|0,0:0|0:0,0:0:0:0:
13,211,144008,2,0,L|62:208,1,44.9999988079071,8|0,0:1|0:0,0:0:0:0:
133,223,144177,6,0,L|288:215,1,135.000001573563,2|0,0:0|0:0,0:0:0:0:
385,297,144345,2,0,L|214:307,1,152.999998865128,8|0,0:0|0:0,0:0:0:0:
100,352,144514,6,0,L|245:344,1,135.000001573563,8|8,0:0|0:0,0:0:0:0:
445,357,144682,2,0,P|463:320|463:296,1,44.9999988079071,8|0,0:1|0:0,0:0:0:0:
405,214,144851,6,0,P|381:257|386:301,1,89.9999976158143,2|0,0:0|0:0,0:0:0:0:
496,199,145019,2,0,P|443:137|374:133,1,135.000001573563,8|8,0:1|0:0,0:0:0:0:
281,245,145188,6,0,P|376:253|406:205,1,152.999998865128,8|8,0:0|0:0,0:0:0:0:
358,54,145356,2,0,P|319:93|315:142,1,89.9999976158143,10|0,0:1|0:0,0:0:0:0:
202,199,145525,6,0,P|177:183|172:161,1,44.9999988079071,2|0,0:0|0:0,0:0:0:0:
92,151,145693,2,0,P|128:96|167:94,1,89.9999976158143,10|8,0:0|0:0,0:0:0:0:
281,245,145862,6,0,P|245:312|191:334,1,135.000001573563,8|8,0:0|0:0,0:0:0:0:
180,0,146030,2,0,P|218:24|236:128,1,152.999998865128,8|0,0:1|0:0,0:0:0:0:
306,375,146199,6,0,P|262:341|249:295,1,89.9999976158143,2|0,0:0|0:0,0:0:0:0:
127,260,146368,5,12,0:1:0:0:
127,260,146410,1,0,0:0:0:0:
127,260,146452,1,0,0:0:0:0:
127,260,146494,1,0,0:0:0:0:
127,260,146537,1,0,0:0:0:0:
52,90,146705,6,0,L|98:90,1,44.9999988079071,8|0,0:1|0:0,0:0:0:0:
192,63,146873,2,0,L|292:61,1,89.9999976158143,2|0,0:0|0:0,0:0:0:0:
385,33,147042,6,0,B|454:32|454:32|458:103,1,135.000001573563,8|0,0:0|0:0,0:0:0:0:
375,220,147210,2,0,B|258:223|258:223|257:187,1,152.999998865128,8|0,0:0|0:0,0:0:0:0:
486,184,147379,6,0,B|490:271|490:271|423:274,1,135.000001573563,10|0,0:1|0:0,0:0:0:0:
361,294,147547,2,0,L|366:393,1,89.9999976158143,2|0,0:0|0:0,0:0:0:0:
254,333,147716,5,12,0:1:0:0:
254,333,147758,1,0,0:0:0:0:
254,333,147800,1,0,0:0:0:0:
254,333,147842,1,0,0:0:0:0:
254,333,147884,1,2,0:0:0:0:
156,294,148053,6,0,L|157:341,1,44.9999988079071,8|8,0:1|0:1,0:0:0:0:
41,224,148221,2,0,L|165:221,1,89.9999976158143,12|0,0:1|0:0,0:0:0:0:
215,217,148390,6,0,B|261:216|261:216|257:110,1,135.000001573563,0|0,0:0|0:0,0:0:0:0:
41,67,148559,2,0,B|43:142|43:142|137:138,1,152.999998865128,8|0,0:0|0:0,0:0:0:0:
184,14,148727,6,0,L|189:109,1,89.9999976158143,8|0,0:1|0:0,0:0:0:0:
293,11,148896,2,0,L|300:178,1,152.999998865128,2|0,0:0|0:0,0:0:0:0:
394,82,149064,5,12,0:1:0:0:
394,82,149106,1,0,0:0:0:0:
394,82,149148,1,0,0:0:0:0:
394,82,149191,1,0,0:0:0:0:
394,82,149233,1,2,0:0:0:0:
214,187,149401,6,0,L|219:303,1,89.9999976158143,8|8,0:1|0:0,0:0:0:0:
326,283,149570,2,0,B|329:336|329:336|404:331|404:331|403:266,1,179.999995231629,8|8,0:0|0:0,0:0:0:0:
360,189,149739,5,12,0:1:0:0:
360,189,149781,1,0,0:0:0:0:
360,189,149823,1,0,0:0:0:0:
360,189,149865,1,0,0:0:0:0:
360,189,149907,1,8,0:0:0:0:
224,354,150075,6,0,L|47:360,1,135.000001573563,8|8,0:1|0:0,0:0:0:0:
22,307,150244,5,12,0:1:0:0:
22,307,150286,1,0,0:0:0:0:
22,307,150328,1,0,0:0:0:0:
22,307,150370,1,0,0:0:0:0:
22,307,150412,1,2,0:0:0:0:
15,177,150581,6,0,P|26:212|44:230,1,44.9999988079071,8|8,0:0|0:0,0:0:0:0:
154,297,150750,2,0,P|180:251|165:191,1,89.9999976158143,8|0,0:1|0:0,0:0:0:0:
113,34,150918,6,0,P|42:54|5:100,1,135.000001573563,2|0,0:0|0:0,0:0:0:0:
111,192,151087,2,0,P|155:259|245:257,1,152.999998865128,8|0,0:0|0:0,0:0:0:0:
283,64,151255,6,0,P|234:32|202:29,1,89.9999976158143,8|0,0:0|0:0,0:0:0:0:
312,211,151424,2,0,P|328:177|324:163,1,44.9999988079071,8|0,0:1|0:0,0:0:0:0:
340,5,151592,6,0,P|289:49|279:114,1,135.000001573563,2|0,0:0|0:0,0:0:0:0:
403,105,151761,5,12,0:1:0:0:
403,105,151803,1,0,0:0:0:0:
403,105,151845,1,0,0:0:0:0:
403,105,151887,1,0,0:0:0:0:
403,105,151929,1,0,0:0:0:0:
475,204,152098,6,0,L|477:265,1,44.9999988079071,8|0,0:1|0:0,0:0:0:0:
457,356,152266,2,0,L|453:266,1,89.9999976158143,2|0,0:0|0:0,0:0:0:0:
312,211,152435,6,0,L|318:363,1,152.999998865128,8|0,0:0|0:0,0:0:0:0:
204,373,152603,2,0,P|140:376|66:315,1,135.000001573563,8|0,0:0|0:0,0:0:0:0:
149,211,152772,6,0,P|167:268|162:309,1,89.9999976158143,8|0,0:1|0:0,0:0:0:0:
21,154,152941,2,0,P|53:71|125:48,1,152.999998865128,0|0,0:0|0:0,0:0:0:0:
194,79,153109,5,12,0:1:0:0:
194,79,153151,1,0,0:0:0:0:
194,79,153193,1,0,0:0:0:0:
194,79,153236,1,0,0:0:0:0:
194,79,153278,1,0,0:0:0:0:
446,22,153446,6,0,L|384:25,1,44.9999988079071,8|0,0:1|0:0,0:0:0:0:
284,103,153615,2,0,L|439:95,1,135.000001573563,2|0,0:0|0:0,0:0:0:0:
500,135,153783,6,0,B|503:207|503:207|423:211,1,152.999998865128,8|0,0:0|0:0,0:0:0:0:
351,193,153952,2,0,L|250:199,1,89.9999976158143,8|0,0:0|0:0,0:0:0:0:
209,268,154120,6,0,B|215:379|215:379|284:374,1,179.999995231629,8|0,0:1|0:0,0:0:0:0:
358,316,154289,5,12,0:1:0:0:
358,316,154331,1,0,0:0:0:0:
358,316,154373,1,0,0:0:0:0:
358,316,154415,1,0,0:0:0:0:
358,316,154457,1,0,0:0:0:0:
36,146,154626,6,0,B|38:203|38:203|172:198,1,179.999995231629,8|0,0:0|0:0,0:0:0:0:
217,33,154794,5,12,0:1:0:0:
217,33,154837,1,0,0:0:0:0:
217,33,154879,1,0,0:0:0:0:
217,33,154921,1,0,0:0:0:0:
217,33,154963,1,8,0:0:0:0:
115,27,155132,6,0,P|116:54|125:79,1,44.9999988079071,12|0,0:1|0:0,0:0:0:0:
198,134,155300,2,0,P|273:144|320:132,1,89.9999976158143,8|0,0:0|0:0,0:0:0:0:
347,94,155469,6,0,P|385:39|451:21,1,135.000001573563,8|0,0:1|0:0,0:0:0:0:
446,128,155637,5,12,0:1:0:0:
446,128,155679,1,0,0:0:0:0:
446,128,155721,1,0,0:0:0:0:
446,128,155763,1,0,0:0:0:0:
446,128,155805,1,0,0:0:0:0:
378,228,155974,6,0,P|363:209|353:185,1,44.9999988079071,8|0,0:0|0:0,0:0:0:0:
486,219,156143,2,0,P|480:270|451:309,1,89.9999976158143,8|0,0:1|0:0,0:0:0:0:
282,234,156311,6,0,L|293:391,1,135.000001573563,2|0,0:0|0:0,0:0:0:0:
194,258,156480,2,0,L|201:359,1,89.9999976158143,8|0,0:0|0:0,0:0:0:0:
122,210,156648,6,0,L|131:162,1,44.9999988079071,8|0,0:0|0:0,0:0:0:0:
30,243,156817,2,0,L|70:79,1,135.000001573563,8|0,0:1|0:0,0:0:0:0:
0,32,156986,6,0,L|210:43,1,152.999998865128,2|0,0:0|0:0,0:0:0:0:
245,91,157154,5,12,0:1:0:0:
245,91,157196,1,0,0:0:0:0:
245,91,157238,1,0,0:0:0:0:
245,91,157280,1,0,0:0:0:0:
245,91,157323,1,2,0:0:0:0:
398,23,157491,6,0,P|354:23|311:43,1,89.9999976158143,8|0,0:1|0:0,0:0:0:0:
351,151,157660,2,0,P|368:133|373:109,1,44.9999988079071,2|0,0:0|0:0,0:0:0:0:
488,206,157828,6,0,P|502:139|472:79,1,135.000001573563,12|0,0:1|0:0,0:0:0:0:
244,186,157997,2,0,P|280:247|375:259,1,152.999998865128,8|0,0:0|0:0,0:0:0:0:
453,295,158165,6,0,P|437:321|386:350,1,89.9999976158143,8|0,0:1|0:0,0:0:0:0:
72,234,158334,2,0,P|61:127|120:43,1,152.999998865128,2|0,0:0|0:0,0:0:0:0:
189,23,158502,5,12,0:1:0:0:
189,23,158544,1,0,0:0:0:0:
189,23,158587,1,2,0:0:0:0:
189,23,158629,1,0,0:0:0:0:
189,23,158671,1,2,0:0:0:0:
386,349,158839,6,0,P|442:260|427:165,1,152.999998865128,8|0,0:0|0:0,0:0:0:0:
371,86,159008,5,10,0:1:0:0:
371,86,159050,1,0,0:0:0:0:
371,86,159092,1,0,0:0:0:0:
371,86,159134,1,0,0:0:0:0:
371,86,159177,1,8,0:0:0:0:
129,287,159345,6,0,L|143:382,1,89.9999976158143,8|8,0:1|0:1,0:0:0:0:
221,343,159514,2,0,L|201:205,1,135.000001573563,8|8,0:1|0:1,0:0:0:0:
27,110,159682,6,0,B|28:139|28:139|12:167|12:167|116:154|116:154|132:139|132:139|284:121|284:121|302:242,1,458.999996595383,12|0,0:1|0:0,0:0:0:0:
311,316,160019,5,12,0:1:0:0:
256,192,160103,12,10,162379,0:0:0:0:
1,313,162547,5,6,0:0:0:0:
15,348,162632,1,0,0:0:0:0:
75,322,162716,5,0,0:0:0:0:
116,315,162800,1,0,0:0:0:0:
152,346,162884,5,8,0:1:0:0:
179,358,162969,1,0,0:0:0:0:
231,332,163053,5,8,0:0:0:0:
286,309,163137,1,0,0:0:0:0:
352,312,163221,5,8,0:0:0:0:
384,354,163306,1,0,0:0:0:0:
427,368,163390,5,0,0:0:0:0:
450,346,163474,1,0,0:0:0:0:
492,293,163559,5,8,0:1:0:0:
483,261,163643,1,0,0:0:0:0:
476,181,163727,2,0,P|455:175|406:184,1,44.9999988079071,2|0,0:0|0:0,0:0:0:0:
366,53,163896,6,0,B|372:60|372:60|360:63|360:63|372:60|372:60|397:84|275:154|365:298,1,270.000003147125,2|8,0:0|0:0,0:0:0:0:
263,289,164148,2,0,B|203:300|203:300|213:311|213:311|96:300|91:383|169:377|134:304,1,215.999987686158,2|0,0:0|0:0,0:0:0:0:
113,238,164401,6,0,B|183:219|191:165|191:165|261:136,2,179.999995231629,2|2|2,0:0|0:0|0:0,0:0:0:0:
44,129,164907,1,8,0:1:0:0:
44,129,164991,2,0,B|36:168|70:156|70:156|16:232|34:287,1,179.999995231629,2|2,0:0|0:0,0:0:0:0:
439,219,165244,6,0,B|413:234|413:234|439:218|439:218|412:234|412:234|439:219|439:219|411:235|411:235|439:220|439:220|440:219|440:219|425:226|425:226|338:138|385:107|385:107|413:87|471:32|368:-59|291:-26|283:92|177:167|86:84|90:-47|194:12,1,764.999994325638,6|0,0:0|0:0,0:0:0:0:
46,352,165750,5,2,0:0:0:0:
81,331,165834,1,2,0:0:0:0:
121,277,165918,5,2,0:0:0:0:
113,238,166002,1,0,0:0:0:0:
124,187,166087,5,2,0:0:0:0:
153,167,166171,1,2,0:0:0:0:
186,175,166255,5,10,0:1:0:0:
224,216,166339,1,2,0:0:0:0:
290,182,166424,5,2,0:0:0:0:
319,174,166508,1,2,0:0:0:0:
350,181,166592,6,0,L|352:127,3,40.4999976911546,2|2|2|2,0:0|0:0|0:0|0:0,0:0:0:0:
463,49,166929,6,0,B|392:151|304:74|304:74|233:8|121:53|121:53|113:35|113:35|105:40|105:40|121:53|121:53|47:115|47:115|62:181|62:181|55:212|41:223|41:223|58:230|69:264|69:264|67:261|50:364|50:364|126:325|126:325|126:310|126:310|204:274|204:274|117:220|113:154|147:96|228:92|279:141|242:261|242:261|343:237|377:364|263:332|299:263,1,1485.00001730919,8|2,0:1|0:0,0:0:0:0:
20,29,167941,5,6,0:0:0:0:
23,73,168025,1,2,0:0:0:0:
79,70,168109,5,2,0:0:0:0:
113,66,168193,1,2,0:0:0:0:
169,85,168278,5,8,0:1:0:0:
203,118,168362,1,2,0:0:0:0:
233,158,168446,5,2,0:0:0:0:
294,173,168530,1,2,0:0:0:0:
376,182,168615,6,0,L|380:224,8,26.9999984607697,10|0|0|0|0|0|0|0|8,0:0|0:0|0:0|0:0|0:0|0:0|0:0|0:0|0:1,0:0:0:0:
457,225,169036,6,0,B|436:223|436:223|443:266|386:302|322:274|326:233,1,179.999995231629,2|2,0:0|0:0,0:0:0:0:
253,359,169289,2,0,B|253:317|253:317|247:309|247:309|246:261,1,89.9999976158143,2|0,0:0|0:0,0:0:0:0:
43,217,169457,6,0,B|70:200|70:200|52:205|52:205|121:209|121:209|127:173|189:139|269:197,2,270.000003147125,2|10|2,0:0|0:1|0:0,0:0:0:0:
53,34,169879,1,2,0:0:0:0:
53,34,169963,6,0,B|58:70|58:70|79:61|79:61|75:130|75:130|92:168|92:168|127:364|127:364|117:264|162:112|162:112|212:104|212:104|214:92|214:92|289:81,1,755.999956901552,2|8,0:0|0:0,0:0:0:0:
512,12,170637,5,10,0:1:0:0:
466,30,170721,1,2,0:0:0:0:
422,62,170806,5,2,0:0:0:0:
399,97,170890,1,2,0:0:0:0:
358,114,170974,5,8,0:1:0:0:
294,135,171059,1,2,0:0:0:0:
256,162,171143,6,0,L|263:248,1,62.9999964084627,2|2,0:0|0:0,0:0:0:0:
13,184,171312,5,8,0:1:0:0:
62,189,171396,1,2,0:0:0:0:
112,209,171481,5,2,0:0:0:0:
144,236,171565,1,2,0:0:0:0:
188,242,171649,5,8,0:1:0:0:
255,246,171734,1,2,0:0:0:0:
299,262,171818,6,0,L|314:346,1,62.9999964084627,2|2,0:0|0:0,0:0:0:0:
512,314,171986,5,8,0:1:0:0:
460,312,172070,1,2,0:0:0:0:
410,328,172155,5,2,0:0:0:0:
374,350,172239,1,2,0:0:0:0:
330,352,172323,5,8,0:1:0:0:
263,350,172408,1,2,0:0:0:0:
192,335,172491,5,2,0:0:0:0:
133,351,172575,1,2,0:0:0:0:
68,353,172828,5,0,0:0:0:0:
0,384,173081,5,2,0:0:0:0:
110,168,173334,6,0,B|149:140|241:179|256:241|98:408|130:203|29:185|-2:326|29:355,1,377.999978450776,12|0,0:1|0:0,0:0:0:0:
187,340,174682,6,0,B|279:312|300:220|249:132|249:132|313:162|369:101,1,377.999978450776,2|0,0:0|0:0,0:0:0:0:
502,206,176030,6,0,B|414:210|369:111|323:6|165:40,1,377.999978450776,2|0,0:0|0:0,0:0:0:0:
6,195,177379,6,0,B|90:222|156:141|235:45|374:110,1,377.999978450776,2|0,0:0|0:0,0:0:0:0:
453,124,178727,6,0,B|446:166|500:206|500:206|375:115|314:230|217:213,1,377.999978450776,2|0,0:0|0:0,0:0:0:0:
61,272,180075,6,0,B|50:318|17:357|17:357|96:297|139:291|139:291|183:354|267:328,1,377.999978450776,2|0,0:0|0:0,0:0:0:0:
262,212,181424,6,0,B|205:187|241:100|329:135|308:205|308:205|319:222|319:222|315:232|315:232|321:237|321:237|318:245|318:245|324:250|324:250|373:307|344:398,1,377.999978450776,2|0,0:0|0:0,0:0:0:0:
427,200,182772,6,0,B|401:160|429:134|460:105|446:87|446:87|369:103|328:58|328:58|321:-11|284:15|236:28|298:70,1,377.999978450776,2|0,0:0|0:0,0:0:0:0:
0,0,184120,5,0,0:0:0:0:
256,192,184205,12,0,187828,0:0:0:0:
96,369,188165,6,0,P|270:338|471:282,1,359.999990463257,12|8,0:1|0:0,0:0:0:0:
202,25,188671,6,0,P|141:191|89:393,1,359.999990463257,12|8,0:1|0:0,0:0:0:0:
446,289,189177,6,0,P|343:171|262:89,1,269.999992847443,12|0,0:1|0:0,0:0:0:0:
243,200,189514,6,0,P|232:250|211:315,1,107.999993843079,12|0,0:1|0:0,0:0:0:0:
319,276,189682,2,0,P|281:241|235:190,1,107.999993843079,0|0,0:0|0:0,0:0:0:0:
215,304,189851,6,0,P|263:288|330:274,1,107.999993843079,8|0,0:1|0:0,0:0:0:0:
162,124,190019,2,0,P|150:173|129:238,1,107.999993843079,2|0,0:0|0:0,0:0:0:0:
340,168,190188,6,0,P|302:133|256:82,1,107.999993843079,8|0,0:0|0:0,0:0:0:0:
110,331,190356,2,0,P|158:315|225:301,1,107.999993843079,8|0,0:0|0:0,0:0:0:0:
83,50,190525,6,0,P|71:99|51:164,1,107.999993843079,8|0,0:1|0:0,0:0:0:0:
200,357,190693,2,0,P|248:341|315:327,1,107.999993843079,0|0,0:0|0:0,0:0:0:0:
470,171,190862,6,0,P|379:75|330:7,2,215.999987686158,8|2|8,0:1|0:0|0:1,0:0:0:0:
404,222,191368,2,0,P|349:226|282:239,1,107.999993843079,2|0,0:0|0:0,0:0:0:0:
228,196,191536,6,0,P|292:85|332:-3,1,215.999987686158,8|8,0:0|0:0,0:0:0:0:
230,286,191789,1,0,0:0:0:0:
297,235,191873,6,0,P|333:264|396:315,1,107.999993843079,8|0,0:1|0:0,0:0:0:0:
230,286,192042,2,0,P|131:320|13:352,1,215.999987686158,12|0,0:1|0:0,0:0:0:0:
297,235,192379,6,0,P|361:124|401:35,2,215.999987686158,8|8|2,0:0|0:1|0:0,0:0:0:0:
231,283,192884,5,8,0:0:0:0:
128,322,193053,1,8,0:0:0:0:
23,349,193221,1,8,0:1:0:0:
231,283,193390,1,2,0:0:0:0:
231,283,193474,1,0,0:0:0:0:
231,283,193559,5,8,0:1:0:0:
23,349,193727,1,8,0:0:0:0:
128,322,193896,1,10,0:1:0:0:
23,349,194064,1,2,0:0:0:0:
128,322,194233,5,10,0:0:0:0:
228,283,194401,1,8,0:0:0:0:
23,349,194570,1,8,0:1:0:0:
128,322,194738,2,0,P|138:256|153:191,1,107.999993843079,2|0,0:0|0:0,0:0:0:0:
69,136,194907,6,0,P|147:203|230:285,1,215.999987686158,12|0,0:1|0:0,0:0:0:0:
275,71,195244,2,0,P|177:105|65:135,1,215.999987686158,8|2,0:1|0:0,0:0:0:0:
227,282,195581,6,0,P|236:223|247:175,1,107.999993843079,8|0,0:0|0:0,0:0:0:0:
275,71,195750,2,0,P|229:88|156:112,1,107.999993843079,8|0,0:0|0:0,0:0:0:0:
69,136,195918,6,0,P|147:203|230:285,1,215.999987686158,10|2,0:1|0:0,0:0:0:0:
324,360,196255,6,0,P|377:142|419:43,1,323.999981529237,12|0,0:1|0:0,0:0:0:0:
467,303,196592,2,0,P|419:319|345:338,1,107.999993843079,8|0,0:1|0:0,0:0:0:0:
202,68,196761,6,0,P|448:283|513:369,1,431.999975372315,12|8,0:1|0:0,0:0:0:0:
291,253,197182,1,0,0:0:0:0:
291,253,197266,2,0,P|165:152|30:63,1,323.999981529237,8|0,0:1|0:0,0:0:0:0:
87,363,197603,6,0,P|96:205|126:19,1,323.999981529237,12|8,0:1|0:1,0:0:0:0:
210,42,198109,2,0,P|245:69|286:105,1,80.9999953823091,0|0,0:0|0:0,0:0:0:0:
333,189,198278,6,0,P|214:216|83:229,1,242.999986146927,12|8,0:1|0:0,0:0:0:0:
365,113,198615,6,0,P|378:52|409:-25,1,80.9999953823091,8|8,0:1|0:0,0:0:0:0:
419,176,198783,2,0,P|464:254|512:350,1,179.999995231629,12|2,0:1|0:0,0:0:0:0:
333,189,199120,1,8,0:0:0:0:
213,216,199289,5,8,0:1:0:0:
93,228,199457,1,2,0:0:0:0:
333,189,199626,1,8,0:1:0:0:
93,228,199794,1,8,0:0:0:0:
213,216,199963,5,8,0:1:0:0:
93,228,200131,1,2,0:0:0:0:
333,189,200300,6,0,P|214:216|83:229,1,179.999995231629,12|0,0:1|0:0,0:0:0:0:
93,228,200553,1,0,0:0:0:0:
93,228,200637,2,0,P|175:317|252:424,1,179.999995231629,8|2,0:1|0:0,0:0:0:0:
333,189,200974,6,0,P|288:203|241:211,1,89.9999976158143,8|0,0:0|0:0,0:0:0:0:
93,228,201143,2,0,P|126:263|163:305,1,89.9999976158143,8|0,0:0|0:0,0:0:0:0:
211,363,201311,6,0,P|247:246|301:126,1,179.999995231629,8|0,0:1|0:0,0:0:0:0:
461,25,201648,6,0,P|269:46|22:59,1,431.999975372315,12|8,0:1|0:1,0:0:0:0:
323,114,202154,1,2,0:0:0:0:
37,162,202323,6,0,P|140:158|255:150,1,215.999987686158,8|8,0:0|0:0,0:0:0:0:
348,363,202575,1,0,0:0:0:0:
348,363,202660,6,0,P|293:275|278:253,1,107.999993843079,8|0,0:1|0:0,0:0:0:0:
461,25,202828,2,0,P|412:116|362:219,2,215.999987686158,12|0|8,0:1|0:0|0:0,0:0:0:0:
67,27,203334,6,0,P|170:23|285:14,1,215.999987686158,12|8,0:1|0:0,0:0:0:0:
266,367,203587,1,0,0:0:0:0:
266,367,203671,6,0,P|211:279|146:184,1,215.999987686158,12|8,0:1|0:0,0:0:0:0:
25,256,203924,1,0,0:0:0:0:
48,330,204008,6,0,P|97:332|155:327,1,107.999993843079,8|0,0:1|0:0,0:0:0:0:
123,64,204177,2,0,P|74:155|24:258,1,215.999987686158,12|0,0:1|0:0,0:0:0:0:
266,367,204514,1,8,0:0:0:0:
147,186,204682,5,8,0:1:0:0:
208,276,204851,1,2,0:0:0:0:
147,186,205019,5,8,0:0:0:0:
266,367,205188,1,8,0:0:0:0:
147,186,205356,1,8,0:1:0:0:
208,276,205525,2,0,P|270:255|337:243,1,107.999993843079,2|0,0:0|0:0,0:0:0:0:
325,9,205693,6,0,P|312:73|263:233,1,215.999987686158,12|2,0:1|0:0,0:0:0:0:
429,344,205946,1,0,0:0:0:0:
467,346,206030,6,0,P|417:302|304:180,1,215.999987686158,8|2,0:1|0:0,0:0:0:0:
229,130,206283,1,0,0:0:0:0:
229,130,206368,6,0,P|280:110|358:89,1,107.999993843079,12|0,0:1|0:0,0:0:0:0:
485,8,206536,2,0,P|476:62|456:140,1,107.999993843079,8|0,0:0|0:0,0:0:0:0:
102,105,206705,6,0,P|247:34|406:3,1,323.999981529237,8|0,0:1|0:0,0:0:0:0:
280,378,207042,6,0,P|146:287|39:166,1,323.999981529237,12|8,0:1|0:1,0:0:0:0:
229,130,207379,6,0,P|280:110|358:89,1,107.999993843079,8|0,0:0|0:0,0:0:0:0:
477,49,207547,2,0,P|465:210|413:363,1,323.999981529237,10|0,0:1|0:0,0:0:0:0:
39,166,207884,6,0,P|69:205|114:258,1,107.999993843079,8|8,0:1|0:1,0:0:0:0:
111,120,208053,2,0,P|142:160|188:213,1,107.999993843079,8|8,0:1|0:1,0:0:0:0:
352,332,208221,6,0,P|218:241|111:120,1,323.999981529237,12|0,0:1|0:0,0:0:0:0:
352,332,208559,2,0,P|403:302|459:283,1,107.999993843079,12|0,0:1|0:0,0:0:0:0:
216,237,208727,5,8,0:1:0:0:
111,120,208896,1,8,0:0:0:0:
352,332,209064,5,8,0:1:0:0:
111,120,209233,1,2,0:0:0:0:
352,332,209401,1,8,0:0:0:0:
216,237,209570,1,2,0:0:0:0:
111,120,209738,6,0,P|170:116|234:107,1,107.999993843079,10|0,0:1|0:0,0:0:0:0:
155,21,209907,2,0,P|129:74|105:133,1,107.999993843079,2|0,0:0|0:0,0:0:0:0:
218,109,210075,6,0,P|184:60|145:9,1,107.999993843079,8|8,0:1|0:0,0:0:0:0:
232,201,210244,2,0,P|206:254|182:313,1,107.999993843079,8|8,0:0|0:0,0:0:0:0:
305,143,210412,6,0,P|363:138|427:129,1,107.999993843079,10|8,0:0|0:0,0:0:0:0:
456,33,210581,2,0,P|430:86|406:145,1,107.999993843079,8|0,0:0|0:0,0:0:0:0:
512,284,210750,6,0,P|478:235|439:184,1,107.999993843079,8|0,0:1|0:0,0:0:0:0:
299,369,210918,2,0,P|357:364|421:355,1,107.999993843079,2|0,0:0|0:0,0:0:0:0:
356,276,211087,6,0,P|213:297|70:307,1,287.999992370606,12|2,0:1|0:0,0:0:0:0:
70,307,211761,6,0,P|223:296|285:288,1,215.999994277954,10|0,0:1|0:0,0:0:0:0:
356,276,212098,2,0,P|213:297|133:305,1,215.999994277954,10|0,0:1|0:0,0:0:0:0:
62,205,212435,6,0,P|215:194|426:159,1,359.999990463257,10|0,0:1|0:0,0:0:0:0:
476,45,212941,6,0,P|409:183|333:383,1,359.999990463257,2|8,0:0|0:0,0:0:0:0:
336,376,213446,6,0,P|304:329|264:280,1,71.9999980926514,8|8,0:1|0:1,0:0:0:0:
62,205,213615,6,0,P|215:194|424:161,1,350.999974634172,12|0,0:1|0:0,0:0:0:0:
122,87,213952,6,0,P|55:225|-18:418,1,270.000003147125,12|8,0:1|0:1,0:0:0:0:
122,87,214205,1,0,0:0:0:0:
122,87,214289,6,0,P|91:43|61:10,1,71.9999980926514,8|8,0:0|0:0,0:0:0:0:
79,29,214457,6,0,P|132:24|176:14,1,71.9999980926514,10|0,0:0|0:0,0:0:0:0:
150,20,214626,2,0,P|127:68|113:111,1,71.9999980926514,8|8,0:0|0:0,0:0:0:0:
170,159,214794,6,0,P|223:154|267:144,1,71.9999980926514,10|0,0:0|0:0,0:0:0:0:
281,73,214963,2,0,P|250:28|220:-4,1,71.9999980926514,8|8,0:0|0:0,0:0:0:0:
157,268,215132,6,0,P|210:263|254:253,1,71.9999980926514,10|10,0:0|0:0,0:0:0:0:
50,63,215300,2,0,P|27:111|13:154,1,71.9999980926514,10|8,0:0|0:0,0:0:0:0:
388,75,215469,6,0,P|357:31|327:-1,1,71.9999980926514,10|0,0:0|0:0,0:0:0:0:
208,361,215637,2,0,P|261:356|305:346,1,71.9999980926514,8|8,0:0|0:0,0:0:0:0:
333,139,215806,6,0,P|310:187|296:230,1,71.9999980926514,10|0,0:1|0:0,0:0:0:0:
462,358,215974,2,0,P|431:314|401:281,1,71.9999980926514,8|8,0:0|0:0,0:0:0:0:
78,293,216143,6,0,P|131:288|175:278,1,71.9999980926514,10|0,0:1|0:0,0:0:0:0:
327,0,216311,2,0,P|304:48|290:91,1,71.9999980926514,2|0,0:0|0:0,0:0:0:0:
267,358,216480,5,12,0:1:0:0:
267,358,216564,1,0,0:0:0:0:
267,358,216648,1,2,0:0:0:0:
267,358,216733,1,0,0:0:0:0:
267,358,216817,5,10,0:1:0:0:
256,334,216901,1,0,0:0:0:0:
246,309,216985,1,2,0:0:0:0:
235,284,217069,1,0,0:0:0:0:
224,259,217154,5,10,0:1:0:0:
186,296,217238,1,0,0:0:0:0:
135,307,217322,1,2,0:0:0:0:
85,288,217407,1,0,0:0:0:0:
53,246,217491,1,8,0:1:0:0:
50,192,217575,1,0,0:0:0:0:
76,145,217659,1,2,0:0:0:0:
122,120,217743,1,0,0:0:0:0:
176,124,217828,6,0,B|222:141|222:141|406:110,1,215.999987686158,10|0,0:1|0:0,0:0:0:0:
466,139,218165,6,0,L|472:18,1,107.999993843079,10|0,0:1|0:0,0:0:0:0:
316,17,218334,2,0,B|272:34|272:34|326:215,1,215.999987686158,2|8,0:0|0:1,0:0:0:0:
491,258,218671,1,2,0:0:0:0:
491,258,218839,6,0,L|277:226,1,215.999987686158,10|0,0:1|0:0,0:0:0:0:
41,344,219177,5,10,0:1:0:0:
41,344,219261,1,0,0:0:0:0:
41,344,219345,1,2,0:0:0:0:
41,344,219429,1,0,0:0:0:0:
41,344,219514,5,10,0:1:0:0:
67,343,219598,1,0,0:0:0:0:
94,342,219682,1,2,0:0:0:0:
121,341,219766,1,0,0:0:0:0:
150,343,219851,5,10,0:1:0:0:
148,289,219935,1,0,0:0:0:0:
172,242,220019,1,2,0:0:0:0:
217,212,220103,1,0,0:0:0:0:
270,208,220188,1,8,0:1:0:0:
319,230,220272,1,0,0:0:0:0:
350,273,220356,1,2,0:0:0:0:
357,326,220440,1,0,0:0:0:0:
338,375,220525,6,0,L|320:72,1,215.999987686158,10|0,0:1|0:0,0:0:0:0:
386,35,220862,6,0,B|418:85|418:85|398:173,1,107.999993843079,10|0,0:1|0:0,0:0:0:0:
325,160,221030,2,0,L|109:168,1,215.999987686158,2|8,0:0|0:1,0:0:0:0:
181,30,221368,1,2,0:0:0:0:
181,30,221536,6,0,B|167:78|167:78|190:270,1,215.999987686158,8|2,0:1|0:0,0:0:0:0:
134,364,221873,5,8,0:1:0:0:
168,359,221957,1,0,0:0:0:0:
201,354,222041,1,2,0:0:0:0:
235,349,222125,1,0,0:0:0:0:
268,344,222210,5,10,0:1:0:0:
263,310,222294,1,0,0:0:0:0:
258,277,222378,1,2,0:0:0:0:
253,243,222462,1,0,0:0:0:0:
248,210,222547,5,10,0:1:0:0:
226,164,222631,1,0,0:0:0:0:
224,114,222715,1,2,0:0:0:0:
242,67,222799,1,0,0:0:0:0:
277,31,222884,1,8,0:1:0:0:
324,12,222968,1,0,0:0:0:0:
374,14,223052,1,2,0:0:0:0:
420,35,223136,1,0,0:0:0:0:
453,72,223221,6,0,B|368:201|535:175|468:337,1,270.000003147125,10|2,0:1|0:0,0:0:0:0:
367,372,223559,6,0,P|359:297|427:277,1,135.000001573563,10|0,0:1|0:0,0:0:0:0:
324,222,223727,2,0,P|339:122|288:231,1,270.000003147125,2|8,0:0|0:1,0:0:0:0:
64,134,224064,1,2,0:0:0:0:
64,134,224233,6,0,B|52:76|52:76|43:27|83:3|133:8|143:56|143:56|156:121,1,270.000003147125,10|0,0:1|0:0,0:0:0:0:
306,26,224570,5,8,0:1:0:0:
303,59,224654,1,0,0:0:0:0:
300,93,224738,1,8,0:0:0:0:
298,126,224822,1,8,0:0:0:0:
295,160,224907,5,8,0:1:0:0:
298,193,224991,1,0,0:0:0:0:
301,227,225075,1,8,0:0:0:0:
303,260,225159,1,8,0:0:0:0:
306,294,225244,5,8,0:1:0:0:
291,341,225328,1,0,0:0:0:0:
255,377,225412,1,8,0:0:0:0:
207,391,225496,1,8,0:0:0:0:
158,380,225581,1,8,0:1:0:0:
119,348,225665,1,0,0:0:0:0:
101,302,225749,1,8,0:0:0:0:
106,252,225833,1,0,0:0:0:0:
135,211,225918,5,8,0:1:0:0:
140,258,226002,1,8,0:0:0:0:
159,302,226086,1,8,0:0:0:0:
189,338,226170,1,8,0:0:0:0:
228,365,226255,1,8,0:1:0:0:
274,379,226339,1,8,0:0:0:0:
321,379,226423,1,8,0:0:0:0:
367,366,226507,1,8,0:0:0:0:
407,341,226592,5,8,0:1:0:0:
340,350,226676,1,0,0:0:0:0:
274,338,226760,1,8,0:1:0:0:
216,304,226844,1,8,0:0:0:0:
173,253,226929,1,8,0:1:0:0:
148,191,227013,1,0,0:0:0:0:
145,123,227097,1,8,0:1:0:0:
165,59,227181,1,8,0:1:0:0:
205,5,227266,5,12,0:1:0:0:
215,134,227435,1,10,0:1:0:0:
322,183,227603,1,2,0:0:0:0:
440,173,227772,1,2,0:0:0:0:
262,168,227941,6,0,L|271:434,2,179.999995231629,10|10|8,0:1|0:0|0:1,0:0:0:0:
182,200,228446,1,10,0:0:0:0:
152,283,228615,5,10,0:1:0:0:
43,228,228783,1,8,0:0:0:0:
0,126,228952,1,10,0:1:0:0:
11,379,229120,5,12,0:1:0:0:
