osu file format v14

[General]
AudioFilename: audio.mp3
AudioLeadIn: 0
PreviewTime: 49913
Countdown: 0
SampleSet: Normal
StackLeniency: 0.7
Mode: 1
LetterboxInBreaks: 0
WidescreenStoryboard: 1

[Editor]
Bookmarks: 7509,22278,37048,81355,110894
DistanceSpacing: 1.9
BeatDivisor: 4
GridSize: 32
TimelineZoom: 1.100001

[Metadata]
Title:That That (prod. & feat. SUGA of BTS)
TitleUnicode:That That (prod. & feat. SUGA of BTS)
Artist:PSY
ArtistUnicode:PSY
Creator:BlackBN
Version:Muzukashii
Source:
Tags:BlackBq korean kpop k-pop pop idol 싸이 싸다9 ssada nine 9th 박재상 Park Jae-sang jaesang 민윤기 Min Yoon-gi yoongi 방탄소년단 bangtan sonyeondan 피네이션 pnation dance ft.
BeatmapID:3969574
BeatmapSetID:1922258

[Difficulty]
HPDrainRate:6.5
CircleSize:2
OverallDifficulty:4.5
ApproachRate:10
SliderMultiplier:1.4
SliderTickRate:1

[Events]
//Background and Video events
0,0,"that.jpg",0,80
Video,0,"that.mp4"
//Break Periods
//Storyboard Layer 0 (Background)
//Storyboard Layer 1 (Fail)
//Storyboard Layer 2 (Pass)
//Storyboard Layer 3 (Foreground)
//Storyboard Layer 4 (Overlay)
//Storyboard Sound Samples

[TimingPoints]
125,461.538461538462,4,1,0,75,1,0
125,-100,4,1,0,75,0,0
7450,-100,4,1,0,80,0,0
35085,-100,4,1,0,75,0,0
36700,-100,4,1,0,70,0,0
36931,-100,4,1,0,60,0,0
44085,-100,4,1,0,65,0,0
44316,-100,4,1,0,70,0,0
49912,-100,4,1,0,75,0,0
51008,-100,4,1,0,80,0,0
51817,-100,4,1,0,85,0,1
66125,-100,4,1,0,85,0,0
66586,-100,4,1,0,85,0,1
79393,-100,4,1,0,80,0,1
79509,-100,4,1,0,75,0,0
80316,-100,4,1,0,40,0,0
81239,-100,4,1,0,80,0,0
108931,-100,4,1,0,75,0,0
109854,-100,4,1,0,70,0,0
110777,-100,4,1,0,60,0,0
117931,-100,4,1,0,65,0,0
118162,-100,4,1,0,70,0,0
123758,-100,4,1,0,75,0,0
124854,-100,4,1,0,80,0,0
125663,-100,4,1,0,85,0,1
139971,-100,4,1,0,85,0,0
140432,-100,4,1,0,85,0,1
154740,-100,4,1,0,85,0,0
155201,-100,4,1,0,85,0,1
162125,-100,4,1,0,85,0,0
162586,-100,4,1,0,85,0,1
169971,-100,4,1,0,85,0,0

[HitObjects]
256,192,125,5,0,0:0:0:0:
256,192,471,1,0,0:0:0:0:
256,192,817,1,0,0:0:0:0:
256,192,1048,1,8,0:0:0:0:
256,192,1509,1,8,0:0:0:0:
256,192,1971,1,0,0:0:0:0:
256,192,2317,1,0,0:0:0:0:
256,192,2663,1,8,0:0:0:0:
256,192,2894,1,0,0:0:0:0:
256,192,3125,1,0,0:0:0:0:
256,192,3355,1,8,0:0:0:0:
256,192,3586,1,8,0:0:0:0:
256,192,3817,1,0,0:0:0:0:
256,192,4163,1,0,0:0:0:0:
256,192,4509,1,0,0:0:0:0:
256,192,4740,1,8,0:0:0:0:
256,192,5201,1,8,0:0:0:0:
256,192,5432,1,8,0:0:0:0:
256,192,5663,1,0,0:0:0:0:
256,192,6125,1,0,0:0:0:0:
256,192,6586,1,0,0:0:0:0:
256,192,6701,1,0,0:0:0:0:
256,192,6817,1,0,0:0:0:0:
256,192,7048,1,8,0:0:0:0:
256,192,7278,1,8,0:0:0:0:
384,96,7509,1,4,0:0:0:0:
256,192,8201,1,8,0:0:0:0:
256,192,8432,1,8,0:0:0:0:
256,192,8663,1,0,0:0:0:0:
256,192,8894,1,0,0:0:0:0:
256,192,9125,1,8,0:0:0:0:
256,192,9355,1,0,0:0:0:0:
256,192,10048,1,8,0:0:0:0:
256,192,10163,1,8,0:0:0:0:
256,192,10278,1,8,0:0:0:0:
256,192,10509,1,0,0:0:0:0:
256,192,10740,1,8,0:0:0:0:
256,192,10971,1,8,0:0:0:0:
256,192,11201,1,0,0:0:0:0:
256,192,11663,1,0,0:0:0:0:
256,192,11778,1,0,0:0:0:0:
256,192,11894,1,0,0:0:0:0:
256,192,12125,1,8,0:0:0:0:
256,192,12355,1,8,0:0:0:0:
256,192,12586,1,0,0:0:0:0:
256,192,13048,1,8,0:0:0:0:
256,192,13163,1,8,0:0:0:0:
256,192,13278,1,8,0:0:0:0:
256,192,13509,1,0,0:0:0:0:
256,192,13740,1,8,0:0:0:0:
256,192,13971,1,0,0:0:0:0:
256,192,14201,1,0,0:0:0:0:
256,192,14432,1,8,0:0:0:0:
256,192,14663,1,8,0:0:0:0:
384,96,14894,1,4,0:0:0:0:
256,192,15586,1,8,0:0:0:0:
256,192,15817,1,0,0:0:0:0:
256,192,16048,1,0,0:0:0:0:
256,192,16278,1,8,0:0:0:0:
256,192,16509,1,8,0:0:0:0:
256,192,16740,1,0,0:0:0:0:
256,192,17432,1,0,0:0:0:0:
256,192,17548,1,0,0:0:0:0:
256,192,17663,1,0,0:0:0:0:
256,192,17894,1,0,0:0:0:0:
256,192,18125,1,8,0:0:0:0:
256,192,18355,1,8,0:0:0:0:
256,192,18586,1,0,0:0:0:0:
256,192,19278,1,8,0:0:0:0:
256,192,19394,1,8,0:0:0:0:
256,192,19509,1,8,0:0:0:0:
256,192,19740,1,0,0:0:0:0:
256,192,19971,1,0,0:0:0:0:
256,192,20201,1,8,0:0:0:0:
256,192,20432,1,0,0:0:0:0:
256,192,20894,1,8,0:0:0:0:
256,192,21125,1,8,0:0:0:0:
256,192,21355,1,0,0:0:0:0:
256,192,21586,1,0,0:0:0:0:
256,192,21817,1,8,0:0:0:0:
384,96,22278,1,12,0:0:0:0:
256,192,22625,1,8,0:0:0:0:
256,192,22971,1,0,0:0:0:0:
256,192,23086,1,0,0:0:0:0:
256,192,23201,1,0,0:0:0:0:
256,192,24125,1,0,0:0:0:0:
256,192,24471,1,8,0:0:0:0:
256,192,24817,1,0,0:0:0:0:
256,192,24932,1,0,0:0:0:0:
256,192,25048,1,0,0:0:0:0:
256,192,25509,1,0,0:0:0:0:
256,192,25740,1,0,0:0:0:0:
256,192,25971,1,8,0:0:0:0:
256,192,26317,1,8,0:0:0:0:
256,192,26663,1,0,0:0:0:0:
256,192,26778,1,0,0:0:0:0:
256,192,26894,1,0,0:0:0:0:
256,192,27355,1,8,0:0:0:0:
256,192,27471,1,8,0:0:0:0:
256,192,27586,1,8,0:0:0:0:
256,192,27817,1,0,0:0:0:0:
256,192,28163,1,8,0:0:0:0:
256,192,28509,1,8,0:0:0:0:
256,192,28625,1,8,0:0:0:0:
256,192,28740,1,8,0:0:0:0:
256,192,29201,1,0,0:0:0:0:
256,192,29432,1,8,0:0:0:0:
384,96,29663,1,4,0:0:0:0:
256,192,30009,1,0,0:0:0:0:
256,192,30355,1,8,0:0:0:0:
256,192,31048,1,8,0:0:0:0:
256,192,31278,1,8,0:0:0:0:
256,192,31509,1,0,0:0:0:0:
256,192,31855,1,0,0:0:0:0:
256,192,32201,1,8,0:0:0:0:
256,192,32894,1,8,0:0:0:0:
256,192,33125,1,0,0:0:0:0:
256,192,33355,1,0,0:0:0:0:
256,192,33471,1,8,0:0:0:0:
256,192,33817,1,8,0:0:0:0:
256,192,33932,1,8,0:0:0:0:
256,192,34278,1,8,0:0:0:0:
256,192,34509,1,0,0:0:0:0:
256,192,34625,1,0,0:0:0:0:
256,192,34740,1,0,0:0:0:0:
256,192,35663,1,0,0:0:0:0:
256,192,35894,1,8,0:0:0:0:
256,192,36125,1,8,0:0:0:0:
256,192,36586,1,0,0:0:0:0:
256,192,36817,1,8,0:0:0:0:
256,192,37048,1,0,0:0:0:0:
256,192,38894,1,0,0:0:0:0:
256,192,40740,1,8,0:0:0:0:
256,192,42125,1,0,0:0:0:0:
256,192,42586,1,0,0:0:0:0:
256,192,44201,1,0,0:0:0:0:
256,192,44432,1,0,0:0:0:0:
256,192,44894,1,8,0:0:0:0:
256,192,45125,1,0,0:0:0:0:
256,192,45586,1,0,0:0:0:0:
256,192,45817,1,8,0:0:0:0:
256,192,46048,1,8,0:0:0:0:
256,192,46278,1,0,0:0:0:0:
256,192,46740,1,8,0:0:0:0:
256,192,46971,1,0,0:0:0:0:
256,192,47432,1,0,0:0:0:0:
256,192,47663,1,8,0:0:0:0:
256,192,47778,1,0,0:0:0:0:
256,192,48125,1,0,0:0:0:0:
256,192,48355,1,0,0:0:0:0:
256,192,48586,1,8,0:0:0:0:
256,192,48817,1,8,0:0:0:0:
256,192,49278,1,0,0:0:0:0:
256,192,49509,1,8,0:0:0:0:
256,192,49740,1,0,0:0:0:0:
256,192,49855,1,0,0:0:0:0:
256,192,49971,1,0,0:0:0:0:
256,192,50432,1,0,0:0:0:0:
256,192,50894,1,0,0:0:0:0:
256,192,51125,1,8,0:0:0:0:
256,192,51240,1,8,0:0:0:0:
256,192,51355,1,8,0:0:0:0:
256,192,51586,1,8,0:0:0:0:
384,96,51817,1,4,0:0:0:0:
384,96,52509,1,12,0:0:0:0:
256,192,52740,1,0,0:0:0:0:
256,192,52971,1,0,0:0:0:0:
256,192,53086,1,0,0:0:0:0:
256,192,53201,1,0,0:0:0:0:
256,192,53432,1,8,0:0:0:0:
256,192,53663,1,0,0:0:0:0:
384,96,54355,1,12,0:0:0:0:
256,192,54586,1,0,0:0:0:0:
256,192,54817,1,8,0:0:0:0:
256,192,54932,1,8,0:0:0:0:
256,192,55048,1,8,0:0:0:0:
256,192,55278,1,8,0:0:0:0:
256,192,55509,1,0,0:0:0:0:
256,192,55740,1,8,0:0:0:0:
256,192,56201,1,8,0:0:0:0:
256,192,56432,1,0,0:0:0:0:
256,192,56663,1,0,0:0:0:0:
256,192,56894,1,8,0:0:0:0:
256,192,57125,1,8,0:0:0:0:
256,192,57355,1,0,0:0:0:0:
256,192,57586,1,8,0:0:0:0:
256,192,58048,1,0,0:0:0:0:
256,192,58278,1,8,0:0:0:0:
256,192,58509,1,8,0:0:0:0:
256,192,58625,1,8,0:0:0:0:
256,192,58740,1,8,0:0:0:0:
256,192,58971,1,0,0:0:0:0:
384,96,59201,1,12,0:0:0:0:
256,192,59894,1,0,0:0:0:0:
256,192,60355,1,0,0:0:0:0:
256,192,60586,1,8,0:0:0:0:
256,192,61048,1,0,0:0:0:0:
256,192,61278,1,0,0:0:0:0:
256,192,61394,1,0,0:0:0:0:
256,192,61509,1,0,0:0:0:0:
256,192,61740,1,8,0:0:0:0:
256,192,61971,1,0,0:0:0:0:
256,192,62201,1,8,0:0:0:0:
256,192,62432,1,0,0:0:0:0:
256,192,62663,1,0,0:0:0:0:
256,192,62894,1,8,0:0:0:0:
256,192,63586,1,8,0:0:0:0:
256,192,64048,1,0,0:0:0:0:
256,192,64278,1,8,0:0:0:0:
256,192,64740,1,0,0:0:0:0:
256,192,64971,1,0,0:0:0:0:
256,192,65086,1,0,0:0:0:0:
256,192,65201,1,0,0:0:0:0:
256,192,65432,1,8,0:0:0:0:
256,192,65663,1,0,0:0:0:0:
256,192,65894,1,0,0:0:0:0:
256,192,66125,1,8,0:0:0:0:
256,192,66355,1,8,0:0:0:0:
384,96,66586,1,4,0:0:0:0:
256,192,66932,1,0,0:0:0:0:
256,192,67278,1,0,0:0:0:0:
256,192,67509,1,8,0:0:0:0:
256,192,67740,1,0,0:0:0:0:
256,192,68432,1,0,0:0:0:0:
256,192,68778,1,0,0:0:0:0:
256,192,69125,1,0,0:0:0:0:
256,192,69355,1,8,0:0:0:0:
256,192,69586,1,0,0:0:0:0:
256,192,69817,1,8,0:0:0:0:
256,192,70048,1,8,0:0:0:0:
256,192,70278,1,0,0:0:0:0:
256,192,70625,1,0,0:0:0:0:
256,192,70971,1,0,0:0:0:0:
256,192,71201,1,8,0:0:0:0:
256,192,71432,1,0,0:0:0:0:
256,192,72125,1,8,0:0:0:0:
256,192,72471,1,0,0:0:0:0:
256,192,72817,1,8,0:0:0:0:
256,192,73278,1,0,0:0:0:0:
256,192,73509,1,8,0:0:0:0:
256,192,73625,1,8,0:0:0:0:
256,192,73740,1,8,0:0:0:0:
384,96,73971,1,4,0:0:0:0:
256,192,74317,1,0,0:0:0:0:
256,192,74663,1,0,0:0:0:0:
256,192,74894,1,8,0:0:0:0:
256,192,75125,1,8,0:0:0:0:
256,192,75817,1,0,0:0:0:0:
256,192,76163,1,0,0:0:0:0:
256,192,76509,1,0,0:0:0:0:
256,192,76740,1,8,0:0:0:0:
256,192,76971,1,8,0:0:0:0:
256,192,77201,1,0,0:0:0:0:
256,192,77432,1,8,0:0:0:0:
256,192,77663,1,0,0:0:0:0:
256,192,78009,1,0,0:0:0:0:
256,192,78355,1,0,0:0:0:0:
256,192,78586,1,8,0:0:0:0:
256,192,78817,1,8,0:0:0:0:
256,192,79509,1,8,0:0:0:0:
256,192,79855,1,8,0:0:0:0:
256,192,80201,1,8,0:0:0:0:
384,96,81355,1,4,0:0:0:0:
256,192,81586,1,8,0:0:0:0:
256,192,81817,1,0,0:0:0:0:
256,192,82048,1,0,0:0:0:0:
256,192,82163,1,0,0:0:0:0:
256,192,82278,1,0,0:0:0:0:
256,192,82509,1,8,0:0:0:0:
256,192,82740,1,0,0:0:0:0:
256,192,83201,1,0,0:0:0:0:
256,192,83548,1,0,0:0:0:0:
256,192,83894,1,0,0:0:0:0:
256,192,84125,1,8,0:0:0:0:
256,192,84355,1,0,0:0:0:0:
256,192,85048,1,0,0:0:0:0:
256,192,85278,1,0,0:0:0:0:
256,192,85394,1,0,0:0:0:0:
256,192,85509,1,0,0:0:0:0:
256,192,85740,1,0,0:0:0:0:
256,192,85971,1,8,0:0:0:0:
256,192,86201,1,8,0:0:0:0:
256,192,86317,1,8,0:0:0:0:
256,192,86432,1,8,0:0:0:0:
256,192,86894,1,0,0:0:0:0:
256,192,87240,1,0,0:0:0:0:
256,192,87586,1,0,0:0:0:0:
256,192,87817,1,8,0:0:0:0:
256,192,88048,1,0,0:0:0:0:
384,96,88740,1,4,0:0:0:0:
256,192,88971,1,8,0:0:0:0:
256,192,89086,1,8,0:0:0:0:
256,192,89201,1,8,0:0:0:0:
256,192,89432,1,0,0:0:0:0:
256,192,89663,1,8,0:0:0:0:
256,192,89894,1,0,0:0:0:0:
256,192,90009,1,0,0:0:0:0:
256,192,90125,1,0,0:0:0:0:
256,192,90586,1,0,0:0:0:0:
256,192,90932,1,0,0:0:0:0:
256,192,91278,1,0,0:0:0:0:
256,192,91509,1,8,0:0:0:0:
256,192,91740,1,0,0:0:0:0:
256,192,92432,1,0,0:0:0:0:
256,192,92663,1,8,0:0:0:0:
256,192,92778,1,8,0:0:0:0:
256,192,92894,1,8,0:0:0:0:
256,192,93125,1,0,0:0:0:0:
256,192,93355,1,8,0:0:0:0:
256,192,93586,1,0,0:0:0:0:
256,192,93701,1,0,0:0:0:0:
256,192,93817,1,0,0:0:0:0:
256,192,94278,1,8,0:0:0:0:
256,192,94509,1,0,0:0:0:0:
256,192,94625,1,0,0:0:0:0:
256,192,94855,1,8,0:0:0:0:
256,192,94971,1,8,0:0:0:0:
256,192,95201,1,0,0:0:0:0:
256,192,95663,1,8,0:0:0:0:
384,96,96125,1,12,0:0:0:0:
256,192,96355,1,8,0:0:0:0:
256,192,96471,1,8,0:0:0:0:
256,192,96586,1,8,0:0:0:0:
256,192,96817,1,8,0:0:0:0:
256,192,97278,1,0,0:0:0:0:
256,192,97509,1,8,0:0:0:0:
256,192,97971,1,0,0:0:0:0:
256,192,98201,1,8,0:0:0:0:
256,192,98317,1,8,0:0:0:0:
256,192,98432,1,8,0:0:0:0:
256,192,98663,1,8,0:0:0:0:
256,192,99355,1,8,0:0:0:0:
256,192,99817,1,0,0:0:0:0:
256,192,100048,1,0,0:0:0:0:
256,192,100163,1,0,0:0:0:0:
256,192,100278,1,0,0:0:0:0:
256,192,100509,1,0,0:0:0:0:
256,192,100740,1,8,0:0:0:0:
256,192,100971,1,8,0:0:0:0:
256,192,101201,1,0,0:0:0:0:
256,192,101663,1,0,0:0:0:0:
256,192,101894,1,8,0:0:0:0:
256,192,102009,1,8,0:0:0:0:
256,192,102125,1,8,0:0:0:0:
256,192,102355,1,8,0:0:0:0:
256,192,102817,1,8,0:0:0:0:
256,192,103048,1,0,0:0:0:0:
256,192,103163,1,0,0:0:0:0:
256,192,103278,1,0,0:0:0:0:
384,96,103509,1,12,0:0:0:0:
256,192,103971,1,8,0:0:0:0:
256,192,104432,1,8,0:0:0:0:
256,192,104894,1,8,0:0:0:0:
256,192,105125,1,8,0:0:0:0:
256,192,105355,1,0,0:0:0:0:
256,192,105586,1,0,0:0:0:0:
256,192,105701,1,0,0:0:0:0:
256,192,105817,1,0,0:0:0:0:
256,192,106048,1,0,0:0:0:0:
256,192,106163,1,8,0:0:0:0:
256,192,106394,1,8,0:0:0:0:
256,192,106509,1,0,0:0:0:0:
256,192,106740,1,8,0:0:0:0:
256,192,106971,1,0,0:0:0:0:
256,192,107201,1,8,0:0:0:0:
256,192,107663,1,8,0:0:0:0:
256,192,108125,1,8,0:0:0:0:
256,192,108586,1,8,0:0:0:0:
256,192,108817,1,8,0:0:0:0:
256,192,109048,1,0,0:0:0:0:
256,192,109278,1,0,0:0:0:0:
256,192,109394,1,0,0:0:0:0:
256,192,109509,1,0,0:0:0:0:
256,192,109740,1,0,0:0:0:0:
256,192,109971,1,8,0:0:0:0:
256,192,110201,1,0,0:0:0:0:
256,192,110317,1,8,0:0:0:0:
256,192,110894,1,0,0:0:0:0:
256,192,112740,1,0,0:0:0:0:
256,192,114586,1,8,0:0:0:0:
256,192,115971,1,0,0:0:0:0:
256,192,116432,1,0,0:0:0:0:
256,192,118048,1,0,0:0:0:0:
256,192,118278,1,0,0:0:0:0:
256,192,118740,1,8,0:0:0:0:
256,192,118971,1,0,0:0:0:0:
256,192,119432,1,0,0:0:0:0:
256,192,119663,1,8,0:0:0:0:
256,192,119894,1,8,0:0:0:0:
256,192,120125,1,0,0:0:0:0:
256,192,120586,1,8,0:0:0:0:
256,192,120817,1,0,0:0:0:0:
256,192,121278,1,0,0:0:0:0:
256,192,121509,1,8,0:0:0:0:
256,192,121625,1,0,0:0:0:0:
256,192,121971,1,0,0:0:0:0:
256,192,122201,1,0,0:0:0:0:
256,192,122432,1,8,0:0:0:0:
256,192,122663,1,8,0:0:0:0:
256,192,123125,1,0,0:0:0:0:
256,192,123355,1,8,0:0:0:0:
256,192,123586,1,0,0:0:0:0:
256,192,123701,1,0,0:0:0:0:
256,192,123817,1,0,0:0:0:0:
256,192,124278,5,0,0:0:0:0:
256,192,124740,1,0,0:0:0:0:
256,192,124971,1,8,0:0:0:0:
256,192,125086,1,8,0:0:0:0:
256,192,125201,1,8,0:0:0:0:
256,192,125432,1,8,0:0:0:0:
384,96,125663,1,4,0:0:0:0:
384,96,126355,1,12,0:0:0:0:
256,192,126586,1,0,0:0:0:0:
256,192,126817,1,0,0:0:0:0:
256,192,126932,1,0,0:0:0:0:
256,192,127048,1,0,0:0:0:0:
256,192,127278,1,8,0:0:0:0:
256,192,127509,1,0,0:0:0:0:
384,96,128201,1,12,0:0:0:0:
256,192,128432,1,0,0:0:0:0:
256,192,128663,1,8,0:0:0:0:
256,192,128778,1,8,0:0:0:0:
256,192,128894,1,8,0:0:0:0:
256,192,129125,1,8,0:0:0:0:
256,192,129355,1,0,0:0:0:0:
256,192,129586,1,8,0:0:0:0:
256,192,130048,1,8,0:0:0:0:
256,192,130278,1,0,0:0:0:0:
256,192,130509,1,0,0:0:0:0:
256,192,130740,1,8,0:0:0:0:
256,192,130971,1,8,0:0:0:0:
256,192,131201,1,0,0:0:0:0:
256,192,131432,1,8,0:0:0:0:
256,192,131894,1,0,0:0:0:0:
256,192,132125,1,8,0:0:0:0:
256,192,132355,1,8,0:0:0:0:
256,192,132471,1,8,0:0:0:0:
256,192,132586,1,8,0:0:0:0:
256,192,132817,1,0,0:0:0:0:
384,96,133048,1,12,0:0:0:0:
256,192,133740,1,0,0:0:0:0:
256,192,134201,1,0,0:0:0:0:
256,192,134432,1,8,0:0:0:0:
256,192,134894,1,0,0:0:0:0:
256,192,135125,1,0,0:0:0:0:
256,192,135240,1,0,0:0:0:0:
256,192,135355,1,0,0:0:0:0:
256,192,135586,1,8,0:0:0:0:
256,192,135817,1,0,0:0:0:0:
256,192,136048,1,8,0:0:0:0:
256,192,136278,1,0,0:0:0:0:
256,192,136509,1,0,0:0:0:0:
256,192,136740,1,8,0:0:0:0:
256,192,137432,1,8,0:0:0:0:
256,192,137894,1,0,0:0:0:0:
256,192,138125,1,8,0:0:0:0:
256,192,138586,1,0,0:0:0:0:
256,192,138817,1,0,0:0:0:0:
256,192,138932,1,0,0:0:0:0:
256,192,139048,1,0,0:0:0:0:
256,192,139278,1,8,0:0:0:0:
256,192,139509,1,0,0:0:0:0:
256,192,139740,1,0,0:0:0:0:
256,192,139971,1,8,0:0:0:0:
256,192,140201,1,8,0:0:0:0:
384,96,140432,1,4,0:0:0:0:
256,192,140778,1,0,0:0:0:0:
256,192,141125,1,0,0:0:0:0:
256,192,141355,1,8,0:0:0:0:
256,192,141586,1,0,0:0:0:0:
256,192,142278,1,0,0:0:0:0:
256,192,142625,1,0,0:0:0:0:
256,192,142971,1,0,0:0:0:0:
256,192,143201,1,8,0:0:0:0:
256,192,143432,1,0,0:0:0:0:
256,192,143663,1,8,0:0:0:0:
256,192,143894,1,8,0:0:0:0:
256,192,144125,1,0,0:0:0:0:
256,192,144471,1,0,0:0:0:0:
256,192,144817,1,0,0:0:0:0:
256,192,145048,1,8,0:0:0:0:
256,192,145278,1,0,0:0:0:0:
256,192,145971,1,8,0:0:0:0:
256,192,146317,1,0,0:0:0:0:
256,192,146663,1,8,0:0:0:0:
256,192,147125,1,0,0:0:0:0:
256,192,147355,1,8,0:0:0:0:
256,192,147471,1,8,0:0:0:0:
256,192,147586,1,8,0:0:0:0:
384,96,147817,1,4,0:0:0:0:
256,192,148163,1,0,0:0:0:0:
256,192,148509,1,0,0:0:0:0:
256,192,148740,1,8,0:0:0:0:
256,192,148971,1,8,0:0:0:0:
256,192,149663,1,0,0:0:0:0:
256,192,150009,1,0,0:0:0:0:
256,192,150355,1,0,0:0:0:0:
256,192,150586,1,8,0:0:0:0:
256,192,150817,1,8,0:0:0:0:
256,192,151048,1,0,0:0:0:0:
256,192,151278,1,8,0:0:0:0:
256,192,151509,1,0,0:0:0:0:
256,192,151855,1,0,0:0:0:0:
256,192,152201,1,0,0:0:0:0:
256,192,152432,1,8,0:0:0:0:
256,192,152663,1,8,0:0:0:0:
256,192,153355,1,0,0:0:0:0:
256,192,153701,1,0,0:0:0:0:
256,192,154048,1,8,0:0:0:0:
256,192,154509,1,0,0:0:0:0:
256,192,154740,1,8,0:0:0:0:
384,96,155201,1,12,0:0:0:0:
256,192,155548,1,8,0:0:0:0:
256,192,155894,1,0,0:0:0:0:
256,192,156125,1,8,0:0:0:0:
256,192,156355,1,8,0:0:0:0:
256,192,156471,1,8,0:0:0:0:
256,192,156586,1,8,0:0:0:0:
256,192,157048,1,8,0:0:0:0:
256,192,157394,1,8,0:0:0:0:
256,192,157740,1,0,0:0:0:0:
256,192,157971,1,8,0:0:0:0:
256,192,158201,1,8,0:0:0:0:
256,192,158317,1,8,0:0:0:0:
256,192,158432,1,8,0:0:0:0:
256,192,158894,1,0,0:0:0:0:
256,192,159240,1,8,0:0:0:0:
256,192,159586,1,0,0:0:0:0:
256,192,159817,1,8,0:0:0:0:
256,192,160740,1,0,0:0:0:0:
256,192,161086,1,0,0:0:0:0:
256,192,161432,1,0,0:0:0:0:
256,192,161663,1,8,0:0:0:0:
256,192,161894,1,8,0:0:0:0:
256,192,162125,1,0,0:0:0:0:
256,192,162240,1,0,0:0:0:0:
256,192,162355,1,0,0:0:0:0:
384,96,162586,1,12,0:0:0:0:
256,192,162932,1,0,0:0:0:0:
256,192,163278,1,8,0:0:0:0:
256,192,163509,1,0,0:0:0:0:
256,192,163740,1,8,0:0:0:0:
256,192,163855,1,8,0:0:0:0:
256,192,163971,1,8,0:0:0:0:
256,192,164432,1,8,0:0:0:0:
256,192,164778,1,0,0:0:0:0:
256,192,165125,1,8,0:0:0:0:
256,192,165355,1,0,0:0:0:0:
256,192,165586,1,8,0:0:0:0:
256,192,165701,1,8,0:0:0:0:
256,192,165817,1,8,0:0:0:0:
256,192,166278,1,0,0:0:0:0:
256,192,166625,1,8,0:0:0:0:
256,192,166971,1,0,0:0:0:0:
256,192,167201,1,8,0:0:0:0:
256,192,168125,1,0,0:0:0:0:
256,192,168471,1,0,0:0:0:0:
256,192,168817,1,0,0:0:0:0:
256,192,169048,1,8,0:0:0:0:
256,192,169278,1,0,0:0:0:0:
256,192,169509,1,8,0:0:0:0:
256,192,169740,1,8,0:0:0:0:
256,192,169971,1,0,0:0:0:0:
