osu file format v14

[General]
AudioFilename: audio.mp3
AudioLeadIn: 0
PreviewTime: -1
Countdown: 0
SampleSet: Normal
StackLeniency: 0.7
Mode: 1
LetterboxInBreaks: 0
WidescreenStoryboard: 1

[Editor]
Bookmarks: 66806,74424,97753
DistanceSpacing: 0.8
BeatDivisor: 4
GridSize: 32
TimelineZoom: 1

[Metadata]
Title:GENTLEMAN
TitleUnicode:GENTLEMAN
Artist:PSY
ArtistUnicode:PSY
Creator:kvgyubh
Version:Oni
Source:
Tags:
BeatmapID:1503965
BeatmapSetID:711454

[Difficulty]
HPDrainRate:5
CircleSize:5
OverallDifficulty:5
ApproachRate:5
SliderMultiplier:1.4
SliderTickRate:1

[Events]
//Background and Video events
0,0,"psy_gentleman_by_jover_design-d61p38b.jpg",0,0
//Break Periods
//Storyboard Layer 0 (Background)
//Storyboard Layer 1 (Fail)
//Storyboard Layer 2 (Pass)
//Storyboard Layer 3 (Foreground)
//Storyboard Sound Samples

[TimingPoints]
150.784645183232,476.11112433642,4,1,0,80,1,0
44905,-35.7142857142857,4,1,0,80,0,0
45381,-100,4,1,0,80,0,0
53951,-95.2380952380952,4,1,0,80,0,0
54427,-90.9090909090909,4,1,0,80,0,0
54903,-86.9565217391304,4,1,0,80,0,0
55379,-83.3333333333333,4,1,0,80,0,0
55855,-80,4,1,0,80,0,0
56331,-76.9230769230769,4,1,0,80,0,0
56808,-74.0740740740741,4,1,0,80,0,0
57284,-71.4285714285714,4,1,0,80,0,0
57760,-68.9655172413793,4,1,0,80,0,0
58236,-66.6666666666667,4,1,0,80,0,0
58712,-64.5161290322581,4,1,0,80,0,0
59188,-62.5,4,1,0,80,0,0
60616,-33.3333333333333,4,1,0,80,0,0
61093,-86.9565217391304,4,1,0,90,0,0
66806,-86.9565217391304,4,1,0,90,0,1
68710,-86.9565217391304,4,1,0,90,0,0
74424,-86.9565217391304,4,1,0,90,0,1
76328,-100,4,1,0,80,0,0
107751,-35.7142857142857,4,1,0,80,0,0
108228,-100,4,1,0,80,0,0
116798,-95.2380952380952,4,1,0,80,0,0
117274,-90.9090909090909,4,1,0,80,0,0
117750,-86.9565217391304,4,1,0,80,0,0
118226,-83.3333333333333,4,1,0,80,0,0
118702,-80,4,1,0,80,0,0
119178,-76.9230769230769,4,1,0,80,0,0
119654,-74.0740740740741,4,1,0,80,0,0
120130,-71.4285714285714,4,1,0,80,0,0
120606,-68.9655172413793,4,1,0,80,0,0
121083,-66.6666666666667,4,1,0,80,0,0
121559,-64.5161290322581,4,1,0,80,0,0
122035,-62.5,4,1,0,80,0,0
123463,-33.3333333333333,4,1,0,80,0,0
123939,-86.9565217391304,4,1,0,90,0,0
129653,-86.9565217391304,4,1,0,90,0,1
131557,-86.9565217391304,4,1,0,90,0,0
137270,-86.9565217391304,4,1,0,90,0,1
139175,-133.333333333333,4,1,0,80,0,0
146793,-100,4,1,0,80,0,0
153458,-83.3333333333333,4,1,0,80,0,0
154410,-71.4285714285714,4,1,0,90,0,1
155363,-62.5,4,1,0,90,0,1
156315,-55.5555555555556,4,1,0,90,0,1
159648,-55.5555555555556,4,1,0,80,0,0
161552,-33.3333333333333,4,1,0,80,0,0
162028,-86.9565217391304,4,1,0,90,0,1
177264,-86.9565217391304,4,1,0,80,0,0

[HitObjects]
256,192,626,5,2,0:0:0:0:
256,192,1579,1,2,0:0:0:0:
256,192,2531,1,2,0:0:0:0:
256,192,3483,1,2,0:0:0:0:
256,192,4435,1,2,0:0:0:0:
256,192,5388,1,2,0:0:0:0:
256,192,6340,1,2,0:0:0:0:
256,192,7292,1,4,0:0:0:0:
256,192,7768,1,0,0:0:0:0:
256,192,8244,1,8,0:0:0:0:
256,192,8720,1,0,0:0:0:0:
256,192,9196,1,8,0:0:0:0:
256,192,9673,1,0,0:0:0:0:
256,192,10149,1,8,0:0:0:0:
256,192,10625,1,0,0:0:0:0:
256,192,10863,1,8,0:0:0:0:
256,192,11101,1,8,0:0:0:0:
256,192,11339,1,0,0:0:0:0:
256,192,11577,1,0,0:0:0:0:
256,192,12053,1,8,0:0:0:0:
256,192,12529,1,0,0:0:0:0:
256,192,13005,1,8,0:0:0:0:
256,192,13481,5,0,0:0:0:0:
256,192,14910,5,6,0:0:0:0:
256,192,15386,1,0,0:0:0:0:
256,192,15624,1,0,0:0:0:0:
256,192,15862,1,8,0:0:0:0:
256,192,16100,1,0,0:0:0:0:
256,192,16219,1,0,0:0:0:0:
256,192,16338,1,0,0:0:0:0:
256,192,16576,1,0,0:0:0:0:
256,192,16814,1,8,0:0:0:0:
256,192,17052,1,0,0:0:0:0:
256,192,17290,1,8,0:0:0:0:
256,192,17528,1,0,0:0:0:0:
256,192,17647,1,0,0:0:0:0:
256,192,17766,1,6,0:0:0:0:
256,192,18123,1,2,0:0:0:0:
256,192,18242,1,0,0:0:0:0:
256,192,18481,1,0,0:0:0:0:
256,192,18719,1,8,0:0:0:0:
256,192,18957,1,0,0:0:0:0:
256,192,19195,1,0,0:0:0:0:
256,192,19314,1,0,0:0:0:0:
256,192,19433,1,0,0:0:0:0:
256,192,19671,1,2,0:0:0:0:
256,192,19909,1,0,0:0:0:0:
256,192,20147,1,2,0:0:0:0:
256,192,20266,1,2,0:0:0:0:
256,192,20385,1,0,0:0:0:0:
256,192,20623,1,2,0:0:0:0:
256,192,20861,1,0,0:0:0:0:
256,192,21099,1,8,0:0:0:0:
256,192,21337,1,0,0:0:0:0:
256,192,21456,1,0,0:0:0:0:
256,192,21575,1,6,0:0:0:0:
256,192,21932,1,8,0:0:0:0:
256,192,22051,1,0,0:0:0:0:
256,192,22289,1,0,0:0:0:0:
256,192,22528,1,8,0:0:0:0:
256,192,22766,1,0,0:0:0:0:
256,192,22885,1,0,0:0:0:0:
256,192,23004,1,0,0:0:0:0:
256,192,23242,1,8,0:0:0:0:
256,192,23480,1,0,0:0:0:0:
256,192,23718,1,0,0:0:0:0:
256,192,23837,1,0,0:0:0:0:
256,192,23956,1,8,0:0:0:0:
256,192,24194,1,8,0:0:0:0:
256,192,24432,1,8,0:0:0:0:
256,192,24551,1,0,0:0:0:0:
256,192,24670,1,0,0:0:0:0:
256,192,24908,1,2,0:0:0:0:
256,192,25027,1,0,0:0:0:0:
256,192,25146,1,0,0:0:0:0:
256,192,25265,1,0,0:0:0:0:
256,192,25384,1,2,0:0:0:0:
256,192,25741,1,8,0:0:0:0:
256,192,25860,1,0,0:0:0:0:
256,192,26098,1,0,0:0:0:0:
256,192,26336,1,8,0:0:0:0:
256,192,26574,1,0,0:0:0:0:
256,192,26693,1,0,0:0:0:0:
256,192,26813,1,0,0:0:0:0:
256,192,27051,1,8,0:0:0:0:
256,192,27289,1,0,0:0:0:0:
256,192,27527,1,8,0:0:0:0:
256,192,27765,1,0,0:0:0:0:
256,192,27804,1,2,0:0:0:0:
256,192,28003,1,0,0:0:0:0:
256,192,28042,1,2,0:0:0:0:
256,192,28241,1,0,0:0:0:0:
256,192,28281,1,2,0:0:0:0:
256,192,28479,1,0,0:0:0:0:
256,192,28717,1,8,0:0:0:0:
256,192,28836,1,0,0:0:0:0:
256,192,28955,1,0,0:0:0:0:
256,192,29193,1,8,0:0:0:0:
256,192,29431,1,0,0:0:0:0:
256,192,29669,1,2,0:0:0:0:
256,192,29788,1,2,0:0:0:0:
256,192,29907,1,0,0:0:0:0:
256,192,30145,1,6,0:0:0:0:
256,192,30621,1,4,0:0:0:0:
256,192,30859,1,0,0:0:0:0:
256,192,31098,1,8,0:0:0:0:
256,192,31336,1,0,0:0:0:0:
256,192,31455,1,0,0:0:0:0:
256,192,31574,1,0,0:0:0:0:
256,192,31812,1,0,0:0:0:0:
256,192,32050,1,8,0:0:0:0:
256,192,32288,1,8,0:0:0:0:
256,192,32526,1,0,0:0:0:0:
256,192,32764,1,8,0:0:0:0:
256,192,32883,1,8,0:0:0:0:
256,192,33002,1,0,0:0:0:0:
256,192,33240,1,0,0:0:0:0:
256,192,33478,1,0,0:0:0:0:
256,192,33716,1,0,0:0:0:0:
256,192,33835,1,8,0:0:0:0:
256,192,33954,1,8,0:0:0:0:
256,192,34192,1,8,0:0:0:0:
256,192,34430,1,4,0:0:0:0:
256,192,34668,1,2,0:0:0:0:
256,192,35144,1,2,0:0:0:0:
256,192,35383,1,0,0:0:0:0:
256,192,35621,1,2,0:0:0:0:
256,192,35859,1,0,0:0:0:0:
256,192,36097,1,2,0:0:0:0:
256,192,36335,1,0,0:0:0:0:
256,192,36454,1,0,0:0:0:0:
256,192,36692,1,8,0:0:0:0:
256,192,36811,1,0,0:0:0:0:
256,192,37049,1,8,0:0:0:0:
256,192,37287,1,0,0:0:0:0:
256,192,37525,1,0,0:0:0:0:
256,192,37644,1,0,0:0:0:0:
256,192,37763,1,8,0:0:0:0:
256,192,38001,1,8,0:0:0:0:
256,192,38239,1,4,0:0:0:0:
256,192,38477,1,8,0:0:0:0:
256,192,38953,1,0,0:0:0:0:
256,192,39191,1,8,0:0:0:0:
256,192,39429,1,0,0:0:0:0:
256,192,39548,1,0,0:0:0:0:
256,192,39668,1,8,0:0:0:0:
256,192,39906,1,0,0:0:0:0:
256,192,40144,1,8,0:0:0:0:
256,192,40382,1,0,0:0:0:0:
256,192,40501,1,8,0:0:0:0:
256,192,40620,1,0,0:0:0:0:
256,192,40858,1,8,0:0:0:0:
256,192,41096,1,8,0:0:0:0:
256,192,41334,1,0,0:0:0:0:
256,192,41453,1,0,0:0:0:0:
256,192,41572,1,8,0:0:0:0:
256,192,41810,1,8,0:0:0:0:
256,192,42048,1,0,0:0:0:0:
256,192,42286,1,8,0:0:0:0:
256,192,42524,1,0,0:0:0:0:
256,192,42762,1,6,0:0:0:0:
256,192,43238,1,0,0:0:0:0:
256,192,43476,1,6,0:0:0:0:
256,192,43953,1,0,0:0:0:0:
256,192,44191,1,8,0:0:0:0:
256,192,44429,1,8,0:0:0:0:
256,192,44667,1,0,0:0:0:0:
256,192,44905,6,0,L|320:192,6,35
256,192,45381,5,6,0:0:0:0:
256,192,45857,1,0,0:0:0:0:
256,192,46214,1,2,0:0:0:0:
256,192,46333,1,0,0:0:0:0:
256,192,46690,1,2,0:0:0:0:
256,192,46809,1,0,0:0:0:0:
256,192,47166,1,2,0:0:0:0:
256,192,47285,1,0,0:0:0:0:
256,192,47761,1,4,0:0:0:0:
256,192,48118,1,2,0:0:0:0:
256,192,48238,1,0,0:0:0:0:
256,192,48595,1,2,0:0:0:0:
256,192,48714,1,0,0:0:0:0:
256,192,49071,1,2,0:0:0:0:
256,192,49190,1,0,0:0:0:0:
256,192,49428,1,6,0:0:0:0:
256,192,49666,1,0,0:0:0:0:
256,192,50023,1,2,0:0:0:0:
256,192,50142,1,0,0:0:0:0:
256,192,50499,1,2,0:0:0:0:
256,192,50618,1,0,0:0:0:0:
256,192,50975,1,2,0:0:0:0:
256,192,51094,1,0,0:0:0:0:
256,192,51570,1,4,0:0:0:0:
256,192,51927,1,2,0:0:0:0:
256,192,52046,1,0,0:0:0:0:
256,192,52403,1,2,0:0:0:0:
256,192,52523,1,0,0:0:0:0:
256,192,52761,1,0,0:0:0:0:
256,192,52999,1,6,0:0:0:0:
256,192,53475,1,0,0:0:0:0:
256,192,53713,1,8,0:0:0:0:
256,192,53832,1,0,0:0:0:0:
256,192,54070,1,8,0:0:0:0:
256,192,54189,1,0,0:0:0:0:
256,192,54546,1,0,0:0:0:0:
256,192,54665,1,2,0:0:0:0:
256,192,54784,1,2,0:0:0:0:
256,192,54903,1,2,0:0:0:0:
256,192,55141,1,2,0:0:0:0:
256,192,55260,1,2,0:0:0:0:
256,192,55379,1,0,0:0:0:0:
256,192,55617,1,2,0:0:0:0:
256,192,55736,1,0,0:0:0:0:
256,192,55974,1,2,0:0:0:0:
256,192,56093,1,0,0:0:0:0:
256,192,56331,1,2,0:0:0:0:
256,192,56449,1,0,0:0:0:0:
256,192,56569,1,2,0:0:0:0:
256,192,56688,1,2,0:0:0:0:
256,192,56927,1,0,0:0:0:0:
256,192,57046,1,2,0:0:0:0:
256,192,57165,1,0,0:0:0:0:
256,192,57284,1,2,0:0:0:0:
256,192,57403,1,0,0:0:0:0:
256,192,57522,1,0,0:0:0:0:
256,192,57641,1,0,0:0:0:0:
256,192,57760,1,0,0:0:0:0:
256,192,57879,1,0,0:0:0:0:
256,192,57998,1,2,0:0:0:0:
256,192,58117,1,2,0:0:0:0:
256,192,58236,1,2,0:0:0:0:
256,192,58355,1,2,0:0:0:0:
256,192,58474,1,2,0:0:0:0:
256,192,58593,1,2,0:0:0:0:
256,192,58712,1,2,0:0:0:0:
256,192,60616,5,4,0:0:0:0:
256,192,61093,1,0,0:0:0:0:
256,192,61569,1,8,0:0:0:0:
256,192,61807,1,8,0:0:0:0:
256,192,61926,1,8,0:0:0:0:
256,192,62045,1,0,0:0:0:0:
256,192,62283,1,0,0:0:0:0:
256,192,62521,1,6,0:0:0:0:
256,192,62759,1,0,0:0:0:0:
256,192,62997,1,0,0:0:0:0:
256,192,63235,1,8,0:0:0:0:
256,192,63473,1,0,0:0:0:0:
256,192,63711,1,8,0:0:0:0:
256,192,63830,1,8,0:0:0:0:
256,192,63949,1,0,0:0:0:0:
256,192,64187,1,6,0:0:0:0:
256,192,64425,1,6,0:0:0:0:
256,192,64663,1,4,0:0:0:0:
256,192,64901,1,0,0:0:0:0:
256,192,65378,1,8,0:0:0:0:
256,192,65616,1,8,0:0:0:0:
256,192,65735,1,8,0:0:0:0:
256,192,65854,1,0,0:0:0:0:
256,192,66092,1,0,0:0:0:0:
256,192,66330,1,8,0:0:0:0:
256,192,66449,1,8,0:0:0:0:
256,192,66568,1,0,0:0:0:0:
256,192,66806,1,0,0:0:0:0:
256,192,67044,1,2,0:0:0:0:
256,192,67282,1,2,0:0:0:0:
256,192,67520,1,0,0:0:0:0:
256,192,67758,1,6,0:0:0:0:
256,192,67996,1,4,0:0:0:0:
256,192,68234,1,6,0:0:0:0:
256,192,68710,1,0,0:0:0:0:
256,192,69186,1,8,0:0:0:0:
256,192,69424,1,8,0:0:0:0:
256,192,69543,1,8,0:0:0:0:
256,192,69663,1,0,0:0:0:0:
256,192,69901,1,0,0:0:0:0:
256,192,70139,1,6,0:0:0:0:
256,192,70377,1,0,0:0:0:0:
256,192,70615,1,0,0:0:0:0:
256,192,70853,1,8,0:0:0:0:
256,192,70972,1,8,0:0:0:0:
256,192,71091,1,0,0:0:0:0:
256,192,71329,1,8,0:0:0:0:
256,192,71567,1,0,0:0:0:0:
256,192,71805,1,6,0:0:0:0:
256,192,72043,1,6,0:0:0:0:
256,192,72281,1,4,0:0:0:0:
256,192,72519,1,0,0:0:0:0:
256,192,72995,1,8,0:0:0:0:
256,192,73233,1,8,0:0:0:0:
256,192,73352,1,8,0:0:0:0:
256,192,73471,1,0,0:0:0:0:
256,192,73709,1,0,0:0:0:0:
256,192,73948,1,8,0:0:0:0:
256,192,74186,1,0,0:0:0:0:
256,192,74424,1,6,0:0:0:0:
256,192,74662,1,4,0:0:0:0:
256,192,74900,1,6,0:0:0:0:
256,192,75138,1,4,0:0:0:0:
256,192,75376,1,4,0:0:0:0:
256,192,75614,1,4,0:0:0:0:
256,192,75852,1,6,0:0:0:0:
256,192,76328,1,0,0:0:0:0:
256,192,78233,1,0,0:0:0:0:
256,192,78709,1,8,0:0:0:0:
256,192,78947,1,0,0:0:0:0:
256,192,79185,1,0,0:0:0:0:
256,192,79423,1,0,0:0:0:0:
256,192,79542,1,0,0:0:0:0:
256,192,79661,1,0,0:0:0:0:
256,192,79899,1,8,0:0:0:0:
256,192,80137,1,0,0:0:0:0:
256,192,80375,1,0,0:0:0:0:
256,192,80494,1,0,0:0:0:0:
256,192,80613,1,2,0:0:0:0:
256,192,80970,1,8,0:0:0:0:
256,192,81089,1,0,0:0:0:0:
256,192,81327,1,0,0:0:0:0:
256,192,81565,1,8,0:0:0:0:
256,192,81803,1,8,0:0:0:0:
256,192,82041,1,0,0:0:0:0:
256,192,82160,1,0,0:0:0:0:
256,192,82279,1,0,0:0:0:0:
256,192,82518,1,8,0:0:0:0:
256,192,82756,1,0,0:0:0:0:
256,192,82994,1,8,0:0:0:0:
256,192,83113,1,0,0:0:0:0:
256,192,83232,1,0,0:0:0:0:
256,192,83470,1,2,0:0:0:0:
256,192,83708,1,2,0:0:0:0:
256,192,83946,1,0,0:0:0:0:
256,192,84184,1,2,0:0:0:0:
256,192,84303,1,2,0:0:0:0:
256,192,84422,1,0,0:0:0:0:
256,192,84779,1,2,0:0:0:0:
256,192,84898,1,0,0:0:0:0:
256,192,85136,1,0,0:0:0:0:
256,192,85374,1,2,0:0:0:0:
256,192,85612,1,2,0:0:0:0:
256,192,85850,1,0,0:0:0:0:
256,192,85969,1,0,0:0:0:0:
256,192,86088,1,0,0:0:0:0:
256,192,86326,1,2,0:0:0:0:
256,192,86445,1,2,0:0:0:0:
256,192,86564,1,0,0:0:0:0:
256,192,86803,1,0,0:0:0:0:
256,192,86922,1,8,0:0:0:0:
256,192,87041,1,0,0:0:0:0:
256,192,87279,1,8,0:0:0:0:
256,192,87398,1,0,0:0:0:0:
256,192,87517,1,0,0:0:0:0:
256,192,87755,1,8,0:0:0:0:
256,192,87993,1,0,0:0:0:0:
256,192,88231,1,8,0:0:0:0:
256,192,88588,1,0,0:0:0:0:
256,192,88707,1,0,0:0:0:0:
256,192,88945,1,0,0:0:0:0:
256,192,89183,1,8,0:0:0:0:
256,192,89421,1,0,0:0:0:0:
256,192,89659,1,2,0:0:0:0:
256,192,89778,1,2,0:0:0:0:
256,192,89897,1,2,0:0:0:0:
256,192,90135,1,0,0:0:0:0:
256,192,90254,1,0,0:0:0:0:
256,192,90373,1,2,0:0:0:0:
256,192,90611,1,0,0:0:0:0:
256,192,90730,1,2,0:0:0:0:
256,192,90849,1,2,0:0:0:0:
256,192,91088,1,2,0:0:0:0:
256,192,91207,1,0,0:0:0:0:
256,192,91326,1,2,0:0:0:0:
256,192,91564,1,0,0:0:0:0:
256,192,91802,1,2,0:0:0:0:
256,192,91921,1,2,0:0:0:0:
256,192,92040,1,0,0:0:0:0:
256,192,92278,1,0,0:0:0:0:
256,192,92516,1,0,0:0:0:0:
256,192,92635,1,0,0:0:0:0:
256,192,92754,1,0,0:0:0:0:
256,192,92992,1,8,0:0:0:0:
256,192,93468,1,4,0:0:0:0:
256,192,93944,1,8,0:0:0:0:
256,192,94182,1,0,0:0:0:0:
256,192,94420,1,0,0:0:0:0:
256,192,94539,1,2,0:0:0:0:
256,192,94658,1,0,0:0:0:0:
256,192,94896,1,0,0:0:0:0:
256,192,95134,1,8,0:0:0:0:
256,192,95373,1,2,0:0:0:0:
256,192,95492,1,0,0:0:0:0:
256,192,95611,1,0,0:0:0:0:
256,192,95849,1,2,0:0:0:0:
256,192,95968,1,0,0:0:0:0:
256,192,96087,1,0,0:0:0:0:
256,192,96206,1,0,0:0:0:0:
256,192,96325,1,2,0:0:0:0:
256,192,96682,1,0,0:0:0:0:
256,192,96801,1,2,0:0:0:0:
256,192,97039,1,2,0:0:0:0:
256,192,97277,1,4,0:0:0:0:
256,192,97515,1,2,0:0:0:0:
256,192,97753,1,0,0:0:0:0:
256,192,97872,1,0,0:0:0:0:
256,192,97991,1,2,0:0:0:0:
256,192,98229,1,2,0:0:0:0:
256,192,98348,1,0,0:0:0:0:
256,192,98467,1,0,0:0:0:0:
256,192,98586,1,2,0:0:0:0:
256,192,98705,1,0,0:0:0:0:
256,192,98943,1,2,0:0:0:0:
256,192,99181,1,0,0:0:0:0:
256,192,99419,1,0,0:0:0:0:
256,192,99538,1,2,0:0:0:0:
256,192,99658,1,2,0:0:0:0:
256,192,99896,1,0,0:0:0:0:
256,192,100134,1,2,0:0:0:0:
256,192,100372,1,0,0:0:0:0:
256,192,100491,1,0,0:0:0:0:
256,192,100610,1,2,0:0:0:0:
256,192,100848,1,8,0:0:0:0:
256,192,101086,1,0,0:0:0:0:
256,192,101443,1,8,0:0:0:0:
256,192,101562,1,0,0:0:0:0:
256,192,101800,1,0,0:0:0:0:
256,192,102038,1,0,0:0:0:0:
256,192,102157,1,0,0:0:0:0:
256,192,102276,1,2,0:0:0:0:
256,192,102395,1,0,0:0:0:0:
256,192,102514,1,0,0:0:0:0:
256,192,102752,1,0,0:0:0:0:
256,192,102990,1,0,0:0:0:0:
256,192,103109,1,0,0:0:0:0:
256,192,103228,1,8,0:0:0:0:
256,192,103466,1,8,0:0:0:0:
256,192,103704,1,8,0:0:0:0:
256,192,103823,1,2,0:0:0:0:
256,192,103943,1,0,0:0:0:0:
256,192,104181,1,0,0:0:0:0:
256,192,104300,1,0,0:0:0:0:
256,192,104419,1,8,0:0:0:0:
256,192,104657,1,8,0:0:0:0:
256,192,104895,1,0,0:0:0:0:
256,192,105252,1,8,0:0:0:0:
256,192,105371,1,0,0:0:0:0:
256,192,105609,1,6,0:0:0:0:
256,192,106085,1,0,0:0:0:0:
256,192,106204,1,0,0:0:0:0:
256,192,106323,1,8,0:0:0:0:
256,192,106561,1,0,0:0:0:0:
256,192,106799,1,2,0:0:0:0:
256,192,107037,1,0,0:0:0:0:
256,192,107275,1,8,0:0:0:0:
256,192,107513,1,0,0:0:0:0:
256,192,107751,6,0,L|320:192,6,35
256,192,108228,5,6,0:0:0:0:
256,192,108704,1,0,0:0:0:0:
256,192,109061,1,2,0:0:0:0:
256,192,109180,1,0,0:0:0:0:
256,192,109537,1,2,0:0:0:0:
256,192,109656,1,0,0:0:0:0:
256,192,110013,1,2,0:0:0:0:
256,192,110132,1,0,0:0:0:0:
256,192,110489,1,0,0:0:0:0:
256,192,110608,1,0,0:0:0:0:
256,192,110965,1,2,0:0:0:0:
256,192,111085,1,0,0:0:0:0:
256,192,111442,1,2,0:0:0:0:
256,192,111561,1,0,0:0:0:0:
256,192,111917,1,2,0:0:0:0:
256,192,112036,1,0,0:0:0:0:
256,192,112393,1,0,0:0:0:0:
256,192,112513,1,0,0:0:0:0:
256,192,112870,1,2,0:0:0:0:
256,192,112989,1,0,0:0:0:0:
256,192,113346,1,2,0:0:0:0:
256,192,113465,1,0,0:0:0:0:
256,192,113822,1,2,0:0:0:0:
256,192,113941,1,0,0:0:0:0:
256,192,114298,1,2,0:0:0:0:
256,192,114417,1,0,0:0:0:0:
256,192,114774,1,0,0:0:0:0:
256,192,114893,1,0,0:0:0:0:
256,192,115250,1,0,0:0:0:0:
256,192,115369,1,0,0:0:0:0:
256,192,115726,1,0,0:0:0:0:
256,192,115845,1,6,0:0:0:0:
256,192,116321,1,0,0:0:0:0:
256,192,116559,1,8,0:0:0:0:
256,192,116678,1,0,0:0:0:0:
256,192,116917,1,0,0:0:0:0:
256,192,117036,1,2,0:0:0:0:
256,192,117155,1,2,0:0:0:0:
256,192,117274,1,0,0:0:0:0:
256,192,117512,1,2,0:0:0:0:
256,192,117750,1,2,0:0:0:0:
256,192,117869,1,2,0:0:0:0:
256,192,117988,1,0,0:0:0:0:
256,192,118107,1,0,0:0:0:0:
256,192,118464,1,2,0:0:0:0:
256,192,118583,1,0,0:0:0:0:
256,192,118821,1,2,0:0:0:0:
256,192,118940,1,0,0:0:0:0:
256,192,119178,1,0,0:0:0:0:
256,192,119416,1,0,0:0:0:0:
256,192,119535,1,2,0:0:0:0:
256,192,119654,1,2,0:0:0:0:
256,192,119773,1,0,0:0:0:0:
256,192,119892,1,2,0:0:0:0:
256,192,120130,1,0,0:0:0:0:
256,192,120368,1,2,0:0:0:0:
256,192,120487,1,0,0:0:0:0:
256,192,120725,1,2,0:0:0:0:
256,192,120844,1,0,0:0:0:0:
256,192,121202,1,0,0:0:0:0:
256,192,121321,1,2,0:0:0:0:
256,192,121440,1,2,0:0:0:0:
256,192,121559,1,2,0:0:0:0:
256,192,121797,1,0,0:0:0:0:
256,192,123463,5,4,0:0:0:0:
256,192,123939,1,0,0:0:0:0:
256,192,124415,1,2,0:0:0:0:
256,192,124653,1,8,0:0:0:0:
256,192,124772,1,8,0:0:0:0:
256,192,124891,1,0,0:0:0:0:
256,192,125129,1,0,0:0:0:0:
256,192,125368,1,6,0:0:0:0:
256,192,125606,1,0,0:0:0:0:
256,192,125844,1,0,0:0:0:0:
256,192,126082,1,2,0:0:0:0:
256,192,126121,1,2,0:0:0:0:
256,192,126320,1,0,0:0:0:0:
256,192,126558,1,2,0:0:0:0:
256,192,126597,1,2,0:0:0:0:
256,192,126796,1,0,0:0:0:0:
256,192,127034,1,6,0:0:0:0:
256,192,127272,1,6,0:0:0:0:
256,192,127510,1,4,0:0:0:0:
256,192,127748,1,0,0:0:0:0:
256,192,128224,1,8,0:0:0:0:
256,192,128462,1,2,0:0:0:0:
256,192,128581,1,2,0:0:0:0:
256,192,128700,1,0,0:0:0:0:
256,192,128938,1,0,0:0:0:0:
256,192,129176,1,0,0:0:0:0:
256,192,129256,1,2,0:0:0:0:
256,192,129335,1,2,0:0:0:0:
256,192,129414,1,0,0:0:0:0:
256,192,129653,1,0,0:0:0:0:
256,192,129891,1,2,0:0:0:0:
256,192,130129,1,0,0:0:0:0:
256,192,130367,1,2,0:0:0:0:
256,192,130605,1,4,0:0:0:0:
256,192,130843,1,4,0:0:0:0:
256,192,131081,1,6,0:0:0:0:
256,192,131557,1,4,0:0:0:0:
256,192,132033,1,2,0:0:0:0:
256,192,132271,1,2,0:0:0:0:
256,192,132509,1,0,0:0:0:0:
256,192,132747,1,2,0:0:0:0:
256,192,132985,1,0,0:0:0:0:
256,192,133065,1,2,0:0:0:0:
256,192,133144,1,2,0:0:0:0:
256,192,133223,1,0,0:0:0:0:
256,192,133461,1,0,0:0:0:0:
256,192,133699,1,2,0:0:0:0:
256,192,133818,1,2,0:0:0:0:
256,192,133938,1,0,0:0:0:0:
256,192,134176,1,2,0:0:0:0:
256,192,134295,1,2,0:0:0:0:
256,192,134414,1,0,0:0:0:0:
256,192,134652,1,2,0:0:0:0:
256,192,134890,1,0,0:0:0:0:
256,192,134969,1,2,0:0:0:0:
256,192,135048,1,2,0:0:0:0:
256,192,135128,1,2,0:0:0:0:
256,192,135366,1,0,0:0:0:0:
256,192,135842,1,0,0:0:0:0:
256,192,136080,1,2,0:0:0:0:
256,192,136199,1,0,0:0:0:0:
256,192,136318,1,0,0:0:0:0:
256,192,136556,1,2,0:0:0:0:
256,192,136794,1,0,0:0:0:0:
256,192,136874,1,2,0:0:0:0:
256,192,136953,1,2,0:0:0:0:
256,192,137032,1,0,0:0:0:0:
256,192,137270,1,6,0:0:0:0:
256,192,137508,1,4,0:0:0:0:
256,192,137746,1,6,0:0:0:0:
256,192,137984,1,4,0:0:0:0:
256,192,138223,1,4,0:0:0:0:
256,192,138461,1,4,0:0:0:0:
256,192,138699,1,6,0:0:0:0:
256,192,139175,1,0,0:0:0:0:
256,192,139532,1,2,0:0:0:0:
256,192,139651,1,2,0:0:0:0:
256,192,140008,1,2,0:0:0:0:
256,192,140127,1,2,0:0:0:0:
256,192,140484,1,2,0:0:0:0:
256,192,140603,1,0,0:0:0:0:
256,192,140960,1,2,0:0:0:0:
256,192,141079,1,2,0:0:0:0:
256,192,141436,1,2,0:0:0:0:
256,192,141555,1,2,0:0:0:0:
256,192,141912,1,2,0:0:0:0:
256,192,142031,1,2,0:0:0:0:
256,192,142388,1,8,0:0:0:0:
256,192,142508,1,0,0:0:0:0:
256,192,142746,1,8,0:0:0:0:
256,192,142984,1,0,0:0:0:0:
256,192,143103,1,0,0:0:0:0:
256,192,143460,1,0,0:0:0:0:
256,192,143579,1,2,0:0:0:0:
256,192,143817,1,0,0:0:0:0:
256,192,143936,1,0,0:0:0:0:
256,192,144293,1,2,0:0:0:0:
256,192,144412,1,2,0:0:0:0:
256,192,144769,1,2,0:0:0:0:
256,192,144888,1,2,0:0:0:0:
256,192,145245,1,2,0:0:0:0:
256,192,145364,1,2,0:0:0:0:
256,192,145721,1,8,0:0:0:0:
256,192,145840,1,0,0:0:0:0:
256,192,146197,1,0,0:0:0:0:
256,192,146316,1,8,0:0:0:0:
256,192,146554,1,8,0:0:0:0:
256,192,146793,1,0,0:0:0:0:
256,192,147031,1,8,0:0:0:0:
256,192,147150,1,0,0:0:0:0:
256,192,147388,1,8,0:0:0:0:
256,192,147507,1,0,0:0:0:0:
256,192,147745,1,0,0:0:0:0:
256,192,147983,1,0,0:0:0:0:
256,192,148102,1,8,0:0:0:0:
256,192,148340,1,0,0:0:0:0:
256,192,148459,1,8,0:0:0:0:
256,192,148578,1,8,0:0:0:0:
256,192,148697,1,0,0:0:0:0:
256,192,148935,1,8,0:0:0:0:
256,192,149054,1,0,0:0:0:0:
256,192,149292,1,0,0:0:0:0:
256,192,149411,1,2,0:0:0:0:
256,192,149530,1,2,0:0:0:0:
256,192,149649,1,0,0:0:0:0:
256,192,149768,1,2,0:0:0:0:
256,192,150006,1,0,0:0:0:0:
256,192,150244,1,2,0:0:0:0:
256,192,150363,1,2,0:0:0:0:
256,192,150482,1,0,0:0:0:0:
256,192,150601,1,0,0:0:0:0:
256,192,150839,1,8,0:0:0:0:
256,192,150958,1,0,0:0:0:0:
256,192,151197,1,0,0:0:0:0:
256,192,151316,1,0,0:0:0:0:
256,192,151435,1,8,0:0:0:0:
256,192,151554,1,8,0:0:0:0:
256,192,151792,1,0,0:0:0:0:
256,192,151911,1,0,0:0:0:0:
256,192,152030,1,2,0:0:0:0:
256,192,152149,1,0,0:0:0:0:
256,192,152387,1,2,0:0:0:0:
256,192,152506,1,0,0:0:0:0:
256,192,152744,1,0,0:0:0:0:
256,192,152863,1,2,0:0:0:0:
256,192,152982,1,0,0:0:0:0:
256,192,153101,1,0,0:0:0:0:
256,192,153220,1,2,0:0:0:0:
256,192,153458,1,0,0:0:0:0:
256,192,153696,1,2,0:0:0:0:
256,192,153815,1,0,0:0:0:0:
256,192,153934,1,0,0:0:0:0:
256,192,154053,1,0,0:0:0:0:
256,192,154172,1,2,0:0:0:0:
256,192,154410,1,0,0:0:0:0:
256,192,154648,1,2,0:0:0:0:
256,192,154767,1,0,0:0:0:0:
256,192,154886,1,0,0:0:0:0:
256,192,155005,1,0,0:0:0:0:
256,192,155124,1,2,0:0:0:0:
256,192,155363,1,0,0:0:0:0:
256,192,155601,1,2,0:0:0:0:
256,192,155720,1,0,0:0:0:0:
256,192,155839,1,0,0:0:0:0:
256,192,155958,1,2,0:0:0:0:
256,192,156077,1,2,0:0:0:0:
256,192,156315,1,0,0:0:0:0:
256,192,156434,1,0,0:0:0:0:
256,192,156553,1,2,0:0:0:0:
256,192,156672,1,2,0:0:0:0:
256,192,156791,1,0,0:0:0:0:
256,192,156910,1,0,0:0:0:0:
256,192,157029,1,2,0:0:0:0:
256,192,157148,1,2,0:0:0:0:
256,192,157267,1,0,0:0:0:0:
256,192,157386,1,0,0:0:0:0:
256,192,157505,1,2,0:0:0:0:
256,192,157624,1,2,0:0:0:0:
256,192,157743,1,0,0:0:0:0:
256,192,157862,1,0,0:0:0:0:
256,192,157981,1,2,0:0:0:0:
256,192,158100,1,2,0:0:0:0:
256,192,158219,1,0,0:0:0:0:
256,192,158299,1,0,0:0:0:0:
256,192,158378,1,0,0:0:0:0:
256,192,158457,1,0,0:0:0:0:
256,192,158537,1,0,0:0:0:0:
256,192,158616,1,0,0:0:0:0:
256,192,158695,1,0,0:0:0:0:
256,192,158775,1,0,0:0:0:0:
256,192,158854,1,0,0:0:0:0:
256,192,158933,1,2,0:0:0:0:
256,192,159013,1,2,0:0:0:0:
256,192,159092,1,2,0:0:0:0:
256,192,159171,1,2,0:0:0:0:
256,192,159251,1,2,0:0:0:0:
256,192,159330,1,2,0:0:0:0:
256,192,159409,1,2,0:0:0:0:
256,192,159489,1,2,0:0:0:0:
256,192,159568,1,2,0:0:0:0:
256,192,159648,1,2,0:0:0:0:
256,192,161552,1,4,0:0:0:0:
256,192,162028,1,0,0:0:0:0:
256,192,162504,1,8,0:0:0:0:
256,192,162742,1,8,0:0:0:0:
256,192,162861,1,8,0:0:0:0:
256,192,162980,1,0,0:0:0:0:
256,192,163218,1,0,0:0:0:0:
256,192,163456,1,6,0:0:0:0:
256,192,163694,1,0,0:0:0:0:
256,192,163933,1,0,0:0:0:0:
256,192,164171,1,8,0:0:0:0:
256,192,164290,1,8,0:0:0:0:
256,192,164409,1,0,0:0:0:0:
256,192,164647,1,8,0:0:0:0:
256,192,164766,1,8,0:0:0:0:
256,192,164885,1,0,0:0:0:0:
256,192,165123,1,6,0:0:0:0:
256,192,165361,1,6,0:0:0:0:
256,192,165599,1,4,0:0:0:0:
256,192,165837,1,0,0:0:0:0:
256,192,166313,1,8,0:0:0:0:
256,192,166551,1,8,0:0:0:0:
256,192,166670,1,8,0:0:0:0:
256,192,166789,1,0,0:0:0:0:
256,192,167027,1,0,0:0:0:0:
256,192,167265,1,0,0:0:0:0:
256,192,167345,1,2,0:0:0:0:
256,192,167424,1,2,0:0:0:0:
256,192,167503,1,0,0:0:0:0:
256,192,167741,1,0,0:0:0:0:
256,192,167979,1,2,0:0:0:0:
256,192,168218,1,0,0:0:0:0:
256,192,168456,1,2,0:0:0:0:
256,192,168694,1,4,0:0:0:0:
256,192,168932,1,4,0:0:0:0:
256,192,169170,1,6,0:0:0:0:
256,192,169646,1,4,0:0:0:0:
256,192,170122,1,2,0:0:0:0:
256,192,170360,1,2,0:0:0:0:
256,192,170479,1,2,0:0:0:0:
256,192,170598,1,0,0:0:0:0:
256,192,170836,1,0,0:0:0:0:
256,192,171074,1,6,0:0:0:0:
256,192,171312,1,0,0:0:0:0:
256,192,171550,1,0,0:0:0:0:
256,192,171590,1,0,0:0:0:0:
256,192,171788,1,2,0:0:0:0:
256,192,172026,1,0,0:0:0:0:
256,192,172066,1,0,0:0:0:0:
256,192,172264,1,2,0:0:0:0:
256,192,172503,1,0,0:0:0:0:
256,192,172741,1,2,0:0:0:0:
256,192,172979,1,0,0:0:0:0:
256,192,173098,1,2,0:0:0:0:
256,192,173217,1,2,0:0:0:0:
256,192,173455,1,0,0:0:0:0:
256,192,173931,1,2,0:0:0:0:
256,192,174169,1,2,0:0:0:0:
256,192,174288,1,0,0:0:0:0:
256,192,174407,1,0,0:0:0:0:
256,192,174645,1,0,0:0:0:0:
256,192,174883,1,0,0:0:0:0:
256,192,174962,1,2,0:0:0:0:
256,192,175042,1,2,0:0:0:0:
256,192,175121,1,0,0:0:0:0:
256,192,175359,1,6,0:0:0:0:
256,192,175597,1,4,0:0:0:0:
256,192,175835,1,6,0:0:0:0:
256,192,176073,1,4,0:0:0:0:
256,192,176311,1,4,0:0:0:0:
256,192,176549,1,4,0:0:0:0:
256,192,176788,1,6,0:0:0:0:
256,192,177264,1,0,0:0:0:0:
256,192,177383,1,2,0:0:0:0:
256,192,177502,1,2,0:0:0:0:
256,192,177740,1,0,0:0:0:0:
256,192,177978,1,2,0:0:0:0:
256,192,178097,1,2,0:0:0:0:
256,192,178216,1,2,0:0:0:0:
256,192,178454,1,0,0:0:0:0:
256,192,178692,1,2,0:0:0:0:
256,192,178771,1,2,0:0:0:0:
256,192,178851,1,2,0:0:0:0:
256,192,178930,1,0,0:0:0:0:
256,192,179168,1,0,0:0:0:0:
256,192,179406,1,2,0:0:0:0:
256,192,179525,1,2,0:0:0:0:
256,192,179644,1,2,0:0:0:0:
256,192,179882,1,2,0:0:0:0:
256,192,180001,1,0,0:0:0:0:
256,192,180120,1,2,0:0:0:0:
256,192,180358,1,8,0:0:0:0:
256,192,180596,1,0,0:0:0:0:
256,192,180676,1,2,0:0:0:0:
256,192,180755,1,2,0:0:0:0:
256,192,180834,1,0,0:0:0:0:
256,192,181073,1,2,0:0:0:0:
256,192,181192,1,2,0:0:0:0:
256,192,181311,1,2,0:0:0:0:
256,192,181549,1,0,0:0:0:0:
256,192,181787,1,2,0:0:0:0:
256,192,181906,1,2,0:0:0:0:
256,192,182025,1,2,0:0:0:0:
256,192,182263,1,8,0:0:0:0:
256,192,182501,1,0,0:0:0:0:
256,192,182580,1,2,0:0:0:0:
256,192,182660,1,2,0:0:0:0:
256,192,182739,1,0,0:0:0:0:
256,192,182977,1,0,0:0:0:0:
256,192,183215,1,0,0:0:0:0:
256,192,183453,1,0,0:0:0:0:
256,192,183691,1,2,0:0:0:0:
256,192,183929,1,4,0:0:0:0:
256,192,184167,1,4,0:0:0:0:
256,192,184405,1,6,0:0:0:0:
256,192,184881,1,0,0:0:0:0:
256,192,185000,1,2,0:0:0:0:
256,192,185119,1,2,0:0:0:0:
256,192,185358,1,0,0:0:0:0:
256,192,185596,1,2,0:0:0:0:
256,192,185715,1,2,0:0:0:0:
256,192,185834,1,0,0:0:0:0:
256,192,186072,1,8,0:0:0:0:
256,192,186310,1,0,0:0:0:0:
256,192,186389,1,2,0:0:0:0:
256,192,186468,1,2,0:0:0:0:
256,192,186548,1,2,0:0:0:0:
256,192,186786,1,0,0:0:0:0:
256,192,187024,1,8,0:0:0:0:
256,192,187143,1,8,0:0:0:0:
256,192,187262,1,8,0:0:0:0:
256,192,187500,1,8,0:0:0:0:
256,192,187619,1,0,0:0:0:0:
256,192,187738,1,8,0:0:0:0:
256,192,187976,1,8,0:0:0:0:
256,192,188214,1,0,0:0:0:0:
256,192,188294,1,2,0:0:0:0:
256,192,188373,1,2,0:0:0:0:
256,192,188452,1,0,0:0:0:0:
256,192,188690,1,8,0:0:0:0:
256,192,188809,1,8,0:0:0:0:
256,192,188928,1,8,0:0:0:0:
256,192,189166,1,0,0:0:0:0:
256,192,189404,1,0,0:0:0:0:
256,192,189523,1,2,0:0:0:0:
256,192,189643,1,2,0:0:0:0:
256,192,189881,1,0,0:0:0:0:
256,192,190119,1,8,0:0:0:0:
256,192,190238,1,8,0:0:0:0:
256,192,190357,1,0,0:0:0:0:
256,192,190595,1,0,0:0:0:0:
